osu file format v14

[General]
AudioFilename: audio.mp3
AudioLeadIn: 0
PreviewTime: 117577
Countdown: 1
SampleSet: Normal
StackLeniency: 0.7
Mode: 1
LetterboxInBreaks: 0
WidescreenStoryboard: 0

[Editor]
Bookmarks: 10027,29227,48427,58027,79627,89227,98827,108427,118027,137227,158827
DistanceSpacing: 0.8
BeatDivisor: 4
GridSize: 32
TimelineZoom: 2.7

[Metadata]
Title:Mousou Kajitsu
TitleUnicode:妄想果実
Artist:Nanaki feat.GUMI
ArtistUnicode:七希 feat.GUMI
Creator:Chromoxx
Version:Delusional Fantasy
Source:
Tags:GUMI vocaloid Tomisaka hardcore Fancies Fruit diva megpoid トミサカ
BeatmapID:1273614
BeatmapSetID:602993

[Difficulty]
HPDrainRate:6
CircleSize:5
OverallDifficulty:7
ApproachRate:5
SliderMultiplier:1.4
SliderTickRate:1

[Events]
//Background and Video events
0,0,"EXyGpu1.jpg",0,100
Video,43,"kajitsu.avi"
//Break Periods
//Storyboard Layer 0 (Background)
//Storyboard Layer 1 (Fail)
//Storyboard Layer 2 (Pass)
//Storyboard Layer 3 (Foreground)
//Storyboard Sound Samples

[TimingPoints]
427,300,4,1,0,90,1,0
7627,-100,4,1,0,60,0,0
9952,-100,4,1,0,90,0,0
58027,-100,4,1,0,100,0,1
79627,-100,4,1,0,100,0,0
79777,-100,4,1,0,90,0,0
88027,-100,4,1,0,60,0,0
89152,-100,4,1,0,90,0,0
118027,-100,4,1,0,100,0,1
137227,-100,4,1,0,100,0,0
137527,-100,4,1,0,100,0,1
158827,-100,4,1,0,100,0,0

[HitObjects]
160,192,427,5,4,0:0:0:0:
192,192,727,1,8,0:0:0:0:
288,160,877,1,8,0:0:0:0:
224,160,1027,1,0,0:0:0:0:
160,160,1102,1,0,0:0:0:0:
224,160,1177,1,0,0:0:0:0:
160,160,1327,1,8,0:0:0:0:
352,128,1477,1,0,0:0:0:0:
352,128,1777,1,0,0:0:0:0:
320,128,1927,1,8,0:0:0:0:
192,160,2077,1,0,0:0:0:0:
192,160,2152,1,0,0:0:0:0:
160,160,2227,1,8,0:0:0:0:
256,192,2377,1,0,0:0:0:0:
288,224,2527,1,8,0:0:0:0:
352,160,2827,1,4,0:0:0:0:
320,160,2977,1,0,0:0:0:0:
224,128,3127,1,8,0:0:0:0:
224,128,3277,1,0,0:0:0:0:
224,128,3427,1,8,0:0:0:0:
224,128,3502,1,8,0:0:0:0:
224,128,3577,1,0,0:0:0:0:
256,224,3727,1,8,0:0:0:0:
320,192,3877,1,0,0:0:0:0:
352,192,4177,1,0,0:0:0:0:
352,192,4327,1,8,0:0:0:0:
288,256,4477,1,0,0:0:0:0:
288,224,4627,1,8,0:0:0:0:
288,192,4702,1,0,0:0:0:0:
224,192,4777,1,0,0:0:0:0:
224,192,4852,1,8,0:0:0:0:
224,192,4927,1,8,0:0:0:0:
256,160,5002,1,0,0:0:0:0:
224,160,5077,1,8,0:0:0:0:
288,192,5227,1,4,0:0:0:0:
224,192,5527,1,8,0:0:0:0:
288,224,5677,1,8,0:0:0:0:
288,224,5827,1,0,0:0:0:0:
288,224,5902,1,0,0:0:0:0:
288,224,5977,1,0,0:0:0:0:
192,224,6127,1,8,0:0:0:0:
192,224,6277,1,0,0:0:0:0:
256,192,6427,1,8,0:0:0:0:
256,192,6502,1,8,0:0:0:0:
224,160,6577,1,0,0:0:0:0:
256,160,6727,1,8,0:0:0:0:
256,160,6877,1,0,0:0:0:0:
256,160,6952,1,0,0:0:0:0:
256,160,7027,1,8,0:0:0:0:
160,192,7177,1,0,0:0:0:0:
288,160,7327,1,8,0:0:0:0:
256,224,7627,1,0,0:0:0:0:
288,192,10027,1,4,0:0:0:0:
288,256,10327,1,8,0:0:0:0:
288,256,10477,1,8,0:0:0:0:
320,256,10627,1,0,0:0:0:0:
288,224,10702,1,0,0:0:0:0:
288,224,10777,1,0,0:0:0:0:
320,160,10927,1,8,0:0:0:0:
256,224,11077,1,0,0:0:0:0:
224,192,11152,1,0,0:0:0:0:
320,224,11227,1,8,0:0:0:0:
320,224,11302,1,8,0:0:0:0:
320,128,11377,1,0,0:0:0:0:
256,128,11527,1,8,0:0:0:0:
256,128,11677,1,8,0:0:0:0:
192,128,11827,1,0,0:0:0:0:
192,288,11902,1,0,0:0:0:0:
224,160,11977,1,8,0:0:0:0:
256,160,12052,1,0,0:0:0:0:
256,160,12127,1,8,0:0:0:0:
192,128,12202,1,8,0:0:0:0:
192,224,12277,1,0,0:0:0:0:
352,224,12427,1,8,0:0:0:0:
384,256,12577,1,0,0:0:0:0:
384,256,12652,1,0,0:0:0:0:
288,224,12727,1,8,0:0:0:0:
320,192,12877,1,8,0:0:0:0:
288,160,13027,1,0,0:0:0:0:
256,192,13102,1,0,0:0:0:0:
192,160,13177,1,0,0:0:0:0:
256,192,13327,1,8,0:0:0:0:
256,160,13477,1,0,0:0:0:0:
256,160,13552,1,0,0:0:0:0:
256,160,13627,1,8,0:0:0:0:
256,160,13702,1,8,0:0:0:0:
256,160,13777,1,0,0:0:0:0:
352,192,13927,1,8,0:0:0:0:
352,192,14077,1,8,0:0:0:0:
352,192,14227,1,0,0:0:0:0:
224,288,14302,1,8,0:0:0:0:
256,320,14377,1,8,0:0:0:0:
288,224,14452,1,0,0:0:0:0:
256,224,14527,1,8,0:0:0:0:
224,192,14602,1,8,0:0:0:0:
224,192,14677,1,0,0:0:0:0:
224,224,14827,1,8,0:0:0:0:
256,224,14977,1,0,0:0:0:0:
192,192,15052,1,0,0:0:0:0:
288,192,15127,1,0,0:0:0:0:
320,192,15277,1,8,0:0:0:0:
320,192,15427,1,0,0:0:0:0:
288,160,15502,1,0,0:0:0:0:
256,160,15577,1,8,0:0:0:0:
256,160,15727,1,0,0:0:0:0:
288,160,15877,1,8,0:0:0:0:
224,192,15952,1,8,0:0:0:0:
224,192,16027,1,8,0:0:0:0:
224,192,16102,1,8,0:0:0:0:
224,160,16177,1,0,0:0:0:0:
160,192,16327,1,8,0:0:0:0:
224,160,16477,1,8,0:0:0:0:
224,160,16627,1,0,0:0:0:0:
64,192,16702,1,0,0:0:0:0:
256,192,16777,1,8,0:0:0:0:
256,192,16852,1,0,0:0:0:0:
256,192,16927,1,8,0:0:0:0:
256,192,17002,1,8,0:0:0:0:
224,192,17077,1,0,0:0:0:0:
224,192,17227,1,8,0:0:0:0:
320,256,17377,1,0,0:0:0:0:
320,256,17452,1,0,0:0:0:0:
288,224,17527,1,8,0:0:0:0:
224,192,17677,1,8,0:0:0:0:
288,192,17827,1,0,0:0:0:0:
224,160,17902,1,0,0:0:0:0:
288,192,17977,1,0,0:0:0:0:
288,160,18127,1,8,0:0:0:0:
192,192,18277,1,0,0:0:0:0:
224,192,18352,1,0,0:0:0:0:
288,128,18427,1,8,0:0:0:0:
256,160,18502,1,8,0:0:0:0:
224,160,18577,1,0,0:0:0:0:
320,160,18727,1,8,0:0:0:0:
288,160,18877,1,0,0:0:0:0:
320,160,18952,1,0,0:0:0:0:
320,160,19027,1,8,0:0:0:0:
320,192,19102,1,0,0:0:0:0:
224,160,19177,1,0,0:0:0:0:
224,160,19252,1,8,0:0:0:0:
224,160,19327,1,8,0:0:0:0:
224,160,19402,1,0,0:0:0:0:
224,160,19477,1,8,0:0:0:0:
288,192,19627,1,4,0:0:0:0:
288,256,19927,1,8,0:0:0:0:
288,256,20077,1,8,0:0:0:0:
320,256,20227,1,0,0:0:0:0:
288,224,20302,1,0,0:0:0:0:
288,224,20377,1,0,0:0:0:0:
320,160,20527,1,8,0:0:0:0:
256,224,20677,1,0,0:0:0:0:
224,192,20752,1,0,0:0:0:0:
320,224,20827,1,8,0:0:0:0:
320,224,20902,1,8,0:0:0:0:
320,128,20977,1,0,0:0:0:0:
256,128,21127,1,8,0:0:0:0:
256,128,21277,1,8,0:0:0:0:
192,128,21427,1,0,0:0:0:0:
192,288,21502,1,0,0:0:0:0:
224,160,21577,1,8,0:0:0:0:
256,160,21652,1,0,0:0:0:0:
256,160,21727,1,8,0:0:0:0:
192,128,21802,1,8,0:0:0:0:
192,224,21877,1,0,0:0:0:0:
352,224,22027,1,8,0:0:0:0:
384,256,22177,1,0,0:0:0:0:
384,256,22252,1,0,0:0:0:0:
288,224,22327,1,8,0:0:0:0:
320,192,22477,1,8,0:0:0:0:
288,160,22627,1,0,0:0:0:0:
256,192,22702,1,0,0:0:0:0:
192,160,22777,1,0,0:0:0:0:
256,192,22927,1,8,0:0:0:0:
256,160,23077,1,0,0:0:0:0:
256,160,23152,1,0,0:0:0:0:
256,160,23227,1,8,0:0:0:0:
256,160,23302,1,8,0:0:0:0:
256,160,23377,1,0,0:0:0:0:
352,192,23527,1,8,0:0:0:0:
352,192,23677,1,8,0:0:0:0:
352,192,23827,1,0,0:0:0:0:
224,288,23902,1,8,0:0:0:0:
256,320,23977,1,8,0:0:0:0:
288,224,24052,1,0,0:0:0:0:
256,224,24127,1,8,0:0:0:0:
224,192,24202,1,8,0:0:0:0:
224,192,24277,1,0,0:0:0:0:
224,224,24427,1,8,0:0:0:0:
256,224,24577,1,0,0:0:0:0:
192,192,24652,1,0,0:0:0:0:
288,192,24727,1,0,0:0:0:0:
320,192,24877,1,8,0:0:0:0:
320,192,25027,1,0,0:0:0:0:
288,160,25102,1,0,0:0:0:0:
256,160,25177,1,8,0:0:0:0:
256,160,25327,1,0,0:0:0:0:
288,160,25477,1,8,0:0:0:0:
224,192,25552,1,8,0:0:0:0:
224,192,25627,1,8,0:0:0:0:
224,192,25702,1,8,0:0:0:0:
224,160,25777,1,0,0:0:0:0:
160,192,25927,1,8,0:0:0:0:
224,160,26077,1,8,0:0:0:0:
224,160,26227,1,0,0:0:0:0:
64,192,26302,1,0,0:0:0:0:
256,192,26377,1,8,0:0:0:0:
256,192,26452,1,0,0:0:0:0:
256,192,26527,1,8,0:0:0:0:
256,192,26602,1,8,0:0:0:0:
224,192,26677,1,0,0:0:0:0:
224,192,26827,1,8,0:0:0:0:
320,256,26977,1,0,0:0:0:0:
320,256,27052,1,0,0:0:0:0:
288,224,27127,1,8,0:0:0:0:
224,192,27277,1,8,0:0:0:0:
288,192,27427,1,0,0:0:0:0:
224,160,27502,1,0,0:0:0:0:
288,192,27577,1,0,0:0:0:0:
288,160,27727,1,8,0:0:0:0:
192,192,27877,1,0,0:0:0:0:
224,192,27952,1,0,0:0:0:0:
288,128,28027,1,8,0:0:0:0:
256,160,28102,1,8,0:0:0:0:
224,160,28177,1,0,0:0:0:0:
320,160,28327,1,8,0:0:0:0:
288,160,28477,1,0,0:0:0:0:
320,160,28552,1,0,0:0:0:0:
320,160,28627,1,8,0:0:0:0:
320,192,28702,1,0,0:0:0:0:
224,160,28777,1,0,0:0:0:0:
224,160,28852,1,8,0:0:0:0:
224,160,28927,1,8,0:0:0:0:
224,160,29002,1,0,0:0:0:0:
224,160,29077,1,8,0:0:0:0:
224,192,29227,1,4,0:0:0:0:
352,192,29527,1,8,0:0:0:0:
320,192,29827,1,0,0:0:0:0:
320,192,29977,1,0,0:0:0:0:
320,192,30127,1,8,0:0:0:0:
224,224,30277,1,8,0:0:0:0:
256,160,30427,1,0,0:0:0:0:
256,160,30577,1,0,0:0:0:0:
288,192,30727,1,8,0:0:0:0:
288,192,30877,1,0,0:0:0:0:
320,160,31027,1,8,0:0:0:0:
288,160,31177,1,8,0:0:0:0:
320,160,31327,1,0,0:0:0:0:
320,160,31477,1,8,0:0:0:0:
320,160,31627,1,0,0:0:0:0:
288,224,31777,1,8,0:0:0:0:
288,224,31927,1,8,0:0:0:0:
288,224,32077,1,0,0:0:0:0:
288,224,32227,1,8,0:0:0:0:
256,192,32377,1,0,0:0:0:0:
256,192,32527,1,8,0:0:0:0:
256,192,32677,1,8,0:0:0:0:
256,160,32827,1,0,0:0:0:0:
256,160,32977,1,0,0:0:0:0:
256,160,33127,1,8,0:0:0:0:
256,128,33427,1,0,0:0:0:0:
256,128,33577,1,0,0:0:0:0:
256,128,33727,1,8,0:0:0:0:
256,128,34027,1,0,0:0:0:0:
288,128,34177,1,0,0:0:0:0:
224,224,34327,1,8,0:0:0:0:
256,192,34477,1,0,0:0:0:0:
256,192,34627,1,8,0:0:0:0:
256,192,34777,1,8,0:0:0:0:
192,128,34927,1,0,0:0:0:0:
352,160,35077,1,0,0:0:0:0:
320,224,35227,1,8,0:0:0:0:
320,224,35377,1,0,0:0:0:0:
320,224,35527,1,8,0:0:0:0:
320,224,35677,1,8,0:0:0:0:
288,224,35827,1,0,0:0:0:0:
192,256,35977,1,0,0:0:0:0:
192,256,36127,1,8,0:0:0:0:
224,224,36277,1,8,0:0:0:0:
288,224,36427,1,0,0:0:0:0:
288,224,36577,1,8,0:0:0:0:
288,224,36727,1,8,0:0:0:0:
288,224,36877,1,0,0:0:0:0:
288,224,37027,1,8,0:0:0:0:
288,224,37177,1,0,0:0:0:0:
288,224,37327,1,8,0:0:0:0:
288,224,37477,1,8,0:0:0:0:
288,192,37627,1,0,0:0:0:0:
288,192,38227,1,8,0:0:0:0:
288,192,38827,1,4,0:0:0:0:
288,224,39127,1,8,0:0:0:0:
288,224,39277,1,0,0:0:0:0:
192,192,39352,1,0,0:0:0:0:
288,224,39427,1,0,0:0:0:0:
224,288,39577,1,0,0:0:0:0:
224,288,39727,1,8,0:0:0:0:
224,288,39877,1,0,0:0:0:0:
288,256,40027,1,8,0:0:0:0:
288,256,40177,1,8,0:0:0:0:
352,256,40327,1,0,0:0:0:0:
224,96,40477,1,8,0:0:0:0:
224,96,40627,1,0,0:0:0:0:
224,96,40702,1,0,0:0:0:0:
224,128,40777,1,0,0:0:0:0:
352,256,40927,1,8,0:0:0:0:
352,256,41077,1,8,0:0:0:0:
288,256,41227,1,0,0:0:0:0:
256,224,41377,1,8,0:0:0:0:
256,224,41527,1,8,0:0:0:0:
320,224,41677,1,0,0:0:0:0:
320,224,41827,1,8,0:0:0:0:
224,224,41902,1,8,0:0:0:0:
320,224,41977,1,0,0:0:0:0:
224,192,42127,1,8,0:0:0:0:
224,192,42277,1,8,0:0:0:0:
288,192,42427,1,0,0:0:0:0:
288,192,42727,1,8,0:0:0:0:
288,192,42877,1,0,0:0:0:0:
256,192,42952,1,0,0:0:0:0:
288,192,43027,1,0,0:0:0:0:
224,192,43177,1,0,0:0:0:0:
224,192,43327,1,8,0:0:0:0:
192,192,43627,1,0,0:0:0:0:
192,192,43777,1,0,0:0:0:0:
192,192,43927,1,8,0:0:0:0:
192,192,44077,1,0,0:0:0:0:
160,192,44152,1,0,0:0:0:0:
192,192,44227,1,8,0:0:0:0:
192,192,44377,1,0,0:0:0:0:
160,192,44527,1,8,0:0:0:0:
352,160,44677,1,8,0:0:0:0:
224,192,44827,1,0,0:0:0:0:
256,256,44977,1,0,0:0:0:0:
256,256,45127,1,8,0:0:0:0:
128,288,45277,1,0,0:0:0:0:
224,288,45427,1,8,0:0:0:0:
160,256,45502,1,8,0:0:0:0:
160,256,45577,1,0,0:0:0:0:
288,256,45727,1,8,0:0:0:0:
288,256,45877,1,8,0:0:0:0:
384,256,46027,1,0,0:0:0:0:
384,256,46177,1,0,0:0:0:0:
320,256,46327,1,8,0:0:0:0:
320,224,46477,1,0,0:0:0:0:
320,224,46627,1,8,0:0:0:0:
256,224,46702,1,8,0:0:0:0:
320,224,46777,1,8,0:0:0:0:
224,224,46927,1,0,0:0:0:0:
128,224,47077,1,8,0:0:0:0:
256,224,47227,1,0,0:0:0:0:
352,256,47527,1,8,0:0:0:0:
352,256,47677,1,8,0:0:0:0:
224,160,47827,1,0,0:0:0:0:
224,160,47977,1,0,0:0:0:0:
256,128,48127,1,8,0:0:0:0:
256,128,48202,1,8,0:0:0:0:
256,128,48277,1,8,0:0:0:0:
256,128,48352,1,8,0:0:0:0:
256,128,48427,1,4,0:0:0:0:
352,256,48577,1,8,0:0:0:0:
320,256,48652,1,8,0:0:0:0:
352,256,48727,1,8,0:0:0:0:
320,256,48877,1,0,0:0:0:0:
256,224,49027,1,12,0:0:0:0:
352,160,49327,1,0,0:0:0:0:
352,160,49477,1,0,0:0:0:0:
352,160,49627,1,8,0:0:0:0:
288,128,49702,1,8,0:0:0:0:
320,160,49777,1,8,0:0:0:0:
288,128,49852,1,0,0:0:0:0:
288,128,49927,1,8,0:0:0:0:
288,128,50002,1,8,0:0:0:0:
288,128,50077,1,0,0:0:0:0:
224,128,50152,1,0,0:0:0:0:
256,128,50227,1,8,0:0:0:0:
256,128,50302,1,0,0:0:0:0:
256,128,50377,1,0,0:0:0:0:
256,128,50452,1,8,0:0:0:0:
224,128,50527,1,8,0:0:0:0:
224,128,50602,1,0,0:0:0:0:
224,128,50677,1,8,0:0:0:0:
384,160,50827,1,4,0:0:0:0:
320,128,50977,1,8,0:0:0:0:
320,128,51052,1,8,0:0:0:0:
320,160,51127,1,8,0:0:0:0:
288,256,51277,1,0,0:0:0:0:
384,160,51427,1,12,0:0:0:0:
352,192,51727,1,0,0:0:0:0:
352,192,51877,1,0,0:0:0:0:
320,192,52027,1,8,0:0:0:0:
320,192,52102,1,0,0:0:0:0:
224,192,52177,1,0,0:0:0:0:
224,192,52252,1,8,0:0:0:0:
224,192,52327,1,8,0:0:0:0:
192,192,52402,1,0,0:0:0:0:
256,160,52477,1,8,0:0:0:0:
160,160,52552,1,8,0:0:0:0:
384,160,52627,1,0,0:0:0:0:
352,160,52702,1,0,0:0:0:0:
384,160,52777,1,0,0:0:0:0:
288,256,52852,1,0,0:0:0:0:
320,192,52927,1,8,0:0:0:0:
288,288,53002,1,0,0:0:0:0:
288,192,53077,1,8,0:0:0:0:
288,192,53227,1,4,0:0:0:0:
192,224,53377,1,8,0:0:0:0:
288,192,53452,1,8,0:0:0:0:
192,224,53527,1,8,0:0:0:0:
320,192,53677,1,0,0:0:0:0:
320,192,53827,1,8,0:0:0:0:
320,192,53977,1,0,0:0:0:0:
320,192,54127,1,8,0:0:0:0:
320,192,54202,1,8,0:0:0:0:
320,192,54277,1,8,0:0:0:0:
320,192,54352,1,8,0:0:0:0:
192,192,54427,1,4,0:0:0:0:
352,192,54577,1,8,0:0:0:0:
288,192,54652,1,8,0:0:0:0:
352,192,54727,1,8,0:0:0:0:
288,192,54877,1,0,0:0:0:0:
320,192,55027,1,8,0:0:0:0:
320,192,55102,1,0,0:0:0:0:
224,192,55177,1,0,0:0:0:0:
224,192,55252,1,8,0:0:0:0:
224,192,55327,1,8,0:0:0:0:
256,192,55402,1,0,0:0:0:0:
256,192,55477,1,8,0:0:0:0:
256,192,55627,1,4,0:0:0:0:
416,224,55927,1,4,0:0:0:0:
384,224,56227,1,12,0:0:0:0:
384,224,56527,1,12,0:0:0:0:
384,224,56827,1,4,0:0:0:0:
256,128,57427,1,8,0:0:0:0:
256,128,57502,1,8,0:0:0:0:
256,128,57577,1,8,0:0:0:0:
256,128,57652,1,8,0:0:0:0:
256,128,57727,1,8,0:0:0:0:
256,128,57802,1,8,0:0:0:0:
256,128,57877,1,8,0:0:0:0:
256,128,57952,1,8,0:0:0:0:
288,192,58027,5,4,0:0:0:0:
224,320,58252,1,0,0:0:0:0:
256,224,58327,1,8,0:0:0:0:
128,256,58477,1,0,0:0:0:0:
128,224,58552,1,0,0:0:0:0:
96,224,58627,1,0,0:0:0:0:
96,224,58777,1,8,0:0:0:0:
128,224,58927,1,0,0:0:0:0:
96,256,59002,1,0,0:0:0:0:
256,224,59077,1,8,0:0:0:0:
256,224,59227,1,0,0:0:0:0:
288,224,59377,1,8,0:0:0:0:
288,224,59452,1,0,0:0:0:0:
288,224,59527,1,8,0:0:0:0:
224,224,59602,1,8,0:0:0:0:
192,224,59677,1,0,0:0:0:0:
224,224,59752,1,8,0:0:0:0:
192,224,59827,1,0,0:0:0:0:
192,224,59977,1,8,0:0:0:0:
288,224,60127,1,0,0:0:0:0:
224,224,60202,1,0,0:0:0:0:
288,224,60277,1,0,0:0:0:0:
224,224,60352,1,0,0:0:0:0:
224,224,60427,1,8,0:0:0:0:
224,224,60577,1,0,0:0:0:0:
384,224,60652,1,0,0:0:0:0:
352,224,60727,1,8,0:0:0:0:
352,224,60877,1,8,0:0:0:0:
96,256,60952,1,8,0:0:0:0:
32,256,61027,1,0,0:0:0:0:
96,288,61102,1,0,0:0:0:0:
128,320,61177,1,8,0:0:0:0:
160,352,61327,1,0,0:0:0:0:
288,320,61477,1,8,0:0:0:0:
384,192,61552,1,0,0:0:0:0:
320,192,61627,1,8,0:0:0:0:
192,288,61702,1,8,0:0:0:0:
160,256,61777,1,0,0:0:0:0:
320,224,61927,1,8,0:0:0:0:
256,192,62002,1,0,0:0:0:0:
256,192,62077,1,8,0:0:0:0:
224,320,62152,1,8,0:0:0:0:
256,192,62227,1,0,0:0:0:0:
256,192,62302,1,0,0:0:0:0:
256,192,62377,1,8,0:0:0:0:
256,192,62452,1,0,0:0:0:0:
256,320,62527,1,8,0:0:0:0:
256,192,62602,1,8,0:0:0:0:
256,192,62677,1,0,0:0:0:0:
320,160,62827,1,12,0:0:0:0:
352,256,62977,1,0,0:0:0:0:
352,256,63052,1,0,0:0:0:0:
320,320,63127,1,8,0:0:0:0:
320,320,63277,1,0,0:0:0:0:
320,320,63352,1,0,0:0:0:0:
320,320,63427,1,0,0:0:0:0:
320,320,63502,1,0,0:0:0:0:
320,320,63577,1,8,0:0:0:0:
320,320,63727,1,0,0:0:0:0:
288,320,63877,1,8,0:0:0:0:
256,288,63952,1,0,0:0:0:0:
288,288,64027,1,8,0:0:0:0:
288,288,64102,1,8,0:0:0:0:
256,288,64177,1,0,0:0:0:0:
256,288,64327,1,8,0:0:0:0:
256,320,64477,1,0,0:0:0:0:
256,288,64552,1,8,0:0:0:0:
192,192,64627,1,0,0:0:0:0:
192,192,64702,1,0,0:0:0:0:
192,192,64777,1,8,0:0:0:0:
192,192,64852,1,0,0:0:0:0:
192,192,64927,1,8,0:0:0:0:
192,192,65002,1,8,0:0:0:0:
192,192,65077,1,0,0:0:0:0:
352,320,65227,1,8,0:0:0:0:
352,320,65377,1,0,0:0:0:0:
352,320,65452,1,0,0:0:0:0:
320,320,65527,1,8,0:0:0:0:
320,320,65677,1,0,0:0:0:0:
352,320,65827,1,8,0:0:0:0:
320,320,65902,1,8,0:0:0:0:
320,320,65977,1,0,0:0:0:0:
320,320,66052,1,0,0:0:0:0:
320,288,66127,1,8,0:0:0:0:
192,288,66277,1,8,0:0:0:0:
224,320,66427,1,0,0:0:0:0:
224,320,66502,1,0,0:0:0:0:
288,224,66577,1,0,0:0:0:0:
320,288,66652,1,0,0:0:0:0:
288,288,66727,1,8,0:0:0:0:
320,256,66802,1,0,0:0:0:0:
288,288,66877,1,0,0:0:0:0:
288,288,66952,1,0,0:0:0:0:
352,224,67027,1,8,0:0:0:0:
224,320,67102,1,8,0:0:0:0:
128,288,67177,1,0,0:0:0:0:
192,352,67252,1,0,0:0:0:0:
192,352,67327,1,8,0:0:0:0:
192,224,67402,1,0,0:0:0:0:
192,224,67477,1,8,0:0:0:0:
288,192,67627,5,4,0:0:0:0:
224,320,67852,1,0,0:0:0:0:
256,224,67927,1,8,0:0:0:0:
128,256,68077,1,0,0:0:0:0:
128,224,68152,1,0,0:0:0:0:
96,224,68227,1,0,0:0:0:0:
96,224,68377,1,8,0:0:0:0:
128,224,68527,1,0,0:0:0:0:
96,256,68602,1,0,0:0:0:0:
256,224,68677,1,8,0:0:0:0:
256,224,68827,1,0,0:0:0:0:
288,224,68977,1,8,0:0:0:0:
288,224,69052,1,0,0:0:0:0:
288,224,69127,1,8,0:0:0:0:
224,224,69202,1,8,0:0:0:0:
192,224,69277,1,0,0:0:0:0:
224,224,69352,1,8,0:0:0:0:
192,224,69427,1,0,0:0:0:0:
192,224,69577,1,8,0:0:0:0:
288,224,69727,1,0,0:0:0:0:
224,224,69802,1,0,0:0:0:0:
288,224,69877,1,0,0:0:0:0:
224,224,69952,1,0,0:0:0:0:
224,224,70027,1,8,0:0:0:0:
224,224,70177,1,0,0:0:0:0:
384,224,70252,1,8,0:0:0:0:
352,224,70327,1,0,0:0:0:0:
352,224,70477,1,8,0:0:0:0:
96,256,70552,1,8,0:0:0:0:
32,256,70627,1,0,0:0:0:0:
96,288,70702,1,8,0:0:0:0:
128,320,70777,1,0,0:0:0:0:
160,352,70927,1,8,0:0:0:0:
288,320,71077,1,0,0:0:0:0:
384,192,71152,1,0,0:0:0:0:
320,192,71227,1,8,0:0:0:0:
192,288,71302,1,8,0:0:0:0:
160,256,71377,1,0,0:0:0:0:
320,224,71527,1,8,0:0:0:0:
256,192,71602,1,0,0:0:0:0:
256,192,71677,1,8,0:0:0:0:
224,320,71752,1,8,0:0:0:0:
256,192,71827,1,0,0:0:0:0:
256,192,71902,1,0,0:0:0:0:
256,192,71977,1,8,0:0:0:0:
256,192,72052,1,0,0:0:0:0:
256,320,72127,1,8,0:0:0:0:
256,192,72202,1,8,0:0:0:0:
256,192,72277,1,0,0:0:0:0:
320,160,72427,1,12,0:0:0:0:
352,256,72577,1,0,0:0:0:0:
352,256,72652,1,0,0:0:0:0:
320,320,72727,1,8,0:0:0:0:
320,320,72877,1,8,0:0:0:0:
320,320,72952,1,8,0:0:0:0:
320,320,73027,1,0,0:0:0:0:
320,320,73102,1,0,0:0:0:0:
320,320,73177,1,8,0:0:0:0:
320,320,73327,1,0,0:0:0:0:
288,320,73477,1,8,0:0:0:0:
256,288,73552,1,0,0:0:0:0:
288,288,73627,1,8,0:0:0:0:
288,288,73702,1,8,0:0:0:0:
256,288,73777,1,0,0:0:0:0:
256,288,73927,1,8,0:0:0:0:
256,320,74077,1,0,0:0:0:0:
256,288,74152,1,8,0:0:0:0:
192,192,74227,1,0,0:0:0:0:
192,192,74302,1,0,0:0:0:0:
192,192,74377,1,8,0:0:0:0:
192,192,74452,1,0,0:0:0:0:
192,192,74527,1,8,0:0:0:0:
192,192,74602,1,8,0:0:0:0:
192,192,74677,1,0,0:0:0:0:
352,320,74827,1,8,0:0:0:0:
352,320,74977,1,0,0:0:0:0:
352,320,75052,1,0,0:0:0:0:
320,320,75127,1,8,0:0:0:0:
192,160,75202,1,8,0:0:0:0:
320,320,75277,1,0,0:0:0:0:
352,320,75427,1,8,0:0:0:0:
320,320,75502,1,0,0:0:0:0:
320,320,75577,1,8,0:0:0:0:
224,224,75652,1,8,0:0:0:0:
224,224,75727,1,0,0:0:0:0:
224,224,75802,1,0,0:0:0:0:
192,288,75877,1,8,0:0:0:0:
224,320,76027,1,0,0:0:0:0:
224,320,76102,1,0,0:0:0:0:
288,224,76177,1,0,0:0:0:0:
320,288,76252,1,0,0:0:0:0:
288,288,76327,1,8,0:0:0:0:
320,256,76402,1,0,0:0:0:0:
288,288,76477,1,0,0:0:0:0:
288,288,76552,1,0,0:0:0:0:
352,224,76627,1,8,0:0:0:0:
192,256,76702,1,8,0:0:0:0:
320,224,76777,1,0,0:0:0:0:
160,256,76852,1,0,0:0:0:0:
320,224,76927,1,8,0:0:0:0:
192,224,77002,1,0,0:0:0:0:
192,224,77077,1,8,0:0:0:0:
256,224,77227,1,4,0:0:0:0:
320,192,77377,1,0,0:0:0:0:
288,224,77452,1,0,0:0:0:0:
288,224,77527,1,8,0:0:0:0:
288,224,77677,1,0,0:0:0:0:
288,224,77827,1,8,0:0:0:0:
256,224,77902,1,8,0:0:0:0:
256,224,77977,1,0,0:0:0:0:
256,224,78052,1,0,0:0:0:0:
224,192,78127,1,8,0:0:0:0:
352,224,78277,1,4,0:0:0:0:
352,224,78577,1,8,0:0:0:0:
352,160,79027,1,0,0:0:0:0:
320,160,79327,1,8,0:0:0:0:
320,160,79402,1,8,0:0:0:0:
320,160,79477,1,8,0:0:0:0:
320,160,79552,1,8,0:0:0:0:
288,160,79627,1,4,0:0:0:0:
288,256,79927,1,8,0:0:0:0:
288,256,80077,1,8,0:0:0:0:
320,256,80227,1,0,0:0:0:0:
288,224,80302,1,0,0:0:0:0:
288,224,80377,1,0,0:0:0:0:
320,160,80527,1,8,0:0:0:0:
256,224,80677,1,0,0:0:0:0:
224,192,80752,1,0,0:0:0:0:
320,224,80827,1,8,0:0:0:0:
320,224,80902,1,8,0:0:0:0:
320,128,80977,1,0,0:0:0:0:
256,128,81127,1,8,0:0:0:0:
256,128,81277,1,8,0:0:0:0:
192,128,81427,1,0,0:0:0:0:
192,288,81502,1,0,0:0:0:0:
224,160,81577,1,8,0:0:0:0:
256,160,81652,1,0,0:0:0:0:
256,160,81727,1,8,0:0:0:0:
192,128,81802,1,8,0:0:0:0:
192,224,81877,1,0,0:0:0:0:
352,224,82027,1,8,0:0:0:0:
384,256,82177,1,0,0:0:0:0:
384,256,82252,1,0,0:0:0:0:
288,224,82327,1,8,0:0:0:0:
320,192,82477,1,8,0:0:0:0:
288,160,82627,1,0,0:0:0:0:
256,192,82702,1,0,0:0:0:0:
192,160,82777,1,0,0:0:0:0:
256,192,82927,1,8,0:0:0:0:
256,160,83077,1,0,0:0:0:0:
256,160,83152,1,0,0:0:0:0:
256,160,83227,1,8,0:0:0:0:
256,160,83302,1,8,0:0:0:0:
256,160,83377,1,0,0:0:0:0:
352,192,83527,1,8,0:0:0:0:
352,192,83677,1,8,0:0:0:0:
352,192,83827,1,0,0:0:0:0:
224,288,83902,1,8,0:0:0:0:
256,320,83977,1,8,0:0:0:0:
288,224,84052,1,0,0:0:0:0:
256,224,84127,1,8,0:0:0:0:
224,192,84202,1,8,0:0:0:0:
224,192,84277,1,0,0:0:0:0:
224,224,84427,1,8,0:0:0:0:
256,224,84577,1,0,0:0:0:0:
192,192,84652,1,0,0:0:0:0:
288,192,84727,1,0,0:0:0:0:
320,192,84877,1,8,0:0:0:0:
320,192,85027,1,0,0:0:0:0:
288,160,85102,1,0,0:0:0:0:
256,160,85177,1,8,0:0:0:0:
256,160,85327,1,0,0:0:0:0:
288,160,85477,1,8,0:0:0:0:
224,192,85552,1,8,0:0:0:0:
224,192,85627,1,8,0:0:0:0:
224,192,85702,1,8,0:0:0:0:
224,160,85777,1,0,0:0:0:0:
160,192,85927,1,8,0:0:0:0:
224,160,86077,1,8,0:0:0:0:
224,160,86227,1,0,0:0:0:0:
64,192,86302,1,0,0:0:0:0:
256,192,86377,1,8,0:0:0:0:
256,192,86452,1,0,0:0:0:0:
256,192,86527,1,8,0:0:0:0:
256,192,86602,1,8,0:0:0:0:
224,192,86677,1,0,0:0:0:0:
224,192,86827,1,8,0:0:0:0:
320,256,86977,1,0,0:0:0:0:
320,256,87052,1,0,0:0:0:0:
185,272,87127,1,8,0:0:0:0:
199,268,87202,1,0,0:0:0:0:
224,192,87277,1,8,0:0:0:0:
288,192,87427,1,0,0:0:0:0:
224,160,87502,1,0,0:0:0:0:
288,192,87577,1,8,0:0:0:0:
256,149,87652,1,0,0:0:0:0:
288,160,87727,1,8,0:0:0:0:
250,141,87802,1,8,0:0:0:0:
192,192,87877,1,0,0:0:0:0:
96,224,87952,1,8,0:0:0:0:
160,96,89227,1,4,0:0:0:0:
352,192,89527,1,8,0:0:0:0:
352,160,89677,1,8,0:0:0:0:
320,192,89827,1,0,0:0:0:0:
320,192,89977,1,0,0:0:0:0:
320,192,90127,1,8,0:0:0:0:
224,224,90277,1,0,0:0:0:0:
256,160,90427,1,8,0:0:0:0:
256,160,90577,1,8,0:0:0:0:
288,192,90727,1,0,0:0:0:0:
288,192,90877,1,0,0:0:0:0:
320,160,91027,1,8,0:0:0:0:
288,160,91177,1,0,0:0:0:0:
320,160,91327,1,8,0:0:0:0:
320,160,91477,1,8,0:0:0:0:
320,160,91627,1,0,0:0:0:0:
288,224,91777,1,8,0:0:0:0:
288,224,91927,1,8,0:0:0:0:
288,224,92077,1,0,0:0:0:0:
288,224,92227,1,8,0:0:0:0:
256,192,92377,1,8,0:0:0:0:
256,192,92527,1,0,0:0:0:0:
256,192,92677,1,8,0:0:0:0:
256,160,92827,1,0,0:0:0:0:
256,160,92977,1,0,0:0:0:0:
256,160,93127,1,8,0:0:0:0:
256,128,93427,1,0,0:0:0:0:
256,128,93577,1,0,0:0:0:0:
256,128,93727,1,8,0:0:0:0:
256,128,94027,1,0,0:0:0:0:
288,128,94177,1,0,0:0:0:0:
224,224,94327,1,8,0:0:0:0:
288,224,94477,1,8,0:0:0:0:
288,288,94627,1,0,0:0:0:0:
256,288,94777,1,8,0:0:0:0:
320,256,94927,1,8,0:0:0:0:
256,320,95077,1,0,0:0:0:0:
320,224,95227,1,8,0:0:0:0:
320,224,95377,1,0,0:0:0:0:
320,224,95527,1,8,0:0:0:0:
320,224,95677,1,8,0:0:0:0:
288,224,95827,1,0,0:0:0:0:
192,256,95977,1,0,0:0:0:0:
192,256,96127,1,8,0:0:0:0:
224,224,96277,1,8,0:0:0:0:
288,224,96427,1,0,0:0:0:0:
288,224,96577,1,8,0:0:0:0:
288,224,96727,1,8,0:0:0:0:
288,224,96877,1,0,0:0:0:0:
288,224,97027,1,8,0:0:0:0:
288,224,97177,1,0,0:0:0:0:
288,224,97327,1,8,0:0:0:0:
288,224,97477,1,8,0:0:0:0:
288,192,97627,1,0,0:0:0:0:
256,192,97777,1,0,0:0:0:0:
256,160,97927,1,8,0:0:0:0:
288,192,98227,1,8,0:0:0:0:
352,256,98377,1,0,0:0:0:0:
256,128,98527,1,8,0:0:0:0:
256,128,98602,1,8,0:0:0:0:
256,128,98677,1,8,0:0:0:0:
256,128,98752,1,8,0:0:0:0:
288,192,98827,1,4,0:0:0:0:
352,256,98977,1,8,0:0:0:0:
320,256,99052,1,8,0:0:0:0:
352,256,99127,1,8,0:0:0:0:
320,256,99277,1,0,0:0:0:0:
256,224,99427,1,12,0:0:0:0:
352,160,99727,1,0,0:0:0:0:
352,160,99877,1,0,0:0:0:0:
352,160,100027,1,8,0:0:0:0:
288,128,100102,1,8,0:0:0:0:
320,160,100177,1,8,0:0:0:0:
288,128,100252,1,0,0:0:0:0:
288,128,100327,1,8,0:0:0:0:
288,128,100402,1,8,0:0:0:0:
288,128,100477,1,0,0:0:0:0:
224,128,100552,1,0,0:0:0:0:
256,128,100627,1,8,0:0:0:0:
256,128,100702,1,0,0:0:0:0:
256,128,100777,1,0,0:0:0:0:
256,128,100852,1,8,0:0:0:0:
224,128,100927,1,8,0:0:0:0:
224,128,101002,1,0,0:0:0:0:
224,128,101077,1,8,0:0:0:0:
384,160,101227,1,4,0:0:0:0:
320,128,101377,1,8,0:0:0:0:
320,128,101452,1,8,0:0:0:0:
320,160,101527,1,8,0:0:0:0:
288,256,101677,1,0,0:0:0:0:
384,160,101827,1,12,0:0:0:0:
352,192,102127,1,0,0:0:0:0:
352,192,102277,1,0,0:0:0:0:
320,192,102427,1,8,0:0:0:0:
320,192,102502,1,0,0:0:0:0:
224,192,102577,1,0,0:0:0:0:
224,192,102652,1,8,0:0:0:0:
224,192,102727,1,8,0:0:0:0:
192,192,102802,1,0,0:0:0:0:
256,160,102877,1,8,0:0:0:0:
160,160,102952,1,8,0:0:0:0:
384,160,103027,1,0,0:0:0:0:
352,160,103102,1,0,0:0:0:0:
384,160,103177,1,0,0:0:0:0:
288,256,103252,1,0,0:0:0:0:
320,192,103327,1,8,0:0:0:0:
288,288,103402,1,0,0:0:0:0:
288,192,103477,1,8,0:0:0:0:
288,192,103627,1,4,0:0:0:0:
192,224,103777,1,8,0:0:0:0:
288,192,103852,1,8,0:0:0:0:
192,224,103927,1,8,0:0:0:0:
320,192,104077,1,0,0:0:0:0:
320,192,104227,1,8,0:0:0:0:
320,192,104377,1,0,0:0:0:0:
320,192,104527,1,8,0:0:0:0:
320,192,104602,1,8,0:0:0:0:
320,192,104677,1,8,0:0:0:0:
320,192,104752,1,8,0:0:0:0:
192,192,104827,1,4,0:0:0:0:
352,192,104977,1,8,0:0:0:0:
288,192,105052,1,8,0:0:0:0:
352,192,105127,1,8,0:0:0:0:
288,192,105277,1,0,0:0:0:0:
320,192,105427,1,8,0:0:0:0:
320,192,105502,1,0,0:0:0:0:
224,192,105577,1,0,0:0:0:0:
224,192,105652,1,8,0:0:0:0:
224,192,105727,1,8,0:0:0:0:
256,192,105802,1,0,0:0:0:0:
256,192,105877,1,8,0:0:0:0:
256,192,106027,1,4,0:0:0:0:
416,224,106327,1,4,0:0:0:0:
384,224,106627,1,12,0:0:0:0:
384,224,106927,1,12,0:0:0:0:
384,224,107227,1,4,0:0:0:0:
248,144,107827,1,8,0:0:0:0:
263,147,107902,1,8,0:0:0:0:
263,147,107977,1,8,0:0:0:0:
263,147,108052,1,8,0:0:0:0:
263,148,108127,1,8,0:0:0:0:
263,148,108202,1,8,0:0:0:0:
263,148,108277,1,8,0:0:0:0:
263,148,108352,1,8,0:0:0:0:
256,160,108427,5,4,0:0:0:0:
448,224,108577,1,8,0:0:0:0:
256,192,108727,1,0,0:0:0:0:
384,256,108877,1,0,0:0:0:0:
384,256,109027,1,8,0:0:0:0:
320,288,109177,1,0,0:0:0:0:
256,288,109252,1,0,0:0:0:0:
320,288,109327,1,0,0:0:0:0:
256,288,109477,1,8,0:0:0:0:
224,192,109627,1,0,0:0:0:0:
352,288,109777,1,0,0:0:0:0:
352,288,109927,1,8,0:0:0:0:
320,288,110002,1,8,0:0:0:0:
320,288,110077,1,8,0:0:0:0:
320,288,110152,1,8,0:0:0:0:
320,288,110227,1,0,0:0:0:0:
320,288,110377,1,0,0:0:0:0:
320,288,110527,1,8,0:0:0:0:
288,288,110677,1,8,0:0:0:0:
288,256,110827,1,4,0:0:0:0:
288,256,110977,1,8,0:0:0:0:
352,256,111127,1,0,0:0:0:0:
192,192,111277,1,0,0:0:0:0:
192,192,111427,1,8,0:0:0:0:
352,224,111577,1,0,0:0:0:0:
256,224,111652,1,0,0:0:0:0:
352,224,111727,1,0,0:0:0:0:
320,192,111877,1,8,0:0:0:0:
128,160,112027,1,0,0:0:0:0:
352,192,112177,1,0,0:0:0:0:
352,192,112327,1,8,0:0:0:0:
320,192,112477,1,0,0:0:0:0:
352,192,112627,1,8,0:0:0:0:
256,224,112702,1,8,0:0:0:0:
256,224,112777,1,0,0:0:0:0:
256,256,112852,1,0,0:0:0:0:
288,224,112927,1,8,0:0:0:0:
224,128,113227,1,4,0:0:0:0:
320,256,113377,1,8,0:0:0:0:
320,256,113527,1,0,0:0:0:0:
352,256,113677,1,0,0:0:0:0:
352,256,113827,1,8,0:0:0:0:
320,256,113977,1,0,0:0:0:0:
192,224,114052,1,0,0:0:0:0:
320,256,114127,1,0,0:0:0:0:
192,224,114277,1,8,0:0:0:0:
224,224,114427,1,0,0:0:0:0:
384,224,114577,1,0,0:0:0:0:
384,224,114727,1,8,0:0:0:0:
352,224,114802,1,8,0:0:0:0:
384,224,114877,1,8,0:0:0:0:
352,224,114952,1,8,0:0:0:0:
288,224,115027,1,0,0:0:0:0:
256,224,115177,1,0,0:0:0:0:
256,224,115327,1,8,0:0:0:0:
256,224,115477,1,8,0:0:0:0:
256,224,115627,1,4,0:0:0:0:
256,128,115777,1,8,0:0:0:0:
256,128,115927,1,0,0:0:0:0:
256,128,116077,1,0,0:0:0:0:
256,128,116227,1,8,0:0:0:0:
256,128,116377,1,0,0:0:0:0:
256,128,116452,1,0,0:0:0:0:
256,128,116527,1,0,0:0:0:0:
256,128,116677,1,8,0:0:0:0:
320,224,116827,1,0,0:0:0:0:
288,224,116977,1,8,0:0:0:0:
352,224,117127,1,8,0:0:0:0:
352,224,117277,1,0,0:0:0:0:
352,224,117427,1,8,0:0:0:0:
320,224,118027,1,4,0:0:0:0:
224,320,118252,1,0,0:0:0:0:
256,224,118327,1,8,0:0:0:0:
128,256,118477,1,0,0:0:0:0:
128,224,118552,1,0,0:0:0:0:
96,224,118627,1,0,0:0:0:0:
96,224,118777,1,8,0:0:0:0:
128,224,118927,1,0,0:0:0:0:
96,256,119002,1,0,0:0:0:0:
256,224,119077,1,8,0:0:0:0:
256,224,119227,1,0,0:0:0:0:
288,224,119377,1,8,0:0:0:0:
288,224,119452,1,0,0:0:0:0:
288,224,119527,1,8,0:0:0:0:
224,224,119602,1,8,0:0:0:0:
192,224,119677,1,0,0:0:0:0:
224,224,119752,1,8,0:0:0:0:
192,224,119827,1,0,0:0:0:0:
192,224,119977,1,8,0:0:0:0:
288,224,120127,1,0,0:0:0:0:
224,224,120202,1,0,0:0:0:0:
288,224,120277,1,0,0:0:0:0:
224,224,120352,1,0,0:0:0:0:
224,224,120427,1,8,0:0:0:0:
224,224,120577,1,0,0:0:0:0:
384,224,120652,1,0,0:0:0:0:
352,224,120727,1,8,0:0:0:0:
352,224,120877,1,8,0:0:0:0:
96,256,120952,1,8,0:0:0:0:
32,256,121027,1,0,0:0:0:0:
96,288,121102,1,0,0:0:0:0:
128,320,121177,1,8,0:0:0:0:
160,352,121327,1,0,0:0:0:0:
288,320,121477,1,8,0:0:0:0:
384,192,121552,1,0,0:0:0:0:
320,192,121627,1,8,0:0:0:0:
192,288,121702,1,8,0:0:0:0:
160,256,121777,1,0,0:0:0:0:
320,224,121927,1,8,0:0:0:0:
256,192,122002,1,0,0:0:0:0:
256,192,122077,1,8,0:0:0:0:
224,320,122152,1,8,0:0:0:0:
256,192,122227,1,0,0:0:0:0:
256,192,122302,1,0,0:0:0:0:
256,192,122377,1,8,0:0:0:0:
256,192,122452,1,0,0:0:0:0:
256,320,122527,1,8,0:0:0:0:
256,192,122602,1,8,0:0:0:0:
256,192,122677,1,0,0:0:0:0:
320,160,122827,1,12,0:0:0:0:
352,256,122977,1,0,0:0:0:0:
352,256,123052,1,0,0:0:0:0:
320,320,123127,1,8,0:0:0:0:
320,320,123277,1,0,0:0:0:0:
320,320,123352,1,0,0:0:0:0:
320,320,123427,1,0,0:0:0:0:
320,320,123502,1,0,0:0:0:0:
320,320,123577,1,8,0:0:0:0:
320,320,123727,1,0,0:0:0:0:
288,320,123877,1,8,0:0:0:0:
256,288,123952,1,0,0:0:0:0:
288,288,124027,1,8,0:0:0:0:
288,288,124102,1,8,0:0:0:0:
256,288,124177,1,0,0:0:0:0:
256,288,124327,1,8,0:0:0:0:
256,320,124477,1,0,0:0:0:0:
256,288,124552,1,8,0:0:0:0:
192,192,124627,1,0,0:0:0:0:
192,192,124702,1,0,0:0:0:0:
192,192,124777,1,8,0:0:0:0:
192,192,124852,1,0,0:0:0:0:
192,192,124927,1,8,0:0:0:0:
192,192,125002,1,8,0:0:0:0:
192,192,125077,1,0,0:0:0:0:
352,320,125227,1,8,0:0:0:0:
352,320,125377,1,0,0:0:0:0:
352,320,125452,1,0,0:0:0:0:
320,320,125527,1,8,0:0:0:0:
320,320,125677,1,0,0:0:0:0:
352,320,125827,1,8,0:0:0:0:
320,320,125902,1,8,0:0:0:0:
320,320,125977,1,0,0:0:0:0:
320,320,126052,1,0,0:0:0:0:
320,288,126127,1,8,0:0:0:0:
192,288,126277,1,8,0:0:0:0:
224,320,126427,1,0,0:0:0:0:
224,320,126502,1,0,0:0:0:0:
288,224,126577,1,0,0:0:0:0:
320,288,126652,1,0,0:0:0:0:
288,288,126727,1,8,0:0:0:0:
320,256,126802,1,0,0:0:0:0:
288,288,126877,1,0,0:0:0:0:
288,288,126952,1,0,0:0:0:0:
352,224,127027,1,8,0:0:0:0:
224,320,127102,1,8,0:0:0:0:
128,288,127177,1,0,0:0:0:0:
192,352,127252,1,0,0:0:0:0:
192,352,127327,1,8,0:0:0:0:
192,224,127402,1,0,0:0:0:0:
192,224,127477,1,8,0:0:0:0:
288,192,127627,5,4,0:0:0:0:
224,320,127852,1,0,0:0:0:0:
256,224,127927,1,8,0:0:0:0:
128,256,128077,1,0,0:0:0:0:
128,224,128152,1,0,0:0:0:0:
96,224,128227,1,0,0:0:0:0:
96,224,128377,1,8,0:0:0:0:
128,224,128527,1,0,0:0:0:0:
96,256,128602,1,0,0:0:0:0:
256,224,128677,1,8,0:0:0:0:
256,224,128827,1,0,0:0:0:0:
288,224,128977,1,8,0:0:0:0:
288,224,129052,1,0,0:0:0:0:
288,224,129127,1,8,0:0:0:0:
224,224,129202,1,8,0:0:0:0:
192,224,129277,1,0,0:0:0:0:
224,224,129352,1,8,0:0:0:0:
192,224,129427,1,0,0:0:0:0:
192,224,129577,1,8,0:0:0:0:
288,224,129727,1,0,0:0:0:0:
224,224,129802,1,0,0:0:0:0:
288,224,129877,1,0,0:0:0:0:
224,224,129952,1,0,0:0:0:0:
224,224,130027,1,8,0:0:0:0:
224,224,130177,1,0,0:0:0:0:
384,224,130252,1,8,0:0:0:0:
352,224,130327,1,0,0:0:0:0:
352,224,130477,1,8,0:0:0:0:
96,256,130552,1,8,0:0:0:0:
32,256,130627,1,0,0:0:0:0:
96,288,130702,1,8,0:0:0:0:
128,320,130777,1,0,0:0:0:0:
160,352,130927,1,8,0:0:0:0:
288,320,131077,1,0,0:0:0:0:
384,192,131152,1,0,0:0:0:0:
320,192,131227,1,8,0:0:0:0:
192,288,131302,1,8,0:0:0:0:
160,256,131377,1,0,0:0:0:0:
320,224,131527,1,8,0:0:0:0:
256,192,131602,1,0,0:0:0:0:
256,192,131677,1,8,0:0:0:0:
224,320,131752,1,8,0:0:0:0:
256,192,131827,1,0,0:0:0:0:
256,192,131902,1,0,0:0:0:0:
256,192,131977,1,8,0:0:0:0:
256,192,132052,1,0,0:0:0:0:
256,320,132127,1,8,0:0:0:0:
256,192,132202,1,8,0:0:0:0:
256,192,132277,1,0,0:0:0:0:
320,160,132427,1,12,0:0:0:0:
352,256,132577,1,0,0:0:0:0:
352,256,132652,1,0,0:0:0:0:
320,320,132727,1,8,0:0:0:0:
320,320,132877,1,8,0:0:0:0:
320,320,132952,1,8,0:0:0:0:
320,320,133027,1,0,0:0:0:0:
320,320,133102,1,0,0:0:0:0:
320,320,133177,1,8,0:0:0:0:
320,320,133327,1,0,0:0:0:0:
288,320,133477,1,8,0:0:0:0:
256,288,133552,1,0,0:0:0:0:
288,288,133627,1,8,0:0:0:0:
288,288,133702,1,8,0:0:0:0:
256,288,133777,1,0,0:0:0:0:
256,288,133927,1,8,0:0:0:0:
256,320,134077,1,0,0:0:0:0:
256,288,134152,1,8,0:0:0:0:
192,192,134227,1,0,0:0:0:0:
192,192,134302,1,0,0:0:0:0:
192,192,134377,1,8,0:0:0:0:
192,192,134452,1,0,0:0:0:0:
192,192,134527,1,8,0:0:0:0:
192,192,134602,1,8,0:0:0:0:
192,192,134677,1,0,0:0:0:0:
352,320,134827,1,8,0:0:0:0:
352,320,134977,1,0,0:0:0:0:
352,320,135052,1,0,0:0:0:0:
320,320,135127,1,8,0:0:0:0:
192,160,135202,1,8,0:0:0:0:
320,320,135277,1,0,0:0:0:0:
352,320,135427,1,8,0:0:0:0:
320,320,135502,1,0,0:0:0:0:
320,320,135577,1,8,0:0:0:0:
224,224,135652,1,8,0:0:0:0:
224,224,135727,1,0,0:0:0:0:
224,224,135802,1,0,0:0:0:0:
192,288,135877,1,8,0:0:0:0:
224,320,136027,1,0,0:0:0:0:
224,320,136102,1,0,0:0:0:0:
288,224,136177,1,0,0:0:0:0:
320,288,136252,1,0,0:0:0:0:
288,288,136327,1,8,0:0:0:0:
320,256,136402,5,0,0:0:0:0:
288,288,136477,1,0,0:0:0:0:
288,288,136552,1,0,0:0:0:0:
352,224,136627,1,8,0:0:0:0:
192,256,136702,1,8,0:0:0:0:
320,224,136777,1,0,0:0:0:0:
160,256,136852,1,0,0:0:0:0:
320,224,136927,1,8,0:0:0:0:
192,224,137002,1,0,0:0:0:0:
192,224,137077,1,8,0:0:0:0:
218,104,137152,1,8,0:0:0:0:
256,160,137527,5,12,0:0:0:0:
320,192,137677,1,0,0:0:0:0:
288,192,137752,1,0,0:0:0:0:
320,192,137827,1,0,0:0:0:0:
160,224,137902,1,0,0:0:0:0:
320,224,137977,1,8,0:0:0:0:
320,224,138127,1,0,0:0:0:0:
320,224,138202,1,0,0:0:0:0:
320,224,138277,1,8,0:0:0:0:
320,256,138352,1,8,0:0:0:0:
320,192,138427,1,0,0:0:0:0:
256,192,138577,1,8,0:0:0:0:
256,192,138652,1,0,0:0:0:0:
256,192,138727,1,8,0:0:0:0:
256,192,138802,1,8,0:0:0:0:
224,192,138877,1,0,0:0:0:0:
224,192,138952,1,8,0:0:0:0:
224,192,139027,1,0,0:0:0:0:
320,320,139102,1,0,0:0:0:0:
224,192,139177,1,8,0:0:0:0:
320,192,139327,1,0,0:0:0:0:
320,192,139402,1,0,0:0:0:0:
288,192,139477,1,0,0:0:0:0:
256,192,139552,1,0,0:0:0:0:
224,160,139627,1,8,0:0:0:0:
224,160,139777,1,0,0:0:0:0:
224,160,139852,1,0,0:0:0:0:
224,160,139927,1,8,0:0:0:0:
160,160,140077,1,0,0:0:0:0:
192,192,140152,1,8,0:0:0:0:
224,192,140227,1,0,0:0:0:0:
192,192,140302,1,0,0:0:0:0:
224,192,140377,1,8,0:0:0:0:
224,224,140452,1,8,0:0:0:0:
224,192,140527,1,0,0:0:0:0:
224,192,140677,1,8,0:0:0:0:
288,224,140752,1,8,0:0:0:0:
288,224,140827,1,0,0:0:0:0:
256,256,140902,1,8,0:0:0:0:
320,288,140977,1,8,0:0:0:0:
224,288,141052,1,0,0:0:0:0:
256,288,141127,1,8,0:0:0:0:
320,256,141202,1,8,0:0:0:0:
256,256,141277,1,0,0:0:0:0:
256,288,141352,1,0,0:0:0:0:
224,288,141427,1,8,0:0:0:0:
224,256,141577,1,0,0:0:0:0:
224,256,141652,1,0,0:0:0:0:
224,256,141727,1,8,0:0:0:0:
224,256,141802,1,8,0:0:0:0:
224,256,141877,1,0,0:0:0:0:
224,256,142027,1,12,0:0:0:0:
352,224,142177,1,0,0:0:0:0:
224,256,142252,1,8,0:0:0:0:
224,256,142327,1,0,0:0:0:0:
224,256,142477,1,8,0:0:0:0:
192,256,142552,1,0,0:0:0:0:
192,256,142627,1,8,0:0:0:0:
192,256,142702,1,8,0:0:0:0:
224,192,142777,1,0,0:0:0:0:
192,192,142852,1,0,0:0:0:0:
192,256,142927,1,8,0:0:0:0:
192,192,143077,1,0,0:0:0:0:
192,224,143152,1,8,0:0:0:0:
288,256,143227,1,0,0:0:0:0:
160,256,143302,1,0,0:0:0:0:
160,256,143377,1,8,0:0:0:0:
256,256,143452,1,0,0:0:0:0:
96,224,143527,1,8,0:0:0:0:
96,224,143602,1,8,0:0:0:0:
192,256,143677,1,0,0:0:0:0:
192,256,143752,1,8,0:0:0:0:
192,256,143827,1,0,0:0:0:0:
288,256,143977,1,8,0:0:0:0:
288,256,144052,1,8,0:0:0:0:
256,256,144127,1,0,0:0:0:0:
256,256,144202,1,0,0:0:0:0:
224,224,144277,1,8,0:0:0:0:
224,224,144427,1,0,0:0:0:0:
224,224,144502,1,0,0:0:0:0:
224,224,144577,1,8,0:0:0:0:
224,224,144652,1,0,0:0:0:0:
224,224,144727,1,8,0:0:0:0:
224,224,144802,1,8,0:0:0:0:
224,224,144877,1,0,0:0:0:0:
224,224,145027,1,8,0:0:0:0:
224,256,145102,1,8,0:0:0:0:
192,256,145177,1,0,0:0:0:0:
192,256,145252,1,0,0:0:0:0:
256,256,145327,1,8,0:0:0:0:
256,256,145477,1,8,0:0:0:0:
224,256,145627,1,0,0:0:0:0:
288,288,145702,1,0,0:0:0:0:
192,224,145777,1,0,0:0:0:0:
192,224,145852,1,0,0:0:0:0:
224,224,145927,1,8,0:0:0:0:
224,224,146002,1,0,0:0:0:0:
224,224,146077,1,0,0:0:0:0:
224,224,146152,1,0,0:0:0:0:
192,224,146227,1,8,0:0:0:0:
224,320,146302,1,8,0:0:0:0:
288,320,146377,1,0,0:0:0:0:
224,320,146452,1,0,0:0:0:0:
192,256,146527,1,8,0:0:0:0:
192,224,146602,1,0,0:0:0:0:
192,224,146677,1,8,0:0:0:0:
192,224,146827,1,4,0:0:0:0:
192,224,147052,1,0,0:0:0:0:
192,224,147127,1,8,0:0:0:0:
320,192,147277,1,0,0:0:0:0:
288,192,147352,1,0,0:0:0:0:
320,192,147427,1,0,0:0:0:0:
128,288,147502,1,0,0:0:0:0:
320,224,147577,1,8,0:0:0:0:
320,224,147727,1,0,0:0:0:0:
320,224,147802,1,0,0:0:0:0:
320,224,147877,1,8,0:0:0:0:
320,256,147952,1,8,0:0:0:0:
320,192,148027,1,0,0:0:0:0:
256,192,148177,1,8,0:0:0:0:
256,192,148252,1,0,0:0:0:0:
256,192,148327,1,8,0:0:0:0:
256,192,148402,1,8,0:0:0:0:
224,192,148477,1,0,0:0:0:0:
224,192,148552,1,8,0:0:0:0:
224,192,148627,1,0,0:0:0:0:
320,192,148702,1,0,0:0:0:0:
224,192,148777,1,8,0:0:0:0:
320,192,148927,1,0,0:0:0:0:
320,192,149002,1,0,0:0:0:0:
288,192,149077,1,0,0:0:0:0:
256,192,149152,1,0,0:0:0:0:
224,160,149227,1,8,0:0:0:0:
224,160,149377,1,0,0:0:0:0:
224,160,149452,1,0,0:0:0:0:
224,160,149527,1,8,0:0:0:0:
160,160,149677,1,0,0:0:0:0:
192,192,149752,1,8,0:0:0:0:
224,192,149827,1,0,0:0:0:0:
192,192,149902,1,0,0:0:0:0:
224,192,149977,1,8,0:0:0:0:
224,224,150052,1,8,0:0:0:0:
224,192,150127,1,0,0:0:0:0:
224,192,150277,1,8,0:0:0:0:
288,224,150352,1,8,0:0:0:0:
288,224,150427,1,0,0:0:0:0:
256,256,150502,1,8,0:0:0:0:
320,288,150577,1,8,0:0:0:0:
224,288,150652,1,0,0:0:0:0:
256,288,150727,1,8,0:0:0:0:
320,256,150802,1,8,0:0:0:0:
256,256,150877,1,0,0:0:0:0:
256,288,150952,1,0,0:0:0:0:
224,288,151027,1,8,0:0:0:0:
224,256,151177,1,0,0:0:0:0:
224,256,151252,1,0,0:0:0:0:
224,256,151327,1,8,0:0:0:0:
224,256,151402,1,8,0:0:0:0:
224,256,151477,1,0,0:0:0:0:
224,256,151627,1,12,0:0:0:0:
352,224,151777,1,0,0:0:0:0:
64,224,151852,1,0,0:0:0:0:
224,256,151927,1,0,0:0:0:0:
224,256,152077,1,8,0:0:0:0:
192,256,152152,1,0,0:0:0:0:
192,256,152227,1,8,0:0:0:0:
192,256,152302,1,8,0:0:0:0:
192,256,152377,1,0,0:0:0:0:
256,256,152452,1,0,0:0:0:0:
192,256,152527,1,8,0:0:0:0:
192,192,152677,1,0,0:0:0:0:
192,224,152752,1,8,0:0:0:0:
288,256,152827,1,0,0:0:0:0:
160,256,152902,1,0,0:0:0:0:
160,256,152977,1,8,0:0:0:0:
256,256,153052,1,0,0:0:0:0:
96,224,153127,1,8,0:0:0:0:
96,224,153202,1,8,0:0:0:0:
192,256,153277,1,0,0:0:0:0:
192,256,153352,1,8,0:0:0:0:
192,256,153427,1,0,0:0:0:0:
288,256,153577,1,8,0:0:0:0:
288,256,153652,1,8,0:0:0:0:
256,256,153727,1,0,0:0:0:0:
256,256,153802,1,0,0:0:0:0:
224,224,153877,1,8,0:0:0:0:
224,224,154027,1,0,0:0:0:0:
224,224,154102,1,0,0:0:0:0:
224,224,154177,1,8,0:0:0:0:
224,224,154252,1,0,0:0:0:0:
224,224,154327,1,8,0:0:0:0:
224,224,154402,1,8,0:0:0:0:
224,224,154477,1,0,0:0:0:0:
224,224,154627,1,8,0:0:0:0:
224,256,154702,1,8,0:0:0:0:
192,256,154777,1,0,0:0:0:0:
320,192,154852,1,8,0:0:0:0:
256,256,154927,1,8,0:0:0:0:
320,160,155002,1,0,0:0:0:0:
96,160,155077,1,8,0:0:0:0:
96,128,155227,1,0,0:0:0:0:
96,128,155302,1,0,0:0:0:0:
192,224,155377,1,0,0:0:0:0:
192,224,155452,1,0,0:0:0:0:
224,224,155527,1,8,0:0:0:0:
224,224,155602,1,0,0:0:0:0:
224,224,155677,1,0,0:0:0:0:
224,224,155752,1,0,0:0:0:0:
192,224,155827,1,8,0:0:0:0:
224,320,155902,1,8,0:0:0:0:
288,320,155977,1,0,0:0:0:0:
224,320,156052,1,0,0:0:0:0:
192,256,156127,1,8,0:0:0:0:
192,224,156202,1,0,0:0:0:0:
192,224,156277,1,8,0:0:0:0:
192,224,156427,1,4,0:0:0:0:
256,128,156577,1,0,0:0:0:0:
256,128,156727,1,8,0:0:0:0:
256,128,156877,1,0,0:0:0:0:
224,96,156952,1,0,0:0:0:0:
224,96,157027,1,8,0:0:0:0:
224,96,157102,1,8,0:0:0:0:
192,128,157177,1,0,0:0:0:0:
192,128,157327,1,8,0:0:0:0:
160,128,157477,1,4,0:0:0:0:
192,128,157777,1,8,0:0:0:0:
256,128,158227,1,0,0:0:0:0:
224,128,158527,1,8,0:0:0:0:
160,128,158602,1,8,0:0:0:0:
256,128,158677,1,8,0:0:0:0:
256,128,158752,1,8,0:0:0:0:
160,128,158827,1,4,0:0:0:0:
288,256,159127,1,8,0:0:0:0:
288,256,159277,1,8,0:0:0:0:
320,256,159427,1,0,0:0:0:0:
288,224,159502,1,0,0:0:0:0:
288,224,159577,1,0,0:0:0:0:
320,160,159727,1,8,0:0:0:0:
256,224,159877,1,0,0:0:0:0:
224,192,159952,1,0,0:0:0:0:
320,224,160027,1,8,0:0:0:0:
320,224,160102,1,8,0:0:0:0:
320,128,160177,1,0,0:0:0:0:
256,128,160327,1,8,0:0:0:0:
256,128,160477,1,8,0:0:0:0:
192,128,160627,1,0,0:0:0:0:
192,288,160702,1,0,0:0:0:0:
224,160,160777,1,8,0:0:0:0:
256,160,160852,1,0,0:0:0:0:
256,160,160927,1,8,0:0:0:0:
192,128,161002,1,8,0:0:0:0:
192,224,161077,1,0,0:0:0:0:
352,224,161227,1,8,0:0:0:0:
384,256,161377,1,0,0:0:0:0:
384,256,161452,1,0,0:0:0:0:
288,224,161527,1,8,0:0:0:0:
320,192,161677,1,8,0:0:0:0:
288,160,161827,1,0,0:0:0:0:
256,192,161902,1,0,0:0:0:0:
192,160,161977,1,0,0:0:0:0:
256,192,162127,1,8,0:0:0:0:
256,160,162277,1,0,0:0:0:0:
256,160,162352,1,0,0:0:0:0:
256,160,162427,1,8,0:0:0:0:
256,160,162502,1,8,0:0:0:0:
256,160,162577,1,0,0:0:0:0:
352,192,162727,1,8,0:0:0:0:
352,192,162877,1,8,0:0:0:0:
352,192,163027,1,0,0:0:0:0:
224,288,163102,1,8,0:0:0:0:
256,320,163177,1,8,0:0:0:0:
288,224,163252,1,0,0:0:0:0:
256,224,163327,1,8,0:0:0:0:
224,192,163402,1,8,0:0:0:0:
224,192,163477,1,0,0:0:0:0:
224,224,163627,1,8,0:0:0:0:
256,224,163777,1,0,0:0:0:0:
192,192,163852,1,0,0:0:0:0:
288,192,163927,1,0,0:0:0:0:
320,192,164077,1,8,0:0:0:0:
320,192,164227,1,0,0:0:0:0:
288,160,164302,1,0,0:0:0:0:
256,160,164377,1,8,0:0:0:0:
256,160,164527,1,0,0:0:0:0:
288,160,164677,1,8,0:0:0:0:
224,192,164752,1,8,0:0:0:0:
224,192,164827,1,8,0:0:0:0:
224,192,164902,1,8,0:0:0:0:
224,160,164977,1,0,0:0:0:0:
160,192,165127,1,8,0:0:0:0:
224,160,165277,1,8,0:0:0:0:
224,160,165427,1,0,0:0:0:0:
64,192,165502,1,0,0:0:0:0:
256,192,165577,1,8,0:0:0:0:
256,192,165652,1,0,0:0:0:0:
256,192,165727,1,8,0:0:0:0:
256,192,165802,1,8,0:0:0:0:
224,192,165877,1,0,0:0:0:0:
224,192,166027,1,8,0:0:0:0:
320,256,166177,1,0,0:0:0:0:
320,256,166252,1,0,0:0:0:0:
288,224,166327,1,8,0:0:0:0:
224,192,166477,1,8,0:0:0:0:
288,192,166627,1,0,0:0:0:0:
224,160,166702,1,0,0:0:0:0:
288,192,166777,1,0,0:0:0:0:
288,160,166927,1,8,0:0:0:0:
192,192,167077,1,0,0:0:0:0:
224,192,167152,1,0,0:0:0:0:
288,128,167227,1,8,0:0:0:0:
256,160,167302,1,8,0:0:0:0:
224,160,167377,1,0,0:0:0:0:
320,160,167527,1,8,0:0:0:0:
288,160,167677,1,0,0:0:0:0:
320,160,167752,1,0,0:0:0:0:
320,160,167827,1,8,0:0:0:0:
320,192,167902,1,0,0:0:0:0:
224,160,167977,1,0,0:0:0:0:
224,160,168052,1,8,0:0:0:0:
224,160,168127,1,8,0:0:0:0:
224,160,168202,1,0,0:0:0:0:
224,160,168277,1,8,0:0:0:0:
288,192,168427,1,4,0:0:0:0:
288,256,168727,1,8,0:0:0:0:
288,256,168877,1,8,0:0:0:0:
320,256,169027,1,0,0:0:0:0:
288,224,169102,1,0,0:0:0:0:
288,224,169177,1,0,0:0:0:0:
320,160,169327,1,8,0:0:0:0:
256,224,169477,1,0,0:0:0:0:
224,192,169552,1,0,0:0:0:0:
320,224,169627,1,8,0:0:0:0:
320,224,169702,1,8,0:0:0:0:
320,128,169777,1,0,0:0:0:0:
256,128,169927,1,8,0:0:0:0:
256,128,170077,1,8,0:0:0:0:
192,128,170227,1,0,0:0:0:0:
192,288,170302,1,0,0:0:0:0:
224,160,170377,1,8,0:0:0:0:
256,160,170452,1,0,0:0:0:0:
256,160,170527,1,8,0:0:0:0:
192,128,170602,1,8,0:0:0:0:
192,224,170677,1,0,0:0:0:0:
352,224,170827,1,8,0:0:0:0:
384,256,170977,1,0,0:0:0:0:
384,256,171052,1,0,0:0:0:0:
288,224,171127,1,8,0:0:0:0:
320,192,171277,1,8,0:0:0:0:
288,160,171427,1,0,0:0:0:0:
256,192,171502,1,0,0:0:0:0:
192,160,171577,1,0,0:0:0:0:
256,192,171727,1,8,0:0:0:0:
256,160,171877,1,0,0:0:0:0:
256,160,171952,1,0,0:0:0:0:
256,160,172027,1,8,0:0:0:0:
256,160,172102,1,8,0:0:0:0:
256,160,172177,1,0,0:0:0:0:
352,192,172327,1,8,0:0:0:0:
352,192,172477,1,8,0:0:0:0:
352,192,172627,1,0,0:0:0:0:
224,288,172702,1,8,0:0:0:0:
256,320,172777,1,8,0:0:0:0:
288,224,172852,1,0,0:0:0:0:
256,224,172927,1,8,0:0:0:0:
224,192,173002,1,8,0:0:0:0:
224,192,173077,1,0,0:0:0:0:
224,224,173227,1,8,0:0:0:0:
256,224,173377,1,0,0:0:0:0:
192,192,173452,1,0,0:0:0:0:
288,192,173527,1,0,0:0:0:0:
320,192,173677,1,8,0:0:0:0:
320,192,173827,1,0,0:0:0:0:
288,160,173902,1,0,0:0:0:0:
256,160,173977,1,8,0:0:0:0:
256,160,174127,1,0,0:0:0:0:
288,160,174277,1,8,0:0:0:0:
224,192,174352,1,8,0:0:0:0:
224,192,174427,1,8,0:0:0:0:
224,192,174502,1,8,0:0:0:0:
224,160,174577,1,0,0:0:0:0:
160,192,174727,1,8,0:0:0:0:
224,160,174877,1,8,0:0:0:0:
224,160,175027,1,0,0:0:0:0:
64,192,175102,1,0,0:0:0:0:
256,192,175177,1,8,0:0:0:0:
256,192,175252,1,0,0:0:0:0:
256,192,175327,1,8,0:0:0:0:
256,192,175402,1,8,0:0:0:0:
224,192,175477,1,0,0:0:0:0:
224,192,175627,1,8,0:0:0:0:
320,256,175777,1,0,0:0:0:0:
320,256,175852,1,0,0:0:0:0:
288,224,175927,1,8,0:0:0:0:
224,192,176077,1,8,0:0:0:0:
288,192,176227,1,0,0:0:0:0:
224,160,176302,1,0,0:0:0:0:
288,192,176377,1,0,0:0:0:0:
288,160,176527,1,8,0:0:0:0:
192,192,176677,1,0,0:0:0:0:
224,192,176752,1,0,0:0:0:0:
288,128,176827,1,8,0:0:0:0:
256,160,176902,1,8,0:0:0:0:
224,160,176977,1,0,0:0:0:0:
320,160,177127,1,8,0:0:0:0:
288,160,177277,1,0,0:0:0:0:
320,160,177352,1,0,0:0:0:0:
320,160,177427,1,8,0:0:0:0:
320,192,177502,1,0,0:0:0:0:
224,160,177577,1,0,0:0:0:0:
224,160,177652,1,8,0:0:0:0:
224,160,177727,1,8,0:0:0:0:
296,150,177802,1,0,0:0:0:0:
215,279,177877,1,8,0:0:0:0:
353,246,178027,1,4,0:0:0:0:
353,246,178177,1,4,0:0:0:0:
296,229,178327,1,12,0:0:0:0:
219,210,178477,1,4,0:0:0:0:
400,210,178777,1,12,0:0:0:0:
400,210,178927,1,4,0:0:0:0:
301,187,179077,1,12,0:0:0:0:
