osu file format v14

[General]
AudioFilename: audio.mp3
AudioLeadIn: 0
PreviewTime: 57427
Countdown: 0
SampleSet: Normal
StackLeniency: 0.7
Mode: 0
LetterboxInBreaks: 0
WidescreenStoryboard: 1

[Editor]
DistanceSpacing: 0.9
BeatDivisor: 4
GridSize: 4
TimelineZoom: 1.8

[Metadata]
Title:Mousou Kajitsu
TitleUnicode:妄想果実
Artist:Nanaki feat.GUMI
ArtistUnicode:七希 feat.GUMI
Creator:Alphabet
Version:Normal
Source:
Tags:Fancies Fruit vocaloid megpoid Shmiklak M_a_r_v_o_l_l_o Gero Hazu- Kibbleru Karen _DT3 TurtleStuffs Lokidoki vanucik
BeatmapID:1399666
BeatmapSetID:660693

[Difficulty]
HPDrainRate:3
CircleSize:3
OverallDifficulty:3
ApproachRate:4.5
SliderMultiplier:0.999999999999999
SliderTickRate:1

[Events]
//Background and Video events
0,0,"wallpapr.jpg",0,0
//Break Periods
//Storyboard Layer 0 (Background)
//Storyboard Layer 1 (Fail)
//Storyboard Layer 2 (Pass)
//Storyboard Layer 3 (Foreground)
//Storyboard Sound Samples

[TimingPoints]
427,300,4,1,1,55,1,0
1027,-100,4,1,1,55,0,0
2827,-100,4,1,1,55,0,0
3427,-100,4,1,1,55,0,0
5227,-100,4,1,1,55,0,0
5677,-100,4,1,1,55,0,0
10027,-100,4,1,1,65,0,0
29227,-100,4,1,1,65,0,0
37627,-100,4,1,1,65,0,0
38827,-100,4,1,1,65,0,0
57427,-100,4,1,1,65,0,0
58027,-100,4,1,1,75,0,1
58177,-100,4,1,1,75,0,1
66427,-100,4,1,1,75,0,0
67027,-100,4,1,1,75,0,0
67627,-100,4,1,1,75,0,1
76027,-100,4,1,1,75,0,1
76627,-100,4,1,1,75,0,1
78727,-100,4,1,1,75,0,1
79027,-100,4,1,1,75,0,1
79327,-100,4,1,1,75,0,0

[Colours]
Combo1 : 255,128,64
Combo2 : 123,62,62
Combo3 : 150,255,45
SliderBorder : 255,255,255
SliderTrackOverride : 30,30,30

[HitObjects]
106,290,427,6,0,P|159:307|274:228,1,200,6|2,0:0|0:0,0:0:0:0:
285,145,1327,1,0,0:0:0:0:
358,196,1627,2,0,P|373:149|354:89,1,99.9999999999999,0|2,0:0|0:0,0:0:0:0:
291,43,2227,2,0,P|244:28|184:47,1,99.9999999999999,2|0,0:0|0:0,0:0:0:0:
120,89,2827,6,0,B|62:109|9:76|9:76|30:121|6:169,2,200,6|2|0,0:0|0:0|0:0,0:0:0:0:
195,39,4327,1,0,0:0:0:0:
204,128,4627,2,0,L|211:238,1,99.9999999999999,2|2,0:0|0:0,0:0:0:0:
133,275,5227,6,0,P|213:320|300:249,1,200,6|2,0:0|0:0,0:0:0:0:
312,176,6127,1,0,0:0:0:0:
320,86,6427,2,0,P|366:76|432:101,1,99.9999999999999,0|2,0:0|0:0,0:0:0:0:
408,179,7027,2,0,P|362:189|296:164,1,99.9999999999999,0|2,0:0|0:0,0:0:0:0:
313,175,10027,6,0,L|320:289,1,99.9999999999999,6|8,0:0|0:0,0:0:0:0:
229,286,10627,2,0,L|222:172,1,99.9999999999999,2|8,0:0|0:0,0:0:0:0:
221,96,11227,2,0,B|175:117|122:97|122:97|67:73|19:98,1,200,2|0,0:0|0:0,0:0:0:0:
3,181,12127,1,8,0:0:0:0:
33,265,12427,6,0,P|72:277|131:261,1,99.9999999999999,2|8,0:0|0:0,0:0:0:0:
192,199,13027,2,0,P|231:187|290:203,1,99.9999999999999,2|8,0:0|0:0,0:0:0:0:
352,263,13627,2,0,P|340:200|422:96,1,200,2|0,0:0|0:0,0:0:0:0:
478,31,14527,1,8,0:0:0:0:
388,21,14827,6,0,P|348:41|294:94,1,99.9999999999999,2|8,0:0|0:0,0:0:0:0:
264,156,15427,2,0,P|258:200|271:274,1,99.9999999999999,2|8,0:0|0:0,0:0:0:0:
312,331,16027,2,0,B|243:318|243:318|98:337,1,200,2|0,0:0|0:0,0:0:0:0:
24,344,16927,1,8,0:0:0:0:
63,263,17227,6,0,P|76:213|63:155,1,99.9999999999999,2|8,0:0|0:0,0:0:0:0:
46,78,17827,2,0,P|96:91|154:78,1,99.9999999999999,2|8,0:0|0:0,0:0:0:0:
226,48,18427,2,0,P|276:35|334:48,2,99.9999999999999,2|12|2,0:0|0:0|0:0,0:0:0:0:
142,82,19327,1,12,0:0:0:0:
191,157,19627,6,0,B|203:226|203:226|183:284|183:284|195:359,1,200,6|0,0:0|0:0,0:0:0:0:
282,337,20527,1,8,0:0:0:0:
369,358,20827,2,0,L|477:365,1,99.9999999999999,2|8,0:0|0:0,0:0:0:0:
479,275,21427,2,0,L|371:268,1,99.9999999999999,2|8,0:0|0:0,0:0:0:0:
291,250,22027,6,0,B|272:201|298:155|298:155|272:97|314:41,1,200,2|0,0:0|0:0,0:0:0:0:
376,110,22927,1,8,0:0:0:0:
450,58,23227,2,0,P|465:114|443:171,1,99.9999999999999,2|8,0:0|0:0,0:0:0:0:
377,199,23827,2,0,P|362:255|384:312,1,99.9999999999999,2|8,0:0|0:0,0:0:0:0:
447,343,24427,6,0,P|385:320|254:344,1,200,2|0,0:0|0:0,0:0:0:0:
169,369,25327,1,8,0:0:0:0:
111,299,25627,2,0,P|134:237|110:106,1,200,2|0,0:0|0:0,0:0:0:0:
66,30,26527,1,8,0:0:0:0:
155,37,26827,6,0,L|256:43,1,99.9999999999999,2|8,0:0|0:0,0:0:0:0:
288,126,27427,2,0,L|389:132,1,99.9999999999999,2|8,0:0|0:0,0:0:0:0:
477,141,28027,5,2,0:0:0:0:
424,214,28327,1,12,0:0:0:0:
463,295,28627,2,0,L|340:299,1,99.9999999999999,2|12,0:0|0:0,0:0:0:0:
283,341,29227,6,0,P|273:295|297:234,1,99.9999999999999,6|8,0:0|0:0,0:0:0:0:
344,175,29827,2,0,P|354:129|330:68,2,99.9999999999999,2|8|2,0:0|0:0|0:0,0:0:0:0:
288,245,30727,1,8,0:0:0:0:
199,260,31027,2,0,L|82:265,1,99.9999999999999,2|8,0:0|0:0,0:0:0:0:
97,174,31627,6,0,L|214:169,2,99.9999999999999,2|8|2,0:0|0:0|0:0,0:0:0:0:
24,121,32527,1,8,0:0:0:0:
81,51,32827,2,0,B|180:33|180:33|283:53,1,200,2|0,0:0|0:0,0:0:0:0:
357,93,33727,1,8,0:0:0:0:
436,51,34027,6,0,P|445:91|425:156,1,99.9999999999999,2|8,0:0|0:0,0:0:0:0:
348,184,34627,2,0,P|338:232|353:280,2,99.9999999999999,2|8|2,0:0|0:0|0:0,0:0:0:0:
426,227,35527,1,8,0:0:0:0:
436,316,35827,2,0,P|402:354|342:373,1,99.9999999999999,2|8,0:0|0:0,0:0:0:0:
267,363,36427,6,0,L|157:355,2,99.9999999999999,2|8|2,0:0|0:0|0:0,0:0:0:0:
320,290,37327,1,8,0:0:0:0:
268,215,37627,1,2,0:0:0:0:
268,215,38827,6,0,L|380:217,2,99.9999999999999,6|8|2,0:0|0:0|0:0,0:0:0:0:
183,185,39727,1,8,0:0:0:0:
102,224,40027,2,0,L|-10:226,2,99.9999999999999,2|8|2,0:0|0:0|0:0,0:0:0:0:
183,185,40927,1,8,0:0:0:0:
122,118,41227,6,0,P|109:80|123:21,2,99.9999999999999,2|8|2,0:0|0:0|0:0,0:0:0:0:
183,185,42127,1,8,0:0:0:0:
248,122,42427,2,0,L|354:117,1,99.9999999999999,2|8,0:0|0:0,0:0:0:0:
431,82,43027,2,0,L|436:188,1,99.9999999999999,2|8,0:0|0:0,0:0:0:0:
464,267,43627,6,0,P|479:310|466:364,2,99.9999999999999,2|8|2,0:0|0:0|0:0,0:0:0:0:
375,242,44527,1,8,0:0:0:0:
289,270,44827,2,0,P|274:313|287:367,2,99.9999999999999,2|8|2,0:0|0:0|0:0,0:0:0:0:
375,242,45727,1,8,0:0:0:0:
428,169,46027,6,0,L|439:66,2,99.9999999999999,2|8|2,0:0|0:0|0:0,0:0:0:0:
375,242,46927,1,8,0:0:0:0:
310,179,47227,2,0,P|266:162|197:173,1,99.9999999999999,2|8,0:0|0:0,0:0:0:0:
142,221,47827,2,0,L|137:279,2,50,2|2|8,0:0|0:0|0:0,0:0:0:0:
60,183,48427,6,0,L|42:389,1,200,6|2,0:0|0:0,0:0:0:0:
220,353,49627,2,0,P|236:306|225:247,1,99.9999999999999,6|10,0:0|0:0,0:0:0:0:
187,177,50227,2,0,P|171:130|182:71,1,99.9999999999999,2|2,0:0|0:0,0:0:0:0:
248,26,50827,6,0,B|312:20|312:20|375:40|375:40|459:33,1,200,6|2,0:0|0:0,0:0:0:0:
286,121,52027,2,0,P|274:170|286:224,1,99.9999999999999,6|8,0:0|0:0,0:0:0:0:
341,287,52627,2,0,P|292:275|238:287,1,99.9999999999999,2|2,0:0|0:0,0:0:0:0:
178,345,53227,6,0,B|138:287|178:226|178:226|140:244|92:229,1,200,6|2,0:0|0:0,0:0:0:0:
27,190,54127,1,6,0:0:0:0:
81,118,54427,2,0,P|94:80|81:18,2,99.9999999999999,2|8|2,0:0|0:0|0:0,0:0:0:0:
27,190,55327,1,2,0:0:0:0:
94,249,55627,5,8,0:0:0:0:
177,216,55927,1,8,0:0:0:0:
245,274,56227,2,0,L|357:296,1,99.9999999999999,8|8,0:0|0:0,0:0:0:0:
425,256,56827,1,8,0:0:0:0:
425,256,58027,6,0,P|416:188|462:118,2,150,6|0|10,0:0|0:0|0:0,0:0:0:0:
464,337,59227,1,2,0:0:0:0:
374,325,59527,1,8,0:0:0:0:
294,366,59827,2,2,L|180:370,1,99.9999999999999,2|10,0:0|0:0,0:0:0:0:
112,331,60427,6,0,P|88:277|112:180,2,150,2|0|8,0:0|0:0|0:0,0:0:0:0:
194,369,61627,1,2,0:0:0:0:
260,308,61927,2,0,P|271:262|251:202,1,99.9999999999999,8|2,0:0|0:0,0:0:0:0:
191,150,62527,1,8,0:0:0:0:
141,75,62827,6,0,P|210:60|273:113,1,150,2|0,0:0|0:0,0:0:0:0:
319,231,63727,1,8,0:0:0:0:
349,315,64027,2,0,P|401:328|457:311,2,99.9999999999999,2|8|2,0:0|0:0|0:0,0:0:0:0:
319,231,64927,1,8,0:0:0:0:
394,182,65227,6,0,L|505:192,1,99.9999999999999,6|8,0:0|0:0,0:0:0:0:
505,101,65827,2,0,L|394:91,1,99.9999999999999,6|8,0:0|0:0,0:0:0:0:
319,66,66427,5,6,0:0:0:0:
235,100,66727,1,12,0:0:0:0:
154,60,67027,1,6,0:0:0:0:
72,98,67327,1,12,0:0:0:0:
25,174,67627,6,0,P|1:236|28:334,2,150,6|0|8,0:0|0:0|0:0,0:0:0:0:
72,98,68827,1,2,0:0:0:0:
127,169,69127,2,0,L|139:286,1,99.9999999999999,8|2,0:0|0:0,0:0:0:0:
183,345,69727,1,8,0:0:0:0:
260,298,70027,6,0,P|328:285|411:322,2,150,2|0|8,0:0|0:0|0:0,0:0:0:0:
183,345,71227,1,2,0:0:0:0:
124,276,71527,2,0,P|115:235|130:178,1,99.9999999999999,8|2,0:0|0:0,0:0:0:0:
195,118,72127,1,8,0:0:0:0:
282,140,72427,6,0,B|358:155|358:155|451:135,1,150,2|0,0:0|0:0,0:0:0:0:
464,269,73327,1,8,0:0:0:0:
405,337,73627,2,0,P|367:344|301:335,1,99.9999999999999,2|8,0:0|0:0,0:0:0:0:
227,292,74227,2,0,P|189:285|123:294,1,99.9999999999999,2|8,0:0|0:0,0:0:0:0:
48,333,74827,6,0,L|53:225,1,99.9999999999999,6|8,0:0|0:0,0:0:0:0:
8,154,75427,2,0,L|116:159,1,99.9999999999999,6|8,0:0|0:0,0:0:0:0:
193,130,76027,5,6,0:0:0:0:
268,178,76327,1,12,0:0:0:0:
343,129,76627,1,6,0:0:0:0:
419,176,76927,1,12,0:0:0:0:
491,122,77227,6,0,P|502:95|499:19,2,99.9999999999999,6|8|2,0:0|0:0|0:0,0:0:0:0:
419,176,78127,1,8,0:0:0:0:
468,251,78427,2,0,B|419:275|370:250|370:250|326:226|272:249,1,200,2|0,0:0|0:0,0:0:0:0:
232,327,79327,1,2,0:0:0:0:
321,323,79627,5,6,0:0:0:0:
256,192,79927,12,0,84427,0:0:0:0:
