osu file format v14

[General]
AudioFilename: audio.mp3
AudioLeadIn: 0
PreviewTime: 41889
Countdown: 0
SampleSet: Soft
StackLeniency: 0.4
Mode: 0
LetterboxInBreaks: 0
WidescreenStoryboard: 1

[Editor]
Bookmarks: 14815,28432,42049,59070,65878,79495,93112,110134,116942,130559,144176,154389,168006,171410,186623,202049,208857,215666
DistanceSpacing: 1
BeatDivisor: 4
GridSize: 32
TimelineZoom: 2

[Metadata]
Title:No.39
TitleUnicode:No.39
Artist:Nanahoshi Kangengakudan feat. Hatsune Miku
ArtistUnicode:ナナホシ管弦楽団 feat. 初音ミク
Creator:Petal
Version:No.01
Source:
Tags:owc2023fnm3 osu! world cup finals no39 no,39 vocaloid san kyuu sankyuu ABnormal LEGACY 善因善果推奨委員会 Zen'in Zenka Suishou Iinkai rock j-rock pop j-pop guitar hujuniseikouyuup fujuniseikouyuup 不純異性交遊p illicit sexual relations monaka モナカ exit tunes no thank you nanahoshi orchestra japanese iwami takashi 岩見陸 alternate vocarock matha kowari sagu setu hinsvar koldnoodl cjstmdals
BeatmapID:4384633
BeatmapSetID:2091778

[Difficulty]
HPDrainRate:4.8
CircleSize:4
OverallDifficulty:9.6
ApproachRate:9.8
SliderMultiplier:1.2
SliderTickRate:1

[Events]
//Background and Video events
0,0,"BG.jpg",0,0
//Break Periods
//Storyboard Layer 0 (Background)
//Storyboard Layer 1 (Fail)
//Storyboard Layer 2 (Pass)
//Storyboard Layer 3 (Foreground)
//Storyboard Layer 4 (Overlay)
//Storyboard Sound Samples

[TimingPoints]
347,212.765957446809,4,2,1,60,1,0
1091,-62.5,4,2,1,70,0,0
1411,-50,4,2,1,70,0,0
1942,-62.5,4,2,1,70,0,0
2262,-50,4,2,1,70,0,0
2794,-62.5,4,2,1,70,0,0
3113,-50,4,2,1,70,0,0
3804,-50,4,2,1,5,0,0
3857,-50,4,2,1,70,0,0
4496,-62.5,4,2,1,70,0,0
4815,-50,4,2,1,70,0,0
5347,-62.5,4,2,1,70,0,0
5666,-50,4,2,1,70,0,0
6198,-62.5,4,2,1,70,0,0
6518,-50,4,2,1,70,0,0
7209,-50,4,2,1,5,0,0
7262,-50,4,2,1,70,0,0
7900,-62.5,4,2,1,70,0,0
8219,-50,4,2,1,70,0,0
8751,-62.5,4,2,1,70,0,0
9070,-50,4,2,1,70,0,0
9602,-62.5,4,2,1,70,0,0
9921,-50,4,2,1,70,0,0
10612,-50,4,2,1,5,0,0
10666,-50,4,2,1,70,0,0
11304,-62.5,4,2,1,70,0,0
11623,-50,4,2,1,70,0,0
12155,-62.5,4,2,1,70,0,0
12474,-50,4,2,1,70,0,0
13006,-62.5,4,2,1,70,0,0
13325,-50,4,2,1,70,0,0
14016,-50,4,2,1,5,0,0
14070,-50,4,2,1,70,0,0
14176,-71.4285714285714,4,2,1,70,0,0
14708,-71.4285714285714,4,2,1,60,0,0
15028,-55.5555555555556,4,2,1,60,0,0
15187,-55.5555555555556,4,2,1,5,0,0
15240,-55.5555555555556,4,2,1,60,0,0
15612,-55.5555555555556,4,2,1,5,0,0
15666,-55.5555555555556,4,2,1,60,0,0
16038,-55.5555555555556,4,2,1,5,0,0
16091,-55.5555555555556,4,2,1,60,0,0
16304,-71.4285714285714,4,2,1,60,0,0
17155,-55.5555555555556,4,2,1,60,0,0
17314,-55.5555555555556,4,2,1,5,0,0
17368,-55.5555555555556,4,2,1,60,0,0
17740,-55.5555555555556,4,2,1,5,0,0
17794,-55.5555555555556,4,2,1,60,0,0
18006,-71.4285714285714,4,2,1,60,0,0
18219,-55.5555555555556,4,2,1,60,0,0
18378,-55.5555555555556,4,2,1,5,0,0
18432,-55.5555555555556,4,2,1,60,0,0
18538,-71.4285714285714,4,2,1,60,0,0
18857,-55.5555555555556,4,2,1,60,0,0
19016,-55.5555555555556,4,2,1,5,0,0
19070,-55.5555555555556,4,2,1,60,0,0
19442,-55.5555555555556,4,2,1,5,0,0
19495,-55.5555555555556,4,2,1,60,0,0
19708,-71.4285714285714,4,2,1,60,0,0
20559,-55.5555555555556,4,2,1,60,0,0
20718,-55.5555555555556,4,2,1,5,0,0
20772,-55.5555555555556,4,2,1,60,0,0
21144,-55.5555555555556,4,2,1,5,0,0
21198,-55.5555555555556,4,2,1,60,0,0
21623,-71.4285714285714,4,2,1,60,0,0
22262,-55.5555555555556,4,2,1,60,0,0
22421,-55.5555555555556,4,2,1,5,0,0
22474,-55.5555555555556,4,2,1,60,0,0
22846,-55.5555555555556,4,2,1,5,0,0
22899,-55.5555555555556,4,2,1,60,0,0
23113,-71.4285714285714,4,2,1,60,0,0
23964,-55.5555555555556,4,2,1,60,0,0
24123,-55.5555555555556,4,2,1,5,0,0
24177,-55.5555555555556,4,2,1,60,0,0
24548,-55.5555555555556,4,2,1,5,0,0
24601,-55.5555555555556,4,2,1,60,0,0
25187,-55.5555555555556,4,2,1,5,0,0
25240,-55.5555555555556,4,2,1,60,0,0
25453,-71.4285714285714,4,2,1,60,0,0
25666,-55.5555555555556,4,2,1,60,0,0
25825,-55.5555555555556,4,2,1,5,0,0
25879,-55.5555555555556,4,2,1,60,0,0
26304,-45.4545454545455,4,2,1,60,0,0
26517,-71.4285714285714,4,2,1,60,0,0
27155,-125,4,2,1,60,0,0
28325,-62.5,4,2,1,70,0,0
28645,-55.5555555555556,4,2,1,70,0,0
28804,-55.5555555555556,4,2,1,5,0,0
28857,-55.5555555555556,4,2,1,70,0,0
29176,-62.5,4,2,1,70,0,0
29496,-55.5555555555556,4,2,1,70,0,0
29655,-55.5555555555556,4,2,1,5,0,0
29708,-55.5555555555556,4,2,1,70,0,0
30028,-71.4285714285714,4,2,1,70,0,0
30347,-55.5555555555556,4,2,1,70,0,0
30506,-55.5555555555556,4,2,1,5,0,0
30559,-55.5555555555556,4,2,1,70,0,0
30772,-62.5,4,2,1,70,0,0
30985,-55.5555555555556,4,2,1,70,0,0
31144,-55.5555555555556,4,2,1,5,0,0
31198,-55.5555555555556,4,2,1,70,0,0
32049,-62.5,4,2,1,70,0,0
32900,-55.5555555555556,4,2,1,70,0,0
33059,-55.5555555555556,4,2,1,5,0,0
33112,-55.5555555555556,4,2,1,70,0,0
33591,-55.5555555555556,4,2,1,5,0,0
33645,-55.5555555555556,4,2,1,70,0,0
33751,-62.5,4,2,1,70,0,0
34389,-55.5555555555556,4,2,1,70,0,0
34548,-55.5555555555556,4,2,1,5,0,0
34601,-55.5555555555556,4,2,1,70,0,0
34815,-71.4285714285714,4,2,1,70,0,0
34868,-71.4285714285714,4,2,1,5,0,0
34921,-71.4285714285714,4,2,1,70,0,0
34974,-71.4285714285714,4,2,1,5,0,0
35134,-71.4285714285714,4,2,1,70,0,0
35453,-55.5555555555556,4,2,1,70,0,0
35612,-55.5555555555556,4,2,1,5,0,0
35666,-55.5555555555556,4,2,1,70,0,0
36250,-55.5555555555556,4,2,1,5,0,0
36304,-55.5555555555556,4,2,1,70,0,0
36517,-71.4285714285714,4,2,1,70,0,0
36570,-71.4285714285714,4,2,1,5,0,0
36623,-71.4285714285714,4,2,1,70,0,0
36676,-71.4285714285714,4,2,1,5,0,0
36730,-71.4285714285714,4,2,1,70,0,0
37368,-55.5555555555556,4,2,1,70,0,0
37527,-55.5555555555556,4,2,1,5,0,0
37581,-55.5555555555556,4,2,1,70,0,0
37953,-55.5555555555556,4,2,1,5,0,0
38006,-55.5555555555556,4,2,1,70,0,0
38378,-55.5555555555556,4,2,1,5,0,0
38432,-55.5555555555556,4,2,1,70,0,0
39283,-62.5,4,2,1,70,0,0
39496,-55.5555555555556,4,2,1,70,0,0
39655,-55.5555555555556,4,2,1,5,0,0
39708,-55.5555555555556,4,2,1,70,0,0
40134,-50,4,2,1,70,0,0
41304,-83.3333333333333,4,2,1,60,0,0
41517,-83.3333333333333,4,2,1,65,0,0
41730,-83.3333333333333,4,2,1,70,0,0
41942,-55.5555555555556,4,2,2,80,0,1
42262,-50,4,2,1,80,0,1
42421,-50,4,2,1,5,0,1
42474,-50,4,2,1,80,0,1
42846,-50,4,2,1,5,0,1
42900,-62.5,4,2,1,80,0,1
43113,-50,4,2,1,80,0,1
43272,-50,4,2,1,5,0,1
43325,-50,4,2,1,80,0,1
43645,-45.4545454545455,4,2,1,80,0,1
43964,-50,4,2,1,80,0,1
44548,-50,4,2,1,5,0,1
44602,-62.5,4,2,1,80,0,1
44815,-50,4,2,1,80,0,1
46198,-45.4545454545455,4,2,1,80,0,1
46357,-45.4545454545455,4,2,1,5,0,1
46411,-45.4545454545455,4,2,1,80,0,1
46517,-50,4,2,1,80,0,1
47900,-45.4545454545455,4,2,1,80,0,1
48059,-45.4545454545455,4,2,1,5,0,1
48113,-45.4545454545455,4,2,1,80,0,1
48219,-50,4,2,1,80,0,1
48751,-55.5555555555556,4,2,1,80,0,1
49070,-50,4,2,1,80,0,1
49229,-50,4,2,1,5,0,1
49283,-50,4,2,1,80,0,1
49655,-50,4,2,1,5,0,1
49708,-62.5,4,2,1,80,0,1
50453,-45.4545454545455,4,2,1,80,0,1
50772,-50,4,2,1,80,0,1
51357,-50,4,2,1,5,0,1
51411,-50,4,2,1,80,0,1
53006,-41.6666666666667,4,2,1,80,0,1
53165,-41.6666666666667,4,2,1,5,0,1
53219,-41.6666666666667,4,2,1,80,0,1
53325,-50,4,2,1,80,0,1
54708,-45.4545454545455,4,2,1,80,0,1
54867,-45.4545454545455,4,2,1,5,0,1
54921,-45.4545454545455,4,2,1,80,0,1
55028,-50,4,2,1,80,0,1
55825,-50,4,2,1,5,0,1
55879,-50,4,2,1,80,0,1
56517,-100,4,2,1,65,0,1
57368,-55.5555555555556,4,2,1,80,0,1
58006,-50,4,2,1,80,0,1
58219,-62.5,4,2,1,80,0,1
58645,-45.4545454545455,4,2,1,80,0,1
58804,-45.4545454545455,4,2,1,5,0,1
58857,-45.4545454545455,4,2,1,80,0,1
58964,-62.5,4,2,1,70,0,0
59283,-50,4,2,1,70,0,0
59815,-62.5,4,2,1,70,0,0
60134,-50,4,2,1,70,0,0
60666,-62.5,4,2,1,70,0,0
60985,-50,4,2,1,70,0,0
61676,-50,4,2,1,5,0,0
61730,-50,4,2,1,70,0,0
62369,-62.5,4,2,1,70,0,0
62687,-50,4,2,1,70,0,0
63219,-62.5,4,2,1,70,0,0
63538,-50,4,2,1,70,0,0
64070,-62.5,4,2,1,70,0,0
64389,-50,4,2,1,70,0,0
65080,-50,4,2,1,5,0,0
65134,-50,4,2,1,70,0,0
65772,-83.3333333333333,4,2,1,60,0,0
66091,-62.5,4,2,1,60,0,0
66250,-62.5,4,2,1,5,0,0
66304,-62.5,4,2,1,60,0,0
66676,-62.5,4,2,1,5,0,0
66730,-62.5,4,2,1,60,0,0
67101,-62.5,4,2,1,5,0,0
67155,-62.5,4,2,1,60,0,0
67368,-71.4285714285714,4,2,1,60,0,0
68645,-62.5,4,2,1,60,0,0
68804,-62.5,4,2,1,5,0,0
68857,-62.5,4,2,1,60,0,0
68964,-71.4285714285714,4,2,1,60,0,0
69176,-62.5,4,2,1,60,0,0
69655,-62.5,4,2,1,5,0,0
69708,-62.5,4,2,1,60,0,0
70080,-62.5,4,2,1,5,0,0
70134,-62.5,4,2,1,60,0,0
70506,-62.5,4,2,1,5,0,0
70559,-62.5,4,2,1,60,0,0
70772,-71.4285714285714,4,2,1,60,0,0
72581,-71.4285714285714,4,2,1,70,0,0
72900,-62.5,4,2,1,70,0,0
73059,-62.5,4,2,1,5,0,0
73113,-62.5,4,2,1,70,0,0
73484,-62.5,4,2,1,5,0,0
73538,-62.5,4,2,1,70,0,0
73910,-62.5,4,2,1,5,0,0
73964,-62.5,4,2,1,70,0,0
74176,-71.4285714285714,4,2,1,70,0,0
75453,-62.5,4,2,1,70,0,0
75612,-62.5,4,2,1,5,0,0
75666,-62.5,4,2,1,70,0,0
76091,-55.5555555555556,4,2,1,70,0,0
76250,-55.5555555555556,4,2,1,5,0,0
76304,-55.5555555555556,4,2,1,70,0,0
76730,-62.5,4,2,1,70,0,0
77314,-62.5,4,2,1,5,0,0
77368,-45.4545454545455,4,2,1,70,0,0
77581,-71.4285714285714,4,2,1,70,0,0
78219,-125,4,2,1,70,0,0
79389,-62.5,4,2,1,70,0,0
79708,-55.5555555555556,4,2,1,70,0,0
79867,-55.5555555555556,4,2,1,5,0,0
79921,-55.5555555555556,4,2,1,70,0,0
80134,-62.5,4,2,1,70,0,0
80559,-55.5555555555556,4,2,1,70,0,0
80718,-55.5555555555556,4,2,1,5,0,0
80772,-55.5555555555556,4,2,1,70,0,0
81091,-71.4285714285714,4,2,1,70,0,0
81411,-55.5555555555556,4,2,1,70,0,0
81570,-55.5555555555556,4,2,1,5,0,0
81623,-55.5555555555556,4,2,1,70,0,0
81836,-62.5,4,2,1,70,0,0
82049,-55.5555555555556,4,2,1,70,0,0
82208,-55.5555555555556,4,2,1,5,0,0
82262,-55.5555555555556,4,2,1,70,0,0
83325,-62.5,4,2,1,70,0,0
83645,-71.4285714285714,4,2,1,70,0,0
83964,-55.5555555555556,4,2,1,70,0,0
84123,-55.5555555555556,4,2,1,5,0,0
84176,-55.5555555555556,4,2,1,70,0,0
84655,-55.5555555555556,4,2,1,5,0,0
84708,-55.5555555555556,4,2,1,70,0,0
84815,-62.5,4,2,1,70,0,0
85453,-55.5555555555556,4,2,1,70,0,0
85612,-55.5555555555556,4,2,1,5,0,0
85666,-55.5555555555556,4,2,1,70,0,0
85879,-83.3333333333333,4,2,1,70,0,0
85932,-83.3333333333333,4,2,1,5,0,0
85985,-83.3333333333333,4,2,1,70,0,0
86038,-83.3333333333333,4,2,1,5,0,0
86198,-71.4285714285714,4,2,1,70,0,0
86730,-55.5555555555556,4,2,1,70,0,0
86889,-55.5555555555556,4,2,1,5,0,0
86942,-55.5555555555556,4,2,1,70,0,0
87314,-55.5555555555556,4,2,1,5,0,0
87368,-55.5555555555556,4,2,1,70,0,0
87581,-83.3333333333333,4,2,1,70,0,0
87634,-83.3333333333333,4,2,1,5,0,0
87687,-83.3333333333333,4,2,1,70,0,0
87740,-83.3333333333333,4,2,1,5,0,0
87794,-71.4285714285714,4,2,1,70,0,0
88432,-55.5555555555556,4,2,1,70,0,0
88591,-55.5555555555556,4,2,1,5,0,0
88645,-55.5555555555556,4,2,1,70,0,0
89016,-55.5555555555556,4,2,1,5,0,0
89070,-55.5555555555556,4,2,1,70,0,0
89442,-55.5555555555556,4,2,1,5,0,0
89496,-55.5555555555556,4,2,1,70,0,0
90347,-62.5,4,2,1,70,0,0
91198,-50,4,2,1,70,0,0
91623,-83.3333333333333,4,2,1,70,0,0
91676,-83.3333333333333,4,2,1,5,0,0
91836,-83.3333333333333,4,2,1,70,0,0
91889,-83.3333333333333,4,2,1,5,0,0
92049,-83.3333333333333,4,2,1,70,0,0
92102,-83.3333333333333,4,2,1,5,0,0
92262,-83.3333333333333,4,2,1,70,0,0
92368,-83.3333333333333,4,2,1,60,0,0
92581,-83.3333333333333,4,2,1,65,0,0
92794,-83.3333333333333,4,2,1,70,0,0
93006,-55.5555555555556,4,2,2,80,0,1
93325,-45.4545454545455,4,2,1,80,0,1
93484,-45.4545454545455,4,2,1,5,0,1
93538,-45.4545454545455,4,2,1,80,0,1
93751,-50,4,2,1,80,0,1
93910,-50,4,2,1,5,0,1
93964,-62.5,4,2,1,80,0,1
94176,-50,4,2,1,80,0,1
94335,-50,4,2,1,5,0,1
94389,-50,4,2,1,80,0,1
94708,-45.4545454545455,4,2,1,80,0,1
95028,-50,4,2,1,80,0,1
95612,-50,4,2,1,5,0,1
95666,-62.5,4,2,1,80,0,1
95879,-50,4,2,1,80,0,1
97262,-45.4545454545455,4,2,1,80,0,1
97421,-45.4545454545455,4,2,1,5,0,1
97474,-45.4545454545455,4,2,1,80,0,1
98113,-50,4,2,1,80,0,1
98964,-45.4545454545455,4,2,1,80,0,1
99123,-45.4545454545455,4,2,1,5,0,1
99176,-45.4545454545455,4,2,1,80,0,1
99283,-50,4,2,1,80,0,1
99815,-55.5555555555556,4,2,1,80,0,1
100134,-50,4,2,1,80,0,1
100293,-50,4,2,1,5,0,1
100347,-50,4,2,1,80,0,1
100559,-41.6666666666667,4,2,1,80,0,1
100718,-41.6666666666667,4,2,1,5,0,1
100772,-62.5,4,2,1,80,0,1
101517,-50,4,2,1,80,0,1
102421,-50,4,2,1,5,0,1
102474,-50,4,2,1,80,0,1
104070,-45.4545454545455,4,2,1,80,0,1
104229,-45.4545454545455,4,2,1,5,0,1
104283,-45.4545454545455,4,2,1,80,0,1
104921,-50,4,2,1,80,0,1
105772,-45.4545454545455,4,2,1,80,0,1
105931,-45.4545454545455,4,2,1,5,0,1
105985,-45.4545454545455,4,2,1,80,0,1
106091,-50,4,2,1,80,0,1
106889,-50,4,2,1,5,0,1
106942,-50,4,2,1,80,0,1
107581,-100,4,2,1,65,0,1
108432,-55.5555555555556,4,2,1,80,0,1
109070,-50,4,2,1,80,0,1
109283,-62.5,4,2,1,80,0,1
109708,-41.6666666666667,4,2,1,80,0,1
109867,-41.6666666666667,4,2,1,5,0,1
109921,-41.6666666666667,4,2,1,80,0,1
110027,-41.6666666666667,4,2,1,70,0,0
110028,-62.5,4,2,1,70,0,0
110347,-50,4,2,1,70,0,0
110879,-62.5,4,2,1,70,0,0
112049,-50,4,2,1,70,0,0
113432,-55.5555555555556,4,2,1,70,0,0
114283,-62.5,4,2,1,70,0,0
115134,-50,4,2,1,70,0,0
116144,-50,4,2,1,5,0,0
116198,-50,4,2,1,70,0,0
116836,-62.5,4,2,1,60,0,0
117155,-55.5555555555556,4,2,1,60,0,0
117314,-55.5555555555556,4,2,1,5,0,0
117368,-55.5555555555556,4,2,1,60,0,0
117740,-55.5555555555556,4,2,1,5,0,0
117794,-55.5555555555556,4,2,1,60,0,0
118378,-55.5555555555556,4,2,1,5,0,0
118432,-55.5555555555556,4,2,1,60,0,0
118645,-71.4285714285714,4,2,1,60,0,0
118857,-55.5555555555556,4,2,1,60,0,0
119016,-55.5555555555556,4,2,1,5,0,0
119070,-55.5555555555556,4,2,1,60,0,0
119389,-71.4285714285714,4,2,1,60,0,0
119921,-55.5555555555556,4,2,1,60,0,0
120080,-55.5555555555556,4,2,1,5,0,0
120134,-55.5555555555556,4,2,1,60,0,0
120718,-55.5555555555556,4,2,1,5,0,0
120772,-55.5555555555556,4,2,1,60,0,0
121250,-55.5555555555556,4,2,1,5,0,0
121304,-55.5555555555556,4,2,1,60,0,0
121623,-71.4285714285714,4,2,1,60,0,0
121942,-55.5555555555556,4,2,1,60,0,0
122421,-55.5555555555556,4,2,1,5,0,0
122474,-55.5555555555556,4,2,1,60,0,0
122687,-71.4285714285714,4,2,1,60,0,0
123645,-62.5,4,2,1,60,0,0
123964,-55.5555555555556,4,2,1,60,0,0
124123,-55.5555555555556,4,2,1,5,0,0
124176,-55.5555555555556,4,2,1,60,0,0
124548,-55.5555555555556,4,2,1,5,0,0
124602,-55.5555555555556,4,2,1,60,0,0
125187,-55.5555555555556,4,2,1,5,0,0
125240,-55.5555555555556,4,2,1,60,0,0
125453,-71.4285714285714,4,2,1,60,0,0
125666,-55.5555555555556,4,2,1,60,0,0
125825,-55.5555555555556,4,2,1,5,0,0
125879,-55.5555555555556,4,2,1,60,0,0
126198,-71.4285714285714,4,2,1,60,0,0
126730,-55.5555555555556,4,2,1,60,0,0
126889,-55.5555555555556,4,2,1,5,0,0
126942,-55.5555555555556,4,2,1,60,0,0
127527,-55.5555555555556,4,2,1,5,0,0
127581,-55.5555555555556,4,2,1,60,0,0
128059,-55.5555555555556,4,2,1,5,0,0
128113,-55.5555555555556,4,2,1,60,0,0
128432,-71.4285714285714,4,2,1,60,0,0
128645,-55.5555555555556,4,2,1,60,0,0
128804,-55.5555555555556,4,2,1,5,0,0
128857,-55.5555555555556,4,2,1,60,0,0
129070,-50,4,2,1,60,0,0
129229,-50,4,2,1,5,0,0
129283,-50,4,2,1,60,0,0
129496,-71.4285714285714,4,2,1,60,0,0
130453,-62.5,4,2,1,70,0,0
130772,-55.5555555555556,4,2,1,70,0,0
130931,-55.5555555555556,4,2,1,5,0,0
130985,-55.5555555555556,4,2,1,70,0,0
131357,-55.5555555555556,4,2,1,5,0,0
131411,-55.5555555555556,4,2,1,70,0,0
131995,-55.5555555555556,4,2,1,5,0,0
132049,-55.5555555555556,4,2,1,70,0,0
132155,-62.5,4,2,1,70,0,0
132474,-55.5555555555556,4,2,1,70,0,0
132633,-55.5555555555556,4,2,1,5,0,0
132687,-55.5555555555556,4,2,1,70,0,0
133006,-71.4285714285714,4,2,1,70,0,0
133857,-55.5555555555556,4,2,1,70,0,0
134335,-55.5555555555556,4,2,1,5,0,0
134389,-55.5555555555556,4,2,1,70,0,0
134708,-71.4285714285714,4,2,1,70,0,0
135879,-125,4,2,1,70,0,0
136304,-71.4285714285714,4,2,1,70,0,0
136730,-100,4,2,1,70,0,0
136942,-55.5555555555556,4,2,1,70,0,0
137101,-55.5555555555556,4,2,1,5,0,0
137155,-55.5555555555556,4,2,1,70,0,0
137262,-62.5,4,2,1,70,0,0
138113,-71.4285714285714,4,2,1,70,0,0
139283,-55.5555555555556,4,2,1,70,0,0
139442,-55.5555555555556,4,2,1,5,0,0
139496,-55.5555555555556,4,2,1,70,0,0
139815,-71.4285714285714,4,2,1,70,0,0
140240,-55.5555555555556,4,2,1,70,0,0
140399,-55.5555555555556,4,2,1,5,0,0
140453,-55.5555555555556,4,2,1,70,0,0
140718,-55.5555555555556,4,2,1,5,0,0
140772,-55.5555555555556,4,2,1,70,0,0
140931,-55.5555555555556,4,2,1,5,0,0
140985,-55.5555555555556,4,2,1,70,0,0
141198,-71.4285714285714,4,2,1,70,0,0
143325,-83.3333333333333,4,2,1,70,0,0
143378,-83.3333333333333,4,2,1,5,0,0
143964,-83.3333333333333,4,2,1,70,0,0
144017,-83.3333333333333,4,2,1,5,0,0
144070,-55.5555555555556,4,2,1,80,0,0
144389,-62.5,4,2,1,80,0,0
145240,-50,4,2,1,80,0,0
145399,-50,4,2,1,5,0,0
145453,-50,4,2,1,80,0,0
145879,-41.6666666666667,4,2,1,80,0,0
146038,-41.6666666666667,4,2,1,5,0,0
146091,-41.6666666666667,4,2,1,80,0,0
146304,-50,4,2,1,80,0,0
146676,-50,4,2,1,5,0,0
146730,-62.5,4,2,1,80,0,0
146942,-50,4,2,1,80,0,0
147101,-50,4,2,1,5,0,0
147155,-50,4,2,1,80,0,0
147633,-50,4,2,1,5,0,0
147687,-50,4,2,1,80,0,0
147953,-50,4,2,1,5,0,0
148006,-50,4,2,1,80,0,0
148219,-62.5,4,2,1,80,0,0
148432,-50,4,2,1,80,0,0
148591,-50,4,2,1,5,0,0
148645,-50,4,2,1,80,0,0
150293,-50,4,2,1,5,0,0
150347,-50,4,2,1,80,0,0
150879,-55.5555555555556,4,2,1,80,0,0
151198,-50,4,2,1,80,0,0
151357,-50,4,2,1,5,0,0
151411,-50,4,2,1,80,0,0
151623,-55.5555555555556,4,2,1,80,0,0
151782,-55.5555555555556,4,2,1,5,0,0
151836,-62.5,4,2,1,80,0,0
152581,-55.5555555555556,4,2,1,80,0,0
152900,-50,4,2,1,80,0,0
153059,-50,4,2,1,5,0,0
153113,-50,4,2,1,80,0,0
154283,-55.5555555555556,4,2,1,80,0,0
154602,-62.5,4,2,1,80,0,0
155028,-50,4,2,1,80,0,0
155240,-62.5,4,2,1,80,0,0
155453,-50,4,2,1,80,0,0
156304,-41.6666666666667,4,2,1,80,0,0
156730,-50,4,2,1,80,0,0
156942,-62.5,4,2,1,80,0,0
157155,-50,4,2,1,80,0,0
158645,-62.5,4,2,1,80,0,0
158857,-45.4545454545455,4,2,1,80,0,0
159016,-45.4545454545455,4,2,1,5,0,0
159070,-45.4545454545455,4,2,1,80,0,0
159389,-50,4,2,1,80,0,0
159708,-35.7142857142857,4,2,1,80,0,0
159921,-41.6666666666667,4,2,1,80,0,0
160134,-50,4,2,1,80,0,0
160347,-62.5,4,2,1,80,0,0
160559,-83.3333333333333,4,2,1,80,0,0
162474,-62.5,4,2,1,80,0,0
162687,-50,4,2,1,80,0,0
163113,-45.4545454545455,4,2,1,80,0,0
163272,-45.4545454545455,4,2,1,5,0,0
163325,-45.4545454545455,4,2,1,80,0,0
163538,-50,4,2,1,80,0,0
163697,-50,4,2,1,5,0,0
163751,-62.5,4,2,1,80,0,0
164602,-45.4545454545455,4,2,1,80,0,0
164761,-45.4545454545455,4,2,1,5,0,0
164815,-45.4545454545455,4,2,1,80,0,0
166091,-50,4,2,1,80,0,0
167155,-45.4545454545455,4,2,1,80,0,0
167314,-45.4545454545455,4,2,1,5,0,0
167368,-45.4545454545455,4,2,1,80,0,0
167581,-50,4,2,1,80,0,0
167740,-50,4,2,1,5,0,0
167793,-62.5,4,2,1,80,0,0
168112,-62.5,4,2,1,60,0,0
168432,-62.5,4,2,1,80,0,0
168538,-62.5,4,2,1,65,0,0
168857,-62.5,4,2,1,80,0,0
168964,-62.5,4,2,1,70,0,0
169283,-62.5,4,2,1,80,0,0
169389,-62.5,4,2,1,75,0,0
169708,-62.5,4,2,1,80,0,0
171304,-45.4545454545455,4,2,2,80,0,1
171516,-45.4545454545455,4,2,2,80,0,1
171623,-45.4545454545455,4,2,1,80,0,1
171782,-45.4545454545455,4,2,1,5,0,1
171836,-45.4545454545455,4,2,1,80,0,1
172208,-45.4545454545455,4,2,1,5,0,1
172262,-62.5,4,2,1,80,0,1
172474,-45.4545454545455,4,2,1,80,0,1
172633,-45.4545454545455,4,2,1,5,0,1
172687,-45.4545454545455,4,2,1,80,0,1
173006,-50,4,2,1,80,0,1
173751,-45.4545454545455,4,2,1,80,0,1
173910,-45.4545454545455,4,2,1,5,0,1
173964,-62.5,4,2,1,80,0,1
174176,-50,4,2,1,80,0,1
175559,-45.4545454545455,4,2,1,80,0,1
175718,-45.4545454545455,4,2,1,5,0,1
175772,-45.4545454545455,4,2,1,80,0,1
176411,-50,4,2,1,80,0,1
177262,-45.4545454545455,4,2,1,80,0,1
177421,-45.4545454545455,4,2,1,5,0,1
177474,-45.4545454545455,4,2,1,80,0,1
177581,-50,4,2,1,80,0,1
178432,-45.4545454545455,4,2,1,80,0,1
178591,-45.4545454545455,4,2,1,5,0,1
178645,-45.4545454545455,4,2,1,80,0,1
179016,-45.4545454545455,4,2,1,5,0,1
179070,-62.5,4,2,1,80,0,1
179815,-45.4545454545455,4,2,1,80,0,1
180134,-50,4,2,1,80,0,1
180559,-45.4545454545455,4,2,1,80,0,1
180718,-45.4545454545455,4,2,1,5,0,1
180772,-62.5,4,2,1,80,0,1
180985,-50,4,2,1,80,0,1
182368,-45.4545454545455,4,2,1,80,0,1
182527,-45.4545454545455,4,2,1,5,0,1
182581,-45.4545454545455,4,2,1,80,0,1
183219,-50,4,2,1,80,0,1
184070,-45.4545454545455,4,2,1,80,0,1
184229,-45.4545454545455,4,2,1,5,0,1
184283,-45.4545454545455,4,2,1,80,0,1
184389,-50,4,2,1,80,0,1
184921,-125,4,2,1,60,0,0
185240,-50,4,2,1,80,0,0
186623,-45.4545454545455,4,2,2,80,0,1
186835,-45.4545454545455,4,2,2,80,0,1
186942,-45.4545454545455,4,2,1,80,0,1
187101,-45.4545454545455,4,2,1,5,0,1
187155,-45.4545454545455,4,2,1,80,0,1
187527,-45.4545454545455,4,2,1,5,0,1
187581,-62.5,4,2,1,80,0,1
187794,-45.4545454545455,4,2,1,80,0,1
187953,-45.4545454545455,4,2,1,5,0,1
188006,-45.4545454545455,4,2,1,80,0,1
189335,-45.4545454545455,4,2,1,5,0,1
189389,-45.4545454545455,4,2,1,80,0,1
190028,-50,4,2,1,80,0,1
190879,-45.4545454545455,4,2,1,80,0,1
191038,-45.4545454545455,4,2,1,5,0,1
191091,-45.4545454545455,4,2,1,80,0,1
191198,-50,4,2,1,80,0,1
191730,-45.4545454545455,4,2,1,80,0,1
192208,-45.4545454545455,4,2,1,5,0,1
192262,-45.4545454545455,4,2,1,80,0,1
192633,-45.4545454545455,4,2,1,5,0,1
192687,-62.5,4,2,1,80,0,1
192900,-50,4,2,1,80,0,1
193432,-45.4545454545455,4,2,1,80,0,1
193591,-45.4545454545455,4,2,1,5,0,1
193645,-45.4545454545455,4,2,1,80,0,1
193751,-50,4,2,1,80,0,1
194176,-45.4545454545455,4,2,1,80,0,1
194335,-45.4545454545455,4,2,1,5,0,1
194389,-45.4545454545455,4,2,1,80,0,1
194496,-50,4,2,1,80,0,1
195985,-45.4545454545455,4,2,1,80,0,1
196144,-45.4545454545455,4,2,1,5,0,1
196198,-45.4545454545455,4,2,1,80,0,1
196836,-50,4,2,1,80,0,1
197687,-45.4545454545455,4,2,1,80,0,1
197846,-45.4545454545455,4,2,1,5,0,1
197900,-45.4545454545455,4,2,1,80,0,1
198006,-50,4,2,1,80,0,1
198804,-50,4,2,1,5,0,1
198857,-50,4,2,1,80,0,1
199496,-100,4,2,1,65,0,1
200347,-55.5555555555556,4,2,1,80,0,1
200985,-50,4,2,1,80,0,1
201198,-62.5,4,2,1,80,0,1
201623,-41.6666666666667,4,2,1,80,0,1
201782,-41.6666666666667,4,2,1,5,0,1
201836,-41.6666666666667,4,2,1,80,0,1
201942,-55.5555555555556,4,2,1,75,0,0
202262,-50,4,2,1,75,0,0
202794,-62.5,4,2,1,75,0,0
203113,-50,4,2,1,75,0,0
203645,-62.5,4,2,1,75,0,0
203964,-50,4,2,1,75,0,0
204655,-50,4,2,1,5,0,0
204708,-50,4,2,1,75,0,0
205347,-62.5,4,2,1,75,0,0
205666,-50,4,2,1,75,0,0
206198,-62.5,4,2,1,75,0,0
206517,-50,4,2,1,75,0,0
207049,-62.5,4,2,1,75,0,0
207368,-50,4,2,1,75,0,0
208059,-50,4,2,1,5,0,0
208113,-50,4,2,1,75,0,0
208751,-55.5555555555556,4,2,1,80,0,0
209070,-50,4,2,1,80,0,0
209602,-55.5555555555556,4,2,1,80,0,0
210772,-50,4,2,1,80,0,0
211463,-50,4,2,1,5,0,0
211517,-50,4,2,1,80,0,0
212155,-55.5555555555556,4,2,1,80,0,0
212474,-50,4,2,1,80,0,0
213006,-55.5555555555556,4,2,1,80,0,0
214176,-50,4,2,1,80,0,0
214867,-50,4,2,1,5,0,0
214921,-50,4,2,1,80,0,0
215559,-83.3333333333333,4,2,1,80,0,0
215612,-83.3333333333333,4,2,1,5,0,0

[Colours]
Combo1 : 71,185,205
Combo2 : 222,33,104
Combo3 : 85,162,255
Combo4 : 5,235,223

[HitObjects]
0,21,347,5,12,2:0:0:0:
124,65,453,1,0,3:0:0:0:
50,150,559,5,8,2:0:0:0:
94,26,666,1,0,3:0:0:0:
154,104,772,5,8,2:0:0:0:
164,106,879,1,8,2:0:0:0:
174,108,985,1,8,2:0:0:0:
229,158,1091,6,0,B|275:148|275:148|290:110|290:110|297:114|297:114|398:94,1,192,6|0,3:2|3:0,2:0:0:0:
392,217,1411,2,0,B|381:225|381:225|325:213|325:213|322:217|322:217|293:157,1,120,10|0,2:0|3:0,2:0:0:0:
435,157,1623,5,10,2:0:0:0:
395,297,1730,1,0,3:0:0:0:
485,212,1836,1,8,2:0:0:0:
392,217,1942,6,0,B|331:230|331:230|313:264|313:264|249:276|249:276|216:249,1,192,6|0,3:2|3:0,2:0:0:0:
47,246,2262,2,0,B|51:237|51:237|43:196|43:196|119:210,1,120,10|0,2:0|3:0,2:0:0:0:
193,324,2474,5,10,2:0:0:0:
167,163,2581,1,0,3:0:0:0:
229,259,2687,1,8,2:0:0:0:
115,283,2794,6,0,B|176:294|176:294|168:299|168:299|314:326,1,192,6|0,3:2|3:0,2:0:0:0:
432,366,3113,2,0,B|438:355|438:355|426:282|426:282|382:304,1,120,10|0,2:0|3:0,2:0:0:0:
353,362,3325,5,10,2:0:0:0:
330,258,3432,1,0,3:0:0:0:
307,154,3538,1,8,2:0:0:0:
374,112,3645,6,0,P|306:133|266:38,1,180,6|0,3:2|2:0,2:0:0:0:
260,50,3857,5,0,3:0:0:0:
228,169,3964,1,8,2:0:0:0:
130,92,4070,2,0,B|137:99|137:99|197:113,2,60,0|0|8,3:0|3:0|2:0,2:0:0:0:
188,28,4283,5,8,2:0:0:0:
76,150,4389,1,8,2:0:0:0:
16,61,4496,6,0,B|45:67|45:67|77:113|77:113|82:109|82:109|121:169|121:169|177:182,1,192,6|0,3:2|3:0,2:0:0:0:
214,305,4815,2,0,B|207:318|207:318|127:334|127:334|91:298,1,120,10|0,2:0|3:0,2:0:0:0:
9,226,5028,5,10,2:0:0:0:
136,248,5134,1,0,3:0:0:0:
76,150,5240,1,8,2:0:0:0:
111,317,5347,6,0,B|178:331|178:331|200:368|200:368|281:384,1,192,6|0,3:2|3:0,2:0:0:0:
403,344,5666,2,0,B|384:339|384:339|372:278|372:278|318:232,1,120,10|0,2:0|3:0,2:0:0:0:
247,195,5879,5,10,2:0:0:0:
214,305,5985,1,0,3:0:0:0:
325,327,6091,1,8,2:0:0:0:
279,384,6198,6,0,L|244:174,1,192,6|0,3:2|3:0,2:0:0:0:
318,0,6518,2,0,B|342:-9|342:-9|385:10|385:10|369:72,1,120,10|0,2:0|3:0,2:0:0:0:
205,126,6730,5,10,2:0:0:0:
309,149,6837,1,0,3:0:0:0:
413,172,6943,1,8,2:0:0:0:
490,121,7050,6,0,P|422:142|382:47,1,180,6|0,3:2|2:0,2:0:0:0:
376,60,7262,5,0,3:0:0:0:
335,221,7368,1,8,2:0:0:0:
413,172,7474,2,0,B|420:179|420:179|480:193,2,60,0|0|8,3:0|3:0|2:0,2:0:0:0:
247,194,7687,5,8,2:0:0:0:
385,319,7794,1,8,2:0:0:0:
460,289,7900,6,0,B|381:304|381:304|374:298|374:298|302:313|302:313|283:349,1,192,6|0,3:2|3:0,2:0:0:0:
104,377,8219,2,0,B|83:357|83:357|91:316|91:316|152:300,1,120,10|0,2:0|3:0,2:0:0:0:
217,379,8432,5,10,2:0:0:0:
194,252,8538,1,0,3:0:0:0:
289,338,8645,1,8,2:0:0:0:
139,303,8751,6,0,B|148:244|148:244|147:232|147:232|166:185|166:185|174:116,1,192,6|0,3:2|3:0,2:0:0:0:
271,9,9070,2,0,B|272:22|272:22|295:68|295:68|224:77,1,120,10|0,2:0|3:0,2:0:0:0:
85,1,9283,5,10,2:0:0:0:
71,103,9389,1,0,3:0:0:0:
174,116,9496,1,8,2:0:0:0:
123,173,9602,6,0,B|165:156|165:156|177:164|177:164|264:169|264:169|323:160,1,192,6|0,3:2|3:0,2:0:0:0:
408,275,9921,2,0,B|418:267|418:267|429:211|429:211|433:210|433:210|392:172,1,120,10|0,2:0|3:0,2:0:0:0:
332,58,10134,5,10,2:0:0:0:
309,162,10241,1,0,3:0:0:0:
286,266,10347,1,8,2:0:0:0:
345,323,10453,6,0,P|277:302|237:397,1,180,6|0,3:2|2:0,2:0:0:0:
231,384,10666,5,0,3:0:0:0:
204,261,10772,1,8,2:0:0:0:
99,303,10879,2,0,B|106:310|106:310|166:324,2,60,0|0|8,3:0|3:0|2:0,2:0:0:0:
41,231,11091,5,8,2:0:0:0:
73,378,11197,1,8,2:0:0:0:
12,316,11304,6,0,B|48:303|48:303|89:193|89:193|129:177,1,192,6|0,3:2|3:0,2:0:0:0:
255,35,11623,2,0,B|258:58|258:58|247:65|247:65|229:149,1,120,10|0,2:0|3:0,2:0:0:0:
204,261,11836,5,10,2:0:0:0:
290,197,11942,1,0,3:0:0:0:
123,180,12049,1,8,2:0:0:0:
230,147,12155,6,0,B|223:183|223:183|243:197|243:197|241:202|241:202|274:337,1,192,6|0,3:2|3:0,2:0:0:0:
420,336,12474,2,0,B|426:328|426:328|479:307|479:307|422:309,1,120,10|0,2:0|3:0,2:0:0:0:
327,384,12687,5,10,2:0:0:0:
204,261,12794,1,0,3:0:0:0:
350,308,12900,1,8,2:0:0:0:
271,324,13006,6,0,B|300:285|300:285|339:268|339:268|341:262|341:262|386:242|386:242|418:197,1,192,6|0,3:2|3:0,2:0:0:0:
512,81,13325,2,0,B|503:98|503:98|443:117|443:117|401:96,1,120,10|0,2:0|3:0,2:0:0:0:
286,26,13538,5,10,2:0:0:0:
309,130,13645,1,0,3:0:0:0:
332,234,13751,1,8,2:0:0:0:
412,205,13857,6,0,P|329:210|309:129,1,180,6|0,3:2|2:0,2:0:0:0:
308,129,14070,5,2,3:2:0:0:
259,251,14176,2,0,B|253:240|253:240|169:225,1,83.9999974365235,10|0,2:0|3:0,2:0:0:0:
44,211,14389,5,10,2:0:0:0:
182,153,14496,1,8,2:0:0:0:
127,278,14602,1,10,2:0:0:0:
183,227,14708,6,0,P|141:155|153:74,1,167.999994873047,6|2,3:2|3:2,2:0:0:0:
72,8,15028,2,0,P|63:56|158:67,1,161.999995056153,10|0,2:0|2:0,2:0:0:0:
152,74,15240,5,0,3:0:0:0:
316,136,15347,1,0,3:0:0:0:
228,65,15453,6,0,P|269:133|260:212,1,161.999995056153,8|0,2:0|2:0,2:0:0:0:
259,212,15666,5,0,3:0:0:0:
232,285,15879,6,0,P|300:244|379:253,1,161.999995056153,10|0,2:0|2:0,2:0:0:0:
379,253,16091,5,2,3:2:0:0:
400,181,16198,1,0,3:0:0:0:
438,312,16304,2,0,P|459:276|454:234,1,83.9999974365235,10|0,2:0|3:0,2:0:0:0:
307,277,16517,6,0,P|286:313|291:355,1,83.9999974365235,2|0,2:0|3:0,2:0:0:0:
361,330,16730,5,10,2:0:0:0:
263,216,16836,2,0,P|181:225|110:182,1,167.999994873047,2|0,2:0|3:0,2:0:0:0:
58,272,17155,2,0,P|33:229|118:187,1,161.999995056153,10|0,2:0|2:0,2:0:0:0:
110,181,17368,5,0,3:0:0:0:
241,142,17474,5,2,2:0:0:0:
188,194,17581,2,0,P|197:114|156:46,1,161.999995056153,10|0,2:0|2:0,2:0:0:0:
156,46,17794,5,2,3:2:0:0:
43,168,17900,1,0,3:0:0:0:
117,188,18006,2,0,P|96:152|101:110,1,83.9999974365235,10|0,2:0|3:0,2:0:0:0:
230,69,18219,6,0,P|309:59|377:100,1,161.999995056153,2|0,2:0|2:0,2:0:0:0:
377,100,18432,5,10,2:0:0:0:
451,64,18538,2,0,P|407:135|417:218,1,167.999994873047,2|2,2:0|3:2,2:0:0:0:
274,327,18857,2,0,P|316:256|306:175,1,161.999995056153,10|0,2:0|2:0,2:0:0:0:
308,179,19070,5,0,3:0:0:0:
384,109,19283,6,0,P|316:150|237:141,1,161.999995056153,10|0,2:0|2:0,2:0:0:0:
236,140,19495,5,2,3:2:0:0:
216,213,19602,1,0,3:0:0:0:
178,85,19708,2,0,P|157:121|162:163,1,83.9999974365235,10|0,2:0|3:0,2:0:0:0:
77,276,19921,6,0,P|98:240|93:198,1,83.9999974365235,2|0,2:0|3:0,2:0:0:0:
216,213,20134,5,10,2:0:0:0:
9,197,20240,2,0,P|81:153|165:163,1,167.999994873047,2|2,2:0|3:2,2:0:0:0:
44,126,20559,2,0,P|19:83|104:41,1,161.999995056153,10|0,2:0|2:0,2:0:0:0:
96,36,20772,5,0,3:0:0:0:
211,0,20985,6,0,P|252:68|243:147,1,161.999995056153,10|0,2:0|2:0,2:0:0:0:
242,147,21198,5,2,3:2:0:0:
324,122,21304,1,2,3:2:0:0:
222,121,21411,5,10,2:0:0:0:
359,188,21517,1,6,3:2:0:0:
426,123,21623,6,0,P|421:81|442:46,1,83.9999974365235,2|0,2:0|3:0,2:0:0:0:
486,233,21836,5,10,2:0:0:0:
512,154,21942,2,0,P|441:196|359:188,1,167.999994873047,2|2,2:0|3:2,2:0:0:0:
252,279,22262,2,0,P|172:271|104:312,1,161.999995056153,10|0,2:0|2:0,2:0:0:0:
104,311,22474,5,0,3:0:0:0:
37,348,22687,6,0,P|78:280|69:201,1,161.999995056153,10|0,2:0|2:0,2:0:0:0:
68,200,22899,5,2,3:2:0:0:
136,248,23006,1,0,3:0:0:0:
202,153,23113,2,0,P|238:174|280:169,1,83.9999974365235,10|0,2:0|3:0,2:0:0:0:
76,207,23325,6,0,P|40:186|-2:191,1,83.9999974365235,2|0,2:0|3:0,2:0:0:0:
254,96,23538,5,10,2:0:0:0:
161,0,23645,2,0,P|118:71|127:153,1,167.999994873047,2|2,2:0|3:2,2:0:0:0:
332,115,23964,2,0,P|357:72|272:30,1,161.999995056153,10|0,2:0|2:0,2:0:0:0:
279,25,24177,5,0,3:0:0:0:
279,170,24389,6,0,P|347:129|426:138,1,161.999995056153,8|0,2:0|2:0,2:0:0:0:
426,138,24601,5,0,3:0:0:0:
480,86,24708,1,2,3:2:0:0:
469,206,24815,5,10,2:0:0:0:
431,57,24921,1,10,2:0:0:0:
375,207,25028,6,0,P|307:248|228:239,1,161.999995056153,6|0,3:2|2:0,2:0:0:0:
227,238,25240,5,10,2:0:0:0:
277,301,25347,1,2,2:0:0:0:
166,350,25453,2,0,P|202:371|244:366,1,83.9999974365235,2|0,3:2|3:0,2:0:0:0:
428,297,25666,6,0,P|453:254|368:212,1,161.999995056153,10|0,2:0|2:0,2:0:0:0:
375,207,25879,5,2,3:2:0:0:
279,170,25985,1,2,2:0:0:0:
406,189,26091,5,8,2:0:0:0:
277,301,26198,1,2,2:0:0:0:
374,362,26304,6,0,P|413:370|424:294,1,132.00000402832,8|4,3:0|3:0,2:0:0:0:
353,132,26517,6,0,P|267:122|193:166,1,167.999994873047,6|0,3:2|2:0,2:0:0:0:
150,219,26836,5,8,2:0:0:0:
125,147,26942,1,2,3:2:0:0:
77,206,27049,5,0,3:0:0:0:
198,160,27155,2,0,L|226:166,2,24,8|8|8,2:0|2:0|2:0,2:0:0:0:
99,77,27368,5,2,3:2:0:0:
52,133,27474,2,0,L|24:127,2,24,8|8|8,2:0|2:0|2:0,2:0:0:0:
125,147,27687,5,0,3:0:0:0:
100,277,27794,1,8,3:0:0:0:
77,206,27900,5,0,3:0:0:0:
150,219,28006,1,4,3:0:0:0:
8,308,28113,5,8,2:0:0:0:
171,336,28219,1,8,2:0:0:0:
86,359,28325,6,0,P|136:304|256:303,1,192,6|0,3:2|3:0,2:0:0:0:
384,229,28645,2,0,P|394:281|315:263,1,161.999995056153,10|0,2:0|2:0,2:0:0:0:
248,299,28857,5,2,3:2:0:0:
370,323,28964,1,0,3:0:0:0:
255,225,29070,5,10,2:0:0:0:
302,361,29176,2,0,B|309:366|309:366|350:358|350:358|352:361|352:361|373:317,1,96,2|0,2:0|3:0,2:0:0:0:
384,229,29389,5,0,3:0:0:0:
465,296,29496,2,0,P|392:302|384:229,1,161.999995056153,10|0,2:0|2:0,2:0:0:0:
384,229,29708,5,2,3:2:0:0:
314,93,29815,1,0,3:0:0:0:
341,212,29921,5,10,2:0:0:0:
512,91,30028,2,0,P|467:139|362:140,1,167.999994873047,0|0,3:0|3:0,2:0:0:0:
207,14,30347,2,0,P|255:59|256:164,1,161.999995056153,10|0,2:0|2:0,2:0:0:0:
261,150,30559,5,2,3:2:0:0:
287,22,30666,1,0,3:0:0:0:
184,151,30772,2,0,P|155:124|155:62,1,96,10|2,2:0|2:0,2:0:0:0:
341,212,30985,6,0,P|332:284|259:278,1,161.999995056153,0|0,3:0|2:0,2:0:0:0:
258,277,31198,5,8,2:0:0:0:
179,305,31304,1,0,3:0:0:0:
266,285,31411,5,0,3:0:0:0:
170,253,31517,1,0,3:0:0:0:
74,221,31623,1,8,2:0:0:0:
0,262,31730,6,0,B|38:253|38:253|66:197|66:197|63:193|63:193|93:134|93:134|152:122,1,215.999993408203,6|0,3:2|3:0,2:0:0:0:
262,0,32049,2,0,B|264:20|264:20|254:26|254:26|239:100,1,96,10|0,2:0|2:0,2:0:0:0:
161,201,32262,5,2,3:2:0:0:
285,164,32368,1,0,3:0:0:0:
135,125,32474,2,0,B|130:118|130:118|87:101|87:101|133:103,1,96,10|0,2:0|2:0,2:0:0:0:
351,134,32687,6,0,B|353:154|353:154|343:160|343:160|328:234,1,96,2|0,3:2|2:0,2:0:0:0:
172,361,32900,2,0,P|217:313|322:312,1,161.999995056153,10|0,2:0|2:0,2:0:0:0:
308,306,33112,5,2,3:2:0:0:
336,382,33219,1,0,3:0:0:0:
472,319,33325,5,10,2:0:0:0:
302,352,33432,2,0,P|375:358|383:285,1,161.999995056153,4|0,3:2|2:0,2:0:0:0:
383,285,33645,5,0,3:0:0:0:
462,110,33751,2,0,B|495:130|495:130|502:164|502:164|487:180,1,96,14|0,2:0|2:0,2:0:0:0:
330,223,33964,5,2,3:2:0:0:
449,249,34071,1,0,3:0:0:0:
342,129,34176,2,0,B|335:137|335:137|287:146|287:146|287:150|287:150|254:115,1,96,10|0,2:0|2:0,2:0:0:0:
150,1,34389,6,0,B|145:35|145:35|138:40|138:40|148:47|148:47|129:172,1,161.999995056153,4|0,3:2|2:0,2:0:0:0:
131,152,34601,5,8,2:0:0:0:
231,102,34708,1,0,3:0:0:0:
51,130,34815,6,0,L|59:177,1,41.9999987182618,10|0,2:0|2:0,2:0:0:0:
208,223,34921,2,0,L|216:175,1,41.9999987182618,10|0,2:0|2:0,2:0:0:0:
215,181,35134,6,0,P|175:180|108:285,1,167.999994873047,6|0,3:2|2:0,2:0:0:0:
28,246,35453,2,0,P|74:281|89:388,1,161.999995056153,2|0,3:2|2:0,2:0:0:0:
92,379,35666,5,14,2:0:0:0:
283,228,35879,5,2,2:0:0:0:
333,288,35985,1,10,2:0:0:0:
257,299,36091,6,0,P|292:253|399:238,1,161.999995056153,4|0,3:2|2:0,2:0:0:0:
390,234,36304,5,0,3:0:0:0:
425,172,36411,1,0,3:0:0:0:
484,225,36517,6,0,L|492:272,1,41.9999987182618,10|0,2:0|2:0,2:0:0:0:
348,158,36623,2,0,L|356:110,1,41.9999987182618,2|0,2:0|2:0,2:0:0:0:
491,266,36730,6,0,B|498:233|498:233|505:228|505:228|495:221|495:221|514:96,1,167.999994873047,6|0,3:2|2:0,2:0:0:0:
246,11,37155,5,2,3:2:0:0:
296,71,37262,1,0,3:0:0:0:
322,0,37368,6,0,P|287:46|180:61,1,161.999995056153,14|0,2:0|2:0,2:0:0:0:
188,64,37581,5,2,2:0:0:0:
36,24,37687,1,10,2:0:0:0:
167,29,37794,2,0,P|177:81|98:63,1,161.999995056153,4|0,3:2|2:0,2:0:0:0:
98,67,38006,5,2,3:2:0:0:
195,239,38219,6,0,P|116:245|61:303,1,161.999995056153,10|0,2:0|2:0,2:0:0:0:
61,302,38432,5,2,2:0:0:0:
2,152,38538,1,8,2:0:0:0:
106,75,38645,5,6,3:2:0:0:
68,188,38751,1,0,3:0:0:0:
237,101,38857,5,10,2:0:0:0:
140,139,38963,1,0,3:0:0:0:
290,198,39070,5,2,3:0:0:0:
219,169,39176,1,2,3:1:0:0:
355,49,39283,6,0,B|353:68|353:68|356:72|356:72|344:87|344:87|347:91|347:91|341:142,1,96,10|2,2:0|3:1,2:0:0:0:
230,299,39496,2,0,P|309:293|364:235,1,161.999995056153,2|0,3:2|2:0,2:0:0:0:
363,235,39708,5,8,2:0:0:0:
318,340,39815,1,2,3:1:0:0:
290,198,39921,5,2,3:2:0:0:
380,384,40028,1,0,3:0:0:0:
477,339,40134,6,0,P|489:204|400:307,1,360,10|0,2:0|2:0,2:0:0:0:
318,340,40559,5,10,2:0:0:0:
290,198,40772,5,10,2:0:0:0:
262,56,40985,5,10,2:0:0:0:
66,81,41198,5,8,2:0:0:0:
66,81,41304,2,0,L|114:85,2,35.9999989013672,0|0|0,3:0|3:0|3:0,2:0:0:0:
161,138,41517,5,8,2:0:0:0:
162,34,41623,1,8,2:0:0:0:
198,110,41730,5,8,2:0:0:0:
89,2,41836,1,8,2:0:0:0:
198,110,41942,6,0,B|248:113|248:113|282:146|282:146|290:140|290:140|417:151,1,215.999993408203,14|0,3:2|3:0,2:0:0:0:
427,0,42262,2,0,B|456:28|456:28|445:86|445:86|359:108,1,180,10|0,2:0|2:0,2:0:0:0:
367,106,42474,5,2,3:2:0:0:
430,234,42581,1,0,3:0:0:0:
279,177,42687,6,0,P|338:201|356:94,1,180,10|0,2:0|2:0,2:0:0:0:
275,90,42900,6,0,B|276:100|276:100|287:105|287:105|277:138|277:138|280:184,1,96,2|0,3:2|2:0,2:0:0:0:
196,259,43113,2,0,P|137:283|119:176,1,180,10|0,2:0|2:0,2:0:0:0:
99,194,43325,5,2,3:2:0:0:
32,47,43432,1,0,3:0:0:0:
176,131,43538,1,8,2:0:0:0:
37,151,43645,6,0,B|112:156|112:156|103:163|103:163|282:177,1,264.000008056641,2|0,3:2|3:0,2:0:0:0:
385,262,43964,2,0,B|389:271|389:271|381:312|381:312|457:298,1,120,10|0,2:0|2:0,2:0:0:0:
280,177,44176,5,2,3:2:0:0:
312,279,44283,1,0,3:0:0:0:
482,198,44389,6,0,P|465:277|385:262,1,180,10|0,2:0|2:0,2:0:0:0:
361,192,44602,6,0,B|367:186|367:186|385:141|385:141|383:190,1,96,2|0,3:2|2:0,2:0:0:0:
283,350,44815,2,0,B|273:359|273:359|216:354|216:354|213:358|213:358|177:302,1,120,10|0,2:0|2:0,2:0:0:0:
20,291,45028,5,2,3:2:0:0:
124,268,45134,1,0,3:0:0:0:
228,245,45240,1,8,2:0:0:0:
126,383,45347,6,0,B|150:363|150:363|196:151,1,240,6|0,3:2|3:0,2:0:0:0:
161,80,45666,5,10,2:0:0:0:
280,177,45772,1,2,3:2:0:0:
223,16,45879,5,10,2:0:0:0:
194,159,45985,1,0,3:0:0:0:
299,97,46091,1,10,2:0:0:0:
106,139,46198,6,0,L|308:95,1,198.000006042481,6|0,3:2|2:0,2:0:0:0:
299,96,46411,5,2,3:2:0:0:
414,6,46517,2,0,B|433:11|433:11|445:72|445:72|474:96,1,120,10|2,2:0|3:2,2:0:0:0:
417,145,46730,5,10,2:0:0:0:
512,19,46836,1,0,3:0:0:0:
381,116,46942,1,8,2:0:0:0:
512,203,47049,6,0,B|438:218|438:218|448:223|448:223|274:262,1,240,6|0,3:2|3:0,2:0:0:0:
224,304,47368,5,10,2:0:0:0:
264,186,47474,1,2,3:2:0:0:
250,384,47581,5,10,2:0:0:0:
191,205,47687,1,0,3:0:0:0:
299,257,47794,1,10,2:0:0:0:
149,305,47900,6,0,B|204:318|204:318|209:344|209:344|345:374,1,198.000006042481,6|0,3:2|2:0,2:0:0:0:
321,368,48113,5,2,3:2:0:0:
120,224,48219,2,0,B|96:215|96:215|53:234|53:234|69:296,1,120,10|2,2:0|3:2,2:0:0:0:
64,279,48379,1,0,3:0:0:0:
64,279,48432,5,10,2:0:0:0:
6,174,48538,1,8,2:0:0:0:
149,305,48645,1,8,2:0:0:0:
72,371,48751,6,0,B|103:355|103:355|161:218|161:218|199:202,1,215.999993408203,6|0,3:2|3:0,2:0:0:0:
299,42,49070,2,0,P|303:94|193:101,1,180,10|0,2:0|2:0,2:0:0:0:
199,110,49283,5,2,3:2:0:0:
386,83,49389,1,0,3:0:0:0:
299,195,49496,2,0,P|307:143|198:126,1,180,10|0,2:0|2:0,2:0:0:0:
186,38,49708,6,0,B|176:36|176:36|172:24|172:24|138:31|138:31|92:24,1,96,2|0,3:2|2:0,2:0:0:0:
299,195,49921,2,0,B|308:196|308:196|316:186|316:186|346:203|346:203|385:208,1,96,10|0,2:0|2:0,2:0:0:0:
432,148,50134,5,2,3:2:0:0:
327,273,50240,1,0,3:0:0:0:
386,83,50347,1,8,2:0:0:0:
385,208,50453,6,0,B|316:224|316:224|310:256|310:256|236:237|236:237|148:257,1,264.000008056641,2|0,3:2|3:0,2:0:0:0:
48,377,50772,2,0,B|42:369|42:369|-11:348|-11:348|46:350,1,120,10|0,2:0|2:0,2:0:0:0:
154,256,50985,5,2,3:2:0:0:
116,349,51091,1,0,3:0:0:0:
0,265,51198,6,0,P|17:186|97:201,1,180,10|0,2:0|2:0,2:0:0:0:
97,201,51411,5,2,3:2:0:0:
138,75,51517,1,2,2:0:0:0:
154,256,51623,5,10,2:0:0:0:
126,125,51730,1,2,2:0:0:0:
194,191,51836,5,0,3:0:0:0:
298,214,51942,1,0,3:0:0:0:
402,237,52048,1,8,2:0:0:0:
480,227,52155,6,0,B|418:241|418:241|412:270|412:270|260:304,1,240,6|0,3:2|3:0,2:0:0:0:
234,380,52474,5,10,2:0:0:0:
298,214,52581,1,2,3:2:0:0:
344,309,52687,5,10,2:0:0:0:
194,191,52794,1,0,3:0:0:0:
269,302,52900,1,10,2:0:0:0:
346,93,53006,6,0,P|359:161|254:137,1,215.999993408203,6|0,3:2|2:0,2:0:0:0:
255,141,53219,5,2,3:2:0:0:
376,20,53325,2,0,B|428:32|428:32|416:35|416:35|480:50,1,120,10|2,2:0|3:2,2:0:0:0:
377,165,53538,5,10,2:0:0:0:
282,39,53644,1,0,3:0:0:0:
413,136,53750,1,8,2:0:0:0:
298,214,53857,6,0,B|224:229|224:229|234:234|234:234|60:273,1,240,6|0,3:2|3:0,2:0:0:0:
25,219,54176,5,10,2:0:0:0:
152,303,54283,1,2,3:2:0:0:
13,294,54389,5,10,2:0:0:0:
114,174,54496,1,0,3:0:0:0:
85,268,54602,1,10,2:0:0:0:
37,115,54708,6,0,B|53:139|53:139|192:166|192:166|218:207,1,198.000006042481,6|0,3:2|2:0,2:0:0:0:
206,189,54921,5,2,3:2:0:0:
271,8,55028,2,0,B|291:19|291:19|225:32|225:32|206:61,1,120,10|2,2:0|3:2,2:0:0:0:
209,57,55187,1,0,3:0:0:0:
209,57,55240,5,10,2:0:0:0:
143,0,55347,1,8,2:0:0:0:
166,122,55453,5,8,2:0:0:0:
288,99,55559,1,8,2:0:0:0:
382,177,55666,6,0,P|390:125|281:108,1,180,6|0,3:2|2:0,2:0:0:0:
214,196,55879,6,0,B|225:197|225:197|235:186|235:186|270:208|270:208|324:219,1,120,10|0,2:0|2:0,2:0:0:0:
427,239,56091,5,2,3:2:0:0:
356,353,56198,1,2,3:1:0:0:
295,286,56304,2,0,B|320:273|320:273|345:211|345:211|315:220,1,120,10|0,2:0|3:0,2:0:0:0:
117,340,56517,6,0,L|126:371,2,30,0|0|0,3:0|3:0|3:0,2:0:0:0:
173,384,56730,5,8,3:0:0:0:
192,312,56837,1,4,3:0:0:0:
7,170,56942,5,0,3:0:0:0:
26,242,57049,1,8,3:0:0:0:
39,201,57155,6,0,L|70:210,2,30,4|4|4,3:0|3:0|3:0,2:0:0:0:
42,316,57368,6,0,P|71:256|216:241,1,215.999993408203,6|8,3:2|2:0,2:0:0:0:
470,68,57687,2,0,P|441:128|296:143,1,215.999993408203,6|0,3:2|3:0,2:0:0:0:
244,55,58006,6,0,B|252:49|252:49|273:-4|273:-4|271:53,1,120,14|0,2:0|2:0,2:0:0:0:
207,235,58219,6,0,B|209:215|209:215|199:209|199:209|184:135,1,96,2|0,3:2|2:0,2:0:0:0:
305,149,58432,2,0,B|303:169|303:169|313:175|313:175|328:249,1,96,2|0,3:2|2:0,2:0:0:0:
213,375,58645,6,0,B|209:335|209:335|229:323|229:323|259:175,1,198.000006042481,6|0,3:2|2:0,2:0:0:0:
255,191,58857,5,8,2:0:0:0:
394,301,58964,6,0,B|420:273|420:273|420:216|420:216|322:239,1,192,6|0,3:2|3:0,2:0:0:0:
162,316,59283,2,0,B|97:330|97:330|68:320|68:320|102:312,1,120,10|0,2:0|3:0,2:0:0:0:
266,324,59496,5,10,2:0:0:0:
249,235,59602,1,0,3:0:0:0:
233,147,59708,1,8,2:0:0:0:
171,92,59815,6,0,B|242:105|242:105|260:137|260:137|355:153,1,192,6|0,3:2|3:0,2:0:0:0:
481,13,60134,2,0,B|487:17|487:17|477:68|477:68|450:24|450:24|455:17,1,120,10|0,2:0|3:0,2:0:0:0:
359,62,60347,5,10,2:0:0:0:
342,151,60453,1,0,3:0:0:0:
326,239,60559,1,8,2:0:0:0:
432,227,60666,6,0,B|406:243|406:243|329:227|329:227|326:223|326:223|235:237,1,192,6|0,3:2|3:0,2:0:0:0:
118,174,60985,2,0,B|107:153|107:153|127:108|127:108|178:90,1,120,10|0,2:0|3:0,2:0:0:0:
230,270,61198,5,10,2:0:0:0:
141,253,61304,1,0,3:0:0:0:
53,237,61410,1,8,2:0:0:0:
28,323,61517,6,0,P|69:341|134:236,1,180,6|0,3:2|2:0,2:0:0:0:
141,253,61730,5,0,3:0:0:0:
181,372,61836,1,8,2:0:0:0:
300,323,61942,2,0,B|307:316|307:316|368:307,2,60,0|0|8,3:0|3:0|2:0,2:0:0:0:
230,270,62155,5,8,2:0:0:0:
304,114,62262,1,8,2:0:0:0:
187,144,62369,6,0,B|207:178|207:178|278:198|278:198|282:204|282:204|357:224,1,192,6|0,3:2|3:0,2:0:0:0:
424,74,62687,2,0,B|451:65|451:65|512:77|512:77|499:50,1,120,10|0,2:0|3:0,2:0:0:0:
318,45,62901,5,10,2:0:0:0:
335,134,63007,1,0,3:0:0:0:
351,222,63113,1,8,2:0:0:0:
458,187,63219,6,0,B|399:178|399:178|387:179|387:179|340:160|340:160|273:195,1,192,6|0,3:2|3:0,2:0:0:0:
66,182,63538,2,0,B|40:197|40:197|-4:178|-4:178|8:119,1,120,10|0,2:0|3:0,2:0:0:0:
154,321,63751,5,10,2:0:0:0:
171,232,63857,1,0,3:0:0:0:
187,144,63963,1,8,2:0:0:0:
66,80,64070,6,0,B|80:93|80:93|103:283,1,192,6|0,3:2|3:0,2:0:0:0:
300,362,64389,2,0,B|307:346|307:346|361:330|361:330|320:321|320:321|313:309,1,120,10|0,2:0|3:0,2:0:0:0:
65,338,64602,5,10,2:0:0:0:
154,321,64708,1,0,3:0:0:0:
242,305,64814,1,8,2:0:0:0:
300,214,64921,6,0,P|259:232|194:127,1,180,6|0,3:2|2:0,2:0:0:0:
186,143,65134,5,8,2:0:0:0:
154,321,65240,1,6,3:2:0:0:
372,256,65772,6,0,P|351:222|344:115,1,143.999995605469,6|2,3:1|3:2,2:0:0:0:
289,67,66091,2,0,P|344:81|356:6,1,144,10|0,2:0|2:0,2:0:0:0:
361,11,66304,5,0,3:0:0:0:
361,11,66411,1,2,3:1:0:0:
286,76,66517,2,0,P|231:90|219:15,1,144,8|0,2:0|2:0,2:0:0:0:
214,20,66730,5,2,3:1:0:0:
95,0,66942,6,0,P|116:34|123:141,1,143.999995605469,10|0,2:0|2:0,2:0:0:0:
124,135,67155,5,2,3:2:0:0:
184,185,67262,1,0,3:0:0:0:
45,249,67368,2,0,P|65:236|130:232,1,83.9999974365235,10|2,2:0|3:1,2:0:0:0:
284,85,67581,6,0,P|263:97|198:101,1,83.9999974365235,2|0,2:0|3:0,2:0:0:0:
45,77,67794,5,10,2:0:0:0:
8,1,67900,2,0,P|6:87|43:165,1,167.999994873047,2|2,2:0|3:2,2:0:0:0:
184,185,68219,2,0,P|218:260|215:344,1,167.999994873047,10|0,2:0|3:0,2:0:0:0:
154,384,68538,5,2,2:3:0:0:
252,278,68645,2,0,P|307:264|319:339,1,144,10|0,2:0|2:0,2:0:0:0:
323,333,68857,5,2,3:0:0:0:
140,310,68964,2,0,P|123:272|124:230,1,83.9999974365235,2|8,3:0|2:0,2:0:0:0:
324,222,69176,6,0,P|410:261|508:257,1,192,2|2,3:0|3:2,2:0:0:0:
484,165,69496,2,0,P|419:156|412:220,1,144,10|0,2:0|2:0,2:0:0:0:
411,219,69708,5,0,3:0:0:0:
411,219,69815,1,2,3:1:0:0:
324,222,69921,2,0,P|316:286|252:277,1,144,8|0,2:0|2:0,2:0:0:0:
251,276,70134,5,2,3:1:0:0:
366,161,70347,6,0,P|345:127|338:20,1,143.999995605469,10|0,2:0|2:0,2:0:0:0:
336,25,70559,5,2,3:2:0:0:
285,79,70666,1,0,3:0:0:0:
412,43,70772,2,0,P|430:80|430:121,1,83.9999974365235,10|2,2:0|3:1,2:0:0:0:
230,132,70985,6,0,P|211:94|211:53,1,83.9999974365235,2|0,2:0|3:0,2:0:0:0:
285,79,71198,5,10,2:0:0:0:
324,222,71304,2,0,P|242:182|152:184,1,167.999994873047,2|2,2:0|3:2,2:0:0:0:
94,155,71623,2,0,P|112:192|112:233,1,83.9999974365235,10|2,2:0|2:1,2:0:0:0:
39,249,71836,5,0,3:0:0:0:
160,293,71942,1,2,2:3:0:0:
106,384,72049,2,0,P|87:346|87:305,1,83.9999974365235,10|0,2:0|2:0,2:0:0:0:
167,181,72262,5,2,3:0:0:0:
213,351,72368,1,2,3:2:0:0:
112,234,72474,1,10,2:0:0:0:
233,278,72581,6,0,P|307:315|390:318,1,167.999994873047,6|2,3:2|3:2,2:0:0:0:
469,276,72900,2,0,P|414:290|402:215,1,144,10|0,2:0|2:0,2:0:0:0:
397,220,73113,5,0,3:0:0:0:
355,129,73219,1,0,3:0:0:0:
284,185,73325,6,0,P|339:199|351:124,1,144,8|0,2:0|2:0,2:0:0:0:
355,129,73538,5,0,3:0:0:0:
434,78,73751,6,0,P|362:79|298:48,1,143.999995605469,10|0,2:0|2:0,2:0:0:0:
298,48,73964,5,2,3:2:0:0:
243,97,74070,1,0,3:0:0:0:
153,0,74176,2,0,P|170:38|169:80,1,83.9999974365235,10|0,2:0|3:0,2:0:0:0:
363,136,74389,6,0,P|346:98|347:56,1,83.9999974365235,2|0,2:0|3:0,2:0:0:0:
284,185,74602,5,10,2:0:0:0:
404,228,74708,2,0,P|320:225|244:257,1,167.999994873047,2|0,2:0|3:0,2:0:0:0:
166,290,75028,6,0,P|165:248|182:210,1,83.9999974365235,10|0,2:0|2:0,2:0:0:0:
321,252,75240,2,0,P|321:293|304:331,1,83.9999974365235,0|0,3:0|2:0,2:0:0:0:
58,208,75453,6,0,P|113:222|125:147,1,144,8|0,2:0|2:0,2:0:0:0:
129,152,75666,5,0,3:0:0:0:
166,290,75772,1,2,3:2:0:0:
244,257,75879,5,10,2:0:0:0:
182,363,75985,1,10,2:0:0:0:
304,332,76091,6,0,P|378:363|458:360,1,161.999995056153,6|0,3:2|2:0,2:0:0:0:
458,359,76304,5,10,2:0:0:0:
430,291,76411,1,2,2:0:0:0:
500,231,76517,5,2,3:2:0:0:
473,322,76623,1,2,3:2:0:0:
403,215,76730,6,0,B|398:209|398:209|409:149|409:149|442:114,1,96,10|2,2:0|2:0,2:0:0:0:
276,0,76942,2,0,B|280:14|280:14|270:36|270:36|276:38|276:38|290:105,1,96,2|0,3:2|2:0,2:0:0:0:
428,129,77155,6,0,P|483:143|495:68,1,144,10|0,2:0|2:0,2:0:0:0:
355,0,77368,6,0,P|414:-5|420:54,1,132.00000402832,8|0,3:0|3:0,2:0:0:0:
329,161,77581,6,0,P|245:164|168:132,1,167.999994873047,6|0,3:2|2:0,2:0:0:0:
46,94,77900,5,8,2:0:0:0:
96,152,78006,1,2,3:2:0:0:
119,78,78113,5,0,3:0:0:0:
23,169,78219,2,0,L|-5:175,2,24,8|8|8,2:0|2:0|2:0,2:0:0:0:
70,24,78432,5,2,3:2:0:0:
169,132,78538,2,0,L|197:126,2,24,8|8|8,2:0|2:0|2:0,2:0:0:0:
46,94,78751,5,0,3:0:0:0:
152,205,78857,1,8,3:0:0:0:
5,245,78964,5,0,3:0:0:0:
96,152,79070,1,4,3:0:0:0:
82,225,79176,5,8,2:0:0:0:
239,281,79283,1,8,2:0:0:0:
158,309,79389,6,0,P|251:312|320:248,1,192,6|0,3:2|3:0,2:0:0:0:
453,167,79708,2,0,P|463:219|384:201,1,161.999995056153,10|0,2:0|2:0,2:0:0:0:
384,205,79921,5,0,3:0:0:0:
376,311,80028,1,0,3:0:0:0:
251,208,80134,2,0,B|258:213|258:213|299:205|299:205|301:208|301:208|322:164,1,96,10|0,2:0|2:0,2:0:0:0:
421,89,80347,6,0,B|435:93|435:93|457:83|457:83|459:89|459:89|526:103,1,96,2|0,3:2|2:0,2:0:0:0:
298,0,80559,2,0,P|289:72|216:66,1,161.999995056153,10|0,2:0|2:0,2:0:0:0:
215,65,80772,5,2,3:2:0:0:
86,105,80879,1,0,3:0:0:0:
142,160,80985,5,10,2:0:0:0:
171,0,81091,2,0,P|174:84|142:161,1,167.999994873047,0|0,3:0|3:0,2:0:0:0:
222,362,81411,2,0,P|219:281|249:208,1,161.999995056153,10|0,2:0|2:0,2:0:0:0:
249,207,81623,5,2,3:2:0:0:
135,235,81730,1,0,3:0:0:0:
318,254,81836,2,0,P|319:302|301:346,1,96,10|2,2:0|2:0,2:0:0:0:
217,143,82049,6,0,P|226:71|299:77,1,161.999995056153,0|0,3:0|2:0,2:0:0:0:
299,77,82262,5,8,2:0:0:0:
415,115,82368,1,0,3:0:0:0:
306,84,82475,5,0,3:0:0:0:
406,69,82581,1,0,3:0:0:0:
506,54,82687,1,8,2:0:0:0:
397,23,82794,6,0,B|383:44|383:44|354:183|354:183|394:223,1,215.999993408203,6|0,3:2|3:0,2:0:0:0:
457,183,83113,5,10,2:0:0:0:
318,254,83219,1,2,2:0:0:0:
511,258,83325,2,0,B|501:249|501:249|461:266|461:266|452:309,1,96,2|0,3:2|3:0,2:0:0:0:
388,217,83538,5,10,2:0:0:0:
314,360,83645,2,0,P|230:363|153:331,1,167.999994873047,2|0,2:0|2:0,2:0:0:0:
179,207,83964,2,0,P|170:279|97:273,1,161.999995056153,10|0,2:0|2:0,2:0:0:0:
96,272,84176,5,2,3:2:0:0:
45,383,84283,1,0,3:0:0:0:
0,225,84389,5,10,2:0:0:0:
172,204,84496,2,0,P|163:132|90:138,1,161.999995056153,4|0,3:2|2:0,2:0:0:0:
89,138,84708,5,0,3:0:0:0:
0,43,84815,2,0,B|20:10|20:10|54:3|54:3|70:18,1,96,10|0,2:0|2:0,2:0:0:0:
176,34,85028,5,2,3:2:0:0:
96,145,85134,1,0,3:0:0:0:
260,126,85240,2,0,B|268:119|268:119|277:71|277:71|281:71|281:71|246:38,1,96,10|0,2:0|2:0,2:0:0:0:
184,210,85453,6,0,B|218:205|218:205|223:198|223:198|230:208|230:208|355:189,1,161.999995056153,4|0,3:2|2:0,2:0:0:0:
335,191,85666,5,8,2:0:0:0:
400,331,85772,1,0,3:0:0:0:
320,280,85879,6,0,L|364:272,1,35.9999989013672,10|0,2:0|2:0,2:0:0:0:
444,171,85985,2,0,L|408:164,1,35.9999989013672,10|0,2:0|2:0,2:0:0:0:
408,164,86198,6,0,P|376:124|349:202,1,167.999994873047,6|0,3:2|2:0,2:0:0:0:
487,267,86517,5,2,3:2:0:0:
400,331,86623,1,0,3:0:0:0:
476,305,86730,2,0,P|392:308|315:276,1,161.999995056153,14|0,2:0|2:0,2:0:0:0:
320,279,86942,5,2,2:0:0:0:
196,305,87049,1,10,2:0:0:0:
213,384,87155,6,0,P|241:308|238:228,1,161.999995056153,4|0,3:2|2:0,2:0:0:0:
238,228,87368,5,0,3:0:0:0:
37,92,87581,6,0,L|81:100,1,35.9999989013672,10|0,2:0|2:0,2:0:0:0:
163,207,87687,2,0,L|127:214,1,35.9999989013672,2|0,2:0|2:0,2:0:0:0:
57,180,87794,6,0,B|107:169|107:169|107:163|107:163|120:171|120:171|233:146,1,167.999994873047,6|0,3:2|2:0,2:0:0:0:
491,29,88219,5,2,3:2:0:0:
404,93,88325,1,0,3:0:0:0:
480,67,88432,2,0,P|396:70|319:38,1,161.999995056153,14|0,2:0|2:0,2:0:0:0:
324,41,88645,5,2,2:0:0:0:
295,177,88751,1,10,2:0:0:0:
391,125,88857,2,0,P|377:192|319:154,1,161.999995056153,4|0,3:2|2:0,2:0:0:0:
318,153,89070,5,2,3:2:0:0:
512,235,89283,6,0,P|455:289|449:368,1,161.999995056153,10|0,2:0|2:0,2:0:0:0:
449,368,89496,5,2,2:0:0:0:
354,225,89602,1,8,2:0:0:0:
500,310,89708,5,6,3:2:0:0:
367,374,89815,1,2,3:1:0:0:
406,310,89921,5,8,2:0:0:0:
294,271,90028,1,2,3:1:0:0:
354,225,90134,5,2,3:0:0:0:
325,160,90241,1,2,3:1:0:0:
181,173,90347,6,0,B|199:178|199:178|204:176|204:176|217:190|217:190|221:188|221:188|270:203,1,96,8|2,2:0|3:1,2:0:0:0:
360,97,90559,5,2,3:2:0:0:
294,66,90666,1,2,3:1:0:0:
265,1,90772,5,8,2:0:0:0:
164,47,90879,1,2,3:1:0:0:
96,9,90985,5,2,3:0:0:0:
28,181,91092,1,0,3:0:0:0:
0,112,91198,6,0,P|89:214|76:79,1,360,10|0,2:0|2:0,2:0:0:0:
74,79,91623,6,0,L|83:121,1,35.9999989013672,10|0,2:0|2:0,2:0:0:0:
267,202,91836,6,0,L|259:243,1,35.9999989013672,10|0,2:0|2:0,2:0:0:0:
164,47,92049,6,0,L|172:5,1,35.9999989013672,10|0,2:0|2:0,2:0:0:0:
461,95,92262,5,4,3:1:0:0:
461,95,92368,2,0,L|413:99,2,35.9999989013672,0|0|0,3:0|3:0|3:0,2:0:0:0:
366,152,92581,5,0,3:0:0:0:
365,48,92687,1,4,3:0:0:0:
329,124,92794,5,0,3:0:0:0:
438,16,92900,1,8,2:0:0:0:
329,124,93006,6,0,B|319:145|319:145|223:163|223:163|222:173|222:173|204:158|204:158|136:173,1,215.999993408203,14|0,3:2|3:0,2:0:0:0:
41,169,93325,2,0,B|32:182|32:182|50:263|50:263|113:208|113:208|114:184,1,198.000006042481,10|0,2:0|2:0,2:0:0:0:
113,193,93538,5,2,3:2:0:0:
57,59,93645,1,0,3:0:0:0:
217,137,93751,6,0,P|200:216|120:201,1,180,10|0,2:0|2:0,2:0:0:0:
187,65,93964,6,0,B|202:61|202:61|204:53|204:53|220:63|220:63|286:48,1,96,2|0,3:2|2:0,2:0:0:0:
372,242,94176,2,0,P|356:163|276:178,1,180,10|0,2:0|2:0,2:0:0:0:
275,178,94389,5,2,3:2:0:0:
266,277,94496,1,0,3:0:0:0:
253,375,94602,1,8,2:0:0:0:
171,376,94708,6,0,B|295:354|295:354|281:362|281:362|434:337,1,264.000008056641,2|0,3:2|3:0,2:0:0:0:
482,205,95028,2,0,B|501:226|501:226|491:266|491:266|430:279,1,120,10|0,2:0|2:0,2:0:0:0:
401,342,95240,5,2,3:2:0:0:
372,242,95347,1,0,3:0:0:0:
487,347,95453,6,0,L|292:299,1,180,10|0,2:0|2:0,2:0:0:0:
271,239,95666,6,0,B|265:233|265:233|247:188|247:188|249:237,1,96,2|0,3:2|2:0,2:0:0:0:
18,365,95879,2,0,B|29:372|29:372|84:357|84:357|88:360|88:360|114:299,1,120,10|0,2:0|2:0,2:0:0:0:
206,300,96091,5,2,3:2:0:0:
73,194,96198,1,0,3:0:0:0:
171,376,96304,1,8,2:0:0:0:
4,276,96411,6,0,B|32:256|32:256|50:178|50:178|44:164|44:164|59:92|59:92|101:66,1,240,6|2,3:2|3:2,2:0:0:0:
123,3,96730,5,10,2:0:0:0:
183,158,96836,1,2,3:2:0:0:
242,119,96942,5,10,2:0:0:0:
283,11,97048,1,0,3:0:0:0:
340,57,97155,5,10,2:0:0:0:
367,127,97262,2,0,B|500:151|500:151|506:166|506:166|448:194,1,198.000006042481,6|0,3:2|2:0,2:0:0:0:
463,186,97474,5,2,3:2:0:0:
417,63,97581,1,10,2:0:0:0:
329,231,97687,1,2,3:2:0:0:
431,260,97794,5,8,2:0:0:0:
304,165,97900,1,0,3:0:0:0:
402,296,98006,1,8,2:0:0:0:
298,360,98113,6,0,B|279:371|279:371|185:344|185:344|138:286|138:286|146:348,1,240,6|0,3:2|3:0,2:0:0:0:
88,384,98432,5,10,2:0:0:0:
22,246,98538,1,0,3:0:0:0:
94,264,98645,5,10,2:0:0:0:
145,160,98751,1,0,3:0:0:0:
76,139,98857,5,10,2:0:0:0:
43,71,98964,2,0,B|98:58|98:58|103:32|103:32|239:2,1,198.000006042481,6|0,3:2|2:0,2:0:0:0:
215,7,99176,5,2,3:2:0:0:
254,164,99283,2,0,B|230:173|230:173|187:154|187:154|203:92,1,120,10|2,2:0|3:2,2:0:0:0:
198,108,99443,1,0,3:0:0:0:
198,108,99496,5,10,2:0:0:0:
312,90,99602,1,8,2:0:0:0:
421,72,99708,1,8,2:0:0:0:
489,0,99815,6,0,L|438:230,1,215.999993408203,6|0,3:2|3:0,2:0:0:0:
274,313,100134,2,0,P|270:261|380:254,1,180,10|0,2:0|2:0,2:0:0:0:
373,244,100347,5,2,3:2:0:0:
338,383,100453,1,0,3:0:0:0:
458,365,100559,2,0,P|374:360|391:245,1,215.999993408203,10|0,2:0|2:0,2:0:0:0:
443,211,100772,6,0,B|441:201|441:201|429:197|429:197|436:163|436:163|429:117,1,96,2|0,3:2|2:0,2:0:0:0:
207,86,100985,2,0,B|205:76|205:76|193:72|193:72|200:38|200:38|193:-8,1,96,10|0,2:0|2:0,2:0:0:0:
357,112,101198,5,2,3:2:0:0:
230,242,101304,1,0,3:0:0:0:
307,57,101411,1,8,2:0:0:0:
293,191,101517,6,0,B|232:190|175:212|175:212|118:233|58:232,1,240,2|0,3:2|3:0,2:0:0:0:
86,70,101836,2,0,B|94:64|94:64|115:11|115:11|113:68,1,120,8|0,2:0|2:0,2:0:0:0:
58,232,102049,5,2,3:2:0:0:
151,138,102155,1,0,3:0:0:0:
16,1,102262,6,0,P|33:80|113:65,1,180,10|0,2:0|2:0,2:0:0:0:
113,64,102474,5,2,3:2:0:0:
35,159,102581,1,2,2:0:0:0:
157,100,102687,5,10,2:0:0:0:
149,0,102794,1,2,2:0:0:0:
196,63,102900,5,0,3:0:0:0:
300,86,103006,1,0,3:0:0:0:
404,109,103112,1,8,2:0:0:0:
493,24,103219,6,0,B|456:42|456:42|408:189|408:189|350:214,1,240,6|0,3:2|3:0,2:0:0:0:
279,158,103538,5,10,2:0:0:0:
439,232,103645,1,2,3:2:0:0:
396,295,103751,5,10,2:0:0:0:
280,348,103858,1,0,3:0:0:0:
229,279,103964,5,10,2:0:0:0:
297,310,104070,2,0,P|236:334|157:240,1,198.000006042481,6|0,3:2|2:0,2:0:0:0:
156,247,104283,5,2,3:2:0:0:
54,348,104389,1,10,2:0:0:0:
129,180,104496,1,2,3:2:0:0:
11,193,104602,5,8,2:0:0:0:
138,288,104708,1,0,3:0:0:0:
40,157,104814,1,8,2:0:0:0:
0,283,104921,6,0,B|60:273|112:241|112:241|165:211|224:201,1,240,6|0,3:2|3:0,2:0:0:0:
280,251,105240,5,10,2:0:0:0:
335,103,105347,1,0,3:0:0:0:
390,154,105453,5,10,2:0:0:0:
434,264,105560,1,0,3:0:0:0:
484,211,105666,5,10,2:0:0:0:
504,136,105772,2,0,P|440:177|312:171,1,198.000006042481,6|0,3:2|2:0,2:0:0:0:
321,175,105985,5,2,3:2:0:0:
188,84,106091,2,0,B|179:60|179:60|198:17|198:17|260:33,1,120,10|2,2:0|3:2,2:0:0:0:
244,28,106251,1,0,3:0:0:0:
244,28,106304,5,8,2:0:0:0:
224,201,106410,1,8,2:0:0:0:
164,161,106516,5,8,2:0:0:0:
141,320,106623,1,8,2:0:0:0:
36,381,106730,6,0,P|37:328|147:330,1,180,6|0,3:2|2:0,2:0:0:0:
301,351,106942,6,0,B|290:352|290:352|280:341|280:341|245:363|245:363|191:374,1,120,10|0,2:0|2:0,2:0:0:0:
154,238,107155,5,2,3:2:0:0:
231,314,107262,1,2,3:0:0:0:
329,182,107368,2,0,B|341:163|341:163|359:224|359:224|334:264,1,120,10|0,2:0|3:0,2:0:0:0:
485,315,107581,6,0,L|476:346,2,30,0|0|0,3:0|3:0|3:0,2:0:0:0:
429,359,107794,5,8,3:0:0:0:
410,287,107901,1,4,3:0:0:0:
250,159,108006,5,0,3:0:0:0:
269,231,108113,1,8,3:0:0:0:
341,252,108219,6,0,L|332:283,2,30,4|4|4,3:0|3:0|3:0,2:0:0:0:
485,51,108432,6,0,P|456:111|311:126,1,215.999993408203,6|8,3:2|2:0,2:0:0:0:
27,333,108751,2,0,P|56:273|201:258,1,215.999993408203,6|0,3:2|3:0,2:0:0:0:
268,329,109070,6,0,B|260:335|260:335|239:388|239:388|241:331,1,120,14|0,2:0|2:0,2:0:0:0:
320,131,109283,6,0,B|322:111|322:111|312:105|312:105|297:31,1,96,2|0,3:2|2:0,2:0:0:0:
192,252,109496,2,0,B|190:272|190:272|200:278|200:278|215:352,1,96,2|0,3:2|2:0,2:0:0:0:
429,174,109708,6,0,B|385:179|385:179|369:157|369:157|197:123,1,215.999993408203,6|0,3:2|2:0,2:0:0:0:
227,128,109921,5,8,2:0:0:0:
137,104,110028,6,0,B|183:94|183:94|198:56|198:56|205:60|205:60|306:40,1,192,6|0,3:2|3:0,2:0:0:0:
496,65,110347,2,0,B|491:73|491:73|497:115|497:115|422:97,1,120,10|0,2:0|3:0,2:0:0:0:
337,204,110559,5,10,2:0:0:0:
299,41,110666,1,0,3:0:0:0:
361,132,110772,1,8,2:0:0:0:
234,135,110879,6,0,B|171:149|171:149|161:143|161:143|108:187|108:187|35:206,1,192,6|0,3:2|3:0,2:0:0:0:
0,135,111198,5,10,2:0:0:0:
83,272,111304,1,0,3:0:0:0:
137,104,111411,5,10,2:0:0:0:
63,199,111517,1,0,3:0:0:0:
104,344,111623,1,8,2:0:0:0:
1,325,111730,6,0,L|198:262,1,192,6|0,3:2|3:0,2:0:0:0:
324,347,112049,2,0,B|356:358|356:358|387:346|387:346|403:285,1,120,10|0,2:0|3:0,2:0:0:0:
217,189,112262,5,10,2:0:0:0:
256,306,112368,1,0,3:0:0:0:
374,266,112474,1,8,2:0:0:0:
291,203,112581,6,0,B|286:230|286:230|290:234|290:234|275:237|275:237|249:329,1,120,6|0,3:2|2:0,2:0:0:0:
197,365,112794,1,2,3:2:0:0:
324,347,112900,5,10,2:0:0:0:
184,266,113006,1,2,3:2:0:0:
268,97,113113,5,10,2:0:0:0:
291,203,113219,1,10,2:0:0:0:
327,53,113325,1,10,2:0:0:0:
188,166,113432,6,0,B|198:160|198:160|365:197|365:197|391:221,1,215.999993408203,6|2,3:2|3:2,2:0:0:0:
490,189,113751,5,10,2:0:0:0:
398,296,113857,1,2,3:2:0:0:
291,203,113964,5,10,2:0:0:0:
389,219,114070,1,2,3:2:0:0:
408,119,114176,1,10,2:0:0:0:
328,273,114283,6,0,B|276:281|276:281|252:319|252:319|136:339,1,192,6|0,3:2|3:0,2:0:0:0:
72,265,114602,5,10,2:0:0:0:
100,384,114708,1,0,3:0:0:0:
123,207,114815,5,10,2:0:0:0:
68,355,114921,1,0,3:0:0:0:
159,335,115028,1,8,2:0:0:0:
4,296,115134,6,0,B|10:267|10:267|6:264|6:264|20:259|20:259|38:165,1,120,6|0,3:2|2:0,2:0:0:0:
160,140,115347,1,0,3:0:0:0:
92,98,115453,5,10,2:0:0:0:
123,207,115559,1,0,3:0:0:0:
197,72,115666,5,10,2:0:0:0:
227,181,115772,1,0,3:0:0:0:
128,27,115879,5,8,2:0:0:0:
263,112,115985,2,0,B|281:109|281:109|391:142|391:142|342:90,1,180,6|0,3:2|2:0,2:0:0:0:
358,107,116198,5,0,3:0:0:0:
480,8,116304,2,0,B|501:28|501:28|493:69|493:69|432:85,1,120,10|0,2:0|3:0,2:0:0:0:
315,171,116517,5,10,2:0:0:0:
347,278,116623,1,8,2:0:0:0:
424,154,116730,1,10,2:0:0:0:
275,255,116836,6,0,B|225:253|179:270|179:270|134:287|86:286,1,192,6|0,3:2|3:0,2:0:0:0:
5,192,117155,2,0,P|-4:144|91:133,1,161.999995056153,10|0,2:0|2:0,2:0:0:0:
85,125,117368,5,2,3:2:0:0:
197,83,117474,1,0,3:0:0:0:
160,194,117581,6,0,P|119:126|128:47,1,161.999995056153,10|0,2:0|2:0,2:0:0:0:
128,46,117794,5,2,3:2:0:0:
269,69,117900,1,2,3:2:0:0:
217,13,118006,5,10,2:0:0:0:
247,139,118113,1,2,2:0:0:0:
316,9,118219,6,0,P|357:77|347:156,1,161.999995056153,2|0,3:2|2:0,2:0:0:0:
347,155,118432,5,10,2:0:0:0:
460,225,118538,1,0,3:0:0:0:
426,162,118645,2,0,P|415:203|382:229,1,83.9999974365235,0|0,3:0|3:0,2:0:0:0:
303,295,118857,6,0,P|294:247|389:236,1,161.999995056153,10|0,2:0|2:0,2:0:0:0:
383,228,119070,5,0,3:2:0:0:
428,292,119176,1,0,3:0:0:0:
253,237,119283,1,10,2:0:0:0:
261,361,119389,6,0,P|272:320|305:294,1,83.9999974365235,2|0,2:0|3:0,2:0:0:0:
200,183,119602,5,2,3:2:0:0:
132,358,119708,1,10,2:0:0:0:
146,236,119815,1,2,2:0:0:0:
192,296,119921,6,0,P|170:215|105:164,1,161.999995056153,2|0,3:2|2:0,2:0:0:0:
111,166,120134,5,10,2:0:0:0:
3,143,120240,2,0,P|94:196|199:182,1,215.999993408203,4|0,3:2|3:0,2:0:0:0:
356,118,120559,2,0,P|283:124|275:51,1,161.999995056153,10|0,2:0|2:0,2:0:0:0:
274,51,120772,5,2,3:2:0:0:
265,144,120879,1,2,3:2:0:0:
253,237,120985,1,10,2:0:0:0:
316,278,121091,6,0,P|384:238|463:248,1,161.999995056153,2|0,2:0|2:0,2:0:0:0:
463,249,121304,5,2,3:2:0:0:
419,189,121411,1,10,2:0:0:0:
358,341,121517,1,2,2:0:0:0:
448,349,121623,6,0,P|409:371|365:365,1,83.9999974365235,2|0,3:2|3:0,2:0:0:0:
253,237,121836,5,10,2:0:0:0:
227,341,121942,2,0,P|280:250|266:145,1,215.999993408203,4|0,3:2|3:0,2:0:0:0:
366,17,122262,2,0,P|357:65|452:76,1,161.999995056153,14|0,2:0|2:0,2:0:0:0:
446,83,122474,5,6,3:2:0:0:
419,189,122581,1,0,3:0:0:0:
266,144,122687,6,0,P|307:146|342:125,1,83.9999974365235,14|2,2:0|2:0,2:0:0:0:
304,63,122900,5,6,3:2:0:0:
217,13,123006,1,2,3:2:0:0:
266,73,123113,5,14,2:0:0:0:
138,132,123219,1,2,2:0:0:0:
188,190,123325,5,4,3:2:0:0:
160,62,123432,2,0,P|118:59|83:80,1,83.9999974365235,14|0,2:0|2:0,2:0:0:0:
65,206,123645,6,0,B|115:204|161:221|161:221|206:238|254:237,1,192,6|0,3:2|3:0,2:0:0:0:
359,378,123964,2,0,P|368:330|273:319,1,161.999995056153,10|0,2:0|2:0,2:0:0:0:
278,311,124176,5,2,3:2:0:0:
142,346,124283,1,2,3:2:0:0:
221,384,124389,6,0,P|262:316|253:237,1,161.999995056153,10|0,2:0|2:0,2:0:0:0:
252,236,124602,5,0,3:0:0:0:
397,274,124708,1,2,3:2:0:0:
322,173,124815,5,10,2:0:0:0:
359,289,124921,1,2,2:0:0:0:
437,175,125028,6,0,P|426:253|468:321,1,161.999995056153,2|0,3:2|2:0,2:0:0:0:
468,321,125240,5,10,2:0:0:0:
319,306,125347,1,0,3:0:0:0:
397,274,125453,2,0,P|386:315|353:341,1,83.9999974365235,0|0,3:0|3:0,2:0:0:0:
179,176,125666,6,0,P|170:224|265:235,1,161.999995056153,10|0,2:0|2:0,2:0:0:0:
259,242,125879,5,2,3:2:0:0:
333,229,125985,1,0,3:0:0:0:
275,79,126091,1,10,2:0:0:0:
310,147,126198,6,0,P|321:106|354:80,1,83.9999974365235,2|0,2:0|3:0,2:0:0:0:
408,134,126411,5,2,3:2:0:0:
368,10,126517,1,10,2:0:0:0:
275,79,126623,1,2,2:0:0:0:
229,19,126730,6,0,P|290:69|310:146,1,161.999995056153,2|0,3:2|2:0,2:0:0:0:
309,146,126942,5,10,2:0:0:0:
408,134,127049,2,0,P|302:119|211:172,1,215.999993408203,4|0,3:2|3:0,2:0:0:0:
8,134,127368,2,0,P|81:140|89:67,1,161.999995056153,10|0,2:0|2:0,2:0:0:0:
89,67,127581,5,2,3:2:0:0:
102,160,127688,1,0,3:0:0:0:
111,254,127794,1,10,2:0:0:0:
41,286,127900,6,0,P|119:296|188:256,1,161.999995056153,2|0,2:0|2:0,2:0:0:0:
188,255,128113,5,2,3:2:0:0:
310,347,128219,1,10,2:0:0:0:
321,246,128325,1,2,2:0:0:0:
256,296,128432,6,0,P|295:274|339:280,1,83.9999974365235,2|0,3:2|3:0,2:0:0:0:
463,195,128645,2,0,P|390:201|382:128,1,161.999995056153,10|0,2:0|2:0,2:0:0:0:
381,128,128857,5,0,3:0:0:0:
512,260,128964,1,0,3:0:0:0:
463,112,129070,2,0,P|475:200|431:276,1,180,10|0,2:0|2:0,2:0:0:0:
431,275,129283,5,6,3:2:0:0:
382,128,129389,1,0,3:0:0:0:
370,213,129496,6,0,P|367:171|388:136,1,83.9999974365235,14|0,2:0|3:0,2:0:0:0:
309,18,129708,5,14,2:0:0:0:
404,64,129815,1,2,3:2:0:0:
267,117,129921,5,10,2:0:0:0:
436,24,130028,1,10,2:0:0:0:
239,46,130134,5,10,2:0:0:0:
285,188,130240,1,10,2:0:0:0:
378,98,130347,1,8,2:0:0:0:
267,117,130453,6,0,B|217:115|171:132|171:132|126:149|78:148,1,192,6|0,3:2|3:0,2:0:0:0:
155,231,130772,2,0,P|146:279|241:290,1,161.999995056153,10|0,2:0|2:0,2:0:0:0:
235,297,130985,5,2,3:2:0:0:
289,376,131091,1,0,3:0:0:0:
263,279,131198,6,0,B|305:280|343:266|343:266|381:252|421:252,1,161.999995056153,10|0,2:0|2:0,2:0:0:0:
421,252,131411,5,2,3:2:0:0:
367,173,131517,1,2,3:2:0:0:
442,165,131623,5,10,2:0:0:0:
331,242,131730,1,2,2:0:0:0:
402,96,131836,6,0,B|360:95|322:109|322:109|284:123|244:123,1,161.999995056153,2|0,3:2|2:0,2:0:0:0:
243,123,132049,5,10,2:0:0:0:
200,0,132155,2,0,P|211:93|164:175,1,192,0|0,3:0|3:0,2:0:0:0:
14,211,132474,2,0,P|5:163|100:152,1,161.999995056153,10|0,2:0|2:0,2:0:0:0:
94,144,132687,5,2,3:2:0:0:
75,290,132794,1,0,3:0:0:0:
164,175,132900,1,10,2:0:0:0:
104,219,133006,6,0,P|98:265|121:306,1,83.9999974365235,2|0,2:0|3:0,2:0:0:0:
257,269,133219,5,2,3:2:0:0:
237,198,133325,1,10,2:0:0:0:
184,250,133432,1,2,2:0:0:0:
326,301,133538,6,0,P|331:254|308:213,1,83.9999974365235,2|0,3:2|3:0,2:0:0:0:
454,298,133751,5,10,2:0:0:0:
368,163,133857,2,0,P|409:260|381:363,1,215.999993408203,4|0,3:2|3:0,2:0:0:0:
246,368,134176,2,0,P|237:320|332:309,1,161.999995056153,10|0,2:0|2:0,2:0:0:0:
326,301,134389,5,2,3:2:0:0:
381,363,134496,1,0,3:0:0:0:
474,200,134602,1,10,2:0:0:0:
454,298,134708,6,0,P|490:268|503:223,1,83.9999974365235,2|0,2:0|3:0,2:0:0:0:
368,163,134921,5,2,3:2:0:0:
431,221,135028,1,10,2:0:0:0:
323,179,135134,1,2,2:0:0:0:
417,101,135240,6,0,P|383:125|368:164,1,83.9999974365235,2|0,3:2|3:0,2:0:0:0:
333,308,135453,5,10,2:0:0:0:
277,196,135559,1,0,3:0:0:0:
260,366,135666,5,8,2:0:0:0:
317,223,135772,1,0,3:0:0:0:
194,328,135879,6,0,L|163:336,2,24,8|8|0,2:0|2:0|3:0,2:0:0:0:
229,263,136091,5,8,3:0:0:0:
144,381,136198,1,4,3:0:0:0:
86,286,136304,6,0,L|129:297,3,41.9999987182618,8|8|8|4,2:0|2:0|3:0|3:0,2:0:0:0:
210,160,136517,2,0,L|166:171,3,41.9999987182618,8|8|8|4,2:0|2:0|3:0|3:0,2:0:0:0:
106,129,136730,2,0,L|149:140,3,30,10|8|8|4,2:0|2:0|3:0|3:0,2:0:0:0:
30,112,136942,6,0,B|77:99|77:99|84:70|84:70|194:42,1,161.999995056153,12|0,2:0|2:0,2:0:0:0:
164,49,137155,5,8,2:0:0:0:
272,0,137262,6,0,B|270:50|287:96|287:96|304:141|303:189,1,192,6|0,3:2|3:0,2:0:0:0:
366,227,137581,5,10,2:0:0:0:
257,295,137687,1,2,3:2:0:0:
323,227,137794,5,2,3:2:0:0:
293,333,137900,1,0,3:0:0:0:
216,259,138006,1,10,2:0:0:0:
364,300,138113,6,0,B|385:300|405:293|405:293|425:286|446:286,1,83.9999974365235,2|0,2:0|3:0,2:0:0:0:
500,235,138325,5,2,3:2:0:0:
396,144,138432,1,10,2:0:0:0:
446,286,138538,1,2,3:2:0:0:
488,159,138645,6,0,B|488:138|495:118|495:118|502:98|502:77,1,83.9999974365235,2|0,3:2|3:0,2:0:0:0:
332,14,138857,5,10,2:0:0:0:
425,72,138964,2,0,P|351:114|267:103,1,167.999994873047,0|0,3:0|3:0,2:0:0:0:
135,84,139283,2,0,P|126:36|221:25,1,161.999995056153,10|0,2:0|2:0,2:0:0:0:
215,17,139496,5,2,3:2:0:0:
204,135,139602,1,0,3:0:0:0:
193,253,139708,1,10,2:0:0:0:
95,225,139815,6,0,B|116:225|136:218|136:218|156:211|177:211,1,83.9999974365235,2|0,2:0|3:0,2:0:0:0:
354,91,140028,2,0,B|333:91|313:98|313:98|293:105|272:105,1,83.9999974365235,2|8,3:2|2:0,2:0:0:0:
19,186,140240,6,0,B|60:184|99:198|99:198|136:212|177:211,1,161.999995056153,2|0,3:2|2:0,2:0:0:0:
177,210,140453,5,2,3:2:0:0:
329,191,140559,2,0,P|338:239|243:250,1,161.999995056153,10|0,2:0|2:0,2:0:0:0:
184,217,140772,6,0,P|226:290|215:374,1,161.999995056153,6|0,3:2|2:0,2:0:0:0:
219,364,140985,5,10,2:0:0:0:
344,301,141091,1,2,2:0:0:0:
146,345,141198,6,0,P|125:308|130:266,1,83.9999974365235,2|2,3:0|3:1,2:0:0:0:
248,258,141411,5,10,2:0:0:0:
184,217,141517,1,2,3:0:0:0:
329,191,141623,5,2,2:0:0:0:
202,292,141730,1,2,3:0:0:0:
344,301,141836,5,10,2:0:0:0:
274,239,141943,1,2,2:0:0:0:
386,274,142049,5,2,3:0:0:0:
368,345,142155,1,2,3:2:0:0:
248,258,142262,5,14,2:0:0:0:
281,135,142368,1,2,2:0:0:0:
440,218,142474,5,10,2:0:0:0:
356,78,142581,1,2,2:0:0:0:
329,191,142687,5,10,2:0:0:0:
469,105,142794,1,2,2:0:0:0:
170,66,142900,5,10,2:0:0:0:
281,135,143007,1,2,2:0:0:0:
260,44,143113,5,10,2:0:0:0:
193,156,143220,1,2,2:0:0:0:
73,50,143325,6,0,L|83:3,1,35.9999989013672,6|0,3:2|2:0,2:0:0:0:
60,0,143964,6,0,L|70:47,1,35.9999989013672,8|0,2:0|2:0,2:0:0:0:
3,83,144070,6,0,B|51:94|51:94|79:133|79:133|88:128|88:128|211:161,1,215.999993408203,6|0,3:2|3:0,2:0:0:0:
356,78,144389,6,0,B|370:73|370:73|372:65|372:65|388:74|388:74|453:55,1,96,10|0,2:0|2:0,2:0:0:0:
226,223,144602,2,0,B|240:219|240:219|242:211|242:211|258:220|258:220|323:201,1,96,2|0,3:2|3:0,2:0:0:0:
359,262,144815,6,0,B|373:257|373:257|375:249|375:249|391:258|391:258|456:239,1,96,10|0,2:0|2:0,2:0:0:0:
218,34,145028,2,0,B|233:30|233:30|235:22|235:22|251:31|251:31|316:12,1,96,2|0,3:2|2:0,2:0:0:0:
484,184,145240,6,0,B|533:196|533:196|497:160|497:160|403:140,1,180,10|0,2:0|2:0,2:0:0:0:
420,143,145453,5,2,3:2:0:0:
443,242,145559,1,0,3:0:0:0:
359,262,145666,5,10,2:0:0:0:
469,336,145772,1,0,3:0:0:0:
350,349,145879,6,0,B|328:343|328:343|324:347|324:347|260:293|260:293|406:247,1,215.999993408203,2|0,2:0|2:0,2:0:0:0:
359,261,146091,5,10,2:0:0:0:
286,384,146198,1,0,3:0:0:0:
182,291,146304,2,0,B|185:298|185:298|174:368,2,60,2|2|2,3:2|2:0|2:0,2:0:0:0:
16,243,146517,6,0,B|41:252|41:252|133:221|133:221|137:226|137:226|177:161,1,180,10|0,2:0|2:0,2:0:0:0:
101,125,146730,6,0,B|77:131|77:131|72:142|72:142|85:181|85:181|73:218,1,96,2|0,3:2|2:0,2:0:0:0:
269,253,146942,2,0,B|253:231|253:231|276:63,1,180,10|0,2:0|2:0,2:0:0:0:
273,79,147155,5,2,3:2:0:0:
368,176,147262,1,0,3:0:0:0:
233,114,147368,5,10,2:0:0:0:
459,50,147474,2,0,P|406:109|257:100,1,180,6|0,3:2|2:0,2:0:0:0:
310,124,147687,5,0,3:0:0:0:
65,115,147794,2,0,P|118:56|267:65,1,180,10|0,2:0|2:0,2:0:0:0:
213,40,148006,5,2,3:2:0:0:
233,114,148113,1,2,3:2:0:0:
323,6,148219,2,0,B|316:12|316:12|304:62|304:62|275:90,1,96,10|0,2:0|2:0,2:0:0:0:
139,206,148432,6,0,P|129:155|230:143,1,180,2|0,3:2|2:0,2:0:0:0:
282,285,148645,2,0,B|301:264|301:264|291:224|291:224|229:211,1,120,10|0,2:0|2:0,2:0:0:0:
58,293,148857,5,2,3:2:0:0:
216,253,148964,1,0,3:0:0:0:
171,329,149070,5,10,2:0:0:0:
139,206,149176,2,0,L|390:253,1,240,2|0,3:2|3:0,2:0:0:0:
490,214,149496,5,10,2:0:0:0:
421,310,149602,1,2,2:0:0:0:
435,111,149708,5,2,3:2:0:0:
454,227,149814,1,2,3:2:0:0:
350,154,149921,6,0,B|339:162|339:162|283:150|283:150|280:154|280:154|251:94,1,120,10|0,2:0|2:0,2:0:0:0:
345,30,150134,6,0,P|335:81|440:107,1,180,2|0,3:2|2:0,2:0:0:0:
512,59,150347,2,0,B|504:53|504:53|483:0|483:0|485:57,1,120,10|0,2:0|2:0,2:0:0:0:
350,154,150559,5,2,3:2:0:0:
345,30,150666,1,0,3:0:0:0:
436,111,150772,1,10,2:0:0:0:
261,114,150879,6,0,B|204:111|152:130|152:130|101:150|47:148,1,215.999993408203,6|0,3:2|3:0,2:0:0:0:
0,212,151198,6,0,P|-10:161|95:135,1,180,8|0,2:0|2:0,2:0:0:0:
169,137,151411,2,0,B|163:142|163:142|150:212,2,60,2|0|2,3:2|2:0|3:2,2:0:0:0:
95,49,151623,6,0,B|112:56|112:56|159:212,1,161.999995056153,10|0,2:0|2:0,2:0:0:0:
219,229,151836,2,0,B|212:245|212:245|176:273|176:273|162:321,1,96,2|0,3:2|2:0,2:0:0:0:
88,379,152049,5,8,2:0:0:0:
241,317,152155,1,2,2:0:0:0:
120,282,152262,5,0,3:0:0:0:
194,338,152368,1,0,3:0:0:0:
153,193,152474,1,10,2:0:0:0:
24,333,152581,6,0,B|81:330|133:349|133:349|184:369|238:367,1,215.999993408203,0|0,3:0|3:0,2:0:0:0:
370,264,152900,6,0,P|380:315|275:341,1,180,10|0,2:0|2:0,2:0:0:0:
279,345,153113,5,2,3:2:0:0:
310,215,153219,1,0,3:0:0:0:
220,134,153325,5,12,2:0:0:0:
301,260,153432,1,0,3:0:0:0:
374,172,153538,5,8,2:0:0:0:
224,263,153645,1,0,3:0:0:0:
307,125,153751,6,0,B|301:130|301:130|288:200,2,60,8|8|0,2:0|2:0|3:0,2:0:0:0:
150,268,153964,2,0,B|144:263|144:263|131:193,2,60,8|0|4,3:0|3:0|3:0,2:0:0:0:
188,160,154176,5,8,2:0:0:0:
1,131,154283,2,0,B|54:116|54:116|70:67|70:67|76:70|76:70|204:33,1,215.999993408203,6|0,3:2|3:0,2:0:0:0:
292,24,154602,6,0,B|278:19|278:19|276:11|276:11|260:20|260:20|195:1,1,96,10|0,2:0|2:0,2:0:0:0:
307,125,154815,5,2,3:2:0:0:
391,19,154921,1,2,3:2:0:0:
433,84,155028,2,0,B|437:75|437:75|433:33|433:33|507:54,1,120,10|0,2:0|2:0,2:0:0:0:
512,134,155240,6,0,B|505:147|505:147|419:169,1,96,2|0,3:2|2:0,2:0:0:0:
307,125,155453,2,0,B|299:114|299:114|311:58|311:58|307:55|307:55|367:26,1,120,10|0,2:0|2:0,2:0:0:0:
427,167,155666,5,2,3:2:0:0:
343,273,155772,1,2,2:0:0:0:
442,275,155879,2,0,B|436:267|436:267|383:246|383:246|440:248,1,120,10|0,2:0|3:0,2:0:0:0:
489,384,156091,6,0,B|495:379|495:379|510:308,2,60,2|0|2,2:0|2:0|3:2,2:0:0:0:
230,205,156304,2,0,B|236:210|236:210|251:281,2,71.9999978027344,10|0|2,2:0|2:0|2:0,2:0:0:0:
326,384,156517,5,2,3:2:0:0:
222,358,156623,1,2,3:2:0:0:
118,332,156730,2,0,B|123:323|123:323|103:241|103:241|111:248|111:248|130:253,1,120,10|0,2:0|2:0,2:0:0:0:
250,273,156942,6,0,B|246:262|246:262|157:238,1,96,2|0,3:2|2:0,2:0:0:0:
23,145,157155,2,0,B|36:156|36:156|104:138|104:138|115:87,1,120,10|0,2:0|2:0,2:0:0:0:
48,60,157368,5,2,3:2:0:0:
118,150,157474,1,2,3:2:0:0:
211,0,157581,1,10,2:0:0:0:
161,84,157687,6,0,B|239:104|239:104|239:119|239:119|264:107|264:107|387:140,1,240,6|0,3:2|3:0,2:0:0:0:
497,64,158006,2,0,B|506:40|506:40|487:-3|487:-3|425:13,1,120,10|0,2:0|2:0,2:0:0:0:
298,191,158219,5,2,3:2:0:0:
393,172,158325,1,2,3:2:0:0:
488,153,158432,1,10,2:0:0:0:
448,83,158538,5,2,2:0:0:0:
379,257,158645,2,0,B|383:242|383:242|391:240|391:240|381:224|381:224|396:158,1,96,2|0,3:2|2:0,2:0:0:0:
274,14,158857,2,0,P|275:70|157:78,1,198.000006042481,10|0,2:0|2:0,2:0:0:0:
159,82,159070,5,2,3:2:0:0:
203,213,159176,1,2,3:2:0:0:
203,57,159283,5,10,2:0:0:0:
41,166,159389,2,0,L|303:117,1,240,2|0,3:2|3:0,2:0:0:0:
379,257,159708,6,0,B|372:262|372:262|356:338,2,83.9999974365235,10|0|2,2:0|2:0|2:0,2:0:0:0:
488,182,159921,2,0,B|482:177|482:177|468:114,2,71.9999978027344,2|0|2,3:2|2:0|3:2,2:0:0:0:
352,232,160134,6,0,B|348:237|348:237|292:248,2,60,10|0|2,2:0|2:0|2:0,2:0:0:0:
357,336,160347,2,0,B|360:340|360:340|406:350,2,48,2|0|2,3:2|2:0|3:2,2:0:0:0:
267,287,160559,6,0,B|264:290|264:290|225:298,2,35.9999989013672,10|0|2,2:0|2:0|3:2,2:0:0:0:
170,349,160772,5,8,2:0:0:0:
227,217,160879,1,8,2:0:0:0:
236,380,160985,5,8,2:0:0:0:
161,186,161091,1,8,2:0:0:0:
99,319,161198,5,6,3:2:0:0:
233,297,161304,1,2,3:2:0:0:
16,215,161411,5,10,2:0:0:0:
122,289,161517,1,2,3:2:0:0:
47,122,161623,5,2,3:2:0:0:
65,223,161729,1,2,3:2:0:0:
123,84,161836,5,10,2:0:0:0:
76,151,161942,1,2,3:2:0:0:
167,27,162049,5,2,3:2:0:0:
179,99,162155,1,2,3:2:0:0:
228,68,162262,5,10,2:0:0:0:
300,115,162368,1,2,3:2:0:0:
338,49,162474,6,0,B|382:42|382:42|374:46|374:46|427:37,1,96,2|0,3:2|3:0,2:0:0:0:
257,175,162687,2,0,B|204:182|204:182|214:177|214:177|156:186,1,120,10|0,2:0|3:0,2:0:0:0:
496,54,162900,6,0,B|505:78|505:78|486:121|486:121|424:105,1,120,2|0,3:2|3:0,2:0:0:0:
228,68,163113,6,0,B|265:76|265:76|294:190|294:190|332:227,1,198.000006042481,10|0,2:0|2:0,2:0:0:0:
324,219,163325,5,0,3:0:0:0:
380,161,163432,1,0,3:0:0:0:
435,295,163538,2,0,P|413:215|331:226,1,180,8|0,2:0|2:0,2:0:0:0:
249,209,163751,6,0,B|230:213|230:213|216:268|216:268|198:286,1,96,2|0,3:2|2:0,2:0:0:0:
14,295,163964,5,10,2:0:0:0:
123,329,164070,1,2,3:2:0:0:
56,256,164176,5,2,3:2:0:0:
80,368,164283,1,2,3:2:0:0:
111,273,164389,5,10,2:0:0:0:
25,350,164496,1,10,2:0:0:0:
95,225,164602,6,0,B|103:206|103:206|76:79|76:79|113:39,1,198.000006042481,6|0,3:2|2:0,2:0:0:0:
108,44,164815,5,10,2:0:0:0:
218,124,164921,1,2,3:2:0:0:
287,56,165028,5,2,3:0:0:0:
303,163,165134,1,2,3:0:0:0:
373,189,165240,5,10,2:0:0:0:
321,258,165346,1,2,3:0:0:0:
332,312,165453,5,2,3:2:0:0:
259,320,165559,1,2,3:0:0:0:
404,303,165666,5,10,2:0:0:0:
321,258,165772,1,2,3:0:0:0:
480,319,165879,5,2,3:0:0:0:
445,214,165985,1,2,3:2:0:0:
343,362,166091,6,0,B|335:372|335:372|284:361|284:361|281:365|281:365|252:305,1,120,14|0,2:0|2:0,2:0:0:0:
122,258,166304,5,6,3:2:0:0:
52,359,166411,1,10,2:0:0:0:
187,298,166517,5,10,2:0:0:0:
134,186,166624,1,10,2:0:0:0:
15,299,166730,5,10,2:0:0:0:
127,352,166837,1,10,2:0:0:0:
209,167,166942,5,10,2:0:0:0:
97,114,167049,1,10,2:0:0:0:
36,187,167155,6,0,B|53:193|53:193|102:174|102:174|109:156|109:156|167:182|167:182|227:161,1,198.000006042481,6|0,3:2|2:0,2:0:0:0:
209,166,167368,5,8,2:0:0:0:
59,41,167474,1,8,2:0:0:0:
218,95,167581,6,0,B|233:81|233:81|159:6|159:6|151:62,1,180,6|0,3:2|2:0,2:0:0:0:
97,114,167794,2,0,B|90:119|90:119|48:113|48:113|47:116|47:116|23:73,1,96,0|0,3:0|2:0,2:0:0:0:
217,173,168006,5,6,3:2:0:0:
234,175,168113,1,0,3:2:0:0:
251,177,168219,1,8,2:0:0:0:
268,179,168325,1,0,3:2:0:0:
342,108,168432,5,6,3:2:0:0:
294,99,168538,1,0,3:2:0:0:
278,54,168645,1,8,2:0:0:0:
309,16,168751,1,0,3:2:0:0:
309,16,168857,5,6,3:2:0:0:
382,29,168963,1,0,3:2:0:0:
406,98,169070,1,8,2:0:0:0:
359,156,169176,1,0,3:2:0:0:
359,156,169283,5,6,3:2:0:0:
401,202,169389,1,0,3:2:0:0:
370,267,169496,1,8,2:0:0:0:
468,272,169602,1,0,3:2:0:0:
468,272,169708,5,6,3:2:0:0:
499,207,169815,1,0,3:2:0:0:
305,303,169921,1,8,2:0:0:0:
336,368,170028,1,0,3:2:0:0:
370,267,170134,5,6,3:2:0:0:
260,360,170240,1,0,3:2:0:0:
260,212,170347,5,8,2:0:0:0:
301,347,170453,1,0,3:2:0:0:
183,286,170559,5,6,3:2:0:0:
229,147,170665,1,0,3:2:0:0:
370,267,170772,5,8,2:0:0:0:
259,65,170878,1,0,3:2:0:0:
123,244,170985,5,14,2:0:0:0:
260,212,171091,5,8,2:0:0:0:
397,180,171198,5,8,2:0:0:0:
480,109,171304,6,0,B|433:99|433:99|424:107|424:107|397:100|397:100|395:105|395:105|374:78|374:78|378:92|378:92|248:62,1,264.000008056641,14|0,3:2|3:0,2:0:0:0:
136,171,171623,2,0,B|133:157|133:157|76:141|76:141|58:63|58:63|107:17,1,198.000006042481,10|0,2:0|2:0,2:0:0:0:
90,32,171836,5,2,3:2:0:0:
229,147,171942,1,0,3:0:0:0:
213,0,172049,6,0,P|195:70|97:35,1,198.000006042481,10|0,2:0|2:0,2:0:0:0:
32,110,172262,6,0,B|36:125|36:125|44:127|44:127|34:143|34:143|49:209,1,96,2|0,3:2|2:0,2:0:0:0:
325,137,172474,2,0,P|339:50|253:94,1,198.000006042481,10|0,2:0|2:0,2:0:0:0:
259,64,172687,5,2,3:2:0:0:
260,212,172794,1,0,3:0:0:0:
171,64,172900,1,8,2:0:0:0:
229,147,173006,6,0,B|295:164|295:164|301:198|301:198|462:237,1,240,2|0,3:2|3:0,2:0:0:0:
512,73,173325,2,0,B|531:93|531:93|521:134|521:134|460:147,1,120,10|0,2:0|2:0,2:0:0:0:
325,137,173538,5,2,3:2:0:0:
434,230,173645,1,0,3:0:0:0:
387,44,173751,6,0,B|406:58|406:58|434:230,1,198.000006042481,10|0,2:0|2:0,2:0:0:0:
453,323,173964,6,0,B|459:317|459:317|504:299|504:299|455:301,1,96,2|0,3:2|2:0,2:0:0:0:
213,254,174176,2,0,B|194:234|194:234|204:193|204:193|265:180,1,120,10|0,2:0|2:0,2:0:0:0:
358,381,174389,5,2,3:2:0:0:
374,275,174496,1,0,3:0:0:0:
391,170,174602,1,8,2:0:0:0:
317,225,174708,6,0,B|208:248|208:248|220:239|220:239|87:268,1,240,6|2,3:2|3:2,2:0:0:0:
0,220,175028,5,10,2:0:0:0:
94,343,175134,1,2,3:2:0:0:
71,198,175240,5,10,2:0:0:0:
22,364,175347,1,0,3:0:0:0:
109,263,175453,1,10,2:0:0:0:
14,146,175559,6,0,B|145:169|145:169|211:120,1,198.000006042481,6|0,3:2|2:0,2:0:0:0:
197,130,175772,5,2,3:2:0:0:
138,25,175879,1,10,2:0:0:0:
230,150,175985,5,2,3:2:0:0:
272,49,176091,1,10,2:0:0:0:
158,108,176198,5,0,3:0:0:0:
308,193,176304,1,8,2:0:0:0:
434,80,176411,6,0,B|424:98|424:98|360:109|360:109|359:118|359:118|338:106|338:106|308:135|308:135|203:155,1,240,6|0,3:2|3:0,2:0:0:0:
185,250,176730,5,10,2:0:0:0:
158,108,176836,1,2,3:2:0:0:
308,193,176942,5,10,2:0:0:0:
127,200,177049,1,0,3:0:0:0:
230,150,177155,1,10,2:0:0:0:
200,326,177262,6,0,B|257:356|257:356|256:351|256:351|350:330|350:330|292:318,1,198.000006042481,6|0,3:2|2:0,2:0:0:0:
318,323,177474,5,2,3:2:0:0:
482,210,177581,2,0,B|491:186|491:186|472:143|472:143|410:157,1,120,10|2,2:0|3:2,2:0:0:0:
426,153,177741,1,0,3:0:0:0:
426,153,177794,5,10,2:0:0:0:
410,267,177900,1,8,2:0:0:0:
388,375,178006,1,8,2:0:0:0:
506,303,178113,6,0,L|263:263,1,240,6|0,3:2|3:0,2:0:0:0:
106,327,178432,2,0,B|73:296|73:296|86:231|86:231|181:207,1,198.000006042481,10|0,2:0|2:0,2:0:0:0:
169,209,178645,5,2,3:2:0:0:
200,326,178751,1,0,3:0:0:0:
284,137,178857,2,0,P|276:216|170:208,1,198.000006042481,10|0,2:0|2:0,2:0:0:0:
93,203,179070,6,0,B|91:193|91:193|79:189|79:189|86:155|86:155|79:109,1,96,2|0,3:2|2:0,2:0:0:0:
269,264,179283,2,0,B|271:274|271:274|283:278|283:278|276:312|276:312|283:358,1,96,10|0,2:0|2:0,2:0:0:0:
200,326,179496,5,2,3:2:0:0:
344,207,179602,1,0,3:0:0:0:
357,368,179708,1,8,2:0:0:0:
269,264,179815,6,0,B|258:193|258:193|226:184|226:184|252:112|252:112|240:22,1,264.000008056641,2|0,3:2|3:0,2:0:0:0:
148,84,180134,2,0,B|142:76|142:76|89:55|89:55|146:57,1,120,10|0,2:0|2:0,2:0:0:0:
294,80,180347,5,2,3:2:0:0:
199,140,180453,1,0,3:0:0:0:
402,1,180559,6,0,P|394:80|288:72,1,198.000006042481,10|0,2:0|2:0,2:0:0:0:
242,30,180772,6,0,B|240:40|240:40|228:44|228:44|235:78|235:78|228:124,1,96,2|0,3:2|2:0,2:0:0:0:
358,275,180985,2,0,B|377:270|377:270|389:209|389:209|443:163,1,120,10|2,2:0|2:0,2:0:0:0:
127,240,181198,5,0,3:0:0:0:
231,220,181304,1,0,3:0:0:0:
335,201,181411,1,8,2:0:0:0:
469,333,181517,6,0,B|360:310|360:310|372:319|372:319|239:290,1,240,6|2,3:2|3:2,2:0:0:0:
172,180,181836,5,10,2:0:0:0:
205,341,181942,1,2,3:2:0:0:
127,240,182049,5,10,2:0:0:0:
261,295,182155,1,0,3:0:0:0:
145,384,182262,1,10,2:0:0:0:
0,243,182368,6,0,B|56:230|56:230|61:204|61:204|197:174,1,198.000006042481,6|0,3:2|2:0,2:0:0:0:
172,179,182581,5,2,3:2:0:0:
281,209,182687,1,10,2:0:0:0:
191,146,182794,5,2,3:2:0:0:
261,295,182900,1,10,2:0:0:0:
383,196,183006,5,0,3:0:0:0:
316,347,183112,1,8,2:0:0:0:
472,243,183219,6,0,B|439:234|439:234|400:81|400:81|362:29,1,240,6|0,3:2|3:0,2:0:0:0:
222,77,183538,5,10,2:0:0:0:
374,2,183645,1,2,3:2:0:0:
296,124,183751,5,10,2:0:0:0:
256,12,183858,1,0,3:0:0:0:
370,78,183964,1,10,2:0:0:0:
281,209,184070,6,0,B|267:234|267:234|131:273|131:273|108:316,1,198.000006042481,6|0,3:2|2:0,2:0:0:0:
117,297,184283,5,2,3:2:0:0:
28,138,184389,2,0,B|19:114|19:114|38:71|38:71|100:85,1,120,10|2,2:0|3:2,2:0:0:0:
84,81,184549,1,0,3:0:0:0:
84,81,184602,5,10,2:0:0:0:
107,192,184708,1,8,2:0:0:0:
124,304,184814,1,8,2:0:0:0:
171,229,184921,6,0,B|179:242|179:242|240:260|240:260|250:279,1,96,2|0,2:0|2:0,2:0:0:0:
196,335,185240,6,0,B|192:323|192:323|178:320|178:320|183:279|183:279|170:226,1,120,6|0,3:2|3:0,2:0:0:0:
356,149,185453,6,0,B|360:137|360:137|374:134|374:134|369:93|369:93|382:40,1,120,14|0,2:0|3:0,2:0:0:0:
272,349,185666,6,0,B|284:353|284:353|287:367|287:367|328:362|328:362|381:375,1,120,14|0,2:0|3:0,2:0:0:0:
290,106,185879,6,0,B|286:94|286:94|272:91|272:91|277:50|277:50|264:-3,1,120,14|0,2:0|3:0,2:0:0:0:
485,271,186091,6,0,B|473:275|473:275|470:289|470:289|429:284|429:284|376:297,1,120,14|0,2:0|3:0,2:0:0:0:
7,119,186304,5,10,2:0:0:0:
113,144,186410,5,8,2:0:0:0:
219,168,186517,5,8,2:0:0:0:
171,229,186623,6,0,B|151:212|151:212|134:147|134:147|137:142|137:142|109:32|109:32|136:52|136:52|154:49,1,264.000008056641,14|0,3:2|3:0,2:0:0:0:
339,218,186942,2,0,P|309:139|213:197,1,198.000006042481,10|0,2:0|2:0,2:0:0:0:
219,168,187155,5,2,3:2:0:0:
113,144,187262,1,0,3:0:0:0:
379,30,187368,6,0,P|377:118|300:59,1,198.000006042481,10|0,2:0|2:0,2:0:0:0:
243,2,187581,6,0,B|237:8|237:8|194:30|194:30|242:24,1,96,2|0,3:2|2:0,2:0:0:0:
435,103,187794,2,0,B|417:112|417:112|375:304,1,198.000006042481,10|0,2:0|2:0,2:0:0:0:
378,285,188006,5,0,3:0:0:0:
264,234,188113,1,0,3:0:0:0:
326,384,188219,1,8,2:0:0:0:
471,320,188325,6,0,B|350:339|350:339|364:331|364:331|240:353,1,264.000008056641,6|0,3:2|3:0,2:0:0:0:
90,380,188645,5,10,2:0:0:0:
207,284,188751,1,2,3:2:0:0:
133,291,188857,5,10,2:0:0:0:
146,157,188963,1,0,3:0:0:0:
103,189,189070,5,10,2:0:0:0:
56,131,189176,2,0,B|257:162,1,198.000006042481,6|0,3:2|2:0,2:0:0:0:
251,161,189389,5,2,3:2:0:0:
215,16,189496,1,10,2:0:0:0:
305,105,189602,1,2,3:2:0:0:
330,180,189708,5,10,2:0:0:0:
411,38,189814,1,0,3:0:0:0:
297,148,189920,1,8,2:0:0:0:
324,11,190028,6,0,B|361:252,1,240,6|0,3:2|3:0,2:0:0:0:
383,383,190347,5,10,2:0:0:0:
433,252,190453,1,2,3:2:0:0:
282,207,190559,5,10,2:0:0:0:
319,308,190665,1,0,3:0:0:0:
273,366,190772,5,10,2:0:0:0:
244,297,190879,2,0,B|189:310|189:310|184:336|184:336|48:366,1,198.000006042481,6|0,3:2|2:0,2:0:0:0:
71,360,191091,5,2,3:2:0:0:
73,182,191198,2,0,B|49:170|49:170|5:186|5:186|15:249,1,120,10|2,2:0|3:2,2:0:0:0:
12,231,191358,1,0,3:0:0:0:
12,231,191411,5,10,2:0:0:0:
129,268,191517,1,8,2:0:0:0:
244,297,191623,1,8,2:0:0:0:
184,384,191730,6,0,L|135:111,1,264.000008056641,6|0,3:2|3:0,2:0:0:0:
309,92,192049,2,0,B|318:79|318:79|300:-2|300:-2|237:53|237:53|236:77,1,198.000006042481,10|0,2:0|2:0,2:0:0:0:
236,68,192262,5,2,3:2:0:0:
114,17,192368,1,0,3:0:0:0:
419,74,192474,6,0,P|389:153|293:95,1,198.000006042481,10|0,2:0|2:0,2:0:0:0:
210,111,192687,6,0,B|212:120|212:120|224:124|224:124|219:158|219:158|228:204,1,96,2|0,3:2|2:0,2:0:0:0:
445,380,192900,2,0,B|447:368|447:368|462:364|462:364|456:324|456:324|467:271,1,120,10|0,2:0|2:0,2:0:0:0:
298,222,193113,5,2,3:2:0:0:
338,328,193219,1,0,3:0:0:0:
422,167,193325,1,8,2:0:0:0:
279,379,193432,6,0,B|224:366|224:366|219:340|219:340|83:310,1,198.000006042481,2|0,3:2|2:0,2:0:0:0:
106,315,193645,5,0,3:0:0:0:
4,131,193751,2,0,B|-7:155|-7:155|10:198|10:198|72:186,1,120,10|0,2:0|2:0,2:0:0:0:
226,197,193964,5,2,3:2:0:0:
77,159,194070,1,0,3:0:0:0:
244,79,194176,6,0,B|218:85|218:85|187:144|187:144|190:150|190:150|158:208|158:208|114:220,1,198.000006042481,10|0,2:0|2:0,2:0:0:0:
127,216,194389,5,2,3:2:0:0:
60,83,194496,2,0,B|59:70|59:70|36:24|36:24|107:15,1,120,2|8,2:0|2:0,2:0:0:0:
308,126,194708,5,2,2:0:0:0:
244,79,194815,5,0,3:0:0:0:
349,63,194921,1,0,3:0:0:0:
454,47,195027,1,8,2:0:0:0:
375,19,195134,6,0,B|392:117|392:117|387:121|387:121|401:207|401:207|357:241,1,240,6|2,3:2|3:2,2:0:0:0:
262,188,195453,5,10,2:0:0:0:
357,309,195559,1,2,3:2:0:0:
283,290,195666,5,10,2:0:0:0:
214,380,195772,1,0,3:0:0:0:
260,371,195879,5,10,2:0:0:0:
213,310,195985,2,0,B|164:266|164:266|75:286|75:286|115:322,1,198.000006042481,6|0,3:2|2:0,2:0:0:0:
105,313,196198,5,2,3:2:0:0:
27,170,196304,1,10,2:0:0:0:
156,240,196411,1,2,3:2:0:0:
33,314,196517,5,8,2:0:0:0:
114,172,196623,1,0,3:0:0:0:
0,282,196729,1,8,2:0:0:0:
156,240,196836,6,0,B|182:111|182:111|173:46|173:46|207:94,1,240,6|0,3:2|3:0,2:0:0:0:
327,5,197155,5,10,2:0:0:0:
252,138,197262,1,2,3:2:0:0:
291,73,197368,5,8,2:0:0:0:
345,170,197475,1,2,3:2:0:0:
465,128,197581,5,8,2:0:0:0:
503,62,197687,2,0,B|462:78|462:78|433:189|433:189|393:233,1,198.000006042481,6|0,3:2|2:0,2:0:0:0:
406,218,197900,5,2,3:2:0:0:
512,362,198006,2,0,B|488:373|488:373|445:356|445:356|457:294,1,120,10|2,2:0|3:2,2:0:0:0:
453,310,198166,1,0,3:0:0:0:
453,310,198219,5,10,2:0:0:0:
345,346,198325,1,8,2:0:0:0:
414,225,198431,5,8,2:0:0:0:
368,384,198538,1,8,2:0:0:0:
209,343,198645,6,0,P|201:291|310:274,1,180,6|0,3:2|2:0,2:0:0:0:
345,346,198857,6,0,B|334:345|334:345|324:356|324:356|289:334|289:334|235:323,1,120,10|0,2:0|2:0,2:0:0:0:
50,294,199070,5,2,3:2:0:0:
203,236,199176,1,2,3:1:0:0:
150,291,199283,2,0,B|156:280|156:280|144:207|144:207|100:229,1,120,10|0,2:0|3:0,2:0:0:0:
196,44,199496,6,0,L|190:11,2,30,0|0|0,3:0|3:0|3:0,2:0:0:0:
138,100,199708,5,8,3:0:0:0:
210,119,199815,1,4,3:0:0:0:
374,284,199920,5,0,3:0:0:0:
302,265,200027,1,8,3:0:0:0:
429,231,200134,6,0,L|396:236,2,30,4|4|4,3:0|3:0|3:0,2:0:0:0:
467,346,200347,6,0,P|438:286|293:271,1,215.999993408203,6|8,3:2|2:0,2:0:0:0:
45,38,200666,2,0,P|74:98|219:113,1,215.999993408203,6|0,3:2|3:0,2:0:0:0:
256,322,200985,6,0,B|248:328|248:328|227:381|227:381|229:324,1,120,14|0,2:0|2:0,2:0:0:0:
210,118,201198,6,0,B|212:98|212:98|202:92|202:92|187:18,1,96,2|0,3:2|2:0,2:0:0:0:
302,265,201411,2,0,B|300:285|300:285|310:291|310:291|325:365,1,96,2|0,3:2|2:0,2:0:0:0:
283,12,201623,6,0,B|290:52|290:52|270:67|270:67|238:224,1,215.999993408203,6|0,3:2|2:0,2:0:0:0:
239,214,201836,5,8,2:0:0:0:
144,216,201942,6,0,L|362:170,1,215.999993408203,6|0,3:2|3:0,2:0:0:0:
506,72,202262,2,0,B|495:80|495:80|439:68|439:68|436:72|436:72|407:12,1,120,10|0,2:0|3:0,2:0:0:0:
421,214,202474,5,10,2:0:0:0:
324,88,202581,1,0,3:0:0:0:
466,150,202687,1,8,2:0:0:0:
355,171,202794,6,0,B|366:218|366:218|400:232|400:232|425:341,1,192,6|0,3:2|3:0,2:0:0:0:
235,292,203113,2,0,B|208:301|208:301|147:289|147:289|160:316,1,120,10|0,2:0|3:0,2:0:0:0:
317,347,203325,5,10,2:0:0:0:
336,259,203432,1,0,3:0:0:0:
355,171,203538,1,8,2:0:0:0:
239,112,203645,6,0,B|160:127|160:127|153:121|153:121|81:136|81:136|62:172,1,192,6|0,3:2|3:0,2:0:0:0:
263,1,203964,2,0,B|285:4|285:4|297:65|297:65|351:111,1,120,10|0,2:0|3:0,2:0:0:0:
156,151,204176,5,10,2:0:0:0:
106,93,204283,1,0,3:0:0:0:
239,112,204389,1,8,2:0:0:0:
67,161,204496,6,0,B|126:174|126:174|135:168|135:168|185:209|185:209|254:227,1,180,6|0,3:2|2:0,2:0:0:0:
227,220,204708,5,0,3:0:0:0:
98,375,204815,1,8,2:0:0:0:
161,252,204921,2,0,B|154:259|154:259|93:268,2,60,0|0|8,3:0|3:0|2:0,2:0:0:0:
190,326,205134,5,8,2:0:0:0:
156,151,205240,1,8,2:0:0:0:
233,229,205347,6,0,B|292:243|292:243|297:284|297:284|396:307,1,192,6|0,3:2|3:0,2:0:0:0:
504,197,205666,2,0,B|499:188|499:188|506:146|506:146|430:163,1,120,10|0,2:0|3:0,2:0:0:0:
330,243,205879,5,10,2:0:0:0:
352,121,205985,1,0,3:0:0:0:
385,304,206091,1,8,2:0:0:0:
463,259,206198,6,0,L|265:302,1,192,6|0,3:2|3:0,2:0:0:0:
14,199,206517,2,0,B|3:220|3:220|23:265|23:265|78:277,1,120,10|0,2:0|3:0,2:0:0:0:
228,150,206730,5,10,2:0:0:0:
209,238,206837,1,0,3:0:0:0:
190,326,206943,1,8,2:0:0:0:
107,384,207049,6,0,B|98:325|98:325|99:313|99:313|80:266|80:266|115:199,1,192,6|0,3:2|3:0,2:0:0:0:
173,96,207368,2,0,B|178:87|178:87|226:57|226:57|171:69,1,120,10|0,2:0|3:0,2:0:0:0:
68,142,207581,5,10,2:0:0:0:
209,238,207687,1,0,3:0:0:0:
112,204,207794,1,8,2:0:0:0:
228,150,207900,6,0,B|309:169|309:169|295:172|295:172|405:197,1,180,6|0,3:2|2:0,2:0:0:0:
375,190,208113,5,0,3:0:0:0:
335,100,208219,1,10,2:0:0:0:
316,274,208325,1,0,3:0:0:0:
470,208,208432,5,10,2:0:0:0:
341,306,208538,1,8,2:0:0:0:
432,358,208645,5,10,2:0:0:0:
282,208,208751,2,0,B|252:224|252:224|219:203|219:203|164:202|164:202|163:197|163:197|103:183|103:183|117:221,1,215.999993408203,6|0,3:2|3:0,2:0:0:0:
91,367,209070,2,0,B|59:378|59:378|28:366|28:366|12:305,1,120,10|0,2:0|3:0,2:0:0:0:
209,151,209283,5,10,2:0:0:0:
190,239,209390,1,0,3:0:0:0:
171,327,209496,1,8,2:0:0:0:
46,244,209602,6,0,B|71:229|71:229|98:91|98:91|69:26,1,215.999993408203,6|0,3:2|3:0,2:0:0:0:
13,85,209921,5,10,2:0:0:0:
156,5,210028,1,0,3:0:0:0:
126,122,210134,5,10,2:0:0:0:
14,11,210240,1,0,3:0:0:0:
111,203,210347,1,8,2:0:0:0:
1,181,210453,6,0,B|16:191|16:191|221:148,1,215.999993408203,6|0,3:2|3:0,2:0:0:0:
435,24,210772,2,0,B|450:50|450:50|431:94|431:94|372:82,1,120,10|0,2:0|3:0,2:0:0:0:
249,3,210985,5,10,2:0:0:0:
268,91,211092,1,0,3:0:0:0:
287,179,211198,1,8,2:0:0:0:
357,293,211304,6,0,B|304:280|304:280|300:255|300:255|170:227,1,180,6|0,3:2|2:0,2:0:0:0:
201,234,211517,5,0,3:0:0:0:
265,363,211623,1,8,2:0:0:0:
192,332,211730,2,0,B|185:339|185:339|124:348,2,60,0|0|8,3:0|3:0|2:0,2:0:0:0:
271,285,211942,5,8,2:0:0:0:
67,251,212049,1,8,2:0:0:0:
136,346,212155,6,0,L|180:124,1,215.999993408203,6|0,3:2|3:0,2:0:0:0:
53,50,212474,2,0,B|48:66|48:66|-2:92|-2:92|40:93|40:93|49:104,1,120,14|0,2:0|3:0,2:0:0:0:
211,56,212687,5,10,2:0:0:0:
85,165,212794,1,0,3:0:0:0:
144,0,212900,1,8,2:0:0:0:
178,134,213006,6,0,B|210:127|210:127|251:71|251:71|252:80|252:80|292:21|292:21|342:10,1,215.999993408203,6|0,3:2|3:0,2:0:0:0:
344,133,213325,5,14,2:0:0:0:
211,56,213432,1,0,3:0:0:0:
325,14,213538,5,10,2:0:0:0:
293,192,213645,1,0,3:0:0:0:
393,73,213751,1,8,2:0:0:0:
504,152,213857,6,0,B|436:162|436:162|422:161|422:161|369:182|369:182|290:192,1,215.999993408203,6|0,3:2|3:0,2:0:0:0:
85,165,214176,2,0,B|107:168|107:168|119:229|119:229|173:275,1,120,14|0,2:0|3:0,2:0:0:0:
322,368,214389,5,14,2:0:0:0:
223,207,214496,1,0,3:0:0:0:
353,238,214602,1,12,2:0:0:0:
248,352,214708,6,0,B|319:336|319:336|312:336|312:336|427:311,1,180,6|0,3:2|2:0,2:0:0:0:
409,314,214921,5,0,3:0:0:0:
273,266,215028,1,8,2:0:0:0:
406,359,215134,1,0,3:0:0:0:
370,163,215240,5,8,2:0:0:0:
322,368,215347,1,8,2:0:0:0:
512,323,215453,1,8,2:0:0:0:
353,238,215559,6,0,L|298:251,1,35.9999989013672,6|0,3:2|2:0,2:0:0:0:
