osu file format v14

[General]
AudioFilename: audio.mp3
AudioLeadIn: 0
PreviewTime: 37071
Countdown: 0
SampleSet: Soft
StackLeniency: 0.3
Mode: 0
LetterboxInBreaks: 0
WidescreenStoryboard: 1

[Editor]
Bookmarks: 8207,37298,66389,72753,73662,88207,102753,117298,128207,146389,190025
DistanceSpacing: 1.2
BeatDivisor: 4
GridSize: 16
TimelineZoom: 2.2

[Metadata]
Title:anoko dokonoko
TitleUnicode:あのこどこのこ
Artist:Nanahoshi Kangengakudan
ArtistUnicode:ナナホシ管弦楽団
Creator:kwk
Version:Rizen's Extra
Source:
Tags:FujunIseiKouyuuP hujuniseikouyuup 不純異性交遊p Vocaloid Megpoid Gumi rizen Iwami Takashi 岩見陸 where's that girl from
BeatmapID:1437419
BeatmapSetID:654452

[Difficulty]
HPDrainRate:6
CircleSize:4
OverallDifficulty:8
ApproachRate:9.2
SliderMultiplier:3
SliderTickRate:1

[Events]
//Background and Video events
0,0,"63779250.png",0,0
//Break Periods
2,117498,127607
//Storyboard Layer 0 (Background)
//Storyboard Layer 1 (Fail)
//Storyboard Layer 2 (Pass)
//Storyboard Layer 3 (Foreground)
//Storyboard Sound Samples

[TimingPoints]
935,454.545454545455,4,2,1,60,1,0
7866,-133.333333333333,4,2,1,60,0,0
22753,-100,4,2,1,60,0,0
27185,-76.9230769230769,4,2,1,80,0,0
28207,-100,4,2,1,60,0,0
29003,-76.9230769230769,4,2,1,80,0,0
30025,-100,4,2,1,60,0,0
36275,-100,4,2,1,80,0,0
36503,-133.333333333333,4,2,1,80,0,0
36730,-200,4,2,1,80,0,0
37298,-100,4,2,1,80,0,1
51844,-100,4,2,1,60,0,0
66389,-100,4,2,1,60,0,0
73321,-133.333333333333,4,2,1,60,0,0
88207,-100,4,2,1,60,0,0
92639,-76.9230769230769,4,2,1,80,0,0
93662,-100,4,2,1,60,0,0
94457,-76.9230769230769,4,2,1,80,0,0
95480,-100,4,2,1,60,0,0
102753,-100,4,2,1,80,0,1
117298,-133.333333333333,4,2,1,60,0,0
128207,-100,4,2,1,60,0,0
130025,-100,4,2,1,65,0,0
140991,-100,4,2,1,65,0,0
141162,-100,4,2,1,65,0,0
141219,-100,4,2,1,65,0,0
141389,-100,4,2,1,65,0,0
141446,-100,4,2,1,65,0,0
141616,-100,4,2,1,65,0,0
141673,-100,4,2,1,65,0,0
141844,-100,4,2,1,65,0,0
141900,-100,4,2,1,65,0,0
142071,-100,4,2,1,65,0,0
142128,-100,4,2,1,65,0,0
142298,-100,4,2,1,65,0,0
142355,-100,4,2,1,65,0,0
142525,-100,4,2,1,65,0,0
142582,-100,4,2,1,65,0,0
142753,-100,4,2,1,65,0,0
146389,-100,4,2,1,80,0,1
167639,-83.3333333333333,4,2,1,80,0,1
167980,-100,4,2,1,80,0,1
175480,-100,4,2,1,60,0,0
190025,-100,4,2,1,60,0,0

[Colours]
Combo1 : 255,255,166
Combo2 : 255,128,128
Combo3 : 0,255,255
Combo4 : 0,255,128

[HitObjects]
193,87,935,5,4,0:0:0:0:
194,235,1048,2,0,B|205:161|205:161|193:87,1,150,2|0,0:0|0:0,0:0:0:0:
41,168,1389,2,0,P|102:191|114:127,1,150,2|2,0:0|0:0,0:0:0:0:
114,127,1730,1,2,0:0:0:0:
124,283,1844,2,0,P|136:347|197:323,1,150,10|2,0:0|0:0,0:0:0:0:
346,272,2185,1,2,0:0:0:0:
345,272,2298,2,0,P|308:266|271:272,1,75,2|0,0:0|0:0,0:0:0:0:
429,259,2525,2,0,P|415:223|392:194,1,75,2|0,0:0|0:0,0:0:0:0:
474,337,2753,5,8,0:0:0:0:
490,187,2866,2,0,L|474:337,1,150,2|2,0:0|0:0,0:0:0:0:
345,272,3207,2,0,B|385:246|385:246|374:347,1,150,2|2,0:0|0:0,0:0:0:0:
374,347,3548,1,2,0:0:0:0:
300,196,3662,2,0,B|260:170|260:170|270:271,1,150,10|2,0:0|0:0,0:0:0:0:
392,171,4003,1,2,0:0:0:0:
392,171,4116,2,0,L|385:245,1,75,2|0,0:0|0:0,0:0:0:0:
254,95,4344,2,0,L|261:170,1,75,2|0,0:0|0:0,0:0:0:0:
329,21,4571,5,8,0:0:0:0:
180,21,4685,2,0,B|254:9|254:9|328:20,1,150,2|2,0:0|0:0,0:0:0:0:
392,171,5025,2,0,P|450:140|411:86,1,150,2|2,0:0|0:0,0:0:0:0:
411,86,5366,1,2,0:0:0:0:
280,253,5480,2,0,P|221:222|260:168,1,150,10|2,0:0|0:0,0:0:0:0:
374,257,5821,1,2,0:0:0:0:
374,257,5935,2,0,P|367:293|344:322,1,75,2|0,0:0|0:0,0:0:0:0:
392,171,6162,2,0,P|425:186|448:216,1,75,2|8,0:0|0:0,0:0:0:0:
324,113,6389,5,8,0:0:0:0:
324,113,6503,2,0,B|250:125|250:125|176:114,1,150,0|2,0:0|0:0,0:0:0:0:
93,161,6844,1,2,0:0:0:0:
74,248,6957,1,2,0:0:0:0:
117,316,7071,1,2,0:0:0:0:
190,329,7185,1,2,0:0:0:0:
241,302,7298,1,2,0:0:0:0:
251,255,7412,1,2,0:0:0:0:
225,220,7525,1,2,0:0:0:0:
201,217,7639,1,2,0:0:0:0:
178,229,7753,1,2,0:0:0:0:
170,242,7866,2,0,B|178:354,1,112.500004291535,2|0,0:0|0:0,0:0:0:0:
270,381,8207,1,6,0:0:0:0:
477,336,8435,6,0,P|448:335|421:329,1,56.2500021457673,0|0,0:0|0:0,0:0:0:0:
315,276,8662,2,0,P|342:268|366:255,1,56.2500021457673,10|0,0:0|0:0,0:0:0:0:
461,220,8889,2,0,P|436:205|416:186,1,56.2500021457673,2|8,0:0|0:0,0:0:0:0:
422,77,9116,2,0,B|410:100|410:100|415:187,1,112.500004291535,2|8,0:0|0:0,0:0:0:0:
340,59,9457,1,0,0:0:0:0:
340,59,9571,2,0,B|328:82|328:82|333:169,1,112.500004291535,10|2,0:0|0:0,0:0:0:0:
145,46,10025,5,10,0:0:0:0:
145,46,10139,2,0,P|199:36|247:63,1,112.500004291535,2|2,0:0|0:0,0:0:0:0:
129,207,10480,2,0,P|93:165|92:110,1,112.500004291535,10|0,0:0|0:0,0:0:0:0:
273,140,10821,1,8,0:0:0:0:
273,140,10935,2,0,P|268:167|254:191,1,56.2500021457673,2|0,0:0|0:0,0:0:0:0:
208,220,11162,2,0,P|233:209|255:191,1,56.2500021457673,2|0,0:0|0:0,0:0:0:0:
183,127,11389,1,8,0:0:0:0:
183,127,11503,1,0,0:0:0:0:
129,207,11616,1,2,0:0:0:0:
129,207,11730,1,0,0:0:0:0:
43,254,11844,6,0,B|30:201|30:201|46:147|46:147|32:91,1,168.750006437302,10|2,0:0|0:0,0:0:0:0:
128,206,12298,2,0,P|156:208|183:200,1,56.2500021457673,8|0,0:0|0:0,0:0:0:0:
261,254,12525,6,0,B|274:201|274:201|258:147|258:147|272:91,1,168.750006437302,8|8,0:0|0:0,0:0:0:0:
402,151,12980,2,0,P|374:153|348:145,1,56.2500021457673,0|0,0:0|0:0,0:0:0:0:
467,47,13207,2,0,L|472:102,1,56.2500021457673,8|0,0:0|0:0,0:0:0:0:
408,207,13435,2,0,L|402:151,1,56.2500021457673,2|0,0:0|0:0,0:0:0:0:
452,280,13662,6,0,P|397:290|347:268,1,112.500004291535,10|2,0:0|0:0,0:0:0:0:
408,207,14003,1,0,0:0:0:0:
355,380,14116,2,0,L|346:267,1,112.500004291535,10|2,0:0|0:0,0:0:0:0:
263,180,14457,2,0,L|253:348,1,168.750006437302,10|8,0:0|0:0,0:0:0:0:
452,280,15025,1,8,0:0:0:0:
263,180,15253,1,8,0:0:0:0:
263,180,15366,1,0,0:0:0:0:
168,284,15480,1,8,0:0:0:0:
21,250,15707,6,0,L|133:259,1,112.500004291535,2|10,0:0|0:0,0:0:0:0:
216,193,16048,1,2,0:0:0:0:
216,193,16162,2,0,L|219:136,1,56.2500021457673,2|8,0:0|0:0,0:0:0:0:
135,83,16389,1,2,0:0:0:0:
135,83,16503,1,10,0:0:0:0:
218,136,16616,1,10,0:0:0:0:
218,136,16730,1,2,0:0:0:0:
303,88,16844,2,0,L|359:85,1,56.2500021457673,10|0,0:0|0:0,0:0:0:0:
433,140,17071,2,0,L|490:143,1,56.2500021457673,2|0,0:0|0:0,0:0:0:0:
473,36,17298,5,10,0:0:0:0:
473,36,17412,2,0,P|466:91|488:142,1,112.500004291535,0|0,0:0|0:0,0:0:0:0:
463,279,17753,1,10,0:0:0:0:
463,279,17866,2,0,L|458:222,1,56.2500021457673,2|0,0:0|0:0,0:0:0:0:
371,333,18094,2,0,L|376:276,1,56.2500021457673,8|0,0:0|0:0,0:0:0:0:
290,268,18321,2,0,L|304:212,1,56.2500021457673,2|8,0:0|0:0,0:0:0:0:
201,303,18548,1,2,0:0:0:0:
139,222,18662,1,10,0:0:0:0:
139,222,18775,1,0,0:0:0:0:
180,141,18889,1,2,0:0:0:0:
180,141,19003,1,0,0:0:0:0:
219,224,19116,6,0,B|177:240|136:221|136:221|96:228|96:228|54:220,1,168.750006437302,10|2,0:0|0:0,0:0:0:0:
176,85,19571,2,0,P|180:112|179:140,1,56.2500021457673,8|0,0:0|0:0,0:0:0:0:
138,5,19798,2,0,B|180:-11|221:8|221:8|261:1|261:1|303:9,1,168.750006437302,2|10,0:0|0:0,0:0:0:0:
340,84,20253,1,0,0:0:0:0:
421,107,20366,1,0,0:0:0:0:
490,61,20480,2,0,L|494:5,1,56.2500021457673,8|0,0:0|0:0,0:0:0:0:
425,163,20707,2,0,L|421:107,1,56.2500021457673,2|0,0:0|0:0,0:0:0:0:
360,261,20935,5,6,0:0:0:0:
332,269,21389,1,2,0:0:0:0:
304,276,21844,6,0,P|253:255|198:264,1,112.500004291535,2|0,0:0|0:0,0:0:0:0:
163,289,22185,1,2,0:0:0:0:
107,307,22298,1,10,0:0:0:0:
45,273,22412,1,2,0:0:0:0:
32,196,22525,2,0,L|40:140,1,56.2500021457673,2|0,0:0|0:0,0:0:0:0:
99,18,22753,6,0,P|111:52|107:89,1,75,12|0,0:0|0:0,0:0:0:0:
200,76,22980,2,0,P|187:110|191:147,1,75,0|0,0:0|0:0,0:0:0:0:
348,96,23207,2,0,L|199:75,1,150,10|0,0:0|0:0,0:0:0:0:
262,193,23548,1,8,0:0:0:0:
262,193,23662,2,0,P|274:158|270:121,1,75,2|0,0:0|0:0,0:0:0:0:
189,229,23889,2,0,P|212:257|246:272,1,75,2|0,0:0|0:0,0:0:0:0:
191,147,24116,2,0,P|124:177|107:247,1,150,8|0,0:0|0:0,0:0:0:0:
189,229,24457,1,0,0:0:0:0:
94,146,24571,6,0,P|58:137|21:140,1,75,8|0,0:0|0:0,0:0:0:0:
191,147,24798,2,0,P|154:156|117:153,1,75,2|0,0:0|0:0,0:0:0:0:
218,58,25025,2,0,L|212:132,1,75,10|0,0:0|0:0,0:0:0:0:
295,41,25253,2,0,L|300:115,1,75,2|8,0:0|0:0,0:0:0:0:
460,49,25480,2,0,L|386:54,1,75,2|0,0:0|0:0,0:0:0:0:
477,137,25707,2,0,L|403:131,1,75,10|0,0:0|0:0,0:0:0:0:
370,229,25935,2,0,P|458:251|389:312,1,225,10|0,0:0|0:0,0:0:0:0:
297,283,26389,5,14,0:0:0:0:
297,283,26503,1,2,0:0:0:0:
216,360,26616,1,2,0:0:0:0:
216,360,26730,1,10,0:0:0:0:
108,345,26844,2,0,B|167:318|230:339|230:339|217:360,1,150,10|0,0:0|0:0,0:0:0:0:
42,257,27185,6,0,B|29:184|90:118|90:118|87:160,1,194.999991073609,12|0,0:0|0:0,0:0:0:0:
249,115,27525,2,0,P|218:152|176:175,1,97.4999955368044,2|0,0:0|0:0,0:0:0:0:
177,49,27753,2,0,P|105:84|111:5,1,194.999991073609,14|0,0:0|0:0,0:0:0:0:
381,136,28207,5,6,0:0:0:0:
381,136,28321,1,2,0:0:0:0:
493,113,28435,1,2,0:0:0:0:
493,113,28548,1,10,0:0:0:0:
390,247,28662,2,0,B|382:136|382:136|368:172,1,150,10|0,0:0|0:0,0:0:0:0:
214,357,29003,6,0,B|225:211|225:211|243:258,1,194.999991073609,12|0,0:0|0:0,0:0:0:0:
141,258,29344,2,0,P|93:253|50:231,1,97.4999955368044,2|0,0:0|0:0,0:0:0:0:
85,75,29571,2,0,P|165:97|118:165,1,194.999991073609,14|0,0:0|0:0,0:0:0:0:
199,87,29912,1,0,0:0:0:0:
199,87,30025,5,8,0:0:0:0:
442,165,30253,2,0,L|367:172,1,75,2|0,0:0|0:0,0:0:0:0:
474,86,30480,2,0,L|483:235,1,150,10|2,0:0|0:0,0:0:0:0:
434,324,30821,1,8,0:0:0:0:
433,323,30935,2,0,P|403:300|387:267,1,75,2|0,0:0|0:0,0:0:0:0:
274,310,31162,2,0,P|278:273|299:242,1,75,10|0,0:0|0:0,0:0:0:0:
198,157,31389,2,0,B|231:141|264:144|264:144|227:156|202:195,1,150,10|2,0:0|0:0,0:0:0:0:
100,8,31844,6,0,L|105:157,1,150,14|2,0:0|0:0,0:0:0:0:
19,192,32185,1,0,0:0:0:0:
116,151,32298,2,0,L|110:300,1,150,10|2,0:0|0:0,0:0:0:0:
202,194,32639,1,8,0:0:0:0:
271,260,32753,2,0,P|241:282|205:292,1,75,2|0,0:0|0:0,0:0:0:0:
292,166,32980,2,0,P|326:180|352:207,1,75,10|0,0:0|0:0,0:0:0:0:
202,194,33207,1,14,0:0:0:0:
202,194,33435,2,0,P|197:157|207:120,1,75,2|0,0:0|0:0,0:0:0:0:
358,43,33662,6,0,L|208:29,1,150,14|10,0:0|0:0,0:0:0:0:
54,86,34003,1,0,0:0:0:0:
54,86,34116,2,0,L|128:79,1,75,8|0,0:0|0:0,0:0:0:0:
206,121,34344,1,2,0:0:0:0:
122,247,34457,2,0,L|127:172,1,75,10|0,0:0|0:0,0:0:0:0:
194,310,34685,2,0,L|188:384,1,75,10|0,0:0|0:0,0:0:0:0:
271,253,34912,1,2,0:0:0:0:
330,322,35025,1,10,0:0:0:0:
414,286,35139,1,2,0:0:0:0:
408,198,35253,1,2,0:0:0:0:
320,176,35366,1,2,0:0:0:0:
271,253,35480,6,0,L|279:103,1,150,2|0,0:0|0:0,0:0:0:0:
356,40,35821,1,0,0:0:0:0:
356,39,35935,2,0,P|393:38|427:51,2,75,2|2|2,0:0|0:0|0:0,0:0:0:0:
278,103,36275,6,0,P|240:104|206:91,1,75,12|0,0:0|0:0,0:0:0:0:
179,207,36503,6,0,P|158:190|143:166,1,56.2500021457673,8|0,0:0|0:0,0:0:0:0:
40,200,36730,6,0,P|37:181|37:162,1,37.5,8|0,0:0|0:0,0:0:0:0:
278,227,37298,6,0,L|271:301,1,75,6|2,0:0|0:0,0:0:0:0:
373,253,37525,2,0,L|379:178,1,75,2|2,0:0|0:0,0:0:0:0:
212,140,37753,2,0,P|177:206|187:279,1,150,8|0,0:0|0:0,0:0:0:0:
203,373,38094,2,0,P|163:309|95:281,1,150,10|0,0:0|0:0,0:0:0:0:
27,360,38435,2,0,P|61:376|98:379,1,75,10|0,0:0|0:0,0:0:0:0:
203,373,38662,1,10,0:0:0:0:
203,373,38775,1,2,0:0:0:0:
186,278,38889,1,2,0:0:0:0:
186,278,39003,1,2,0:0:0:0:
349,296,39116,6,0,P|315:310|278:312,1,75,14|2,0:0|0:0,0:0:0:0:
336,208,39344,2,0,P|373:209|407:223,1,75,2|2,0:0|0:0,0:0:0:0:
278,312,39571,2,0,L|288:162,1,150,10|0,0:0|0:0,0:0:0:0:
325,58,39912,2,0,L|335:207,1,150,10|0,0:0|0:0,0:0:0:0:
216,170,40253,2,0,L|225:20,1,150,10|10,0:0|0:0,0:0:0:0:
325,58,40594,1,2,0:0:0:0:
422,25,40707,1,2,0:0:0:0:
422,25,40821,1,2,0:0:0:0:
483,132,40935,6,0,L|408:123,1,75,14|0,0:0|0:0,0:0:0:0:
314,167,41162,1,2,0:0:0:0:
314,167,41275,1,2,0:0:0:0:
229,101,41389,2,0,L|220:26,1,75,8|0,0:0|0:0,0:0:0:0:
325,58,41616,1,2,0:0:0:0:
325,58,41730,1,10,0:0:0:0:
314,167,41844,6,0,L|305:242,1,75,0|0,0:0|0:0,0:0:0:0:
220,295,42071,1,10,0:0:0:0:
220,295,42185,1,2,0:0:0:0:
305,352,42298,2,0,L|380:343,1,75,8|0,0:0|0:0,0:0:0:0:
488,334,42525,1,2,0:0:0:0:
488,334,42639,1,2,0:0:0:0:
422,219,42753,6,0,L|347:210,1,75,14|2,0:0|0:0,0:0:0:0:
243,122,42980,2,0,L|318:113,1,75,2|2,0:0|0:0,0:0:0:0:
174,187,43207,1,8,0:0:0:0:
174,187,43321,2,0,P|154:154|147:118,1,75,2|0,0:0|0:0,0:0:0:0:
264,213,43548,1,12,0:0:0:0:
194,279,43662,1,2,0:0:0:0:
194,279,43775,2,0,L|119:270,1,75,2|8,0:0|0:0,0:0:0:0:
147,118,44003,1,2,0:0:0:0:
147,118,44116,2,0,L|72:109,1,75,8|0,0:0|0:0,0:0:0:0:
226,37,44344,1,4,0:0:0:0:
315,113,44457,1,0,0:0:0:0:
478,38,44571,6,0,P|440:36|404:44,1,75,12|0,0:0|0:0,0:0:0:0:
299,31,44798,2,0,P|263:39|226:37,1,75,0|0,0:0|0:0,0:0:0:0:
315,112,45025,2,0,P|295:184|319:254,1,150,10|0,0:0|0:0,0:0:0:0:
457,254,45366,2,0,P|404:201|332:187,1,150,10|0,0:0|0:0,0:0:0:0:
325,334,45707,2,0,P|361:324|386:297,1,75,10|0,0:0|0:0,0:0:0:0:
218,256,45935,1,10,0:0:0:0:
218,256,46048,1,2,0:0:0:0:
170,358,46162,1,2,0:0:0:0:
170,358,46275,1,2,0:0:0:0:
101,268,46389,6,0,P|102:230|117:196,1,75,10|0,0:0|0:0,0:0:0:0:
287,234,46616,2,0,P|254:251|217:255,1,75,2|2,0:0|0:0,0:0:0:0:
230,89,46844,2,0,L|224:163,1,75,10|2,0:0|0:0,0:0:0:0:
312,50,47071,1,2,0:0:0:0:
312,50,47185,2,0,L|162:37,1,150,10|0,0:0|0:0,0:0:0:0:
74,176,47525,2,0,L|224:163,1,150,10|8,0:0|0:0,0:0:0:0:
323,192,47866,1,2,0:0:0:0:
418,152,47980,1,2,0:0:0:0:
418,152,48094,1,2,0:0:0:0:
357,274,48207,6,0,L|349:348,1,75,8|0,0:0|0:0,0:0:0:0:
287,234,48435,1,2,0:0:0:0:
287,234,48548,1,2,0:0:0:0:
157,288,48662,2,0,L|149:362,1,75,8|0,0:0|0:0,0:0:0:0:
87,248,48889,1,2,0:0:0:0:
87,248,49003,1,10,0:0:0:0:
153,106,49116,6,0,P|190:105|223:122,1,75,8|0,0:0|0:0,0:0:0:0:
97,166,49344,1,10,0:0:0:0:
97,166,49457,1,2,0:0:0:0:
213,228,49571,2,0,P|250:227|283:244,1,75,8|0,0:0|0:0,0:0:0:0:
157,288,49798,1,2,0:0:0:0:
157,288,49912,1,2,0:0:0:0:
292,352,50025,6,0,L|295:277,1,75,12|0,0:0|0:0,0:0:0:0:
385,217,50253,2,0,L|381:142,1,75,2|8,0:0|0:0,0:0:0:0:
330,40,50480,1,14,0:0:0:0:
330,40,50594,2,0,P|365:28|402:29,1,75,0|0,0:0|0:0,0:0:0:0:
475,105,50821,1,10,0:0:0:0:
381,142,50935,6,0,L|231:133,2,150,12|0|14,0:0|0:0|0:0,0:0:0:0:
295,277,51616,1,14,0:0:0:0:
95,228,51844,5,4,0:0:0:0:
260,205,52071,1,2,0:0:0:0:
134,301,52298,2,0,L|139:151,1,150,10|2,0:0|0:0,0:0:0:0:
89,78,52639,2,0,L|94:227,1,150,8|0,0:0|0:0,0:0:0:0:
134,301,52980,1,8,0:0:0:0:
296,281,53207,1,2,0:0:0:0:
296,281,53321,1,2,0:0:0:0:
296,281,53435,2,0,L|300:206,1,75,2|0,0:0|0:0,0:0:0:0:
255,103,53662,6,0,P|299:161|371:175,1,150,10|0,0:0|0:0,0:0:0:0:
467,6,54116,2,0,P|422:64|350:78,1,150,10|0,0:0|0:0,0:0:0:0:
443,100,54457,1,8,0:0:0:0:
443,100,54571,2,0,L|454:249,2,150,2|10|10,0:0|0:0|0:0,0:0:0:0:
209,30,55253,2,0,P|245:20|282:23,1,75,2|0,0:0|0:0,0:0:0:0:
255,103,55480,5,10,0:0:0:0:
47,55,55707,1,2,0:0:0:0:
108,268,55935,1,10,0:0:0:0:
149,81,56162,1,0,0:0:0:0:
149,80,56275,2,0,P|161:153|215:204,1,150,10|0,0:0|0:0,0:0:0:0:
314,182,56616,1,10,0:0:0:0:
314,182,56730,1,0,0:0:0:0:
404,201,56844,1,10,0:0:0:0:
404,201,56957,2,0,L|397:126,1,75,0|2,0:0|0:0,0:0:0:0:
317,267,57298,6,0,B|428:279|428:279|464:268,1,150,10|0,0:0|0:0,0:0:0:0:
265,359,57753,2,0,B|301:348|301:348|412:360,1,150,10|0,2:0|2:0,0:0:0:0:
248,206,58207,2,0,P|229:238|224:275,1,75,2|0,2:0|2:0,0:0:0:0:
90,242,58435,2,0,P|108:274|113:311,1,75,2|0,2:0|2:0,0:0:0:0:
248,206,58662,2,0,L|240:131,1,75,10|0,0:0|0:0,0:0:0:0:
90,242,58889,2,0,L|97:167,1,75,2|0,0:0|0:0,0:0:0:0:
320,194,59116,6,0,P|294:261|224:275,1,150,10|0,0:0|0:0,0:0:0:0:
97,167,59571,1,10,0:0:0:0:
233,56,59798,1,2,0:0:0:0:
233,56,59912,2,0,L|248:206,1,150,10|0,0:0|0:0,0:0:0:0:
166,112,60253,2,0,L|173:186,1,75,10|0,0:0|0:0,0:0:0:0:
83,322,60480,1,10,0:0:0:0:
83,322,60594,1,0,0:0:0:0:
83,322,60707,2,0,L|90:247,1,75,2|0,0:0|0:0,0:0:0:0:
246,205,60935,6,0,P|309:242|382:230,1,150,10|0,0:0|0:0,0:0:0:0:
482,80,61389,1,8,0:0:0:0:
317,5,61616,1,2,0:0:0:0:
317,5,61730,1,10,0:0:0:0:
317,5,61844,2,0,L|327:154,1,150,2|10,0:0|0:0,0:0:0:0:
171,37,62298,2,0,L|165:111,1,75,8|0,0:0|0:0,0:0:0:0:
81,145,62525,1,2,0:0:0:0:
81,145,62639,1,2,0:0:0:0:
81,145,62753,6,0,P|105:82|165:111,1,150,10|2,0:0|0:0,0:0:0:0:
151,210,63094,1,2,0:0:0:0:
151,210,63207,2,0,P|211:181|235:243,1,150,10|2,0:0|0:0,0:0:0:0:
163,297,63548,1,0,0:0:0:0:
163,297,63662,2,0,L|88:302,1,75,2|0,0:0|0:0,0:0:0:0:
264,326,63889,2,0,L|189:320,1,75,10|2,0:0|0:0,0:0:0:0:
295,222,64116,2,0,L|300:296,1,75,10|0,0:0|0:0,0:0:0:0:
394,251,64344,2,0,L|388:325,1,75,2|0,0:0|0:0,0:0:0:0:
453,161,64571,6,0,P|381:146|314:176,1,150,10|0,0:0|0:0,0:0:0:0:
251,92,64912,1,8,0:0:0:0:
251,92,65025,2,0,P|323:76|390:107,1,150,8|0,0:0|0:0,0:0:0:0:
314,176,65366,1,0,0:0:0:0:
314,176,65480,1,10,0:0:0:0:
367,5,65707,1,2,0:0:0:0:
453,161,65935,1,10,0:0:0:0:
350,255,66048,2,0,B|421:248|421:248|461:257|498:242,1,150,4|0,0:0|0:0,0:0:0:0:
453,161,66389,5,8,0:0:0:0:
303,177,66503,2,0,B|452:160,1,150,2|2,0:0|0:0,0:0:0:0:
347,31,66844,2,0,P|362:92|411:53,1,150,2|2,0:0|0:0,0:0:0:0:
411,53,67185,1,2,0:0:0:0:
303,177,67298,2,0,B|319:326,1,150,10|2,0:0|0:0,0:0:0:0:
498,241,67639,1,2,0:0:0:0:
498,241,67753,2,0,P|461:235|424:241,1,75,2|0,0:0|0:0,0:0:0:0:
319,326,67980,2,0,P|289:302|254:289,1,75,2|0,0:0|0:0,0:0:0:0:
111,330,68207,5,8,0:0:0:0:
127,180,68321,2,0,L|111:330,1,150,2|2,0:0|0:0,0:0:0:0:
71,103,68662,2,0,L|87:253,1,150,2|2,0:0|0:0,0:0:0:0:
86,252,69003,1,2,0:0:0:0:
0,41,69116,2,0,L|46:184,1,150,10|2,0:0|0:0,0:0:0:0:
196,34,69457,1,2,0:0:0:0:
196,34,69571,2,0,L|122:21,1,75,2|0,0:0|0:0,0:0:0:0:
170,185,69798,2,0,L|218:127,1,75,2|0,0:0|0:0,0:0:0:0:
71,103,70025,5,10,0:0:0:0:
218,128,70139,2,0,B|70:102,1,150,2|2,0:0|0:0,0:0:0:0:
283,54,70480,2,0,P|348:63|329:127,1,150,2|2,0:0|0:0,0:0:0:0:
329,127,70821,1,2,0:0:0:0:
454,80,70935,2,0,P|493:133|435:165,1,150,10|2,0:0|0:0,0:0:0:0:
441,6,71275,1,2,0:0:0:0:
441,6,71389,2,0,L|453:79,1,75,2|0,0:0|0:0,0:0:0:0:
317,201,71616,2,0,L|329:127,1,75,2|8,0:0|0:0,0:0:0:0:
391,288,71844,5,8,0:0:0:0:
391,288,71957,2,0,B|317:300|317:300|243:289,1,150,0|2,0:0|0:0,0:0:0:0:
155,237,72298,1,2,0:0:0:0:
148,147,72412,1,2,0:0:0:0:
206,88,72525,1,2,0:0:0:0:
277,77,72639,1,2,0:0:0:0:
330,105,72753,1,2,0:0:0:0:
340,149,72866,1,2,0:0:0:0:
326,180,72980,1,2,0:0:0:0:
302,194,73094,1,2,0:0:0:0:
279,195,73207,1,2,0:0:0:0:
264,188,73321,2,0,B|276:76,1,112.500004291535,2|0,0:0|0:0,0:0:0:0:
384,60,73662,1,8,0:0:0:0:
502,147,73889,6,0,P|473:146|446:140,1,56.2500021457673,2|2,0:0|0:0,0:0:0:0:
297,239,74116,2,0,P|312:214|331:194,1,56.2500021457673,10|2,0:0|0:0,0:0:0:0:
452,237,74344,2,0,P|457:264|458:292,1,56.2500021457673,2|0,0:0|0:0,0:0:0:0:
259,359,74571,2,0,P|308:334|363:342,1,112.500004291535,10|2,0:0|0:0,0:0:0:0:
165,318,74912,1,2,0:0:0:0:
165,318,75025,2,0,P|169:262|203:219,1,112.500004291535,10|2,0:0|0:0,0:0:0:0:
297,239,75366,1,0,0:0:0:0:
161,124,75480,5,10,0:0:0:0:
161,124,75594,2,0,P|216:117|266:139,1,112.500004291535,2|0,0:0|0:0,0:0:0:0:
419,161,75935,2,0,P|391:165|363:165,1,56.2500021457673,8|0,0:0|0:0,0:0:0:0:
382,72,76162,1,2,0:0:0:0:
382,72,76389,2,0,P|409:67|437:67,1,56.2500021457673,10|2,0:0|0:0,0:0:0:0:
285,44,76616,2,0,P|257:39|229:39,1,56.2500021457673,2|2,0:0|0:0,0:0:0:0:
139,69,76844,1,10,0:0:0:0:
139,69,76957,1,0,0:0:0:0:
118,160,77071,1,2,0:0:0:0:
118,160,77185,1,0,0:0:0:0:
226,291,77298,6,0,P|236:208|205:131,1,168.750006437302,10|2,0:0|0:0,0:0:0:0:
98,247,77753,2,0,P|126:249|153:241,1,56.2500021457673,8|0,0:0|0:0,0:0:0:0:
205,132,77980,2,0,P|244:199|316:171,1,168.750006437302,10|2,0:0|0:0,0:0:0:0:
428,250,78435,2,0,P|400:252|374:244,1,56.2500021457673,8|0,0:0|0:0,0:0:0:0:
390,112,78662,2,0,P|418:110|444:118,1,56.2500021457673,8|0,0:0|0:0,0:0:0:0:
317,171,78889,2,0,P|289:173|263:165,1,56.2500021457673,2|2,0:0|0:0,0:0:0:0:
379,0,79116,6,0,L|389:112,1,112.500004291535,10|2,0:0|0:0,0:0:0:0:
317,171,79457,1,0,0:0:0:0:
186,100,79571,2,0,L|242:94,2,56.2500021457673,10|0|2,0:0|0:0|0:0,0:0:0:0:
130,184,79912,2,0,L|144:15,1,168.750006437302,10|8,0:0|0:0,0:0:0:0:
391,116,80480,1,8,0:0:0:0:
251,212,80707,1,4,0:0:0:0:
251,212,80821,1,0,0:0:0:0:
248,100,80935,1,8,0:0:0:0:
248,100,81048,1,2,0:0:0:0:
248,100,81162,6,0,L|251:212,1,112.500004291535,2|10,0:0|0:0,0:0:0:0:
368,186,81503,1,2,0:0:0:0:
368,186,81616,2,0,L|371:129,1,56.2500021457673,2|0,0:0|0:0,0:0:0:0:
475,163,81844,1,10,0:0:0:0:
475,163,81957,1,2,0:0:0:0:
457,271,82071,1,2,0:0:0:0:
457,271,82185,1,2,0:0:0:0:
352,276,82298,2,0,P|325:282|297:279,1,56.2500021457673,10|2,0:0|0:0,0:0:0:0:
207,333,82525,2,0,P|180:336|152:330,1,56.2500021457673,10|0,0:0|0:0,0:0:0:0:
48,373,82753,6,0,P|54:317|32:266,1,112.500004291535,12|0,0:0|0:0,0:0:0:0:
151,329,83093,1,10,0:0:0:0:
181,295,83207,1,2,0:0:0:0:
188,217,83321,1,2,0:0:0:0:
160,130,83435,1,10,0:0:0:0:
78,64,83548,1,14,0:0:0:0:
78,64,84571,6,0,B|149:53|149:53|159:54|159:54|245:43,1,168.750006437302,10|2,0:0|0:0,0:0:0:0:
326,150,85025,1,8,0:0:0:0:
326,150,85139,1,0,0:0:0:0:
326,150,85253,2,0,B|254:139|254:139|244:140|244:140|159:129,1,168.750006437302,10|8,0:0|0:0,0:0:0:0:
100,202,85707,1,10,0:0:0:0:
18,178,85821,1,0,0:0:0:0:
14,90,85935,2,0,L|18:34,1,56.2500021457673,8|0,0:0|0:0,0:0:0:0:
97,56,86162,2,0,L|101:0,1,56.2500021457673,2|0,0:0|0:0,0:0:0:0:
158,128,86389,5,12,0:0:0:0:
181,105,88207,6,0,P|217:96|254:98,1,75,6|0,0:0|0:0,0:0:0:0:
333,152,88435,2,0,P|369:160|406:158,1,75,0|0,0:0|0:0,0:0:0:0:
254,98,88662,2,0,L|264:247,1,150,10|8,0:0|0:0,0:0:0:0:
329,361,89003,1,8,0:0:0:0:
329,361,89116,2,0,P|341:326|337:289,1,75,2|0,0:0|0:0,0:0:0:0:
196,297,89344,2,0,P|197:334|215:367,1,75,10|0,0:0|0:0,0:0:0:0:
264,247,89571,2,0,P|198:215|131:245,1,150,10|0,0:0|0:0,0:0:0:0:
196,297,89912,1,0,0:0:0:0:
336,288,90025,6,0,P|345:252|342:215,1,75,10|0,0:0|0:0,0:0:0:0:
451,259,90253,2,0,P|442:223|445:186,1,75,2|0,0:0|0:0,0:0:0:0:
341,214,90480,2,0,L|336:140,1,75,10|0,0:0|0:0,0:0:0:0:
445,185,90707,2,0,L|451:111,1,75,2|8,0:0|0:0,0:0:0:0:
335,139,90935,2,0,B|332:101|332:101|316:67,1,75,2|0,0:0|0:0,0:0:0:0:
451,110,91162,2,0,B|453:71|453:71|468:38,1,75,10|0,0:0|0:0,0:0:0:0:
316,66,91389,2,0,P|247:86|197:35,1,150,10|0,0:0|0:0,0:0:0:0:
5,52,91844,5,2,0:0:0:0:
5,52,91957,1,2,0:0:0:0:
96,105,92071,1,2,0:0:0:0:
96,105,92185,1,2,0:0:0:0:
198,35,92298,2,0,P|168:100|97:106,1,150,10|0,0:0|0:0,0:0:0:0:
3,257,92639,6,0,B|18:134|18:134|31:162|68:183,1,194.999991073609,14|0,0:0|0:0,0:0:0:0:
231,148,92980,2,0,P|192:177|145:189,1,97.4999955368044,2|0,0:0|0:0,0:0:0:0:
3,257,93207,2,0,P|75:222|69:301,1,194.999991073609,14|0,0:0|0:0,0:0:0:0:
337,134,93662,5,2,0:0:0:0:
337,134,93775,1,2,0:0:0:0:
230,148,93889,1,2,0:0:0:0:
230,148,94003,1,2,0:0:0:0:
197,34,94116,2,0,P|251:81|230:149,1,150,10|0,0:0|0:0,0:0:0:0:
67,183,94457,2,0,B|87:162|98:129|98:129|87:198|139:250,1,194.999991073609,14|0,0:0|0:0,0:0:0:0:
306,258,94798,2,0,P|262:280|214:285,1,97.4999955368044,2|0,0:0|0:0,0:0:0:0:
99,129,95025,2,0,P|173:81|231:149,1,194.999991073609,14|0,0:0|0:0,0:0:0:0:
180,51,95366,1,0,0:0:0:0:
180,51,95480,5,8,0:0:0:0:
470,169,95707,2,0,P|433:178|396:176,1,75,2|0,0:0|0:0,0:0:0:0:
306,258,95935,2,0,P|364:214|435:229,1,150,10|2,0:0|0:0,0:0:0:0:
377,371,96275,1,8,0:0:0:0:
377,371,96389,2,0,L|383:297,1,75,2|0,0:0|0:0,0:0:0:0:
311,183,96616,2,0,L|305:257,1,75,10|0,0:0|0:0,0:0:0:0:
185,344,96844,2,0,B|224:332|258:338|258:338|228:316|212:278,1,150,10|2,0:0|0:0,0:0:0:0:
373,111,97298,6,0,P|301:93|235:124,1,150,10|2,0:0|0:0,0:0:0:0:
311,183,97639,1,0,0:0:0:0:
347,43,97753,2,0,P|276:63|234:123,1,150,10|2,0:0|0:0,0:0:0:0:
311,183,98094,1,8,0:0:0:0:
465,107,98207,2,0,P|455:71|432:40,1,75,2|0,0:0|0:0,0:0:0:0:
425,184,98435,2,0,P|461:193|498:189,1,75,10|0,0:0|0:0,0:0:0:0:
373,111,98662,1,10,0:0:0:0:
373,111,98889,2,0,P|346:137|331:171,1,75,0|0,0:0|0:0,0:0:0:0:
411,333,99116,6,0,L|425:183,1,150,14|10,0:0|0:0,0:0:0:0:
298,118,99457,1,0,0:0:0:0:
298,118,99571,2,0,L|372:111,1,75,10|0,0:0|0:0,0:0:0:0:
424,183,99798,1,2,0:0:0:0:
323,279,99912,2,0,P|285:282|249:274,1,75,6|0,0:0|0:0,0:0:0:0:
122,209,100139,2,0,P|158:201|195:204,1,75,10|0,0:0|0:0,0:0:0:0:
165,289,100366,1,2,0:0:0:0:
122,209,100480,1,10,0:0:0:0:
185,129,100594,1,2,0:0:0:0:
273,187,100707,1,2,0:0:0:0:
249,274,100821,1,2,0:0:0:0:
165,289,100935,5,14,0:0:0:0:
359,176,102753,6,0,L|433:183,1,75,6|2,0:0|0:0,0:0:0:0:
300,236,102980,2,0,L|225:230,1,75,2|2,0:0|0:0,0:0:0:0:
358,175,103207,2,0,P|384:244|348:306,1,150,10|0,0:0|0:0,0:0:0:0:
218,323,103548,2,0,P|279:283|348:306,1,150,10|0,0:0|0:0,0:0:0:0:
138,293,103889,2,0,P|135:255|149:220,1,75,10|0,0:0|0:0,0:0:0:0:
250,126,104116,1,10,0:0:0:0:
250,126,104230,1,2,0:0:0:0:
266,237,104344,1,2,0:0:0:0:
266,237,104457,1,2,0:0:0:0:
190,360,104571,6,0,P|156:374|119:376,1,75,14|2,0:0|0:0,0:0:0:0:
66,277,104798,2,0,P|103:278|137:292,1,75,2|2,0:0|0:0,0:0:0:0:
10,366,105025,2,0,L|20:216,1,150,10|0,0:0|0:0,0:0:0:0:
127,142,105366,2,0,L|137:291,1,150,10|0,0:0|0:0,0:0:0:0:
41,202,105707,2,0,L|51:51,1,150,14|0,0:0|0:0,0:0:0:0:
158,33,106048,1,2,0:0:0:0:
127,142,106162,1,2,0:0:0:0:
127,142,106275,1,2,0:0:0:0:
227,142,106389,6,0,L|302:133,1,75,14|2,0:0|0:0,0:0:0:0:
409,82,106616,1,2,0:0:0:0:
409,82,106730,1,2,0:0:0:0:
360,184,106844,2,0,L|369:259,1,75,8|0,0:0|0:0,0:0:0:0:
423,362,107071,1,2,0:0:0:0:
423,362,107185,1,10,0:0:0:0:
316,316,107298,6,0,L|241:325,1,75,8|0,0:0|0:0,0:0:0:0:
145,384,107525,1,10,0:0:0:0:
145,384,107639,1,2,0:0:0:0:
183,277,107753,2,0,L|174:202,1,75,8|0,0:0|0:0,0:0:0:0:
111,109,107980,1,2,0:0:0:0:
111,109,108094,1,2,0:0:0:0:
0,197,108207,6,0,P|35:207|73:206,1,75,14|2,0:0|0:0,0:0:0:0:
183,277,108435,2,0,P|145:276|109:286,1,75,2|2,0:0|0:0,0:0:0:0:
255,342,108662,1,10,0:0:0:0:
255,342,108775,2,0,P|275:309|282:273,1,75,2|0,0:0|0:0,0:0:0:0:
223,153,109003,1,12,0:0:0:0:
337,116,109116,1,2,0:0:0:0:
337,116,109230,2,0,L|326:190,1,75,2|8,0:0|0:0,0:0:0:0:
255,342,109457,1,2,0:0:0:0:
255,342,109571,2,0,L|244:267,1,75,8|0,0:0|0:0,0:0:0:0:
132,354,109798,1,4,0:0:0:0:
107,242,109912,1,0,0:0:0:0:
244,267,110025,6,0,P|280:276|317:276,1,75,14|2,0:0|0:0,0:0:0:0:
439,231,110253,2,0,P|475:221|512:221,1,75,2|2,0:0|0:0,0:0:0:0:
382,304,110480,2,0,P|351:238|371:167,1,150,10|0,0:0|0:0,0:0:0:0:
484,88,110821,2,0,P|442:147|370:166,1,150,10|0,0:0|0:0,0:0:0:0:
302,45,111162,2,0,P|339:41|375:51,1,75,10|0,0:0|0:0,0:0:0:0:
369,165,111389,1,10,0:0:0:0:
369,165,111503,1,2,0:0:0:0:
243,132,111616,1,2,0:0:0:0:
243,132,111730,1,2,0:0:0:0:
71,167,111844,6,0,P|33:166|-1:151,1,75,14|2,0:0|0:0,0:0:0:0:
203,227,112071,2,0,P|170:244|133:248,1,75,2|2,0:0|0:0,0:0:0:0:
243,132,112298,2,0,L|237:206,1,75,10|0,0:0|0:0,0:0:0:0:
83,316,112525,1,0,0:0:0:0:
83,316,112639,2,0,L|70:166,1,150,8|0,0:0|0:0,0:0:0:0:
203,227,112980,2,0,L|216:376,1,150,8|8,0:0|0:0,0:0:0:0:
301,307,113321,1,2,0:0:0:0:
408,290,113435,1,2,0:0:0:0:
408,290,113548,1,2,0:0:0:0:
233,214,113662,6,0,P|231:176|240:141,1,75,8|0,0:0|0:0,0:0:0:0:
314,94,113889,1,2,0:0:0:0:
314,94,114003,1,2,0:0:0:0:
177,12,114116,2,0,P|210:28|237:55,1,75,8|0,0:0|0:0,0:0:0:0:
240,141,114344,1,2,0:0:0:0:
240,141,114457,1,10,0:0:0:0:
381,63,114571,6,0,P|350:84|314:94,1,75,8|0,0:0|0:0,0:0:0:0:
237,54,114798,1,10,0:0:0:0:
237,54,114912,1,2,0:0:0:0:
79,103,115025,2,0,L|153:100,1,75,8|0,0:0|0:0,0:0:0:0:
113,20,115253,1,2,0:0:0:0:
113,20,115366,1,2,0:0:0:0:
2,136,115480,6,0,L|5:211,1,75,10|2,0:0|0:0,0:0:0:0:
73,284,115707,2,0,L|70:359,1,75,2|10,0:0|0:0,0:0:0:0:
154,223,115935,1,10,0:0:0:0:
154,223,116048,2,0,P|189:211|226:212,1,75,2|0,0:0|0:0,0:0:0:0:
323,289,116275,1,2,0:0:0:0:
200,291,116389,6,0,L|191:141,2,150,12|10|8,0:0|0:0|0:0,0:0:0:0:
206,130,117071,1,0,0:0:0:0:
215,280,117298,5,14,0:0:0:0:
256,192,128207,12,8,130025,0:0:0:0:
192,384,131844,6,0,P|175:311|192:238,1,150,12|0,0:0|0:0,0:0:0:0:
60,214,132185,1,0,0:0:0:0:
60,214,132298,2,0,P|99:151|162:111,1,150,8|0,0:0|0:0,0:0:0:0:
281,149,132639,5,2,0:0:0:0:
264,191,132753,1,2,0:0:0:0:
274,271,132866,1,2,0:0:0:0:
353,327,132980,1,10,0:0:0:0:
458,305,133094,1,2,0:0:0:0:
510,203,133207,6,0,B|476:138|476:138|423:193,1,150,10|0,0:0|0:0,0:0:0:0:
281,149,133548,2,0,L|276:186,1,37.5,0|0,0:0|0:0,0:0:0:0:
263,129,133662,2,0,P|227:140|190:139,1,75,10|2,0:0|0:0,0:0:0:0:
60,214,133889,2,0,P|26:197|1:169,1,75,2|2,0:0|0:0,0:0:0:0:
167,47,134116,5,10,0:0:0:0:
190,139,134230,1,2,0:0:0:0:
77,222,134344,1,2,0:0:0:0:
102,317,134457,1,10,0:0:0:0:
231,255,134571,6,0,P|245:289|245:326,1,75,2|2,0:0|0:0,0:0:0:0:
97,229,134798,2,0,P|133:219|162:196,1,75,10|2,0:0|0:0,0:0:0:0:
52,90,135025,2,0,L|119:124,2,75,10|2|0,0:0|0:0|0:0,0:0:0:0:
319,120,135480,6,0,L|185:51,1,150,12|0,0:0|0:0,0:0:0:0:
367,251,135935,2,0,L|300:217,1,75,10|0,0:0|0:0,0:0:0:0:
319,120,136162,6,0,L|315:70,2,50,2|0|0,0:0|0:0|0:0,0:0:0:0:
411,93,136389,1,2,0:0:0:0:
437,77,136503,1,2,0:0:0:0:
466,158,136616,1,2,0:0:0:0:
509,166,136730,1,2,0:0:0:0:
473,242,136844,6,0,B|490:298|463:352|463:352|461:333|450:318,1,150,12|0,0:0|0:0,0:0:0:0:
294,295,137185,1,2,0:0:0:0:
365,362,137298,1,8,0:0:0:0:
324,210,137412,5,2,0:0:0:0:
274,208,137525,1,2,0:0:0:0:
230,233,137639,1,2,0:0:0:0:
219,82,137753,5,10,0:0:0:0:
174,121,137866,1,2,0:0:0:0:
157,180,137980,1,2,0:0:0:0:
38,61,138094,5,10,0:0:0:0:
32,131,138207,1,2,0:0:0:0:
65,196,138321,1,2,0:0:0:0:
230,233,138435,5,10,0:0:0:0:
157,180,138548,1,2,0:0:0:0:
65,196,138662,1,2,0:0:0:0:
14,275,138775,1,2,0:0:0:0:
24,362,138889,2,0,L|16:287,1,75,0|8,0:0|0:0,0:0:0:0:
203,311,139116,6,0,P|98:341|13:274,1,225,4|0,0:0|0:0,0:0:0:0:
235,183,139571,2,0,L|229:232,4,50,10|0|0|2|0,0:0|0:0|0:0|0:0|0:0,0:0:0:0:
215,29,140025,6,0,P|194:15|170:8,2,50,2|0|0,0:0|0:0|0:0,0:0:0:0:
299,41,140253,2,0,P|321:29|339:12,2,50,10|0|0,0:0|0:0|0:0,0:0:0:0:
246,103,140480,2,0,P|244:127|250:152,4,50,10|0|0|2|0,0:0|0:0|0:0|0:0|0:0,0:0:0:0:
123,151,140935,6,0,L|85:147,1,37.5,10|0,0:0|0:0,0:0:0:0:
333,116,141162,2,0,L|370:119,1,37.5,2|0,0:0|0:0,0:0:0:0:
141,171,141389,6,0,L|103:167,1,37.5,10|0,0:0|0:0,0:0:0:0:
348,134,141616,2,0,L|385:137,1,37.5,2|0,0:0|0:0,0:0:0:0:
177,77,141844,6,0,L|161:42,1,37.5,2|0,0:0|0:0,0:0:0:0:
312,237,142071,2,0,L|327:271,1,37.5,10|0,0:0|0:0,0:0:0:0:
279,60,142298,6,0,L|300:29,1,37.5,10|0,0:0|0:0,0:0:0:0:
207,256,142525,2,0,L|184:286,1,37.5,2|0,0:0|0:0,0:0:0:0:
56,251,142753,6,0,P|128:239|184:285,1,150,12|0,0:0|0:0,0:0:0:0:
385,229,143207,2,0,P|347:226|311:236,1,75,10|0,0:0|0:0,0:0:0:0:
467,296,143435,5,2,0:0:0:0:
477,187,143548,1,2,0:0:0:0:
487,79,143662,2,0,L|493:4,1,75,2|2,0:0|0:0,0:0:0:0:
317,131,143889,2,0,P|354:133|391:127,1,75,2|0,0:0|0:0,0:0:0:0:
206,91,144116,2,0,P|168:88|131:94,1,75,10|2,0:0|0:0,0:0:0:0:
311,236,144344,2,0,L|304:161,1,75,2|2,0:0|0:0,0:0:0:0:
354,44,144571,1,10,0:0:0:0:
354,44,144685,1,2,0:0:0:0:
467,296,144912,5,2,0:0:0:0:
208,273,145139,1,2,0:0:0:0:
471,170,145366,1,6,0:0:0:0:
179,121,145594,1,6,0:0:0:0:
512,41,145821,1,6,0:0:0:0:
85,26,146048,2,0,P|47:89|47:163,1,150,4|0,0:0|0:0,0:0:0:0:
253,128,146389,6,0,L|179:121,1,75,10|2,0:0|0:0,0:0:0:0:
311,216,146616,2,0,L|236:210,1,75,2|2,0:0|0:0,0:0:0:0:
376,297,146843,2,0,P|412:233|396:161,1,150,10|0,0:0|0:0,0:0:0:0:
288,76,147185,2,0,P|325:139|395:161,1,150,10|0,0:0|0:0,0:0:0:0:
462,52,147525,2,0,P|424:48|390:62,1,75,10|0,0:0|0:0,0:0:0:0:
295,186,147752,1,10,0:0:0:0:
295,186,147866,1,0,0:0:0:0:
390,61,147980,1,2,0:0:0:0:
376,150,148093,1,0,0:0:0:0:
430,235,148207,6,0,P|467:233|501:219,1,75,10|2,0:0|0:0,0:0:0:0:
331,269,148435,2,0,P|351:300|380:323,1,75,2|2,0:0|0:0,0:0:0:0:
263,189,148661,2,0,L|253:339,1,150,10|0,0:0|0:0,0:0:0:0:
165,208,149002,2,0,L|175:357,1,150,10|0,0:0|0:0,0:0:0:0:
72,225,149343,2,0,L|67:300,1,75,10|0,0:0|0:0,0:0:0:0:
159,187,149571,1,8,0:0:0:0:
159,187,149684,1,10,0:0:0:0:
130,26,149798,1,0,0:0:0:0:
77,115,149911,1,2,0:0:0:0:
231,74,150025,6,0,L|240:149,1,75,12|0,0:0|0:0,0:0:0:0:
323,194,150252,1,2,0:0:0:0:
323,194,150366,1,2,0:0:0:0:
397,92,150480,2,0,L|322:101,1,75,8|0,0:0|0:0,0:0:0:0:
239,148,150707,1,2,0:0:0:0:
239,148,150821,1,10,0:0:0:0:
331,268,150934,6,0,L|322:193,1,75,0|0,0:0|0:0,0:0:0:0:
239,148,151161,1,10,0:0:0:0:
239,148,151275,1,2,0:0:0:0:
166,245,151389,2,0,L|241:236,1,75,8|0,0:0|0:0,0:0:0:0:
322,193,151616,1,2,0:0:0:0:
322,193,151730,1,2,0:0:0:0:
358,351,151843,6,0,P|320:353|285:343,1,75,14|2,0:0|0:0,0:0:0:0:
239,236,152071,2,0,P|201:234|165:244,1,75,2|2,0:0|0:0,0:0:0:0:
184,384,152298,1,10,0:0:0:0:
184,384,152411,2,0,P|204:351|211:315,1,75,2|0,0:0|0:0,0:0:0:0:
109,166,152639,1,12,0:0:0:0:
74,256,152753,1,0,0:0:0:0:
74,256,152866,2,0,L|0:251,1,75,2|8,0:0|0:0,0:0:0:0:
183,170,153094,1,2,0:0:0:0:
183,170,153207,2,0,L|108:165,1,75,8|0,0:0|0:0,0:0:0:0:
12,25,153434,1,6,0:0:0:0:
113,60,153548,1,0,0:0:0:0:
283,27,153661,6,0,P|247:18|210:18,1,75,14|2,0:0|0:0,0:0:0:0:
261,182,153889,2,0,P|250:146|232:114,1,75,2|2,0:0|0:0,0:0:0:0:
287,271,154116,2,0,P|293:198|345:146,1,150,10|2,0:0|0:0,0:0:0:0:
483,135,154457,2,0,P|417:166|345:146,1,150,10|0,0:0|0:0,0:0:0:0:
419,2,154798,2,0,P|420:39|408:74,1,75,10|0,0:0|0:0,0:0:0:0:
261,182,155025,1,10,0:0:0:0:
261,182,155139,1,2,0:0:0:0:
317,59,155252,1,2,0:0:0:0:
206,69,155366,1,2,0:0:0:0:
135,146,155480,6,0,P|98:139|66:119,1,75,14|2,0:0|0:0,0:0:0:0:
22,251,155707,2,0,P|58:244|90:224,1,75,2|2,0:0|0:0,0:0:0:0:
154,351,155934,2,0,L|160:277,1,75,10|0,0:0|0:0,0:0:0:0:
261,338,156161,1,2,0:0:0:0:
261,338,156275,2,0,L|248:188,1,150,10|0,0:0|0:0,0:0:0:0:
357,323,156616,2,0,L|363:249,1,75,10|0,0:0|0:0,0:0:0:0:
495,310,156843,1,8,0:0:0:0:
495,310,156957,1,2,0:0:0:0:
485,168,157071,1,2,0:0:0:0:
396,235,157184,1,2,0:0:0:0:
295,193,157298,6,0,P|293:155|302:120,1,75,12|0,0:0|0:0,0:0:0:0:
376,73,157525,1,2,0:0:0:0:
376,73,157639,1,2,0:0:0:0:
295,193,157753,6,0,P|263:213|228:223,1,75,8|0,0:0|0:0,0:0:0:0:
150,182,157980,1,2,0:0:0:0:
150,182,158094,1,10,0:0:0:0:
295,193,158207,6,0,P|328:210|354:235,1,75,0|0,0:0|0:0,0:0:0:0:
357,324,158434,1,10,0:0:0:0:
357,324,158548,1,2,0:0:0:0:
220,382,158661,6,0,L|223:308,1,75,8|0,0:0|0:0,0:0:0:0:
227,223,158889,1,2,0:0:0:0:
227,223,159002,1,2,0:0:0:0:
71,259,159116,6,0,P|107:265|144:262,1,75,8|2,0:0|0:0,0:0:0:0:
75,104,159344,2,0,P|87:139|109:169,1,75,0|10,0:0|0:0,0:0:0:0:
242,86,159571,1,4,0:0:0:0:
242,86,159684,2,0,P|205:84|170:97,1,75,0|0,0:0|0:0,0:0:0:0:
301,160,159911,1,10,0:0:0:0:
301,160,160025,6,0,L|292:10,2,150,4|8|8,0:0|0:0|0:0,0:0:0:0:
305,0,160707,1,6,0:0:0:0:
447,108,160935,6,0,L|373:101,1,75,14|2,0:0|0:0,0:0:0:0:
458,199,161162,2,0,L|384:192,1,75,2|10,0:0|0:0,0:0:0:0:
474,292,161389,2,0,P|404:318|332:302,1,150,10|0,0:0|0:0,0:0:0:0:
190,292,161730,2,0,P|262:276|331:302,1,150,10|0,0:0|0:0,0:0:0:0:
142,348,162071,2,0,P|161:316|190:292,1,75,2|8,0:0|0:0,0:0:0:0:
332,302,162298,1,2,0:0:0:0:
332,302,162412,1,2,0:0:0:0:
246,371,162526,1,10,0:0:0:0:
264,252,162639,1,2,0:0:0:0:
171,128,162753,6,0,P|172:165|186:199,1,75,14|2,0:0|0:0,0:0:0:0:
320,174,162980,2,0,P|318:136|304:102,1,75,2|2,0:0|0:0,0:0:0:0:
137,95,163207,2,0,P|134:169|162:238,1,150,10|2,0:0|0:0,0:0:0:0:
351,201,163548,2,0,P|353:126|325:57,1,150,10|0,0:0|0:0,0:0:0:0:
208,155,163889,2,0,P|245:153|280:141,1,75,2|8,0:0|0:0,0:0:0:0:
408,21,164117,1,0,0:0:0:0:
408,21,164230,1,2,0:0:0:0:
280,141,164344,1,10,0:0:0:0:
325,57,164457,1,2,0:0:0:0:
412,152,164571,6,0,L|487:143,1,75,14|2,0:0|0:0,0:0:0:0:
412,152,164798,1,2,0:0:0:0:
412,152,164912,1,10,0:0:0:0:
291,229,165026,2,0,L|366:220,1,75,10|2,0:0|0:0,0:0:0:0:
291,229,165253,1,2,0:0:0:0:
291,229,165367,1,2,0:0:0:0:
164,305,165480,6,0,L|239:296,1,75,10|2,0:0|0:0,0:0:0:0:
164,305,165707,1,2,0:0:0:0:
164,305,165821,1,10,0:0:0:0:
35,372,165935,2,0,L|110:363,1,75,2|0,0:0|0:0,0:0:0:0:
35,372,166162,1,10,0:0:0:0:
35,372,166276,1,0,0:0:0:0:
152,218,166389,6,0,P|114:219|78:209,1,75,10|2,0:0|0:0,0:0:0:0:
185,77,166617,2,0,P|204:108|214:144,1,75,2|2,0:0|0:0,0:0:0:0:
35,129,166844,1,10,0:0:0:0:
95,54,166957,1,10,0:0:0:0:
152,230,167071,2,0,P|114:231|78:221,1,75,10|10,0:0|0:0,0:0:0:0:
185,77,167298,1,10,0:0:0:0:
373,129,167412,2,0,L|298:136,1,75,2|0,0:0|0:0,0:0:0:0:
288,148,167639,6,0,L|466:128,1,179.999994506836,6|0,0:0|0:0,0:0:0:0:
512,0,167980,1,8,0:0:0:0:
512,0,168207,6,0,P|480:19|454:45,1,75,10|2,0:0|0:0,0:0:0:0:
478,202,168435,2,0,P|477:164|467:129,1,75,2|2,0:0|0:0,0:0:0:0:
298,36,168662,2,0,P|367:62|440:50,1,150,10|0,0:0|0:0,0:0:0:0:
225,90,169003,2,0,P|236:163|283:220,1,150,10|0,0:0|0:0,0:0:0:0:
145,45,169344,2,0,P|112:64|87:91,1,75,10|0,0:0|0:0,0:0:0:0:
108,263,169571,1,10,0:0:0:0:
156,167,169685,1,2,0:0:0:0:
120,283,169798,1,2,0:0:0:0:
169,187,169912,1,2,0:0:0:0:
138,365,170026,6,0,P|100:364|66:349,1,75,12|0,0:0|0:0,0:0:0:0:
35,181,170253,1,2,0:0:0:0:
35,181,170366,1,2,0:0:0:0:
205,265,170480,1,10,0:0:0:0:
205,265,170594,1,2,0:0:0:0:
246,89,170707,1,2,0:0:0:0:
111,58,170821,2,0,P|173:98|246:89,1,150,12|0,0:0|0:0,0:0:0:0:
442,121,171162,2,0,P|369:112|307:152,1,150,12|0,0:0|0:0,0:0:0:0:
291,267,171503,1,2,0:0:0:0:
396,230,171617,1,10,0:0:0:0:
301,249,171730,1,2,0:0:0:0:
215,156,171844,6,0,P|225:120|245:88,1,75,12|0,0:0|0:0,0:0:0:0:
307,151,172071,1,2,0:0:0:0:
307,151,172185,1,2,0:0:0:0:
162,210,172298,2,0,P|125:219|88:218,1,75,8|0,0:0|0:0,0:0:0:0:
118,136,172526,1,2,0:0:0:0:
118,136,172639,1,10,0:0:0:0:
236,229,172753,6,0,P|262:255|279:288,1,75,0|0,0:0|0:0,0:0:0:0:
196,306,172980,1,10,0:0:0:0:
196,306,173094,1,2,0:0:0:0:
215,156,173207,2,0,L|289:153,1,75,8|0,0:0|0:0,0:0:0:0:
372,200,173435,1,2,0:0:0:0:
372,200,173548,1,2,0:0:0:0:
453,97,173662,6,0,L|379:100,1,75,14|2,0:0|0:0,0:0:0:0:
446,196,173889,2,0,L|372:199,1,75,2|2,0:0|0:0,0:0:0:0:
278,80,174117,1,10,0:0:0:0:
278,80,174230,2,0,P|277:117|289:152,1,75,10|0,0:0|0:0,0:0:0:0:
379,100,174457,5,6,0:0:0:0:
436,292,175025,2,0,B|390:301|390:301|326:294|326:294|287:298,1,150,2|0,0:0|0:0,0:0:0:0:
106,218,175480,5,8,0:0:0:0:
256,203,175707,1,0,0:0:0:0:
137,312,175934,2,0,L|287:297,1,150,8|0,0:0|0:0,0:0:0:0:
106,218,176275,2,0,L|256:203,1,150,8|0,0:0|0:0,0:0:0:0:
137,312,176616,1,8,0:0:0:0:
82,129,176843,1,10,0:0:0:0:
82,129,176957,1,2,0:0:0:0:
82,129,177071,2,0,L|157:121,1,75,2|0,0:0|0:0,0:0:0:0:
323,110,177298,6,0,P|279:52|207:38,1,150,10|0,0:0|0:0,0:0:0:0:
402,224,177753,2,0,P|430:155|425:81,1,150,10|0,0:0|0:0,0:0:0:0:
305,132,178094,1,8,0:0:0:0:
305,132,178207,2,0,L|156:121,2,150,2|10|10,0:0|0:0|0:0,0:0:0:0:
475,217,178889,2,0,P|437:213|401:223,1,75,0|0,0:0|0:0,0:0:0:0:
316,304,179116,5,10,0:0:0:0:
169,148,179343,1,0,0:0:0:0:
110,357,179571,1,10,0:0:0:0:
245,228,179798,1,0,0:0:0:0:
245,226,179911,2,0,P|175:253|102:240,1,150,10|0,0:0|0:0,0:0:0:0:
62,137,180252,1,10,0:0:0:0:
62,137,180366,1,0,0:0:0:0:
139,48,180480,1,10,0:0:0:0:
139,48,180593,2,0,L|214:41,1,75,0|2,0:0|0:0,0:0:0:0:
366,173,180934,6,0,B|378:62|378:62|367:26,1,150,10|0,0:0|0:0,0:0:0:0:
288,230,181389,2,0,B|276:119|276:119|287:83,1,150,10|0,0:0|0:0,0:0:0:0:
356,285,181843,2,0,P|326:307|290:316,1,75,2|0,0:0|0:0,0:0:0:0:
183,212,182071,2,0,P|205:241|214:277,1,75,10|0,0:0|0:0,0:0:0:0:
30,212,182298,2,0,P|59:189|95:180,1,75,10|0,0:0|0:0,0:0:0:0:
203,285,182526,2,0,P|180:255|171:219,1,75,10|0,0:0|0:0,0:0:0:0:
389,219,182752,6,0,P|356:284|289:315,1,150,10|0,0:0|0:0,0:0:0:0:
168,132,183207,1,8,0:0:0:0:
296,47,183434,1,0,0:0:0:0:
296,47,183548,2,0,L|281:197,1,150,10|0,0:0|0:0,0:0:0:0:
382,144,183889,2,0,L|389:218,1,75,10|0,0:0|0:0,0:0:0:0:
491,97,184116,1,10,0:0:0:0:
491,97,184230,1,0,0:0:0:0:
491,97,184343,2,0,L|484:172,1,75,2|0,0:0|0:0,0:0:0:0:
443,301,184571,6,0,P|370:313|306:276,1,150,10|0,0:0|0:0,0:0:0:0:
296,47,185025,1,8,0:0:0:0:
99,140,185252,1,2,0:0:0:0:
99,140,185366,1,10,0:0:0:0:
99,140,185480,2,0,L|248:130,1,150,2|10,0:0|0:0,0:0:0:0:
16,14,185934,2,0,L|10:88,1,75,10|2,0:0|0:0,0:0:0:0:
85,225,186161,1,2,0:0:0:0:
85,225,186275,1,2,0:0:0:0:
85,225,186389,6,0,P|61:288|1:259,1,150,10|2,0:0|0:0,0:0:0:0:
99,140,186730,1,2,0:0:0:0:
99,140,186843,2,0,P|39:169|15:107,1,150,10|2,0:0|0:0,0:0:0:0:
167,86,187184,1,10,0:0:0:0:
167,86,187298,2,0,L|242:91,1,75,2|0,0:0|0:0,0:0:0:0:
354,124,187525,2,0,L|279:118,1,75,10|0,0:0|0:0,0:0:0:0:
394,24,187752,2,0,L|399:98,1,75,10|0,0:0|0:0,0:0:0:0:
475,233,187980,2,0,L|481:159,1,75,10|0,0:0|0:0,0:0:0:0:
375,214,188207,6,0,P|393:285|451:330,1,150,10|0,0:0|0:0,0:0:0:0:
475,233,188548,1,8,0:0:0:0:
475,233,188661,2,0,P|402:244|354:300,1,150,8|0,0:0|0:0,0:0:0:0:
451,330,189002,1,0,0:0:0:0:
451,330,189116,1,8,0:0:0:0:
399,98,189343,1,2,0:0:0:0:
227,247,189571,1,2,0:0:0:0:
124,157,189684,2,0,B|195:164|195:164|235:155|272:170,1,150,6|0,0:0|0:0,0:0:0:0:
227,247,190025,5,10,0:0:0:0:
77,263,190139,2,0,B|226:246,1,150,0|2,0:0|0:0,0:0:0:0:
341,341,190480,2,0,P|292:381|277:320,1,150,2|2,0:0|0:0,0:0:0:0:
277,320,190821,1,2,0:0:0:0:
439,238,190935,2,0,P|479:286|418:301,1,150,10|2,0:0|0:0,0:0:0:0:
322,190,191275,1,2,0:0:0:0:
322,190,191389,2,0,P|316:153|322:116,1,75,2|0,0:0|0:0,0:0:0:0:
211,93,191616,2,0,P|224:57|248:28,1,75,2|0,0:0|0:0,0:0:0:0:
321,116,191843,5,8,0:0:0:0:
470,100,191957,2,0,L|320:116,1,150,2|2,0:0|0:0,0:0:0:0:
247,28,192298,2,0,L|397:44,1,150,2|2,0:0|0:0,0:0:0:0:
396,43,192639,1,2,0:0:0:0:
309,147,192753,2,0,L|159:163,1,150,10|2,0:0|0:0,0:0:0:0:
64,41,193093,1,2,0:0:0:0:
64,40,193207,2,0,P|101:42|134:59,1,75,2|0,0:0|0:0,0:0:0:0:
159,162,193435,2,0,P|138:192|106:212,1,75,2|2,0:0|0:0,0:0:0:0:
227,92,193661,5,8,0:0:0:0:
242,241,193775,2,0,L|226:91,1,150,0|2,0:0|0:0,0:0:0:0:
391,80,194116,2,0,P|382:145|318:126,1,150,2|2,0:0|0:0,0:0:0:0:
318,126,194457,1,2,0:0:0:0:
478,132,194571,2,0,P|517:185|459:217,1,150,10|2,0:0|0:0,0:0:0:0:
324,264,194911,1,2,0:0:0:0:
324,263,195025,2,0,P|361:262|396:274,1,75,2|0,0:0|0:0,0:0:0:0:
348,362,195253,1,10,0:0:0:0:
348,362,195366,1,14,0:0:0:0:
