osu file format v14

[General]
AudioFilename: audio.mp3
AudioLeadIn: 0
PreviewTime: 37071
Countdown: 0
SampleSet: Soft
StackLeniency: 0.5
Mode: 0
LetterboxInBreaks: 0
WidescreenStoryboard: 1

[Editor]
Bookmarks: 8207,20935,37298,66389,73662,88207,102753,117298,128207,146389,190025
DistanceSpacing: 1.2
BeatDivisor: 4
GridSize: 4
TimelineZoom: 1

[Metadata]
Title:anoko dokonoko
TitleUnicode:あのこどこのこ
Artist:Nanahoshi Kangengakudan
ArtistUnicode:ナナホシ管弦楽団
Creator:kwk
Version:Normal
Source:
Tags:FujunIseiKouyuuP hujuniseikouyuup 不純異性交遊p Vocaloid Megpoid Gumi rizen Iwami Takashi 岩見陸 where's that girl from
BeatmapID:1396792
BeatmapSetID:654452

[Difficulty]
HPDrainRate:3
CircleSize:2.9
OverallDifficulty:4
ApproachRate:5
SliderMultiplier:1.4
SliderTickRate:1

[Events]
//Background and Video events
0,0,"63779250.png",0,0
//Break Periods
2,117499,127007
//Storyboard Layer 0 (Background)
//Storyboard Layer 1 (Fail)
//Storyboard Layer 2 (Pass)
//Storyboard Layer 3 (Foreground)
//Storyboard Sound Samples

[TimingPoints]
935,454.545454545455,4,2,1,60,1,0
8435,-100,4,2,1,60,0,0
27185,-100,4,2,1,80,0,0
28207,-100,4,2,1,60,0,0
29003,-100,4,2,1,80,0,0
30025,-100,4,2,1,60,0,0
36275,-100,4,2,1,80,0,0
37298,-100,4,2,1,80,0,1
44571,-100,4,2,1,80,0,1
51844,-100,4,2,1,60,0,0
73662,-100,4,2,1,60,0,0
87753,-100,4,2,1,60,0,0
88207,-100,4,2,1,60,0,0
92639,-100,4,2,1,80,0,0
93662,-100,4,2,1,60,0,0
94457,-100,4,2,1,80,0,0
95480,-100,4,2,1,60,0,0
101389,-100,4,2,1,60,0,0
102753,-100,4,2,1,80,0,1
110025,-100,4,2,1,80,0,1
117298,-100,4,2,1,60,0,0
130025,-100,4,2,1,65,0,0
146389,-100,4,2,1,80,0,1
153662,-100,4,2,1,80,0,1
160935,-100,4,2,1,80,0,1
175025,-100,4,2,1,80,0,1
175480,-100,4,2,1,60,0,0

[Colours]
Combo1 : 255,255,166
Combo2 : 255,128,128
Combo3 : 0,255,255
Combo4 : 0,255,128

[HitObjects]
8,180,935,6,0,P|80:204|152:160,1,140,4|2,0:0|0:0,0:0:0:0:
184,112,1616,1,2,0:0:0:0:
235,45,1844,2,0,P|287:1|339:2,2,105,10|2|2,0:0|0:0|0:0,0:0:0:0:
269,121,2753,6,0,P|298:182|276:254,1,140,8|2,0:0|0:0,0:0:0:0:
117,285,3662,2,0,P|73:337|77:401,2,105,10|2|2,0:0|0:0|0:0,0:0:0:0:
196,313,4571,6,0,B|263:359|331:313,1,140,8|2,0:0|0:0,0:0:0:0:
379,249,5253,1,2,0:0:0:0:
399,169,5480,2,0,B|407:113|407:113|383:49,2,105,10|2|2,0:0|0:0|0:0,0:0:0:0:
318,194,6389,1,8,0:0:0:0:
324,204,8207,5,6,0:0:0:0:
216,76,8662,2,0,P|164:68|108:100,2,105,10|8|8,0:0|0:0|0:0,0:0:0:0:
284,124,9571,1,10,0:0:0:0:
436,52,10025,6,0,P|464:120|440:192,1,140,10|10,0:0|0:0,0:0:0:0:
496,300,10821,2,0,P|440:312|380:284,1,105,8|2,0:0|0:0,0:0:0:0:
340,236,11389,1,8,0:0:0:0:
200,140,11844,6,0,P|232:196|220:272,1,140,10|8,0:0|0:0,0:0:0:0:
108,324,12639,2,0,L|108:219,1,105,0|0,0:0|0:0,0:0:0:0:
108,136,13207,1,8,0:0:0:0:
260,208,13662,6,0,P|335:216|404:176,1,140,10|10,0:0|0:0,0:0:0:0:
312,92,14457,2,0,L|199:87,1,105,10|8,0:0|0:0,0:0:0:0:
139,38,15025,2,0,P|123:70|124:104,1,70,8|8,0:0|0:0,0:0:0:0:
180,168,15480,5,8,0:0:0:0:
100,312,15935,2,0,B|48:319|48:319|-16:296,2,105,10|8|10,0:0|0:0|0:0,0:0:0:0:
176,272,16844,1,10,0:0:0:0:
332,332,17298,6,0,P|344:264|324:192,1,140,10|10,0:0|0:0,0:0:0:0:
208,148,18094,2,0,L|100:164,1,105,8|8,0:0|0:0,0:0:0:0:
20,176,18662,1,10,0:0:0:0:
168,252,19117,6,0,P|232:260|296:208,1,140,10|8,0:0|0:0,0:0:0:0:
308,92,19912,2,0,P|348:64|420:64,1,105,8|0,0:0|0:0,0:0:0:0:
472,108,20480,1,8,0:0:0:0:
496,276,20935,5,6,0:0:0:0:
496,276,21844,2,0,P|508:212|492:168,2,105,2|2|2,0:0|0:0|0:0,0:0:0:0:
432,328,22753,5,12,0:0:0:0:
272,276,23207,2,0,P|216:268|152:308,2,105,10|8|2,0:0|0:0|0:0,0:0:0:0:
352,308,24116,1,8,0:0:0:0:
468,188,24571,5,8,0:0:0:0:
392,40,25025,2,0,L|268:16,2,105,10|8|10,0:0|0:0|0:0,0:0:0:0:
428,116,25935,1,10,0:0:0:0:
272,176,26389,6,0,L|264:96,2,70,14|2|10,0:0|0:0|0:0,0:0:0:0:
336,284,27185,2,0,P|260:304|212:280,1,105,12|2,0:0|0:0,0:0:0:0:
168,248,27753,1,14,0:0:0:0:
24,336,28207,6,0,P|100:316|176:356,1,140,6|10,0:0|0:0,0:0:0:0:
280,364,29003,2,0,P|300:288|276:240,1,105,12|2,0:0|0:0,0:0:0:0:
244,196,29571,1,14,0:0:0:0:
80,224,30025,5,8,0:0:0:0:
200,104,30480,2,0,P|248:96|324:128,2,105,10|8|10,0:0|0:0|0:0,0:0:0:0:
140,164,31389,1,10,0:0:0:0:
160,332,31843,6,0,P|244:348|301:299,1,140,14|10,0:0|0:0,0:0:0:0:
356,216,32639,2,0,P|368:156|344:104,1,105,8|10,0:0|0:0,0:0:0:0:
300,52,33207,1,14,0:0:0:0:
132,36,33662,6,0,P|65:53|24:108,1,140,14|8,0:0|0:0,0:0:0:0:
67,233,34457,2,0,L|139:156,1,105,10|0,0:0|0:0,0:0:0:0:
200,100,35025,2,0,P|240:96|284:116,1,70,10|2,0:0|0:0,0:0:0:0:
288,188,35480,6,0,P|340:224|424:220,1,140,2|2,0:0|0:0,0:0:0:0:
380,104,36275,2,0,L|404:28,2,70,12|8|8,0:0|0:0|0:0,0:0:0:0:
308,304,37298,5,6,0:0:0:0:
152,236,37753,2,0,P|100:228|36:248,2,105,8|10|10,0:0|0:0|0:0,0:0:0:0:
212,296,38662,1,10,0:0:0:0:
296,300,38889,1,2,0:0:0:0:
372,248,39116,6,0,P|388:181|364:116,1,140,14|10,0:0|0:0,0:0:0:0:
264,192,39912,2,0,P|208:204|148:176,1,105,10|10,0:0|0:0,0:0:0:0:
144,108,40480,1,10,0:0:0:0:
212,56,40707,1,2,0:0:0:0:
292,84,40935,6,0,P|360:128|372:208,1,140,14|8,0:0|0:0,0:0:0:0:
496,220,41730,2,0,P|452:292|408:304,1,105,10|10,0:0|0:0,0:0:0:0:
352,304,42298,1,8,0:0:0:0:
188,264,42753,6,0,B|250:295|250:295|264:372,1,140,14|8,0:0|0:0,0:0:0:0:
142,331,43548,2,0,P|106:271|126:211,1,105,12|8,0:0|0:0,0:0:0:0:
172,184,44116,2,0,P|172:136|160:108,1,70,8|4,0:0|0:0,0:0:0:0:
100,64,44571,5,12,0:0:0:0:
264,24,45025,2,0,P|316:16|388:52,2,105,10|10|10,0:0|0:0|0:0,0:0:0:0:
189,64,45935,1,10,0:0:0:0:
188,147,46162,1,2,0:0:0:0:
250,203,46389,6,0,L|270:353,1,140,10|10,0:0|0:0,0:0:0:0:
392,312,47185,2,0,P|404:256|376:196,1,105,10|10,0:0|0:0,0:0:0:0:
324,156,47753,1,8,0:0:0:0:
172,228,48207,5,8,0:0:0:0:
104,72,48662,1,8,0:0:0:0:
8,208,49116,2,0,L|100:169,1,70,8|10,0:0|0:0,0:0:0:0:
150,148,49571,1,8,0:0:0:0:
316,184,50025,5,12,0:0:0:0:
284,348,50480,1,14,0:0:0:0:
124,296,50935,2,0,P|112:240|120:208,1,70,12|0,0:0|0:0,0:0:0:0:
172,168,51389,2,0,P|184:112|176:80,1,70,14|14,0:0|0:0,0:0:0:0:
140,28,51844,5,4,0:0:0:0:
304,68,52298,2,0,B|352:48|352:48|408:52,2,105,10|8|8,0:0|0:0|0:0,0:0:0:0:
228,104,53207,1,2,0:0:0:0:
80,28,53661,6,0,P|52:96|76:168,1,140,10|10,0:0|0:0,0:0:0:0:
76,284,54457,2,0,L|192:252,1,105,8|10,0:0|0:0,0:0:0:0:
257,232,55025,1,10,0:0:0:0:
424,232,55480,6,0,P|456:296|440:368,1,140,10|10,0:0|0:0,0:0:0:0:
340,288,56275,2,0,L|337:183,1,105,10|10,0:0|0:0,0:0:0:0:
335,98,56843,1,10,0:0:0:0:
252,244,57298,6,0,P|183:252|123:219,1,140,10|10,0:0|2:0,0:0:0:0:
4,172,58094,2,0,L|112:112,1,105,8|2,0:0|2:0,0:0:0:0:
176,104,58661,2,0,P|216:112|264:100,1,70,10|2,0:0|0:0,0:0:0:0:
316,60,59116,5,10,0:0:0:0:
412,196,59571,2,0,P|464:212|532:188,2,105,10|10|10,0:0|0:0|0:0,0:0:0:0:
348,140,60480,1,10,0:0:0:0:
180,160,60934,6,0,P|152:222|168:289,1,140,10|8,0:0|0:0,0:0:0:0:
292,316,61730,2,0,L|395:300,1,105,10|10,0:0|0:0,0:0:0:0:
456,244,62298,1,8,0:0:0:0:
468,76,62753,6,0,P|404:68|340:120,1,140,10|10,0:0|0:0,0:0:0:0:
312,232,63548,2,0,P|264:252|216:236,1,105,0|10,0:0|0:0,0:0:0:0:
160,176,64116,1,10,0:0:0:0:
224,20,64571,5,10,0:0:0:0:
344,136,65025,2,0,L|248:111,1,70,8|0,0:0|0:0,0:0:0:0:
193,100,65480,1,10,0:0:0:0:
80,225,65935,1,10,0:0:0:0:
196,349,66389,6,0,P|242:288|232:197,1,140,8|2,0:0|0:0,0:0:0:0:
180,172,67070,1,2,0:0:0:0:
140,100,67298,2,0,P|136:32|168:-8,2,105,10|2|2,0:0|0:0|0:0,0:0:0:0:
216,64,68207,6,0,P|292:52|368:76,1,140,8|2,0:0|0:0,0:0:0:0:
372,236,69116,2,0,B|324:256|324:256|268:244,2,105,10|2|2,0:0|0:0|0:0,0:0:0:0:
456,216,70025,6,0,P|480:284|440:348,1,140,10|2,0:0|0:0,0:0:0:0:
368,360,70707,1,2,0:0:0:0:
284,332,70934,2,0,B|240:356|240:356|168:344,2,105,10|2|2,0:0|0:0|0:0,0:0:0:0:
312,252,71843,1,8,0:0:0:0:
436,88,73662,5,8,0:0:0:0:
272,60,74116,2,0,P|264:112|312:204,1,140,10|10,0:0|0:0,0:0:0:0:
400,324,75026,1,10,0:0:0:0:
240,276,75480,6,0,B|168:260|168:260|92:288,1,140,10|8,0:0|0:0,0:0:0:0:
20,140,76389,2,0,P|28:60|72:0,1,140,10|10,0:0|0:0,0:0:0:0:
184,124,77299,6,0,P|256:140|344:100,1,140,10|8,0:0|0:0,0:0:0:0:
428,64,78094,2,0,P|444:116|432:168,1,105,0|8,0:0|0:0,0:0:0:0:
360,204,78662,1,8,0:0:0:0:
236,88,79117,6,0,L|68:104,1,140,10|10,0:0|0:0,0:0:0:0:
12,192,79912,2,0,L|120:204,1,105,10|8,0:0|0:0,0:0:0:0:
200,212,80480,2,0,P|218:245|212:304,1,70,8|4,0:0|0:0,0:0:0:0:
172,348,80935,5,8,0:0:0:0:
316,264,81390,2,0,P|363:243|460:264,1,140,10|10,0:0|0:0,0:0:0:0:
372,108,82299,1,10,0:0:0:0:
316,264,82753,6,0,P|268:284|172:264,1,140,12|2,0:0|0:0,0:0:0:0:
140,152,83548,1,14,0:0:0:0:
140,152,84572,6,0,L|296:108,1,140,10|8,0:0|0:0,0:0:0:0:
368,28,85367,2,0,P|396:68|396:140,1,105,8|10,0:0|0:0,0:0:0:0:
336,180,85935,1,8,0:0:0:0:
272,24,86390,1,12,0:0:0:0:
272,24,88207,5,6,0:0:0:0:
168,156,88662,2,0,P|112:164|48:124,2,105,10|8|10,0:0|0:0|0:0,0:0:0:0:
244,120,89570,1,10,0:0:0:0:
268,288,90025,5,10,0:0:0:0:
396,180,90480,2,0,P|444:160|520:164,2,105,10|8|10,0:0|0:0|0:0,0:0:0:0:
324,224,91389,1,10,0:0:0:0:
180,136,91843,6,0,L|204:60,2,70,2|2|10,0:0|0:0|0:0,0:0:0:0:
104,236,92639,2,0,P|147:263|199:259,1,105,14|2,0:0|0:0,0:0:0:0:
260,200,93207,1,14,0:0:0:0:
428,204,93661,6,0,P|439:281|392:353,1,140,2|10,0:0|0:0,0:0:0:0:
285,251,94457,2,0,L|262:124,1,105,14|2,0:0|0:0,0:0:0:0:
252,64,95025,1,14,0:0:0:0:
100,140,95479,5,8,0:0:0:0:
266,147,95934,2,0,L|396:128,2,105,10|8|10,0:0|0:0|0:0,0:0:0:0:
188,180,96843,1,10,0:0:0:0:
64,296,97298,6,0,P|68:216|108:164,1,140,10|10,0:0|0:0,0:0:0:0:
184,264,98094,2,0,P|244:272|308:240,1,105,8|10,0:0|0:0,0:0:0:0:
352,208,98661,1,10,0:0:0:0:
492,116,99116,6,0,L|504:272,1,140,14|10,0:0|0:0,0:0:0:0:
416,348,99912,2,0,P|368:328|304:348,1,105,6|0,0:0|0:0,0:0:0:0:
240,368,100479,2,0,P|200:372|156:352,1,70,10|2,0:0|0:0,0:0:0:0:
124,292,100935,5,14,0:0:0:0:
92,34,102753,5,6,0:0:0:0:
7,179,103208,2,0,P|9:230|40:289,2,105,10|10|10,0:0|0:0|0:0,0:0:0:0:
48,105,104117,1,10,0:0:0:0:
92,33,104344,1,2,0:0:0:0:
174,55,104571,6,0,L|228:191,1,140,14|10,0:0|0:0,0:0:0:0:
346,147,105367,2,0,P|406:143|454:167,1,105,10|14,0:0|0:0,0:0:0:0:
487,233,105935,1,0,0:0:0:0:
470,315,106162,1,2,0:0:0:0:
393,349,106390,6,0,L|290:214,1,140,14|8,0:0|0:0,0:0:0:0:
182,246,107185,2,0,P|163:294|175:344,1,105,10|10,0:0|0:0,0:0:0:0:
258,346,107753,1,8,0:0:0:0:
302,182,108208,6,0,B|170:110,1,140,14|10,0:0|0:0,0:0:0:0:
299,78,109003,2,0,L|419:38,1,105,12|8,0:0|0:0,0:0:0:0:
472,88,109571,2,0,P|481:121|479:156,1,70,8|4,0:0|0:0,0:0:0:0:
418,215,110026,5,14,0:0:0:0:
260,160,110480,2,0,P|208:152|136:188,2,105,10|10|10,0:0|0:0|0:0,0:0:0:0:
329,212,111390,1,10,0:0:0:0:
306,292,111616,1,2,0:0:0:0:
227,321,111844,6,0,L|91:265,1,140,14|10,0:0|0:0,0:0:0:0:
24,164,112640,2,0,P|12:108|40:48,1,105,8|8,0:0|0:0,0:0:0:0:
104,31,113208,1,8,0:0:0:0:
220,152,113662,5,8,0:0:0:0:
348,44,114117,1,8,0:0:0:0:
472,156,114571,2,0,L|488:248,1,70,8|10,0:0|0:0,0:0:0:0:
500,308,115026,1,8,0:0:0:0:
344,368,115480,5,10,0:0:0:0:
188,300,115935,1,10,0:0:0:0:
228,136,116390,2,0,P|284:124|316:132,1,70,12|0,0:0|0:0,0:0:0:0:
356,184,116844,2,0,P|412:196|444:188,1,70,8|0,0:0|0:0,0:0:0:0:
464,120,117299,5,14,0:0:0:0:
256,192,128207,12,8,130025,0:0:0:0:
344,76,131844,6,0,L|176:60,1,140,12|8,0:0|0:0,0:0:0:0:
116,152,132639,2,0,B|148:140|148:140|252:152,1,105,2|10,0:0|0:0,0:0:0:0:
304,156,133207,1,10,0:0:0:0:
428,268,133662,6,0,B|468:280|468:280|508:264,2,70,10|2|10,0:0|0:0|0:0,0:0:0:0:
303,247,134457,2,0,B|252:244|252:244|203:266,1,105,10|10,0:0|0:0,0:0:0:0:
160,336,135025,1,10,0:0:0:0:
88,184,135480,6,0,P|104:112|172:64,1,140,12|10,0:0|0:0,0:0:0:0:
272,108,136275,2,0,P|328:112|384:88,1,105,0|2,0:0|0:0,0:0:0:0:
432,36,136844,1,12,0:0:0:0:
500,188,137298,6,0,P|432:184|364:204,1,140,8|10,0:0|0:0,0:0:0:0:
324,324,138094,2,0,L|248:252,1,105,10|10,0:0|0:0,0:0:0:0:
184,200,138662,1,2,0:0:0:0:
340,140,139116,5,4,0:0:0:0:
204,40,139571,2,0,P|152:32|99:53,2,105,10|0|10,0:0|0:0|0:0,0:0:0:0:
256,108,140480,1,10,0:0:0:0:
308,268,140935,6,0,L|188:164,1,140,10|10,0:0|0:0,0:0:0:0:
76,188,141730,2,0,P|56:280|132:336,1,175,0|10,0:0|0:0,0:0:0:0:
276,348,142753,5,12,0:0:0:0:
436,292,143207,2,0,L|472:184,2,105,10|2|2,0:0|0:0|0:0,0:0:0:0:
368,344,144116,1,10,0:0:0:0:
304,188,144571,6,0,P|255:170|204:183,1,105,10|2,0:0|0:0,0:0:0:0:
132,224,145139,2,0,L|96:148,1,70,2|6,0:0|0:0,0:0:0:0:
76,80,145594,2,0,L|112:-4,2,70,6|6|4,0:0|0:0|0:0,0:0:0:0:
26,195,146389,5,10,0:0:0:0:
102,160,146616,1,2,0:0:0:0:
180,129,146844,2,0,P|228:117|304:141,2,105,10|10|10,0:0|0:0|0:0,0:0:0:0:
102,160,147753,1,10,0:0:0:0:
8,320,148207,6,0,P|76:336|152:296,1,140,10|10,0:0|0:0,0:0:0:0:
232,224,149003,2,0,P|288:212|360:240,1,105,10|10,0:0|0:0,0:0:0:0:
388,288,149571,1,8,0:0:0:0:
492,156,150026,6,0,L|464:0,1,140,12|8,0:0|0:0,0:0:0:0:
372,100,150821,2,0,P|320:112|274:93,1,105,10|10,0:0|0:0,0:0:0:0:
196,60,151389,1,8,0:0:0:0:
60,160,151844,2,0,B|132:288,1,140,14|10,0:0|0:0,0:0:0:0:
248,320,152639,2,0,B|292:284|292:284|364:288,1,105,12|8,0:0|0:0,0:0:0:0:
420,312,153207,2,0,P|424:276|413:243,1,70,8|6,0:0|0:0,0:0:0:0:
342,199,153662,5,14,0:0:0:0:
208,97,154116,2,0,P|196:45|228:-15,2,105,10|10|10,0:0|0:0|0:0,0:0:0:0:
262,162,155026,1,10,0:0:0:0:
336,123,155253,1,2,0:0:0:0:
418,141,155480,6,0,P|434:197|398:281,1,140,14|10,0:0|0:0,0:0:0:0:
340,379,156276,2,0,L|308:263,1,105,10|10,0:0|0:0,0:0:0:0:
302,194,156844,1,8,0:0:0:0:
205,331,157298,5,12,0:0:0:0:
123,183,157753,1,8,0:0:0:0:
26,320,158207,2,0,L|106:282,1,70,0|10,0:0|0:0,0:0:0:0:
166,257,158662,1,8,0:0:0:0:
318,326,159116,5,8,0:0:0:0:
439,212,159571,1,4,0:0:0:0:
352,68,160026,2,0,P|312:64|260:88,1,70,4|8,0:0|0:0,0:0:0:0:
228,136,160480,2,0,P|172:148|140:140,1,70,8|6,0:0|0:0,0:0:0:0:
76,128,160935,6,0,P|68:72|80:8,2,105,14|10|0,0:0|0:0|0:0,0:0:0:0:
72,212,161844,2,0,P|78:263|70:315,2,105,8|8|10,0:0|0:0|0:0,0:0:0:0:
0,168,162753,5,14,0:0:0:0:
76,128,162980,1,2,0:0:0:0:
149,167,163207,2,0,P|209:193|286:179,1,140,10|8,0:0|0:0,0:0:0:0:
234,20,164116,1,0,0:0:0:0:
376,109,164571,6,0,L|496:101,2,105,14|10|2,0:0|0:0|0:0,0:0:0:0:
296,136,165480,2,0,L|176:128,2,105,10|10|10,0:0|0:0|0:0,0:0:0:0:
361,189,166389,5,10,0:0:0:0:
368,272,166616,1,2,0:0:0:0:
304,327,166844,2,0,P|236:355|148:320,1,140,10|10,0:0|0:0,0:0:0:0:
83,252,167639,1,6,0:0:0:0:
198,76,168207,5,10,0:0:0:0:
348,152,168662,2,0,P|398:162|449:150,2,105,10|10|10,0:0|0:0|0:0,0:0:0:0:
269,121,169571,1,10,0:0:0:0:
208,179,169798,1,2,0:0:0:0:
251,251,170025,6,0,L|395:267,1,140,12|10,0:0|0:0,0:0:0:0:
473,361,170821,2,0,L|368:374,1,105,12|12,0:0|0:0,0:0:0:0:
116,372,171844,5,12,0:0:0:0:
56,215,172298,2,0,P|48:155|88:91,2,105,8|10|10,0:0|0:0|0:0,0:0:0:0:
104,284,173207,1,8,0:0:0:0:
264,234,173662,6,0,B|273:87,1,140,14|10,0:0|0:0,0:0:0:0:
172,168,174457,2,0,B|116:172|116:172|72:144,1,105,6|0,0:0|0:0,0:0:0:0:
4,100,175025,1,2,0:0:0:0:
28,268,175480,5,8,0:0:0:0:
196,256,175934,2,0,B|247:256|247:256|297:281,2,105,8|8|8,0:0|0:0|0:0,0:0:0:0:
116,288,176843,1,10,0:0:0:0:
8,160,177298,6,0,P|64:120|156:128,1,140,10|10,0:0|0:0,0:0:0:0:
232,196,178094,2,0,P|292:200|348:168,1,105,8|10,0:0|0:0,0:0:0:0:
360,104,178661,1,10,0:0:0:0:
196,72,179116,6,0,L|136:216,1,140,10|10,0:0|0:0,0:0:0:0:
40,128,179912,2,0,P|43:63|84:16,1,105,10|10,0:0|0:0,0:0:0:0:
143,3,180479,1,10,0:0:0:0:
292,80,180934,6,0,P|361:88|421:55,1,140,10|10,0:0|0:0,0:0:0:0:
476,168,181730,2,0,L|464:278,1,105,8|10,0:0|0:0,0:0:0:0:
492,352,182297,2,0,P|448:356|416:344,1,70,10|10,0:0|0:0,0:0:0:0:
380,276,182752,5,10,0:0:0:0:
232,352,183207,2,0,P|180:368|112:332,2,105,8|10|10,0:0|0:0|0:0,0:0:0:0:
264,276,184116,1,10,0:0:0:0:
196,124,184570,6,0,P|167:186|184:253,1,140,10|8,0:0|0:0,0:0:0:0:
296,200,185366,2,0,P|352:184|400:196,1,105,10|10,0:0|0:0,0:0:0:0:
460,252,185934,1,10,0:0:0:0:
304,320,186389,6,0,L|180:248,1,140,10|10,0:0|0:0,0:0:0:0:
68,304,187184,2,0,P|56:236|80:184,1,105,10|10,0:0|0:0,0:0:0:0:
144,172,187752,1,10,0:0:0:0:
165,339,188207,6,0,L|337:315,1,140,10|8,0:0|0:0,0:0:0:0:
464,296,189116,1,8,0:0:0:0:
504,132,189571,1,2,0:0:0:0:
364,40,190025,6,0,P|292:16|220:60,1,140,10|2,0:0|0:0,0:0:0:0:
184,104,190706,1,2,0:0:0:0:
120,160,190934,2,0,B|57:185|57:185|8:168,2,105,10|2|2,0:0|0:0|0:0,0:0:0:0:
200,188,191843,6,0,P|261:217|333:195,1,140,8|2,0:0|0:0,0:0:0:0:
476,276,192753,2,0,L|436:400,2,105,10|2|2,0:0|0:0|0:0,0:0:0:0:
476,192,193661,6,0,P|460:168|416:152,1,70,8|0,0:0|0:0,0:0:0:0:
340,172,194116,2,0,L|308:264,2,70,2|2|10,0:0|0:0|0:0,0:0:0:0:
324,88,194798,1,2,0:0:0:0:
296,8,195025,2,0,L|188:0,1,105,2|14,0:0|0:0,0:0:0:0:
