osu file format v14

[General]
AudioFilename: audio.mp3
AudioLeadIn: 0
PreviewTime: 37071
Countdown: 0
SampleSet: Soft
StackLeniency: 0.3
Mode: 0
LetterboxInBreaks: 0
WidescreenStoryboard: 1

[Editor]
Bookmarks: 8207,37298,66389,73662,88207,102753,117298,128207,146389,190025
DistanceSpacing: 0.9
BeatDivisor: 4
GridSize: 4
TimelineZoom: 2.2

[Metadata]
Title:anoko dokonoko
TitleUnicode:あのこどこのこ
Artist:Nanahoshi Kangengakudan
ArtistUnicode:ナナホシ管弦楽団
Creator:kwk
Version:Insane
Source:
Tags:FujunIseiKouyuuP hujuniseikouyuup 不純異性交遊p Vocaloid Megpoid Gumi rizen Iwami Takashi 岩見陸 where's that girl from
BeatmapID:1388891
BeatmapSetID:654452

[Difficulty]
HPDrainRate:5
CircleSize:3
OverallDifficulty:7
ApproachRate:9
SliderMultiplier:2.7
SliderTickRate:1

[Events]
//Background and Video events
0,0,"63779250.png",0,0
//Break Periods
2,117498,127607
//Storyboard Layer 0 (Background)
//Storyboard Layer 1 (Fail)
//Storyboard Layer 2 (Pass)
//Storyboard Layer 3 (Foreground)
//Storyboard Sound Samples

[TimingPoints]
935,454.545454545455,4,2,1,60,1,0
7866,-142.857142857143,4,2,1,60,0,0
8435,-100,4,2,1,60,0,0
27185,-76.9230769230769,4,2,1,80,0,0
28207,-100,4,2,1,60,0,0
29003,-76.9230769230769,4,2,1,80,0,0
30025,-100,4,2,1,60,0,0
36275,-100,4,2,1,80,0,0
37298,-76.9230769230769,4,2,1,80,0,1
51844,-100,4,2,1,60,0,0
73321,-142.857142857143,4,2,1,60,0,0
73662,-100,4,2,1,60,0,0
87753,-166.666666666667,4,2,1,60,0,0
88207,-100,4,2,1,60,0,0
92639,-76.9230769230769,4,2,1,80,0,0
93662,-100,4,2,1,60,0,0
94457,-76.9230769230769,4,2,1,80,0,0
95480,-100,4,2,1,60,0,0
101389,-142.857142857143,4,2,1,60,0,0
102753,-76.9230769230769,4,2,1,80,0,1
110025,-76.9230769230769,4,2,1,80,0,1
117298,-100,4,2,1,60,0,0
130025,-100,4,2,1,65,0,0
146389,-76.9230769230769,4,2,1,80,0,1
153662,-76.9230769230769,4,2,1,80,0,1
160935,-76.9230769230769,4,2,1,80,0,1
175025,-125,4,2,1,80,0,1
175480,-100,4,2,1,60,0,0

[Colours]
Combo1 : 255,255,166
Combo2 : 255,128,128
Combo3 : 0,255,255
Combo4 : 0,255,128

[HitObjects]
80,112,935,5,4,0:0:0:0:
80,112,1048,2,0,P|156:68|228:76,1,135,2|0,0:0|0:0,0:0:0:0:
324,108,1389,2,0,P|336:48|304:84,1,135,2|2,0:0|0:0,0:0:0:0:
252,160,1730,1,2,0:0:0:0:
252,160,1844,2,0,L|232:304,1,135,10|2,0:0|0:0,0:0:0:0:
128,352,2185,1,2,0:0:0:0:
128,352,2298,2,0,L|136:284,1,67.5,2|0,0:0|0:0,0:0:0:0:
284,204,2525,2,0,L|276:272,1,67.5,2|0,0:0|0:0,0:0:0:0:
408,360,2753,5,8,0:0:0:0:
408,360,2866,2,0,L|428:216,1,135,2|2,0:0|0:0,0:0:0:0:
512,148,3207,2,0,P|492:84|468:124,1,135,2|2,0:0|0:0,0:0:0:0:
360,140,3548,1,2,0:0:0:0:
360,140,3662,2,0,P|360:73|397:17,1,135,10|2,0:0|0:0,0:0:0:0:
264,56,4003,1,2,0:0:0:0:
264,56,4116,2,0,L|140:68,1,67.5,2|0,0:0|0:0,0:0:0:0:
68,168,4344,2,0,L|136:160,1,67.5,2|0,0:0|0:0,0:0:0:0:
248,212,4571,5,8,0:0:0:0:
248,212,4685,2,0,P|276:264|256:360,1,135,2|2,0:0|0:0,0:0:0:0:
140,340,5025,2,0,P|152:268|188:292,1,135,2|2,0:0|0:0,0:0:0:0:
312,360,5366,1,2,0:0:0:0:
312,360,5480,2,0,L|484:332,1,135,10|2,0:0|0:0,0:0:0:0:
504,232,5821,1,2,0:0:0:0:
504,232,5935,2,0,L|436:244,1,67.5,2|0,0:0|0:0,0:0:0:0:
256,324,6162,2,0,L|322:312,1,67.5,2|8,0:0|0:0,0:0:0:0:
336,208,6389,5,8,0:0:0:0:
336,208,6503,2,0,P|320:116|272:80,1,135,0|2,0:0|0:0,0:0:0:0:
208,72,6844,1,2,0:0:0:0:
124,96,6957,1,2,0:0:0:0:
64,160,7071,1,2,0:0:0:0:
52,248,7185,1,2,0:0:0:0:
80,316,7298,1,2,0:0:0:0:
132,360,7412,1,2,0:0:0:0:
192,368,7525,1,2,0:0:0:0:
244,360,7639,1,2,0:0:0:0:
288,340,7753,1,2,0:0:0:0:
308,320,7866,2,0,P|301:249|284:196,1,94.4999971160889,2|0,0:0|0:0,0:0:0:0:
244,144,8207,5,6,0:0:0:0:
244,144,8435,2,0,P|207:135|177:115,1,67.5,0|0,0:0|0:0,0:0:0:0:
116,48,8662,2,0,P|144:107|122:169,1,135,10|2,0:0|0:0,0:0:0:0:
24,180,9003,1,8,0:0:0:0:
24,180,9116,2,0,L|60:80,1,67.5,2|0,0:0|0:0,0:0:0:0:
80,256,9344,2,0,L|57:319,1,67.5,8|0,0:0|0:0,0:0:0:0:
176,240,9571,2,0,P|248:216|316:260,1,135,10|2,0:0|0:0,0:0:0:0:
298,239,10025,5,10,0:0:0:0:
298,239,10139,2,0,B|416:212|416:212|376:252,1,135,2|2,0:0|0:0,0:0:0:0:
324,328,10480,2,0,L|180:356,1,135,10|0,0:0|0:0,0:0:0:0:
188,252,10821,1,8,0:0:0:0:
188,252,10935,2,0,P|191:218|177:178,1,67.5,2|0,0:0|0:0,0:0:0:0:
96,236,11162,2,0,P|92:269|106:309,1,67.5,2|0,0:0|0:0,0:0:0:0:
8,216,11389,2,0,P|32:136|16:80,1,135,8|2,0:0|0:0,0:0:0:0:
124,136,11730,1,0,0:0:0:0:
124,136,11844,6,0,L|260:108,1,135,10|0,0:0|0:0,0:0:0:0:
352,88,12185,1,2,0:0:0:0:
352,88,12298,1,8,0:0:0:0:
208,212,12525,1,8,0:0:0:0:
208,212,12639,2,0,L|312:188,1,67.5,0|0,0:0|0:0,0:0:0:0:
372,172,12866,1,8,0:0:0:0:
372,172,12979,1,0,0:0:0:0:
512,278,13207,2,0,P|472:322|356:306,1,135,8|2,0:0|0:0,0:0:0:0:
304,280,13548,1,0,0:0:0:0:
304,280,13662,6,0,P|223:275|164:316,1,135,10|2,0:0|0:0,0:0:0:0:
76,360,14003,1,0,0:0:0:0:
76,360,14116,2,0,P|92:287|72:224,1,135,10|2,0:0|0:0,0:0:0:0:
0,164,14457,2,0,P|76:132|156:164,1,135,10|0,0:0|0:0,0:0:0:0:
208,228,14798,2,0,L|220:140,1,67.5,8|0,0:0|0:0,0:0:0:0:
300,80,15025,2,0,L|309:146,1,67.5,8|0,0:0|0:0,0:0:0:0:
392,224,15253,2,0,L|404:136,1,67.5,8|0,0:0|0:0,0:0:0:0:
472,96,15480,5,8,0:0:0:0:
472,96,15707,2,0,P|404:64|336:96,1,135,2|10,0:0|0:0,0:0:0:0:
284,156,16048,1,2,0:0:0:0:
284,156,16162,2,0,P|256:128|244:96,1,67.5,2|8,0:0|0:0,0:0:0:0:
164,24,16389,2,0,L|136:96,1,67.5,2|10,0:0|0:0,0:0:0:0:
32,96,16616,2,0,L|60:168,1,67.5,10|2,0:0|0:0,0:0:0:0:
156,188,16844,2,0,P|172:264|140:332,1,135,10|2,0:0|0:0,0:0:0:0:
152,315,17298,5,10,0:0:0:0:
364,340,17525,1,2,0:0:0:0:
364,340,17639,1,0,0:0:0:0:
364,340,17753,2,0,P|384:260|340:192,1,135,10|0,0:0|0:0,0:0:0:0:
368,116,18094,2,0,L|472:136,1,67.5,8|0,0:0|0:0,0:0:0:0:
276,168,18321,1,2,0:0:0:0:
276,168,18435,2,0,L|196:148,1,67.5,8|2,0:0|0:0,0:0:0:0:
80,216,18662,2,0,L|236:256,1,135,10|2,0:0|0:0,0:0:0:0:
240,348,19003,1,0,0:0:0:0:
240,348,19116,6,0,P|299:318|364:330,1,135,10|0,0:0|0:0,0:0:0:0:
452,364,19457,1,2,0:0:0:0:
452,364,19571,1,8,0:0:0:0:
448,148,19798,2,0,P|418:207|430:272,1,135,2|0,0:0|0:0,0:0:0:0:
452,364,20139,1,10,0:0:0:0:
452,364,20253,1,0,0:0:0:0:
504,220,20480,1,8,0:0:0:0:
476,64,20707,1,2,0:0:0:0:
348,296,20935,5,6,0:0:0:0:
348,296,21389,1,2,0:0:0:0:
97,277,21844,1,2,0:0:0:0:
97,277,21957,2,0,L|-3:261,1,67.5,0|0,0:0|0:0,0:0:0:0:
164,344,22185,1,2,0:0:0:0:
164,344,22298,2,0,L|244:328,2,67.5,10|2|2,0:0|0:0|0:0,0:0:0:0:
164,344,22753,6,0,B|248:300|248:300|360:328,1,202.5,12|0,0:0|0:0,0:0:0:0:
484,272,23207,2,0,L|332:232,1,135,10|0,0:0|0:0,0:0:0:0:
316,140,23548,1,8,0:0:0:0:
316,140,23662,2,0,L|396:160,1,67.5,2|0,0:0|0:0,0:0:0:0:
496,92,23889,2,0,L|430:75,1,67.5,2|0,0:0|0:0,0:0:0:0:
300,52,24116,2,0,P|236:96|251:198,1,135,8|0,0:0|0:0,0:0:0:0:
243,299,24571,5,8,0:0:0:0:
97,197,24798,1,2,0:0:0:0:
327,260,25025,1,10,0:0:0:0:
112,94,25253,1,2,0:0:0:0:
356,176,25480,1,2,0:0:0:0:
205,60,25707,1,10,0:0:0:0:
129,237,25935,2,0,P|189:259|280:222,1,135,10|0,0:0|0:0,0:0:0:0:
344,120,26389,5,14,0:0:0:0:
292,112,26503,1,2,0:0:0:0:
248,140,26616,1,2,0:0:0:0:
236,192,26730,1,10,0:0:0:0:
256,244,26844,2,0,L|400:276,1,135,10|0,0:0|0:0,0:0:0:0:
280,336,27185,6,0,B|144:308|144:308|224:284,1,175.499991966248,12|0,0:0|0:0,0:0:0:0:
176,208,27525,2,0,L|20:240,1,87.749995983124,2|0,0:0|0:0,0:0:0:0:
4,360,27753,1,14,0:0:0:0:
168,120,28207,5,6,0:0:0:0:
220,112,28321,1,2,0:0:0:0:
264,140,28434,1,2,0:0:0:0:
276,192,28548,1,10,0:0:0:0:
256,244,28662,2,0,L|112:276,1,135,10|0,0:0|0:0,0:0:0:0:
232,336,29003,6,0,B|368:308|368:308|288:284,1,175.499991966248,12|0,0:0|0:0,0:0:0:0:
336,208,29343,2,0,L|492:240,1,87.749995983124,2|0,0:0|0:0,0:0:0:0:
508,359,29571,1,14,0:0:0:0:
338,77,29912,1,0,0:0:0:0:
338,77,30025,6,0,P|322:136|338:213,1,135,8|2,0:0|0:0,0:0:0:0:
476,352,30480,2,0,P|416:328|340:332,1,135,10|2,0:0|0:0,0:0:0:0:
200,360,30821,1,8,0:0:0:0:
200,360,30935,2,0,B|260:288,1,67.5,2|0,0:0|0:0,0:0:0:0:
216,208,31162,2,0,B|280:136,1,67.5,10|0,0:0|0:0,0:0:0:0:
304,48,31389,2,0,P|249:70|160:52,1,135,10|2,0:0|0:0,0:0:0:0:
0,200,31844,6,0,P|54:177|144:196,1,135,14|2,0:0|0:0,0:0:0:0:
152,288,32185,1,0,0:0:0:0:
152,288,32298,2,0,L|56:264,1,67.5,10|0,0:0|0:0,0:0:0:0:
220,216,32525,2,0,L|285:232,1,67.5,2|8,0:0|0:0,0:0:0:0:
368,316,32753,2,0,P|404:240|384:172,1,135,2|10,0:0|0:0,0:0:0:0:
395,192,33207,1,14,0:0:0:0:
264,336,33435,1,2,0:0:0:0:
96,152,33662,6,0,P|166:141|240:180,1,135,14|10,0:0|0:0,0:0:0:0:
328,268,34116,1,8,0:0:0:0:
140,344,34344,1,2,0:0:0:0:
140,344,34457,2,0,L|156:232,1,67.5,10|0,0:0|0:0,0:0:0:0:
244,208,34685,2,0,P|224:121|240:72,1,135,10|2,0:0|0:0,0:0:0:0:
284,52,35025,1,10,0:0:0:0:
340,48,35139,1,2,0:0:0:0:
392,60,35253,1,2,0:0:0:0:
428,100,35366,1,2,0:0:0:0:
424,156,35480,6,0,L|344:284,1,135,2|0,0:0|0:0,0:0:0:0:
264,320,35821,1,0,0:0:0:0:
264,320,35935,2,0,L|228:252,2,67.5,2|2|2,0:0|0:0|0:0,0:0:0:0:
364,368,36275,2,0,L|448:324,1,67.5,12|0,0:0|0:0,0:0:0:0:
512,292,36503,1,8,0:0:0:0:
410,80,36730,1,8,0:0:0:0:
192,320,37071,1,0,0:0:0:0:
192,320,37298,5,6,0:0:0:0:
180,260,37412,1,2,0:0:0:0:
208,204,37525,1,2,0:0:0:0:
268,188,37639,1,2,0:0:0:0:
328,204,37753,2,0,L|376:292,1,87.749995983124,8|0,0:0|0:0,0:0:0:0:
460,316,37980,1,0,0:0:0:0:
460,316,38094,2,0,P|500:244|472:148,1,175.499991966248,10|0,0:0|0:0,0:0:0:0:
432,76,38435,2,0,L|336:80,1,87.749995983124,10|0,0:0|0:0,0:0:0:0:
232,20,38662,1,10,0:0:0:0:
172,8,38776,1,2,0:0:0:0:
116,36,38889,1,2,0:0:0:0:
100,96,39003,1,2,0:0:0:0:
116,156,39117,6,0,L|204:204,1,87.749995983124,14|2,0:0|0:0,0:0:0:0:
280,140,39344,2,0,L|372:188,1,87.749995983124,2|2,0:0|0:0,0:0:0:0:
464,132,39571,2,0,P|470:217|414:282,1,175.499991966248,10|0,0:0|0:0,0:0:0:0:
304,272,39912,2,0,P|240:260|120:312,1,175.499991966248,10|0,0:0|0:0,0:0:0:0:
52,344,40253,1,10,0:0:0:0:
52,344,40480,1,10,0:0:0:0:
64,284,40594,1,2,0:0:0:0:
72,224,40707,1,2,0:0:0:0:
84,164,40821,1,2,0:0:0:0:
92,104,40935,6,0,L|236:24,1,87.749995983124,14|0,0:0|0:0,0:0:0:0:
256,64,41162,1,2,0:0:0:0:
256,64,41275,1,2,0:0:0:0:
212,140,41389,6,0,L|132:184,1,87.749995983124,8|0,0:0|0:0,0:0:0:0:
92,260,41616,1,2,0:0:0:0:
92,260,41729,1,10,0:0:0:0:
182,261,41843,6,0,L|264:216,1,87.749995983124,0|0,0:0|0:0,0:0:0:0:
348,219,42071,1,10,0:0:0:0:
348,219,42184,1,2,0:0:0:0:
308,296,42298,6,0,L|226:341,1,87.749995983124,8|0,0:0|0:0,0:0:0:0:
140,340,42525,1,2,0:0:0:0:
140,340,42639,1,2,0:0:0:0:
184,260,42753,6,0,P|186:195|168:160,1,87.749995983124,14|2,0:0|0:0,0:0:0:0:
100,128,42980,2,0,L|4:172,1,87.749995983124,2|2,0:0|0:0,0:0:0:0:
20,260,43207,1,8,0:0:0:0:
20,260,43321,2,0,L|108:220,1,87.749995983124,2|0,0:0|0:0,0:0:0:0:
184,260,43548,2,0,P|292:288|380:224,1,175.499991966248,12|2,0:0|0:0,0:0:0:0:
424,196,43889,2,0,L|420:108,1,87.749995983124,8|2,0:0|0:0,0:0:0:0:
340,52,44116,1,8,0:0:0:0:
444,300,44344,1,4,0:0:0:0:
444,300,44571,5,12,0:0:0:0:
384,280,44685,1,0,0:0:0:0:
324,272,44798,1,0,0:0:0:0:
268,292,44912,1,0,0:0:0:0:
232,340,45025,2,0,P|296:288|292:180,1,175.499991966248,10|0,0:0|0:0,0:0:0:0:
224,156,45366,2,0,L|128:136,1,87.749995983124,10|0,0:0|0:0,0:0:0:0:
16,212,45594,1,0,0:0:0:0:
16,212,45707,2,0,L|168:240,1,87.749995983124,10|0,0:0|0:0,0:0:0:0:
207,244,45935,1,10,0:0:0:0:
271,246,46049,1,2,0:0:0:0:
331,237,46162,1,2,0:0:0:0:
379,203,46276,1,2,0:0:0:0:
400,147,46389,6,0,P|352:214|386:317,1,175.499991966248,10|2,0:0|0:0,0:0:0:0:
452,236,46730,1,2,0:0:0:0:
452,236,46844,2,0,P|496:188|488:112,1,87.749995983124,10|2,0:0|0:0,0:0:0:0:
468,80,47071,1,2,0:0:0:0:
468,80,47185,2,0,P|411:47|304:120,1,175.499991966248,10|0,0:0|0:0,0:0:0:0:
272,168,47525,2,0,P|184:200|80:176,1,175.499991966248,10|8,0:0|0:0,0:0:0:0:
128,40,47866,1,2,0:0:0:0:
128,40,47980,2,0,P|156:60|172:140,1,87.749995983124,2|2,0:0|0:0,0:0:0:0:
272,168,48207,6,0,L|320:48,1,87.749995983124,8|0,0:0|0:0,0:0:0:0:
382,45,48435,1,2,0:0:0:0:
382,45,48548,1,2,0:0:0:0:
383,132,48662,6,0,L|502:180,1,87.749995983124,8|0,0:0|0:0,0:0:0:0:
506,243,48890,1,2,0:0:0:0:
506,243,49003,1,10,0:0:0:0:
419,244,49116,6,0,L|370:363,1,87.749995983124,8|0,0:0|0:0,0:0:0:0:
308,367,49344,1,10,0:0:0:0:
308,367,49457,1,2,0:0:0:0:
307,280,49571,6,0,L|187:231,1,87.749995983124,8|0,0:0|0:0,0:0:0:0:
184,169,49799,1,2,0:0:0:0:
184,169,49912,1,2,0:0:0:0:
156,88,50025,6,0,L|44:32,1,87.749995983124,12|0,0:0|0:0,0:0:0:0:
12,128,50253,2,0,L|90:167,1,87.749995983124,2|8,0:0|0:0,0:0:0:0:
16,232,50480,1,14,0:0:0:0:
16,232,50594,2,0,P|88:264|176:212,1,175.499991966248,0|10,0:0|0:0,0:0:0:0:
180,132,50935,1,12,0:0:0:0:
180,132,51048,2,0,P|268:104|360:116,1,175.499991966248,0|0,0:0|0:0,0:0:0:0:
420,180,51389,1,14,0:0:0:0:
336,16,51616,1,14,0:0:0:0:
376,288,51844,5,4,0:0:0:0:
376,288,52071,1,2,0:0:0:0:
376,288,52298,2,0,L|272:200,1,135,10|2,0:0|0:0,0:0:0:0:
180,256,52639,2,0,P|167:190|196:128,1,135,8|0,0:0|0:0,0:0:0:0:
288,108,52980,1,8,0:0:0:0:
472,256,53207,1,2,0:0:0:0:
472,256,53321,1,2,0:0:0:0:
488,168,53435,2,0,L|468:72,1,67.5,2|0,0:0|0:0,0:0:0:0:
368,72,53662,6,0,L|404:244,1,135,10|0,0:0|0:0,0:0:0:0:
395,204,54116,1,10,0:0:0:0:
304,312,54344,1,0,0:0:0:0:
304,312,54457,1,8,0:0:0:0:
304,312,54571,2,0,P|380:304|460:336,2,135,2|10|10,0:0|0:0|0:0,0:0:0:0:
188,376,55253,2,0,L|184:268,1,67.5,2|0,0:0|0:0,0:0:0:0:
180,220,55480,5,10,0:0:0:0:
80,336,55707,1,2,0:0:0:0:
296,220,55935,1,10,0:0:0:0:
116,112,56162,1,0,0:0:0:0:
116,112,56275,2,0,P|192:132|284:88,1,135,10|0,0:0|0:0,0:0:0:0:
296,24,56616,2,0,L|396:40,1,67.5,10|0,0:0|0:0,0:0:0:0:
484,104,56844,2,0,L|328:140,1,135,10|2,0:0|0:0,0:0:0:0:
352,134,57298,5,10,0:0:0:0:
448,224,57525,1,0,0:0:0:0:
276,352,57753,1,10,2:0:0:0:
300,228,57980,1,0,2:0:0:0:
204,84,58207,2,0,L|216:180,1,67.5,2|0,2:0|2:0,0:0:0:0:
116,176,58435,2,0,L|128:272,1,67.5,2|0,2:0|2:0,0:0:0:0:
308,164,58662,2,0,L|296:260,1,67.5,10|0,0:0|0:0,0:0:0:0:
396,256,58890,2,0,L|384:352,1,67.5,2|0,0:0|0:0,0:0:0:0:
280,372,59116,6,0,P|221:340|154:339,1,135,10|0,0:0|0:0,0:0:0:0:
154,339,59571,1,10,0:0:0:0:
24,256,59798,1,2,0:0:0:0:
24,256,59912,2,0,P|92:264|164:220,1,135,10|0,0:0|0:0,0:0:0:0:
208,144,60253,2,0,B|184:68,1,67.5,10|0,0:0|0:0,0:0:0:0:
272,40,60480,1,10,0:0:0:0:
272,40,60594,1,0,0:0:0:0:
308,128,60707,2,0,L|348:240,1,67.5,2|0,0:0|0:0,0:0:0:0:
420,256,60935,6,0,P|352:300|264:280,1,135,10|0,0:0|0:0,0:0:0:0:
300,298,61389,1,8,0:0:0:0:
160,352,61616,1,2,0:0:0:0:
148,356,61730,1,10,0:0:0:0:
136,360,61844,2,0,L|120:240,1,67.5,2|0,0:0|0:0,0:0:0:0:
32,216,62071,2,0,L|48:96,1,67.5,10|0,0:0|0:0,0:0:0:0:
136,64,62298,1,8,0:0:0:0:
148,60,62412,1,0,0:0:0:0:
160,56,62525,2,0,L|152:140,1,67.5,2|2,0:0|0:0,0:0:0:0:
232,216,62753,6,0,P|296:236|372:192,1,135,10|2,0:0|0:0,0:0:0:0:
396,96,63094,1,2,0:0:0:0:
396,96,63207,2,0,P|448:132|468:236,1,135,10|2,0:0|0:0,0:0:0:0:
424,288,63548,1,0,0:0:0:0:
424,288,63662,2,0,L|304:336,1,67.5,2|0,0:0|0:0,0:0:0:0:
256,360,63889,2,0,L|274:232,1,67.5,10|2,0:0|0:0,0:0:0:0:
340,160,64116,2,0,L|330:226,1,67.5,10|0,0:0|0:0,0:0:0:0:
172,232,64344,2,0,L|234:206,1,67.5,2|0,0:0|0:0,0:0:0:0:
361,313,64571,6,0,P|424:316|496:256,1,135,10|0,0:0|0:0,0:0:0:0:
496,192,64912,1,8,0:0:0:0:
496,192,65025,2,0,L|384:64,1,135,8|0,0:0|0:0,0:0:0:0:
316,60,65366,1,0,0:0:0:0:
316,60,65480,1,10,0:0:0:0:
56,112,65707,1,2,0:0:0:0:
344,280,65935,1,10,0:0:0:0:
296,180,66048,2,0,P|224:164|140:200,1,135,4|0,0:0|0:0,0:0:0:0:
104,296,66389,5,8,0:0:0:0:
104,296,66503,2,0,L|248:256,1,135,2|2,0:0|0:0,0:0:0:0:
380,236,66844,2,0,P|387:300|348:248,1,135,2|2,0:0|0:0,0:0:0:0:
296,180,67185,1,2,0:0:0:0:
296,180,67298,2,0,P|288:117|316:44,1,135,10|2,0:0|0:0,0:0:0:0:
416,8,67639,1,2,0:0:0:0:
416,8,67753,2,0,L|408:84,1,67.5,2|0,0:0|0:0,0:0:0:0:
488,168,67980,2,0,L|495:100,1,67.5,2|0,0:0|0:0,0:0:0:0:
400,216,68207,5,8,0:0:0:0:
400,216,68321,2,0,P|303:228|264:296,1,135,2|2,0:0|0:0,0:0:0:0:
144,352,68662,2,0,P|196:318|128:264,1,135,2|2,0:0|0:0,0:0:0:0:
76,184,69003,1,2,0:0:0:0:
76,184,69116,2,0,L|216:168,1,135,10|2,0:0|0:0,0:0:0:0:
252,80,69457,1,2,0:0:0:0:
252,80,69571,2,0,L|184:85,1,67.5,2|0,0:0|0:0,0:0:0:0:
120,216,69798,2,0,L|187:210,1,67.5,2|0,0:0|0:0,0:0:0:0:
304,168,70025,5,10,0:0:0:0:
304,168,70139,2,0,P|362:162|443:218,1,135,2|2,0:0|0:0,0:0:0:0:
379,317,70479,2,0,P|317:277|353:254,1,135,2|2,0:0|0:0,0:0:0:0:
465,166,70820,1,2,0:0:0:0:
465,166,70934,2,0,L|506:-3,1,135,10|2,0:0|0:0,0:0:0:0:
380,112,71275,1,2,0:0:0:0:
380,112,71389,2,0,L|313:121,1,67.5,2|0,0:0|0:0,0:0:0:0:
164,72,71616,2,0,L|230:62,1,67.5,2|8,0:0|0:0,0:0:0:0:
352,168,71844,5,8,0:0:0:0:
352,168,71958,2,0,P|336:260|288:296,1,135,0|2,0:0|0:0,0:0:0:0:
224,304,72299,1,2,0:0:0:0:
140,280,72412,1,2,0:0:0:0:
80,216,72526,1,2,0:0:0:0:
68,128,72640,1,2,0:0:0:0:
96,60,72753,1,2,0:0:0:0:
148,16,72867,1,2,0:0:0:0:
208,8,72980,1,2,0:0:0:0:
260,16,73094,1,2,0:0:0:0:
304,36,73208,1,2,0:0:0:0:
324,60,73321,2,0,P|317:131|300:184,1,94.4999971160889,2|0,0:0|0:0,0:0:0:0:
264,232,73662,5,8,0:0:0:0:
264,232,73889,2,0,P|220:224|180:244,1,67.5,2|2,0:0|0:0,0:0:0:0:
232,316,74116,2,0,P|292:324|352:256,1,135,10|2,0:0|0:0,0:0:0:0:
440,204,74457,1,0,0:0:0:0:
440,204,74571,2,0,L|436:280,1,67.5,10|0,0:0|0:0,0:0:0:0:
352,188,74798,1,2,0:0:0:0:
352,188,74912,1,2,0:0:0:0:
352,188,75025,2,0,L|355:120,1,67.5,10|0,0:0|0:0,0:0:0:0:
269,39,75253,2,0,L|265:119,1,67.5,2|0,0:0|0:0,0:0:0:0:
164,92,75480,5,10,0:0:0:0:
164,92,75594,2,0,B|83:169|83:169|147:157,1,135,2|0,0:0|0:0,0:0:0:0:
220,156,75935,2,0,L|284:88,2,67.5,8|0|2,0:0|0:0|0:0,0:0:0:0:
28,268,76389,2,0,P|92:251|157:267,1,135,10|2,0:0|0:0,0:0:0:0:
236,336,76730,1,2,0:0:0:0:
236,336,76844,2,0,P|300:351|365:335,1,135,10|2,0:0|0:0,0:0:0:0:
456,256,77185,1,0,0:0:0:0:
456,256,77298,6,0,B|416:116|416:120,1,135,10|0,0:0|0:0,0:0:0:0:
392,44,77639,1,2,0:0:0:0:
392,44,77753,1,8,0:0:0:0:
240,96,77980,1,10,0:0:0:0:
240,96,78094,2,0,P|273:97|303:112,1,67.5,0|0,0:0|0:0,0:0:0:0:
356,204,78321,2,0,L|370:273,2,67.5,2|8|0,0:0|0:0|0:0,0:0:0:0:
260,192,78662,2,0,L|288:340,1,135,8|2,0:0|0:0,0:0:0:0:
168,256,79003,1,2,0:0:0:0:
168,256,79116,6,0,P|108:248|32:284,2,135,10|2|10,0:0|0:0|0:0,0:0:0:0:
284,320,79685,1,0,0:0:0:0:
284,320,79798,1,2,0:0:0:0:
284,320,79912,2,0,B|351:348|351:348|428:320,1,135,10|0,0:0|0:0,0:0:0:0:
480,272,80253,1,8,0:0:0:0:
480,272,80480,2,0,L|500:208,1,67.5,8|0,0:0|0:0,0:0:0:0:
448,80,80707,2,0,L|428:144,1,67.5,4|0,0:0|0:0,0:0:0:0:
396,228,80935,5,8,0:0:0:0:
396,228,81048,2,0,P|344:188|376:84,1,135,2|0,0:0|0:0,0:0:0:0:
260,32,81389,2,0,L|248:100,1,67.5,10|2,0:0|0:0,0:0:0:0:
156,116,81616,2,0,L|180:184,1,67.5,2|0,0:0|0:0,0:0:0:0:
148,284,81844,1,10,0:0:0:0:
148,284,81957,1,2,0:0:0:0:
148,284,82071,2,0,P|200:256|308:288,1,135,2|10,0:0|0:0,0:0:0:0:
224,356,82412,1,2,0:0:0:0:
224,356,82525,2,0,L|128:376,1,67.5,10|0,0:0|0:0,0:0:0:0:
64,332,82753,6,0,P|56:260|124:184,1,135,12|0,0:0|0:0,0:0:0:0:
168,156,83094,1,10,0:0:0:0:
168,156,83207,2,0,L|176:88,2,67.5,2|2|10,0:0|0:0|0:0,0:0:0:0:
152,280,83548,1,14,0:0:0:0:
280,296,84571,6,0,P|221:266|156:278,1,135,10|0,0:0|0:0,0:0:0:0:
68,312,84912,1,2,0:0:0:0:
68,312,85026,1,8,0:0:0:0:
72,96,85253,2,0,P|102:155|90:220,1,135,10|0,0:0|0:0,0:0:0:0:
68,312,85594,1,8,0:0:0:0:
68,312,85708,1,10,0:0:0:0:
12,176,85935,1,8,0:0:0:0:
40,24,86162,1,2,0:0:0:0:
156,276,86390,5,12,0:0:0:0:
300,172,87753,6,0,P|244:180|272:208,1,121.499996292114,0|0,0:0|0:0,0:0:0:0:
267,207,88207,6,0,L|412:164,1,135,6|0,0:0|0:0,0:0:0:0:
496,300,88662,2,0,P|412:268|344:308,1,135,10|8,0:0|0:0,0:0:0:0:
296,352,89003,1,8,0:0:0:0:
296,352,89116,2,0,P|272:296|280:256,1,67.5,2|0,0:0|0:0,0:0:0:0:
176,252,89344,2,0,P|212:203|251:190,1,67.5,10|0,0:0|0:0,0:0:0:0:
316,204,89571,2,0,P|348:128|304:40,1,135,10|0,0:0|0:0,0:0:0:0:
135,99,90025,5,10,0:0:0:0:
147,275,90252,1,2,0:0:0:0:
197,34,90479,1,10,0:0:0:0:
229,303,90707,1,2,0:0:0:0:
284,52,90934,1,2,0:0:0:0:
306,241,91161,1,0,0:0:0:0:
444,112,91389,2,0,P|388:152|280:120,1,135,10|0,0:0|0:0,0:0:0:0:
132,72,91844,5,2,0:0:0:0:
84,100,91957,1,2,0:0:0:0:
68,152,92071,1,2,0:0:0:0:
76,204,92185,1,2,0:0:0:0:
112,244,92298,2,0,P|175:256|264:236,1,135,10|0,0:0|0:0,0:0:0:0:
295,165,92639,6,0,P|334:240|303:319,1,175.499991966248,14|0,0:0|0:0,0:0:0:0:
161,239,92980,2,0,P|214:230|269:280,1,87.749995983124,2|0,0:0|0:0,0:0:0:0:
360,384,93207,1,14,0:0:0:0:
380,140,93662,5,2,0:0:0:0:
352,92,93775,1,2,0:0:0:0:
300,76,93889,1,2,0:0:0:0:
248,84,94003,1,2,0:0:0:0:
208,120,94116,2,0,P|196:183|216:272,1,135,10|0,0:0|0:0,0:0:0:0:
287,303,94457,6,0,P|212:342|133:311,1,175.499991966248,14|0,0:0|0:0,0:0:0:0:
213,169,94798,2,0,P|222:222|172:277,1,87.749995983124,2|0,0:0|0:0,0:0:0:0:
68,368,95025,1,14,0:0:0:0:
68,368,95480,6,0,L|100:208,1,135,8|2,0:0|0:0,0:0:0:0:
184,40,95935,2,0,L|213:171,1,135,10|2,0:0|0:0,0:0:0:0:
296,256,96275,1,8,0:0:0:0:
296,256,96389,2,0,L|316:176,1,67.5,2|0,0:0|0:0,0:0:0:0:
428,136,96616,2,0,L|411:201,1,67.5,10|0,0:0|0:0,0:0:0:0:
352,328,96844,2,0,P|272:352|216:304,1,135,10|2,0:0|0:0,0:0:0:0:
152,128,97298,6,0,P|212:185|199:257,1,135,10|2,0:0|0:0,0:0:0:0:
136,292,97639,1,0,0:0:0:0:
136,292,97752,2,0,L|116:200,1,67.5,10|0,0:0|0:0,0:0:0:0:
52,152,97980,2,0,L|84:60,1,67.5,2|8,0:0|0:0,0:0:0:0:
156,16,98207,2,0,P|222:9|279:43,1,135,2|10,0:0|0:0,0:0:0:0:
279,43,98661,1,10,0:0:0:0:
192,220,98889,1,0,0:0:0:0:
376,164,99116,6,0,L|204:124,1,135,14|10,0:0|0:0,0:0:0:0:
244,133,99571,1,10,0:0:0:0:
64,156,99798,1,2,0:0:0:0:
64,156,99912,2,0,L|156:184,1,67.5,6|0,0:0|0:0,0:0:0:0:
226,244,100139,2,0,P|233:309|191:359,1,135,10|2,0:0|0:0,0:0:0:0:
140,376,100480,1,10,0:0:0:0:
88,368,100594,1,2,0:0:0:0:
48,332,100707,1,2,0:0:0:0:
28,280,100821,1,2,0:0:0:0:
32,224,100935,6,0,L|72:88,1,135,14|0,0:0|0:0,0:0:0:0:
70,94,101389,1,2,0:0:0:0:
268,48,101730,1,2,0:0:0:0:
268,48,101844,2,0,L|300:-24,2,47.2499985580445,2|0|0,0:0|0:0|0:0,0:0:0:0:
268,132,102185,1,2,0:0:0:0:
268,132,102298,1,0,0:0:0:0:
392,188,102525,1,2,0:0:0:0:
392,188,102753,5,6,0:0:0:0:
404,248,102867,1,2,0:0:0:0:
376,304,102980,1,2,0:0:0:0:
316,320,103094,1,2,0:0:0:0:
256,304,103208,2,0,L|208:216,1,87.749995983124,10|0,0:0|0:0,0:0:0:0:
159,137,103435,1,0,0:0:0:0:
159,137,103549,2,0,P|112:207|140:288,1,175.499991966248,10|0,0:0|0:0,0:0:0:0:
256,304,103890,2,0,L|332:256,1,87.749995983124,10|0,0:0|0:0,0:0:0:0:
440,272,104117,1,10,0:0:0:0:
452,212,104231,1,2,0:0:0:0:
424,156,104344,1,2,0:0:0:0:
364,140,104458,1,2,0:0:0:0:
304,156,104572,6,0,L|232:208,1,87.749995983124,14|2,0:0|0:0,0:0:0:0:
88,192,104798,2,0,L|159:140,1,87.749995983124,2|2,0:0|0:0,0:0:0:0:
248,68,105026,2,0,P|164:24|76:68,1,175.499991966248,10|0,0:0|0:0,0:0:0:0:
24,128,105367,2,0,L|96:300,1,175.499991966248,10|0,0:0|0:0,0:0:0:0:
184,352,105708,1,14,0:0:0:0:
184,352,105935,1,0,0:0:0:0:
232,312,106049,1,2,0:0:0:0:
292,300,106162,1,2,0:0:0:0:
352,320,106276,1,2,0:0:0:0:
388,368,106390,6,0,P|401:317|380:241,1,87.749995983124,14|2,0:0|0:0,0:0:0:0:
344,216,106616,1,2,0:0:0:0:
344,216,106730,1,2,0:0:0:0:
284,152,106844,6,0,P|281:108|293:66,1,87.749995983124,8|0,0:0|0:0,0:0:0:0:
368,20,107071,1,2,0:0:0:0:
368,20,107185,1,10,0:0:0:0:
428,84,107299,6,0,P|430:127|418:169,1,87.749995983124,8|0,0:0|0:0,0:0:0:0:
344,216,107525,1,10,0:0:0:0:
344,216,107639,1,2,0:0:0:0:
272,268,107753,6,0,P|259:309|262:353,1,87.749995983124,8|0,0:0|0:0,0:0:0:0:
168,372,107980,1,2,0:0:0:0:
168,372,108094,1,2,0:0:0:0:
96,324,108207,6,0,P|136:292|208:312,1,87.749995983124,14|2,0:0|0:0,0:0:0:0:
262,353,108435,2,0,P|304:348|336:319,1,87.749995983124,2|2,0:0|0:0,0:0:0:0:
440,340,108662,2,0,P|408:240|316:220,1,175.499991966248,10|0,0:0|0:0,0:0:0:0:
260,256,109003,1,12,0:0:0:0:
260,256,109116,2,0,P|252:204|276:156,1,87.749995983124,2|2,0:0|0:0,0:0:0:0:
184,112,109344,2,0,P|225:79|278:75,1,87.749995983124,8|2,0:0|0:0,0:0:0:0:
344,120,109571,1,8,0:0:0:0:
128,256,109798,1,4,0:0:0:0:
340,296,110025,5,14,0:0:0:0:
380,252,110139,1,2,0:0:0:0:
392,192,110252,1,2,0:0:0:0:
384,132,110366,1,2,0:0:0:0:
344,84,110480,2,0,P|248:72|152:116,1,175.499991966248,10|0,0:0|0:0,0:0:0:0:
80,144,110821,2,0,P|92:92|80:52,1,87.749995983124,10|0,0:0|0:0,0:0:0:0:
4,96,111048,1,0,0:0:0:0:
4,96,111162,2,0,P|-8:148|4:188,1,87.749995983124,10|0,0:0|0:0,0:0:0:0:
44,224,111389,1,10,0:0:0:0:
104,236,111503,1,2,0:0:0:0:
160,212,111616,1,2,0:0:0:0:
188,156,111730,1,2,0:0:0:0:
176,96,111844,6,0,P|232:76|280:88,1,87.749995983124,14|2,0:0|0:0,0:0:0:0:
360,160,112071,1,2,0:0:0:0:
360,160,112185,2,0,P|304:180|256:168,1,87.749995983124,2|10,0:0|0:0,0:0:0:0:
156,288,112412,1,0,0:0:0:0:
156,288,112526,2,0,P|212:268|260:280,1,87.749995983124,0|8,0:0|0:0,0:0:0:0:
356,324,112753,1,0,0:0:0:0:
356,324,112866,1,0,0:0:0:0:
356,324,112980,2,0,P|408:332|460:304,1,87.749995983124,8|0,0:0|0:0,0:0:0:0:
488,208,113207,1,8,0:0:0:0:
468,148,113321,1,2,0:0:0:0:
416,116,113435,1,2,0:0:0:0:
356,120,113548,1,2,0:0:0:0:
304,156,113662,6,0,P|288:200|312:276,1,87.749995983124,8|0,0:0|0:0,0:0:0:0:
244,316,113889,1,2,0:0:0:0:
244,316,114003,1,2,0:0:0:0:
200,240,114116,6,0,P|203:196|187:155,1,87.749995983124,8|0,0:0|0:0,0:0:0:0:
248,92,114344,1,2,0:0:0:0:
248,92,114458,1,10,0:0:0:0:
304,156,114571,6,0,P|344:171|388:168,1,87.749995983124,8|0,0:0|0:0,0:0:0:0:
476,152,114798,1,10,0:0:0:0:
476,152,114912,1,2,0:0:0:0:
424,80,115025,6,0,P|383:64|339:67,1,87.749995983124,8|0,0:0|0:0,0:0:0:0:
248,92,115253,1,2,0:0:0:0:
248,92,115366,1,2,0:0:0:0:
176,44,115480,6,0,L|144:160,1,87.749995983124,10|2,0:0|0:0,0:0:0:0:
208,256,115707,2,0,L|236:156,1,87.749995983124,2|10,0:0|0:0,0:0:0:0:
339,67,115935,1,10,0:0:0:0:
339,67,116048,2,0,P|427:63|492:128,1,175.499991966248,2|2,0:0|0:0,0:0:0:0:
456,228,116389,1,12,0:0:0:0:
456,228,116503,2,0,L|264:268,1,175.499991966248,0|0,0:0|0:0,0:0:0:0:
188,224,116844,1,8,0:0:0:0:
296,356,117071,1,0,0:0:0:0:
424,136,117298,5,14,0:0:0:0:
256,192,128207,12,8,129798,0:0:0:0:
36,24,130025,5,8,0:0:0:0:
36,24,130139,2,0,L|52:180,1,135,0|0,0:0|0:0,0:0:0:0:
124,248,130480,2,0,L|148:156,1,67.5,2|0,0:0|0:0,0:0:0:0:
236,176,130707,1,2,0:0:0:0:
236,176,130821,2,0,L|260:84,1,67.5,2|0,0:0|0:0,0:0:0:0:
365,46,131048,1,2,0:0:0:0:
365,46,131162,2,0,L|347:111,1,67.5,2|0,0:0|0:0,0:0:0:0:
424,208,131389,1,2,0:0:0:0:
424,208,131503,2,0,L|448:116,1,67.5,2|0,0:0|0:0,0:0:0:0:
500,48,131730,1,2,0:0:0:0:
500,48,131844,6,0,P|436:64|336:16,1,135,12|0,0:0|0:0,0:0:0:0:
272,100,132185,1,0,0:0:0:0:
272,100,132299,2,0,P|206:112|108:60,1,135,8|0,0:0|0:0,0:0:0:0:
112,56,132639,1,2,0:0:0:0:
68,44,132753,1,2,0:0:0:0:
28,68,132866,1,2,0:0:0:0:
12,112,132980,1,10,0:0:0:0:
24,160,133094,1,2,0:0:0:0:
68,180,133207,2,0,B|192:160|192:160|80:128,1,202.5,10|0,0:0|0:0,0:0:0:0:
8,280,133662,6,0,L|100:264,1,67.5,10|2,0:0|0:0,0:0:0:0:
172,292,133889,2,0,L|264:276,1,67.5,2|2,0:0|0:0,0:0:0:0:
320,352,134116,1,10,0:0:0:0:
352,316,134230,1,2,0:0:0:0:
400,320,134344,1,2,0:0:0:0:
420,364,134457,1,10,0:0:0:0:
372,352,134571,2,0,L|340:248,1,67.5,2|2,0:0|0:0,0:0:0:0:
240,200,134798,2,0,L|264:300,1,67.5,10|2,0:0|0:0,0:0:0:0:
184,384,135025,2,0,L|152:280,2,67.5,10|2|0,0:0|0:0|0:0,0:0:0:0:
44,360,135480,6,0,P|83:304|40:176,1,202.5,12|0,0:0|0:0,0:0:0:0:
216,316,135935,2,0,P|264:324|316:296,1,90,10|0,0:0|0:0,0:0:0:0:
320,220,136162,2,0,L|276:180,2,45,2|0|0,0:0|0:0|0:0,0:0:0:0:
408,176,136389,1,2,0:0:0:0:
452,204,136503,1,2,0:0:0:0:
468,248,136616,1,2,0:0:0:0:
456,296,136730,1,2,0:0:0:0:
423,326,136844,2,0,P|347:338|284:280,1,135,12|0,0:0|0:0,0:0:0:0:
200,328,137185,6,0,P|156:332|100:312,1,67.5,2|8,0:0|0:0,0:0:0:0:
97,225,137412,5,2,0:0:0:0:
105,177,137525,1,2,0:0:0:0:
113,129,137639,1,2,0:0:0:0:
158,88,137753,5,10,0:0:0:0:
166,136,137867,1,2,0:0:0:0:
174,184,137980,1,2,0:0:0:0:
218,225,138094,5,10,0:0:0:0:
226,177,138207,1,2,0:0:0:0:
234,129,138321,1,2,0:0:0:0:
274,83,138435,5,10,0:0:0:0:
282,131,138549,1,2,0:0:0:0:
290,179,138662,1,2,0:0:0:0:
298,227,138775,1,2,0:0:0:0:
306,275,138889,2,0,L|339:192,1,67.5,0|8,0:0|0:0,0:0:0:0:
446,106,139116,6,0,P|354:138|265:63,1,202.5,4|0,0:0|0:0,0:0:0:0:
176,112,139571,2,0,L|184:52,4,45,10|0|0|2|0,0:0|0:0|0:0|0:0|0:0,0:0:0:0:
80,168,140025,2,0,L|16:156,2,45,2|0|0,0:0|0:0|0:0,0:0:0:0:
160,208,140253,2,0,L|224:196,2,45,10|0|0,0:0|0:0|0:0,0:0:0:0:
80,256,140480,2,0,L|64:308,4,45,10|0|0|2|0,0:0|0:0|0:0|0:0|0:0,0:0:0:0:
172,116,140935,6,0,L|160:56,1,33.75,10|0,0:0|0:0,0:0:0:0:
340,116,141162,2,0,L|352:56,1,33.75,2|0,0:0|0:0,0:0:0:0:
112,192,141389,2,0,L|52:192,1,33.75,10|0,0:0|0:0,0:0:0:0:
400,192,141616,2,0,L|464:192,1,33.75,2|0,0:0|0:0,0:0:0:0:
144,324,141844,2,0,L|160:272,1,33.75,2|0,0:0|0:0,0:0:0:0:
368,324,142071,2,0,L|348:264,1,33.75,10|0,0:0|0:0,0:0:0:0:
256,100,142298,2,0,L|256:148,1,33.75,10|0,0:0|0:0,0:0:0:0:
256,376,142525,2,0,L|256:336,1,33.75,2|0,0:0|0:0,0:0:0:0:
192,176,142753,6,0,P|256:159|340:187,1,135,12|0,0:0|0:0,0:0:0:0:
416,328,143207,2,0,L|340:340,1,67.5,10|0,0:0|0:0,0:0:0:0:
256,328,143435,1,2,0:0:0:0:
256,328,143548,2,0,B|232:276|252:240|252:240|288:240|320:264,2,135,2|2|0,0:0|0:0|0:0,0:0:0:0:
156,376,144116,2,0,P|160:328|136:280,1,67.5,10|2,0:0|0:0,0:0:0:0:
136,224,144344,2,0,P|132:176|156:128,1,67.5,2|2,0:0|0:0,0:0:0:0:
184,80,144571,5,10,0:0:0:0:
184,80,144685,1,2,0:0:0:0:
72,344,144912,1,2,0:0:0:0:
224,192,145139,1,2,0:0:0:0:
4,248,145366,1,6,0:0:0:0:
292,284,145594,1,6,0:0:0:0:
148,100,145821,1,6,0:0:0:0:
208,344,146048,2,0,P|192:268|248:192,1,135,4|0,0:0|0:0,0:0:0:0:
272,192,146389,5,10,0:0:0:0:
312,144,146503,1,2,0:0:0:0:
316,84,146616,1,2,0:0:0:0:
284,32,146730,1,2,0:0:0:0:
224,24,146844,2,0,P|176:28|120:60,1,87.749995983124,10|0,0:0|0:0,0:0:0:0:
80,120,147071,1,0,0:0:0:0:
80,120,147185,2,0,B|83:243|83:243|136:168,1,175.499991966248,10|0,0:0|0:0,0:0:0:0:
252,144,147525,2,0,L|200:224,1,87.749995983124,10|0,0:0|0:0,0:0:0:0:
152,296,147753,1,10,0:0:0:0:
0,141,147980,2,0,P|43:143|88:109,1,87.749995983124,2|0,0:0|0:0,0:0:0:0:
168,104,148207,5,10,0:0:0:0:
228,96,148321,1,2,0:0:0:0:
288,112,148435,1,2,0:0:0:0:
332,156,148548,1,2,0:0:0:0:
336,216,148662,2,0,L|152:284,1,175.499991966248,10|0,0:0|0:0,0:0:0:0:
256,340,149003,1,10,0:0:0:0:
256,340,149116,2,0,P|300:336|344:304,1,87.749995983124,0|0,0:0|0:0,0:0:0:0:
424,260,149344,2,0,P|424:156|360:116,1,175.499991966248,10|8,0:0|0:0,0:0:0:0:
288,120,149686,2,0,B|260:108|260:108|250:51,1,87.749995983124,10|0,0:0|0:0,0:0:0:0:
172,116,149913,1,2,0:0:0:0:
172,116,150025,6,0,L|181:206,1,87.749995983124,12|0,0:0|0:0,0:0:0:0:
235,273,150252,1,2,0:0:0:0:
235,273,150365,1,2,0:0:0:0:
271,190,150480,6,0,L|261:96,1,87.749995983124,8|0,0:0|0:0,0:0:0:0:
297,21,150707,1,2,0:0:0:0:
297,21,150820,1,10,0:0:0:0:
353,88,150934,6,0,L|362:181,1,87.749995983124,0|0,0:0|0:0,0:0:0:0:
327,260,151161,1,10,0:0:0:0:
327,260,151275,1,2,0:0:0:0:
271,190,151389,6,0,P|227:182|183:190,1,87.749995983124,8|0,0:0|0:0,0:0:0:0:
361,175,151616,2,0,P|405:183|449:175,1,87.749995983124,2|2,0:0|0:0,0:0:0:0:
488,248,151844,5,14,0:0:0:0:
484,308,151957,1,2,0:0:0:0:
448,356,152071,1,2,0:0:0:0:
392,376,152185,1,2,0:0:0:0:
332,372,152298,2,0,L|300:276,2,87.749995983124,10|2|0,0:0|0:0|0:0,0:0:0:0:
228,348,152639,1,12,0:0:0:0:
228,348,152753,2,0,L|188:220,1,87.749995983124,0|2,0:0|0:0,0:0:0:0:
92,204,152980,2,0,L|118:287,1,87.749995983124,8|2,0:0|0:0,0:0:0:0:
76,372,153207,1,8,0:0:0:0:
172,180,153435,1,6,0:0:0:0:
32,56,153662,5,14,0:0:0:0:
92,72,153775,1,2,0:0:0:0:
152,68,153889,1,2,0:0:0:0:
212,52,154003,1,2,0:0:0:0:
264,20,154116,2,0,P|328:72|324:180,1,175.499991966248,10|2,0:0|0:0,0:0:0:0:
240,208,154457,2,0,P|308:264|432:188,1,175.499991966248,10|0,0:0|0:0,0:0:0:0:
456,180,154798,2,0,L|424:84,1,87.749995983124,10|0,0:0|0:0,0:0:0:0:
368,44,155026,1,10,0:0:0:0:
312,64,155140,1,2,0:0:0:0:
252,72,155253,1,2,0:0:0:0:
196,48,155367,1,2,0:0:0:0:
140,20,155480,6,0,P|96:16|52:36,2,87.749995983124,14|2|2,0:0|0:0|0:0,0:0:0:0:
116,107,155821,1,2,0:0:0:0:
116,107,155935,2,0,L|92:199,1,87.749995983124,10|0,0:0|0:0,0:0:0:0:
104,288,156162,1,2,0:0:0:0:
104,288,156276,2,0,P|161:321|288:264,1,175.499991966248,10|0,0:0|0:0,0:0:0:0:
320,224,156616,2,0,P|389:175|473:193,1,175.499991966248,10|8,0:0|0:0,0:0:0:0:
504,104,156957,1,2,0:0:0:0:
504,104,157071,2,0,P|472:88|384:92,1,87.749995983124,2|2,0:0|0:0,0:0:0:0:
312,96,157298,6,0,L|192:144,1,87.749995983124,12|0,0:0|0:0,0:0:0:0:
189,206,157526,1,2,0:0:0:0:
189,206,157639,1,2,0:0:0:0:
276,207,157753,6,0,L|324:326,1,87.749995983124,8|0,0:0|0:0,0:0:0:0:
387,330,157981,1,2,0:0:0:0:
387,330,158094,1,10,0:0:0:0:
388,243,158207,6,0,L|507:194,1,87.749995983124,0|0,0:0|0:0,0:0:0:0:
511,132,158435,1,10,0:0:0:0:
511,132,158548,1,2,0:0:0:0:
424,131,158662,6,0,L|375:11,1,87.749995983124,8|0,0:0|0:0,0:0:0:0:
313,8,158890,1,2,0:0:0:0:
313,8,159003,1,2,0:0:0:0:
248,68,159116,6,0,L|116:76,2,87.749995983124,8|2|0,0:0|0:0|0:0,0:0:0:0:
312,148,159457,1,10,0:0:0:0:
312,148,159571,2,0,L|116:164,1,175.499991966248,4|0,0:0|0:0,0:0:0:0:
68,88,159912,2,0,P|36:144|116:268,1,175.499991966248,10|0,0:0|0:0,0:0:0:0:
152,272,160253,1,8,0:0:0:0:
400,196,160480,1,8,0:0:0:0:
140,160,160707,1,6,0:0:0:0:
292,33,160935,5,14,0:0:0:0:
288,93,161048,1,2,0:0:0:0:
281,154,161162,1,2,0:0:0:0:
277,214,161275,1,10,0:0:0:0:
272,276,161389,2,0,L|380:264,1,87.749995983124,10|0,0:0|0:0,0:0:0:0:
312,356,161616,1,0,0:0:0:0:
312,356,161730,2,0,P|228:364|180:280,1,175.499991966248,10|0,0:0|0:0,0:0:0:0:
76,200,162071,2,0,L|272:180,1,175.499991966248,2|2,0:0|0:0,0:0:0:0:
360,216,162412,1,2,0:0:0:0:
360,216,162525,2,0,P|369:170|344:120,1,87.749995983124,10|2,0:0|0:0,0:0:0:0:
288,48,162753,5,14,0:0:0:0:
229,31,162866,1,2,0:0:0:0:
167,31,162980,1,2,0:0:0:0:
111,58,163094,1,2,0:0:0:0:
73,105,163207,2,0,P|61:181|97:293,1,175.499991966248,10|2,0:0|0:0,0:0:0:0:
176,330,163548,2,0,P|192:278|156:206,1,87.749995983124,10|8,0:0|0:0,0:0:0:0:
171,151,163775,1,0,0:0:0:0:
171,151,163889,2,0,P|259:163|351:119,1,175.499991966248,2|0,0:0|0:0,0:0:0:0:
432,64,164230,1,2,0:0:0:0:
432,64,164344,2,0,P|424:104|452:172,1,87.749995983124,10|2,0:0|0:0,0:0:0:0:
488,260,164571,6,0,L|400:266,1,87.749995983124,14|2,0:0|0:0,0:0:0:0:
280,276,164798,2,0,L|367:269,1,87.749995983124,2|10,0:0|0:0,0:0:0:0:
376,164,165025,2,0,L|382:251,1,87.749995983124,10|2,0:0|0:0,0:0:0:0:
392,372,165252,2,0,L|385:284,1,87.749995983124,2|2,0:0|0:0,0:0:0:0:
364,132,165480,6,0,L|276:138,1,87.749995983124,10|2,0:0|0:0,0:0:0:0:
156,148,165707,2,0,L|243:141,1,87.749995983124,2|10,0:0|0:0,0:0:0:0:
252,36,165934,2,0,L|258:123,1,87.749995983124,2|0,0:0|0:0,0:0:0:0:
268,244,166161,2,0,L|261:156,1,87.749995983124,10|0,0:0|0:0,0:0:0:0:
144,36,166389,6,0,L|48:40,1,87.749995983124,10|2,0:0|0:0,0:0:0:0:
348,28,166616,2,0,L|435:24,1,87.749995983124,2|2,0:0|0:0,0:0:0:0:
500,120,166844,5,10,0:0:0:0:
456,196,166957,1,10,0:0:0:0:
368,216,167071,1,10,0:0:0:0:
280,200,167185,1,10,0:0:0:0:
240,124,167298,1,10,0:0:0:0:
252,36,167412,1,2,0:0:0:0:
22,206,167639,6,0,P|114:182|230:226,1,175.499991966248,6|0,0:0|0:0,0:0:0:0:
216,292,167980,2,0,L|340:272,1,87.749995983124,8|0,0:0|0:0,0:0:0:0:
392,348,168207,5,10,0:0:0:0:
444,312,168321,1,2,0:0:0:0:
464,256,168435,1,2,0:0:0:0:
456,196,168548,1,2,0:0:0:0:
416,148,168662,2,0,L|268:172,1,87.749995983124,10|0,0:0|0:0,0:0:0:0:
252,232,168889,1,0,0:0:0:0:
252,232,169003,2,0,P|216:152|276:64,1,175.499991966248,10|0,0:0|0:0,0:0:0:0:
346,76,169344,2,0,L|326:176,1,87.749995983124,10|0,0:0|0:0,0:0:0:0:
300,300,169571,1,10,0:0:0:0:
356,328,169685,1,2,0:0:0:0:
416,332,169798,1,2,0:0:0:0:
472,308,169912,1,2,0:0:0:0:
500,256,170025,6,0,L|516:160,1,87.749995983124,12|0,0:0|0:0,0:0:0:0:
464,52,170253,1,2,0:0:0:0:
400,108,170366,1,2,0:0:0:0:
328,160,170480,1,10,0:0:0:0:
260,216,170594,1,2,0:0:0:0:
192,272,170707,1,2,0:0:0:0:
172,176,170821,2,0,L|178:61,1,87.749995983124,12|0,0:0|0:0,0:0:0:0:
80,136,171048,1,0,0:0:0:0:
80,136,171162,2,0,P|24:144|72:80,1,175.499991966248,12|0,0:0|0:0,0:0:0:0:
176,88,171503,1,2,0:0:0:0:
176,88,171616,2,0,P|233:97|284:60,1,87.749995983124,10|2,0:0|0:0,0:0:0:0:
368,36,171844,6,0,P|432:48|488:120,1,87.749995983124,12|0,0:0|0:0,0:0:0:0:
480,144,172071,1,2,0:0:0:0:
480,144,172185,1,2,0:0:0:0:
484,232,172298,6,0,P|472:296|400:352,1,87.749995983124,8|0,0:0|0:0,0:0:0:0:
380,348,172525,1,2,0:0:0:0:
380,348,172639,1,10,0:0:0:0:
292,352,172752,6,0,P|228:340|172:268,1,87.749995983124,0|0,0:0|0:0,0:0:0:0:
140,272,172980,1,10,0:0:0:0:
140,272,173094,1,2,0:0:0:0:
136,184,173207,6,0,P|148:120|220:64,1,87.749995983124,8|0,0:0|0:0,0:0:0:0:
248,52,173435,1,2,0:0:0:0:
248,52,173548,1,2,0:0:0:0:
332,84,173662,6,0,L|488:52,1,87.749995983124,14|2,0:0|0:0,0:0:0:0:
484,152,173889,2,0,L|398:169,1,87.749995983124,2|2,0:0|0:0,0:0:0:0:
280,176,174116,1,10,0:0:0:0:
280,176,174230,2,0,P|275:218|297:255,1,87.749995983124,10|0,0:0|0:0,0:0:0:0:
220,360,174457,1,6,0:0:0:0:
71,223,175025,6,0,P|112:204|68:244,1,162,2|0,0:0|0:0,0:0:0:0:
71,223,175480,5,8,0:0:0:0:
71,223,175707,1,0,0:0:0:0:
71,223,175934,2,0,L|219:187,1,135,8|0,0:0|0:0,0:0:0:0:
274,118,176275,2,0,P|301:178|288:244,1,135,8|0,0:0|0:0,0:0:0:0:
200,288,176616,1,8,0:0:0:0:
88,128,176843,1,10,0:0:0:0:
88,128,176957,1,2,0:0:0:0:
28,204,177071,2,0,L|48:284,1,67.5,2|0,0:0|0:0,0:0:0:0:
0,360,177298,6,0,P|56:372|136:308,1,135,10|0,0:0|0:0,0:0:0:0:
156,236,177752,1,10,0:0:0:0:
236,356,177980,1,0,0:0:0:0:
236,356,178093,1,8,0:0:0:0:
236,356,178207,2,0,L|248:208,2,135,2|10|10,0:0|0:0|0:0,0:0:0:0:
336,328,178889,2,0,L|340:224,1,67.5,0|0,0:0|0:0,0:0:0:0:
336,168,179116,5,10,0:0:0:0:
136,276,179343,1,0,0:0:0:0:
208,128,179571,1,10,0:0:0:0:
216,344,179798,1,0,0:0:0:0:
216,344,179911,2,0,P|236:268|192:176,1,135,10|0,0:0|0:0,0:0:0:0:
136,180,180252,2,0,L|56:184,1,67.5,10|0,0:0|0:0,0:0:0:0:
0,87,180480,2,0,L|134:80,1,135,10|2,0:0|0:0,0:0:0:0:
232,144,180935,5,10,0:0:0:0:
304,28,181162,1,0,0:0:0:0:
468,168,181390,1,10,0:0:0:0:
348,128,181617,1,0,0:0:0:0:
332,300,181844,2,0,L|408:288,1,67.5,2|0,0:0|0:0,0:0:0:0:
242,349,182072,2,0,L|176:360,1,67.5,10|0,0:0|0:0,0:0:0:0:
56,284,182299,2,0,L|44:380,1,67.5,10|0,0:0|0:0,0:0:0:0:
144,224,182525,2,0,L|152:157,1,67.5,10|0,0:0|0:0,0:0:0:0:
236,72,182753,6,0,P|296:52|368:80,1,135,10|0,0:0|0:0,0:0:0:0:
361,74,183208,1,8,0:0:0:0:
492,16,183435,1,0,0:0:0:0:
492,16,183549,2,0,P|521:75|512:141,1,135,10|0,0:0|0:0,0:0:0:0:
500,264,183890,2,0,B|436:212,1,67.5,10|0,0:0|0:0,0:0:0:0:
384,152,184117,1,10,0:0:0:0:
384,152,184231,1,0,0:0:0:0:
300,200,184344,2,0,L|376:256,1,67.5,2|0,0:0|0:0,0:0:0:0:
384,340,184572,6,0,P|317:337|264:297,1,135,10|0,0:0|0:0,0:0:0:0:
264,297,185026,1,8,0:0:0:0:
136,332,185253,1,2,0:0:0:0:
124,336,185367,1,10,0:0:0:0:
112,340,185481,2,0,L|128:224,1,67.5,2|0,0:0|0:0,0:0:0:0:
264,208,185707,2,0,L|248:140,1,67.5,10|0,0:0|0:0,0:0:0:0:
123,140,185935,1,10,0:0:0:0:
111,144,186049,1,2,0:0:0:0:
99,148,186163,2,0,P|97:60|115:32,1,67.5,2|0,0:0|0:0,0:0:0:0:
188,60,186390,6,0,P|252:40|328:84,1,135,10|0,0:0|0:0,0:0:0:0:
248,146,186730,1,2,0:0:0:0:
248,146,186844,2,0,P|184:166|108:122,1,135,10|2,0:0|0:0,0:0:0:0:
36,72,187185,1,10,0:0:0:0:
36,72,187299,2,0,L|28:152,1,67.5,2|0,0:0|0:0,0:0:0:0:
80,216,187526,2,0,L|70:282,1,67.5,10|0,0:0|0:0,0:0:0:0:
152,384,187753,2,0,L|160:304,1,67.5,10|0,0:0|0:0,0:0:0:0:
244,284,187980,2,0,L|253:217,1,67.5,10|0,0:0|0:0,0:0:0:0:
320,132,188207,6,0,P|395:122|316:160,1,202.5,10|8,0:0|0:0,0:0:0:0:
248,212,188662,2,0,P|216:148|248:64,1,135,8|0,0:0|0:0,0:0:0:0:
308,32,189003,1,0,0:0:0:0:
308,32,189116,1,8,0:0:0:0:
124,128,189344,1,2,0:0:0:0:
378,220,189571,1,2,0:0:0:0:
378,220,189685,2,0,P|299:201|222:224,1,135,6|0,0:0|0:0,0:0:0:0:
160,272,190025,5,10,0:0:0:0:
160,272,190139,2,0,L|168:136,1,135,0|2,0:0|0:0,0:0:0:0:
92,96,190480,2,0,P|85:32|124:84,1,135,2|2,0:0|0:0,0:0:0:0:
216,64,190821,1,2,0:0:0:0:
216,64,190934,2,0,P|280:88|352:44,1,135,10|2,0:0|0:0,0:0:0:0:
440,12,191275,1,2,0:0:0:0:
440,12,191389,2,0,L|432:88,1,67.5,2|0,0:0|0:0,0:0:0:0:
330,129,191616,2,0,L|337:61,1,67.5,2|0,0:0|0:0,0:0:0:0:
412,172,191843,5,8,0:0:0:0:
412,172,191957,2,0,P|358:211|292:207,1,135,2|2,0:0|0:0,0:0:0:0:
240,132,192298,2,0,P|200:208|220:260,1,135,2|2,0:0|0:0,0:0:0:0:
120,312,192639,1,2,0:0:0:0:
120,312,192752,2,0,L|104:172,1,135,10|2,0:0|0:0,0:0:0:0:
8,124,193093,1,2,0:0:0:0:
8,124,193207,2,0,L|16:236,1,67.5,2|0,0:0|0:0,0:0:0:0:
156,248,193435,2,0,L|151:180,1,67.5,2|2,0:0|0:0,0:0:0:0:
232,84,193661,5,8,0:0:0:0:
232,84,193775,2,0,P|290:78|371:134,1,135,0|2,0:0|0:0,0:0:0:0:
400,212,194116,2,0,P|418:267|359:272,1,135,2|2,0:0|0:0,0:0:0:0:
281,226,194456,1,2,0:0:0:0:
281,226,194570,2,0,L|365:98,1,135,10|2,0:0|0:0,0:0:0:0:
472,112,194911,1,2,0:0:0:0:
472,112,195025,2,0,L|436:176,1,67.5,2|0,0:0|0:0,0:0:0:0:
460,264,195253,1,10,0:0:0:0:
460,264,195366,1,14,0:0:0:0:
