osu file format v14

[General]
AudioFilename: audio.mp3
AudioLeadIn: 0
PreviewTime: 37071
Countdown: 0
SampleSet: Soft
StackLeniency: 0.2
Mode: 0
LetterboxInBreaks: 0
WidescreenStoryboard: 0

[Editor]
Bookmarks: 8207,37298,66389,73662,88207,102753,117298,128207,146389,190025
DistanceSpacing: 0.9
BeatDivisor: 4
GridSize: 4
TimelineZoom: 2

[Metadata]
Title:anoko dokonoko
TitleUnicode:あのこどこのこ
Artist:Nanahoshi Kangengakudan
ArtistUnicode:ナナホシ管弦楽団
Creator:kwk
Version:Extra
Source:
Tags:FujunIseiKouyuuP hujuniseikouyuup 不純異性交遊p Vocaloid Megpoid Gumi rizen Iwami Takashi 岩見陸 where's that girl from
BeatmapID:1387233
BeatmapSetID:654452

[Difficulty]
HPDrainRate:6
CircleSize:3
OverallDifficulty:8
ApproachRate:9.2
SliderMultiplier:3.3
SliderTickRate:1

[Events]
//Background and Video events
0,0,"63779250.png",0,0
//Break Periods
2,117498,127637
//Storyboard Layer 0 (Background)
//Storyboard Layer 1 (Fail)
//Storyboard Layer 2 (Pass)
//Storyboard Layer 3 (Foreground)
//Storyboard Sound Samples

[TimingPoints]
935,454.545454545455,4,2,1,60,1,0
8207,-125,4,2,1,60,0,0
21844,-100,4,2,1,60,0,0
27185,-76.9230769230769,4,2,1,80,0,0
27525,-62.5,4,2,1,80,0,0
28207,-100,4,2,1,60,0,0
29003,-76.9230769230769,4,2,1,80,0,0
29344,-62.5,4,2,1,80,0,0
30025,-100,4,2,1,60,0,0
36275,-76.9230769230769,4,2,1,80,0,0
37298,-76.9230769230769,4,2,1,80,0,1
44116,-62.5,4,2,1,80,0,1
44571,-76.9230769230769,4,2,1,80,0,1
51389,-62.5,4,2,1,80,0,1
51844,-100,4,2,1,60,0,0
73662,-125,4,2,1,60,0,0
87753,-166.666666666667,4,2,1,60,0,0
88207,-100,4,2,1,60,0,0
92639,-76.9230769230769,4,2,1,80,0,0
92980,-62.5,4,2,1,80,0,0
93662,-100,4,2,1,60,0,0
94457,-76.9230769230769,4,2,1,80,0,0
94798,-62.5,4,2,1,80,0,0
95480,-100,4,2,1,60,0,0
101389,-142.857142857143,4,2,1,60,0,0
102753,-76.9230769230769,4,2,1,80,0,1
109571,-62.5,4,2,1,80,0,1
110025,-76.9230769230769,4,2,1,80,0,1
116844,-62.5,4,2,1,80,0,1
117298,-100,4,2,1,60,0,0
130025,-100,4,2,1,65,0,0
146389,-76.9230769230769,4,2,1,80,0,1
153207,-62.5,4,2,1,80,0,1
153662,-76.9230769230769,4,2,1,80,0,1
160480,-62.5,4,2,1,80,0,1
160935,-76.9230769230769,4,2,1,80,0,1
175480,-100,4,2,1,60,0,0

[Colours]
Combo1 : 255,255,166
Combo2 : 255,128,128
Combo3 : 0,255,255
Combo4 : 0,255,128

[HitObjects]
112,312,935,5,4,0:0:0:0:
112,312,1048,2,0,L|100:228,1,82.5,2|0,0:0|0:0,0:0:0:0:
24,132,1275,1,0,0:0:0:0:
24,132,1389,2,0,P|77:147|128:128,1,82.5,2|0,0:0|0:0,0:0:0:0:
304,56,1616,1,2,0:0:0:0:
256,40,1730,1,2,0:0:0:0:
212,64,1844,6,0,L|236:196,1,82.5,10|0,0:0|0:0,0:0:0:0:
112,332,2071,1,2,0:0:0:0:
74,298,2185,1,2,0:0:0:0:
72,248,2299,2,0,L|198:202,1,82.5,2|0,0:0|0:0,0:0:0:0:
405,238,2525,2,0,P|332:272|253:253,1,165,2|8,0:0|0:0,0:0:0:0:
320,148,2866,6,0,L|464:132,1,82.5,2|0,0:0|0:0,0:0:0:0:
254,254,3094,1,2,0:0:0:0:
254,254,3207,2,0,L|172:263,1,82.5,2|0,0:0|0:0,0:0:0:0:
68,120,3435,1,2,0:0:0:0:
96,80,3548,1,2,0:0:0:0:
144,68,3662,6,0,P|180:96|204:176,1,82.5,10|0,0:0|0:0,0:0:0:0:
236,340,3889,1,2,0:0:0:0:
192,359,4002,1,2,0:0:0:0:
148,339,4116,2,0,P|154:293|211:233,1,82.5,2|0,0:0|0:0,0:0:0:0:
368,144,4344,2,0,P|292:172|204:148,1,165,2|8,0:0|0:0,0:0:0:0:
324,268,4685,6,0,P|372:256|432:272,1,82.5,2|0,0:0|0:0,0:0:0:0:
228,331,4912,1,2,0:0:0:0:
228,331,5025,2,0,P|180:343|120:327,1,82.5,2|0,0:0|0:0,0:0:0:0:
32,216,5253,1,2,0:0:0:0:
76,240,5366,1,2,0:0:0:0:
123,227,5480,6,0,L|139:95,1,82.5,10|0,0:0|0:0,0:0:0:0:
260,56,5707,1,2,0:0:0:0:
304,32,5820,1,2,0:0:0:0:
352,44,5934,2,0,L|368:176,1,82.5,2|0,0:0|0:0,0:0:0:0:
472,348,6162,2,0,L|492:260,1,82.5,2|8,0:0|0:0,0:0:0:0:
472,140,6389,5,8,0:0:0:0:
472,140,6503,1,0,0:0:0:0:
312,288,6730,5,2,0:0:0:0:
228,256,6844,1,2,0:0:0:0:
140,272,6957,1,2,0:0:0:0:
68,328,7071,5,2,0:0:0:0:
116,316,7185,1,2,0:0:0:0:
140,272,7298,1,2,0:0:0:0:
120,228,7412,5,2,0:0:0:0:
116,316,7525,1,2,0:0:0:0:
196,356,7639,1,2,0:0:0:0:
276,316,7753,1,2,0:0:0:0:
372,312,7866,2,0,B|424:312|452:347|452:347|496:320|500:264,1,165,2|0,0:0|0:0,0:0:0:0:
496,192,8207,6,0,P|498:159|487:128,1,66,6|0,0:0|0:0,0:0:0:0:
376,188,8435,1,0,0:0:0:0:
328,208,8548,1,0,0:0:0:0:
276,204,8662,1,10,0:0:0:0:
240,168,8775,1,0,0:0:0:0:
244,116,8889,2,0,L|264:32,1,66,2|8,0:0|0:0,0:0:0:0:
376,188,9116,6,0,L|356:268,1,66,2|0,0:0|0:0,0:0:0:0:
212,208,9344,1,8,0:0:0:0:
212,208,9457,1,0,0:0:0:0:
212,208,9571,2,0,P|259:198|300:222,1,66,10|0,0:0|0:0,0:0:0:0:
392,336,9798,2,0,P|344:345|303:321,1,66,2|0,0:0|0:0,0:0:0:0:
108,368,10025,5,10,0:0:0:0:
96,280,10139,2,0,L|176:300,1,66,2|0,0:0|0:0,0:0:0:0:
380,228,10366,1,2,0:0:0:0:
296,264,10480,2,0,P|243:325|269:400,1,132,10|0,0:0|0:0,0:0:0:0:
391,320,10821,1,8,0:0:0:0:
391,320,10935,6,0,L|307:348,1,66,2|0,0:0|0:0,0:0:0:0:
160,332,11162,2,0,L|95:346,1,66,2|0,0:0|0:0,0:0:0:0:
216,216,11389,1,8,0:0:0:0:
216,216,11503,1,0,0:0:0:0:
216,216,11616,2,0,L|225:150,1,66,2|0,0:0|0:0,0:0:0:0:
448,196,11844,6,0,P|368:216|328:144,1,132,10|0,0:0|0:0,0:0:0:0:
452,104,12185,1,2,0:0:0:0:
452,104,12298,2,0,P|492:116|528:148,1,66,8|0,0:0|0:0,0:0:0:0:
349,311,12525,6,0,B|321:247|321:247|341:163,1,132,8|0,0:0|0:0,0:0:0:0:
232,140,12866,1,8,0:0:0:0:
232,140,12980,2,0,L|212:72,1,66,0|0,0:0|0:0,0:0:0:0:
175,271,13207,2,0,P|235:291|327:227,1,132,8|2,0:0|0:0,0:0:0:0:
416,176,13548,1,0,0:0:0:0:
460,196,13662,6,0,P|480:228|472:300,1,66,10|0,0:0|0:0,0:0:0:0:
322,328,13889,2,0,P|302:296|310:224,1,66,2|0,0:0|0:0,0:0:0:0:
216,356,14116,2,0,L|148:360,1,66,10|0,0:0|0:0,0:0:0:0:
388,268,14344,1,2,0:0:0:0:
388,268,14457,6,0,P|411:222|328:144,1,132,10|0,0:0|0:0,0:0:0:0:
72,172,14798,2,0,P|120:173|164:136,1,66,8|0,0:0|0:0,0:0:0:0:
212,236,15025,2,0,P|236:194|226:138,1,66,8|0,0:0|0:0,0:0:0:0:
244,24,15253,2,0,P|250:56|270:82,1,66,8|0,0:0|0:0,0:0:0:0:
360,156,15480,6,0,P|397:171|432:172,1,66,8|0,0:0|0:0,0:0:0:0:
352,268,15707,2,0,L|248:300,1,66,2|0,0:0|0:0,0:0:0:0:
96,184,15935,1,10,0:0:0:0:
136,156,16048,1,2,0:0:0:0:
184,160,16162,2,0,P|204:192|204:264,1,66,2|8,0:0|0:0,0:0:0:0:
68,356,16389,5,2,0:0:0:0:
144,308,16503,1,10,0:0:0:0:
232,328,16616,1,10,0:0:0:0:
312,288,16730,1,2,0:0:0:0:
396,320,16844,2,0,P|400:268|356:216,1,66,10|0,0:0|0:0,0:0:0:0:
320,136,17071,2,0,P|316:188|360:240,1,66,2|0,0:0|0:0,0:0:0:0:
448,68,17298,6,0,L|380:0,1,66,10|0,0:0|0:0,0:0:0:0:
184,32,17525,2,0,L|240:88,1,66,2|0,0:0|0:0,0:0:0:0:
156,272,17753,1,10,0:0:0:0:
156,272,17866,2,0,L|177:196,1,66,2|0,0:0|0:0,0:0:0:0:
383,176,18094,6,0,L|295:204,1,66,8|0,0:0|0:0,0:0:0:0:
292,352,18321,2,0,L|376:324,1,66,2|8,0:0|0:0,0:0:0:0:
472,212,18548,1,2,0:0:0:0:
472,212,18662,2,0,P|467:146|440:100,1,66,10|0,0:0|0:0,0:0:0:0:
352,32,18889,2,0,P|303:28|256:56,1,66,2|0,0:0|0:0,0:0:0:0:
44,96,19116,6,0,L|187:79,1,132,10|0,0:0|0:0,0:0:0:0:
320,152,19457,2,0,L|192:140,1,66,2|8,0:0|0:0,0:0:0:0:
96,188,19685,1,0,0:0:0:0:
96,188,19798,2,0,L|211:167,1,66,2|8,0:0|0:0,0:0:0:0:
308,252,20025,5,0,0:0:0:0:
308,252,20139,2,0,B|234:245|234:245,1,66,10|0,0:0|0:0,0:0:0:0:
128,336,20366,1,0,0:0:0:0:
128,336,20480,2,0,L|156:252,1,66,8|0,0:0|0:0,0:0:0:0:
320,156,20707,2,0,L|340:76,1,66,2|0,0:0|0:0,0:0:0:0:
156,16,20935,5,6,0:0:0:0:
32,96,21389,1,2,0:0:0:0:
104,304,21844,6,0,P|128:204|96:144,1,165,2|0,0:0|0:0,0:0:0:0:
32,96,22185,1,2,0:0:0:0:
64,180,22298,1,10,0:0:0:0:
152,208,22412,1,2,0:0:0:0:
240,192,22525,2,0,P|274:162|300:104,1,82.5,2|0,0:0|0:0,0:0:0:0:
432,292,22753,6,0,P|312:264|276:284,1,165,12|0,0:0|0:0,0:0:0:0:
204,336,23094,1,0,0:0:0:0:
100,244,23207,2,0,P|92:192|112:140,1,82.5,10|0,0:0|0:0,0:0:0:0:
276,96,23435,1,0,0:0:0:0:
276,96,23548,1,8,0:0:0:0:
272,188,23662,6,0,L|192:209,1,82.5,2|0,0:0|0:0,0:0:0:0:
51,150,23889,2,0,L|130:128,1,82.5,2|0,0:0|0:0,0:0:0:0:
111,275,24116,2,0,P|95:175|151:115,1,165,8|0,0:0|0:0,0:0:0:0:
264,8,24457,1,0,0:0:0:0:
264,8,24571,6,0,L|284:96,1,82.5,8|0,0:0|0:0,0:0:0:0:
218,292,24798,2,0,L|200:212,1,82.5,2|0,0:0|0:0,0:0:0:0:
64,48,25025,2,0,L|84:136,1,82.5,10|0,0:0|0:0,0:0:0:0:
18,332,25253,2,0,L|0:251,1,82.5,2|8,0:0|0:0,0:0:0:0:
64,48,25480,6,0,L|82:128,1,82.5,2|0,0:0|0:0,0:0:0:0:
218,292,25707,2,0,L|200:212,1,82.5,10|0,0:0|0:0,0:0:0:0:
264,8,25935,2,0,P|400:60|436:36,1,165,10|0,0:0|0:0,0:0:0:0:
33,88,26389,5,14,0:0:0:0:
125,85,26503,1,2,0:0:0:0:
203,127,26616,1,2,0:0:0:0:
238,212,26730,1,10,0:0:0:0:
108,196,26844,6,0,P|96:124|136:28,1,165,10|0,0:0|0:0,0:0:0:0:
308,112,27185,6,0,P|204:124|244:84,1,214.49999018097,12|0,0:0|0:0,0:0:0:0:
203,127,27525,6,0,P|264:208|240:292,1,132,2|0,0:0|0:0,0:0:0:0:
196,304,27753,6,0,P|264:212|308:328,1,264,14|0,0:0|0:0,0:0:0:0:
200,100,28207,5,6,0:0:0:0:
192,192,28321,1,2,0:0:0:0:
116,242,28435,1,2,0:0:0:0:
24,238,28549,1,10,0:0:0:0:
172,150,28662,6,0,P|208:226|192:310,1,165,10|0,0:0|0:0,0:0:0:0:
0,284,29003,6,0,P|116:240|108:288,1,214.49999018097,12|0,0:0|0:0,0:0:0:0:
116,241,29344,6,0,P|134:301|196:303,1,132,2|0,0:0|0:0,0:0:0:0:
244,224,29571,6,0,P|116:264|140:380,1,264,14|0,0:0|0:0,0:0:0:0:
196,303,29912,1,0,0:0:0:0:
224,384,30025,6,0,L|412:344,1,165,8|2,0:0|0:0,0:0:0:0:
464,168,30366,1,0,0:0:0:0:
464,168,30480,2,0,P|376:180|384:284,1,165,10|2,0:0|0:0,0:0:0:0:
224,384,30821,1,8,0:0:0:0:
224,384,30935,6,0,P|228:323|200:248,1,82.5,2|0,0:0|0:0,0:0:0:0:
61,176,31162,2,0,P|56:216|61:257,1,82.5,10|0,0:0|0:0,0:0:0:0:
305,235,31389,2,0,P|250:198|142:233,1,165,10|2,0:0|0:0,0:0:0:0:
313,359,31730,1,0,0:0:0:0:
313,359,31844,6,0,L|433:367,1,82.5,14|0,0:0|0:0,0:0:0:0:
224,302,32071,2,0,L|122:323,1,82.5,2|0,0:0|0:0,0:0:0:0:
396,263,32298,2,0,P|402:222|393:182,1,82.5,10|0,0:0|0:0,0:0:0:0:
263,45,32525,2,0,P|249:83|254:124,1,82.5,2|8,0:0|0:0,0:0:0:0:
429,81,32753,6,0,P|389:75|348:90,1,82.5,2|0,0:0|0:0,0:0:0:0:
299,225,32980,2,0,P|258:231|218:222,1,82.5,10|0,0:0|0:0,0:0:0:0:
19,138,33207,2,0,P|123:142|214:117,1,165,14|2,0:0|0:0,0:0:0:0:
280,88,33548,1,0,0:0:0:0:
406,157,33662,6,0,P|418:185|402:257,1,82.5,14|0,0:0|0:0,0:0:0:0:
404,368,33889,2,0,P|422:343|492:321,1,82.5,10|0,0:0|0:0,0:0:0:0:
332,296,34116,2,0,L|228:288,1,82.5,8|0,0:0|0:0,0:0:0:0:
64,340,34344,1,2,0:0:0:0:
160,368,34457,6,0,P|164:328|112:256,1,82.5,10|0,0:0|0:0,0:0:0:0:
40,207,34685,2,0,L|180:179,1,82.5,10|0,0:0|0:0,0:0:0:0:
176,108,34912,1,2,0:0:0:0:
151,21,35025,1,10,0:0:0:0:
138,112,35139,1,2,0:0:0:0:
216,163,35253,1,2,0:0:0:0:
304,152,35366,1,2,0:0:0:0:
364,83,35480,5,2,0:0:0:0:
364,60,35594,1,0,0:0:0:0:
344,48,35707,1,0,0:0:0:0:
320,52,35821,1,0,0:0:0:0:
264,124,35935,1,2,0:0:0:0:
316,200,36048,1,2,0:0:0:0:
272,280,36162,1,2,0:0:0:0:
304,364,36275,6,0,L|432:348,1,107.249995090485,12|0,0:0|0:0,0:0:0:0:
104,240,36503,2,0,L|-12:224,1,107.249995090485,8|0,0:0|0:0,0:0:0:0:
264,124,36730,2,0,B|348:88|348:88|308:136,1,107.249995090485,8|0,0:0|0:0,0:0:0:0:
191,292,37071,1,0,0:0:0:0:
191,292,37298,5,6,0:0:0:0:
260,224,37412,1,2,0:0:0:0:
352,212,37525,1,2,0:0:0:0:
444,256,37639,1,2,0:0:0:0:
428,352,37753,2,0,P|416:260|512:192,1,214.49999018097,8|0,0:0|0:0,0:0:0:0:
296,300,38094,6,0,P|236:320|176:308,1,107.249995090485,10|0,0:0|0:0,0:0:0:0:
104,356,38321,1,0,0:0:0:0:
32,288,38435,2,0,L|60:180,1,107.249995090485,10|0,0:0|0:0,0:0:0:0:
244,116,38662,1,10,0:0:0:0:
192,132,38775,1,2,0:0:0:0:
140,120,38889,1,2,0:0:0:0:
112,76,39003,1,2,0:0:0:0:
200,36,39116,5,14,0:0:0:0:
192,132,39230,1,2,0:0:0:0:
104,176,39344,1,2,0:0:0:0:
24,120,39457,1,2,0:0:0:0:
12,216,39571,2,0,P|28:276|24:340,1,107.249995090485,10|0,0:0|0:0,0:0:0:0:
112,368,39798,1,0,0:0:0:0:
200,328,39912,6,0,P|252:320|303:336,1,107.249995090485,10|0,0:0|0:0,0:0:0:0:
496,244,40139,1,0,0:0:0:0:
468,328,40253,2,0,B|389:352|389:352|409:314,1,107.249995090485,10|0,0:0|0:0,0:0:0:0:
384,236,40480,1,10,0:0:0:0:
312,172,40594,1,2,0:0:0:0:
220,152,40707,1,2,0:0:0:0:
121,167,40821,1,2,0:0:0:0:
212,212,40935,6,0,L|256:104,1,107.249995090485,14|0,0:0|0:0,0:0:0:0:
128,268,41162,1,2,0:0:0:0:
40,228,41275,1,2,0:0:0:0:
212,212,41389,6,0,L|327:196,1,107.249995090485,8|0,0:0|0:0,0:0:0:0:
121,167,41616,1,2,0:0:0:0:
112,71,41729,1,10,0:0:0:0:
212,212,41844,6,0,L|283:304,1,107.249995090485,0|0,0:0|0:0,0:0:0:0:
205,110,42071,1,10,0:0:0:0:
284,54,42184,1,2,0:0:0:0:
212,212,42298,6,0,L|168:320,1,107.249995090485,8|0,0:0|0:0,0:0:0:0:
296,154,42525,1,2,0:0:0:0:
384,195,42638,1,2,0:0:0:0:
212,212,42753,5,14,0:0:0:0:
119,238,42866,1,2,0:0:0:0:
44,180,42980,1,2,0:0:0:0:
44,84,43094,1,2,0:0:0:0:
124,28,43207,5,8,0:0:0:0:
124,28,43321,2,0,B|181:14|181:14|254:41,1,107.249995090485,2|0,0:0|0:0,0:0:0:0:
424,88,43548,1,12,0:0:0:0:
416,184,43662,1,2,0:0:0:0:
328,228,43775,2,0,B|270:242|270:242|226:226,1,107.249995090485,2|8,0:0|0:0,0:0:0:0:
424,288,44003,1,2,0:0:0:0:
424,288,44116,6,0,B|512:256|512:256|464:248,1,132,8|0,0:0|0:0,0:0:0:0:
120,168,44344,2,0,B|32:200|32:200|80:208,1,132,4|0,0:0|0:0,0:0:0:0:
224,224,44571,5,12,0:0:0:0:
264,136,44685,1,0,0:0:0:0:
224,48,44798,1,0,0:0:0:0:
128,24,44912,1,0,0:0:0:0:
200,88,45025,2,0,P|256:112|348:72,1,107.249995090485,10|0,0:0|0:0,0:0:0:0:
396,80,45253,1,0,0:0:0:0:
468,140,45366,6,0,P|492:196|452:288,1,107.249995090485,10|0,0:0|0:0,0:0:0:0:
296,368,45594,1,0,0:0:0:0:
380,320,45707,2,0,L|396:172,1,107.249995090485,10|0,0:0|0:0,0:0:0:0:
344,128,45935,1,10,0:0:0:0:
256,92,46048,1,2,0:0:0:0:
160,100,46162,1,2,0:0:0:0:
80,156,46275,1,2,0:0:0:0:
84,252,46389,6,0,P|137:252|192:224,1,107.249995090485,10|0,0:0|0:0,0:0:0:0:
228,316,46616,1,2,0:0:0:0:
324,312,46730,1,2,0:0:0:0:
368,224,46844,1,10,0:0:0:0:
328,136,46957,1,2,0:0:0:0:
308,232,47071,1,2,0:0:0:0:
392,284,47185,6,0,P|456:280|496:148,1,214.49999018097,10|0,0:0|0:0,0:0:0:0:
436,32,47525,2,0,P|410:78|413:131,1,107.249995090485,10|0,0:0|0:0,0:0:0:0:
324,92,47753,1,8,0:0:0:0:
236,56,47866,1,2,0:0:0:0:
152,108,47980,1,2,0:0:0:0:
64,64,48094,1,2,0:0:0:0:
20,160,48207,6,0,L|40:265,1,107.249995090485,8|0,0:0|0:0,0:0:0:0:
108,108,48435,1,2,0:0:0:0:
132,12,48548,1,2,0:0:0:0:
124,200,48662,6,0,L|144:305,1,107.249995090485,8|0,0:0|0:0,0:0:0:0:
212,148,48890,1,2,0:0:0:0:
236,52,49003,1,10,0:0:0:0:
228,240,49116,6,0,L|248:345,1,107.249995090485,8|0,0:0|0:0,0:0:0:0:
316,188,49344,1,10,0:0:0:0:
340,92,49457,1,2,0:0:0:0:
332,276,49571,6,0,L|352:381,1,107.249995090485,8|0,0:0|0:0,0:0:0:0:
420,224,49799,1,2,0:0:0:0:
444,128,49912,1,2,0:0:0:0:
332,276,50025,6,0,P|268:288|220:256,1,107.249995090485,12|0,0:0|0:0,0:0:0:0:
136,312,50253,2,0,P|124:248|156:200,1,107.249995090485,2|8,0:0|0:0,0:0:0:0:
252,40,50480,1,14,0:0:0:0:
348,32,50594,2,0,P|408:60|428:148,1,107.249995090485,0|0,0:0|0:0,0:0:0:0:
228,252,50821,1,10,0:0:0:0:
248,156,50935,6,0,P|308:124|368:140,1,107.249995090485,12|0,0:0|0:0,0:0:0:0:
228,252,51162,2,0,L|121:263,1,107.249995090485,0|0,0:0|0:0,0:0:0:0:
127,48,51389,6,0,P|155:92|135:172,1,132,14|0,0:0|0:0,0:0:0:0:
344,348,51616,2,0,P|316:304|336:224,1,132,14|0,0:0|0:0,0:0:0:0:
456,48,51844,5,4,0:0:0:0:
288,112,52071,1,2,0:0:0:0:
128,48,52298,1,10,0:0:0:0:
160,224,52525,5,2,0:0:0:0:
160,224,52639,2,0,P|176:160|168:108,1,82.5,8|0,0:0|0:0,0:0:0:0:
48,32,52866,1,0,0:0:0:0:
48,32,52980,2,0,P|112:48|164:40,1,82.5,8|0,0:0|0:0,0:0:0:0:
280,24,53207,1,2,0:0:0:0:
260,68,53321,1,2,0:0:0:0:
296,100,53435,2,0,L|384:92,1,82.5,2|0,0:0|0:0,0:0:0:0:
505,164,53662,6,0,P|429:179|420:256,1,165,10|0,0:0|0:0,0:0:0:0:
328,344,54003,1,0,0:0:0:0:
328,344,54116,2,0,L|206:357,1,82.5,10|0,0:0|0:0,0:0:0:0:
72,300,54344,1,0,0:0:0:0:
72,300,54457,1,8,0:0:0:0:
72,300,54571,6,0,P|116:304|176:268,1,82.5,2|0,0:0|0:0,0:0:0:0:
245,338,54798,2,0,P|270:301|269:231,1,82.5,10|0,0:0|0:0,0:0:0:0:
364,208,55025,2,0,P|345:167|284:133,1,82.5,10|0,0:0|0:0,0:0:0:0:
284,28,55253,2,0,P|246:44|219:75,1,82.5,2|0,0:0|0:0,0:0:0:0:
176,248,55480,6,0,L|196:136,1,82.5,10|0,0:0|0:0,0:0:0:0:
84,16,55707,1,2,0:0:0:0:
84,16,55821,1,0,0:0:0:0:
84,16,55935,2,0,L|98:97,1,82.5,10|0,0:0|0:0,0:0:0:0:
176,248,56162,1,0,0:0:0:0:
268,208,56275,6,0,B|392:196|392:196|324:236,1,165,10|0,0:0|0:0,0:0:0:0:
259,295,56616,1,10,0:0:0:0:
259,295,56730,1,0,0:0:0:0:
251,119,56844,1,10,0:0:0:0:
251,119,56958,1,0,0:0:0:0:
172,165,57071,2,0,L|176:269,1,82.5,2|0,0:0|0:0,0:0:0:0:
103,329,57298,6,0,P|175:289|287:314,1,165,10|0,0:0|0:0,0:0:0:0:
400,304,57639,1,0,0:0:0:0:
352,324,57753,2,0,P|281:281|247:172,1,165,10|0,2:0|2:0,0:0:0:0:
256,0,58094,1,8,0:0:0:0:
298,31,58208,6,0,P|296:113|263:161,1,82.5,2|0,2:0|2:0,0:0:0:0:
155,249,58435,2,0,P|147:208|154:168,1,82.5,2|0,2:0|2:0,0:0:0:0:
203,73,58662,2,0,L|99:77,1,82.5,10|0,0:0|0:0,0:0:0:0:
251,209,58889,2,0,L|333:205,1,82.5,2|0,0:0|0:0,0:0:0:0:
432,109,59116,6,0,P|464:173|454:271,1,165,10|0,0:0|0:0,0:0:0:0:
296,344,59457,1,0,0:0:0:0:
296,344,59571,2,0,P|340:325|388:328,1,82.5,10|0,0:0|0:0,0:0:0:0:
188,360,59798,1,2,0:0:0:0:
100,328,59912,6,0,P|81:283|84:236,1,82.5,10|0,0:0|0:0,0:0:0:0:
160,88,60139,1,0,0:0:0:0:
136,132,60253,2,0,L|48:156,1,82.5,10|0,0:0|0:0,0:0:0:0:
228,272,60480,2,0,L|316:244,1,82.5,10|0,0:0|0:0,0:0:0:0:
416,304,60707,2,0,P|428:248|404:192,1,82.5,2|0,0:0|0:0,0:0:0:0:
296,56,60935,6,0,P|240:44|184:68,1,82.5,10|0,0:0|0:0,0:0:0:0:
228,272,61162,2,0,L|252:164,1,82.5,0|0,0:0|0:0,0:0:0:0:
120,0,61389,2,0,L|102:80,1,82.5,8|0,0:0|0:0,0:0:0:0:
72,220,61616,1,2,0:0:0:0:
72,220,61730,1,10,0:0:0:0:
145,284,61844,6,0,P|187:281|227:271,1,82.5,2|0,0:0|0:0,0:0:0:0:
272,16,62071,2,0,P|253:53|242:92,1,82.5,10|0,0:0|0:0,0:0:0:0:
320,200,62298,1,8,0:0:0:0:
320,200,62412,1,0,0:0:0:0:
404,220,62525,1,2,0:0:0:0:
440,184,62639,1,2,0:0:0:0:
428,136,62753,6,0,L|321:107,1,82.5,10|0,0:0|0:0,0:0:0:0:
140,208,62980,1,2,0:0:0:0:
189,221,63094,1,2,0:0:0:0:
224,186,63208,2,0,L|195:78,1,82.5,10|0,0:0|0:0,0:0:0:0:
57,199,63435,2,0,L|71:280,1,82.5,2|0,0:0|0:0,0:0:0:0:
299,279,63663,6,0,L|319:199,1,82.5,2|0,0:0|0:0,0:0:0:0:
152,36,63889,1,10,0:0:0:0:
124,76,64003,1,2,0:0:0:0:
144,120,64116,2,0,P|188:132|268:96,1,82.5,10|0,0:0|0:0,0:0:0:0:
399,205,64344,2,0,P|355:193|275:229,1,82.5,2|0,0:0|0:0,0:0:0:0:
208,295,64571,6,0,P|165:218|222:258,1,165,10|0,0:0|0:0,0:0:0:0:
319,198,64912,1,8,0:0:0:0:
319,198,65025,2,0,P|337:134|303:35,1,165,8|0,0:0|0:0,0:0:0:0:
205,10,65366,1,0,0:0:0:0:
102,41,65480,5,10,0:0:0:0:
468,152,65707,1,2,0:0:0:0:
64,332,65935,1,10,0:0:0:0:
168,304,66048,2,0,B|252:280|252:280|344:304,1,165,4|0,0:0|0:0,0:0:0:0:
424,364,66389,5,8,0:0:0:0:
424,364,66503,2,0,P|444:312|428:252,1,82.5,2|0,0:0|0:0,0:0:0:0:
416,144,66730,1,2,0:0:0:0:
384,184,66844,2,0,P|332:196|272:168,1,82.5,2|0,0:0|0:0,0:0:0:0:
96,68,67071,1,2,0:0:0:0:
144,48,67185,1,2,0:0:0:0:
192,64,67298,6,0,L|216:184,1,82.5,10|0,0:0|0:0,0:0:0:0:
108,284,67525,1,2,0:0:0:0:
66,252,67639,1,2,0:0:0:0:
55,201,67752,2,0,L|146:120,1,82.5,2|0,0:0|0:0,0:0:0:0:
391,120,67980,2,0,P|319:128|267:224,1,165,2|8,0:0|0:0,0:0:0:0:
416,320,68321,6,0,B|416:276|416:276|392:244,1,82.5,2|0,0:0|0:0,0:0:0:0:
212,312,68548,1,2,0:0:0:0:
212,312,68662,2,0,P|168:324|96:316,1,82.5,2|0,0:0|0:0,0:0:0:0:
0,156,68889,1,2,0:0:0:0:
12,108,69003,1,2,0:0:0:0:
60,104,69116,6,0,P|96:128|120:204,1,82.5,10|0,0:0|0:0,0:0:0:0:
212,312,69344,1,2,0:0:0:0:
251,342,69458,1,2,0:0:0:0:
291,316,69571,2,0,P|304:274|276:200,1,82.5,2|0,0:0|0:0,0:0:0:0:
364,88,69798,2,0,P|380:152|492:120,1,165,2|10,0:0|0:0,0:0:0:0:
476,280,70139,6,0,L|372:256,1,82.5,2|0,0:0|0:0,0:0:0:0:
272,140,70366,1,2,0:0:0:0:
272,140,70480,2,0,P|268:92|296:28,1,82.5,2|0,0:0|0:0,0:0:0:0:
184,256,70707,1,2,0:0:0:0:
140,284,70821,1,2,0:0:0:0:
92,276,70935,6,0,L|56:188,1,82.5,10|0,0:0|0:0,0:0:0:0:
132,44,71162,1,2,0:0:0:0:
176,16,71276,1,2,0:0:0:0:
224,24,71390,2,0,L|260:112,1,82.5,2|0,0:0|0:0,0:0:0:0:
212,208,71616,2,0,P|288:216|344:164,1,82.5,2|8,0:0|0:0,0:0:0:0:
360,128,71844,5,8,0:0:0:0:
360,128,71957,1,0,0:0:0:0:
192,344,72185,5,2,0:0:0:0:
100,344,72299,1,2,0:0:0:0:
52,268,72412,1,2,0:0:0:0:
84,184,72526,5,2,0:0:0:0:
86,232,72640,1,2,0:0:0:0:
51,268,72753,1,2,0:0:0:0:
3,263,72867,5,2,0:0:0:0:
60,192,72980,1,2,0:0:0:0:
150,176,73094,1,2,0:0:0:0:
228,220,73208,1,2,0:0:0:0:
316,180,73321,2,0,P|336:88|256:32,1,165,2|0,0:0|0:0,0:0:0:0:
148,111,73662,6,0,P|144:158|180:215,1,66,8|0,0:0|0:0,0:0:0:0:
112,320,73889,1,2,0:0:0:0:
192,276,74003,1,2,0:0:0:0:
268,324,74116,1,10,0:0:0:0:
348,280,74230,1,2,0:0:0:0:
428,324,74344,2,0,L|460:224,1,66,2|0,0:0|0:0,0:0:0:0:
396,28,74571,6,0,L|412:124,1,66,10|0,0:0|0:0,0:0:0:0:
220,120,74798,1,2,0:0:0:0:
220,120,74912,1,2,0:0:0:0:
220,120,75025,2,0,P|264:96|316:96,1,66,10|0,0:0|0:0,0:0:0:0:
208,248,75253,2,0,P|164:272|112:272,1,66,2|0,0:0|0:0,0:0:0:0:
396,136,75480,5,10,0:0:0:0:
464,196,75594,2,0,L|488:296,1,66,2|0,0:0|0:0,0:0:0:0:
320,340,75821,1,0,0:0:0:0:
320,340,75935,2,0,P|367:319|432:336,1,66,8|0,0:0|0:0,0:0:0:0:
132,288,76162,2,0,P|84:308|20:292,1,66,2|0,0:0|0:0,0:0:0:0:
208,371,76389,5,10,0:0:0:0:
240,288,76503,1,2,0:0:0:0:
208,204,76616,1,2,0:0:0:0:
256,128,76730,1,2,0:0:0:0:
192,56,76844,2,0,L|100:48,1,66,10|0,0:0|0:0,0:0:0:0:
312,216,77071,2,0,L|404:208,1,66,2|0,0:0|0:0,0:0:0:0:
128,244,77298,6,0,P|108:324|196:340,1,132,10|0,0:0|0:0,0:0:0:0:
227,266,77639,1,2,0:0:0:0:
227,266,77753,2,0,L|203:190,1,66,8|0,0:0|0:0,0:0:0:0:
83,119,77980,6,0,L|135:263,1,132,10|0,0:0|0:0,0:0:0:0:
288,144,78321,1,2,0:0:0:0:
288,144,78435,2,0,L|316:60,1,66,8|0,0:0|0:0,0:0:0:0:
428,184,78662,2,0,P|400:236|308:264,1,132,8|2,0:0|0:0,0:0:0:0:
148,364,79003,1,2,0:0:0:0:
116,328,79116,6,0,L|152:208,1,66,10|0,0:0|0:0,0:0:0:0:
104,60,79344,2,0,L|80:139,1,66,2|0,0:0|0:0,0:0:0:0:
236,292,79571,2,0,P|280:300|356:268,2,66,10|0|2,0:0|0:0|0:0,0:0:0:0:
280,184,79912,6,0,P|344:180|424:256,1,132,10|0,0:0|0:0,0:0:0:0:
460,120,80253,2,0,L|452:36,1,66,8|0,0:0|0:0,0:0:0:0:
286,118,80480,2,0,L|278:200,1,66,8|0,0:0|0:0,0:0:0:0:
120,276,80707,2,0,L|112:192,1,66,4|0,0:0|0:0,0:0:0:0:
134,59,80935,5,8,0:0:0:0:
134,59,81048,1,2,0:0:0:0:
134,59,81162,2,0,P|103:85|52:88,1,66,2|0,0:0|0:0,0:0:0:0:
112,193,81389,1,10,0:0:0:0:
156,168,81503,1,2,0:0:0:0:
204,172,81616,2,0,P|224:200|236:268,1,66,2|0,0:0|0:0,0:0:0:0:
188,324,81844,5,10,0:0:0:0:
100,348,81958,1,2,0:0:0:0:
120,260,82071,1,2,0:0:0:0:
188,324,82185,1,2,0:0:0:0:
276,332,82298,1,10,0:0:0:0:
352,284,82412,1,2,0:0:0:0:
375,196,82525,2,0,L|367:80,1,66,10|0,0:0|0:0,0:0:0:0:
165,15,82753,6,0,P|193:74|180:137,1,132,12|0,0:0|0:0,0:0:0:0:
88,140,83094,1,10,0:0:0:0:
20,200,83207,1,2,0:0:0:0:
32,292,83321,1,2,0:0:0:0:
116,332,83435,1,10,0:0:0:0:
200,292,83548,1,14,0:0:0:0:
428,88,84571,6,0,L|292:72,1,132,10|0,0:0|0:0,0:0:0:0:
159,130,84912,2,0,L|255:118,1,66,2|8,0:0|0:0,0:0:0:0:
372,176,85140,1,0,0:0:0:0:
372,176,85253,2,0,L|276:164,1,66,10|8,0:0|0:0,0:0:0:0:
164,232,85480,5,0,0:0:0:0:
164,232,85594,1,8,0:0:0:0:
164,232,85707,2,0,B|285:210,1,66,10|0,0:0|0:0,0:0:0:0:
336,292,85935,2,0,L|224:308,1,66,8|0,0:0|0:0,0:0:0:0:
112,160,86162,2,0,P|109:119|123:80,1,66,2|0,0:0|0:0,0:0:0:0:
304,24,86389,5,12,0:0:0:0:
348,240,87753,6,0,P|300:252|356:256,1,148.49999546814,0|0,0:0|0:0,0:0:0:0:
354,269,88207,6,0,P|264:256|162:309,1,165,6|0,0:0|0:0,0:0:0:0:
120,348,88548,1,0,0:0:0:0:
16,272,88662,2,0,L|96:256,1,82.5,10|0,0:0|0:0,0:0:0:0:
180,88,88889,1,8,0:0:0:0:
180,88,89003,1,8,0:0:0:0:
252,184,89116,6,0,L|132:172,1,82.5,2|0,0:0|0:0,0:0:0:0:
220,352,89344,2,0,L|196:260,1,82.5,10|0,0:0|0:0,0:0:0:0:
13,170,89571,2,0,P|108:195|189:162,1,165,10|0,0:0|0:0,0:0:0:0:
171,7,89912,1,0,0:0:0:0:
171,7,90025,6,0,L|100:48,1,82.5,10|0,0:0|0:0,0:0:0:0:
32,256,90253,2,0,L|104:216,1,82.5,2|0,0:0|0:0,0:0:0:0:
360,124,90480,2,0,L|289:165,1,82.5,10|0,0:0|0:0,0:0:0:0:
221,373,90708,2,0,L|293:333,1,82.5,2|8,0:0|0:0,0:0:0:0:
360,124,90935,6,0,L|289:165,1,82.5,2|0,0:0|0:0,0:0:0:0:
32,256,91163,2,0,L|104:216,1,82.5,10|0,0:0|0:0,0:0:0:0:
246,23,91389,2,0,B|302:83|302:83|287:173,1,165,10|0,0:0|0:0,0:0:0:0:
448,236,91844,5,2,0:0:0:0:
360,260,91957,1,2,0:0:0:0:
280,216,92071,1,2,0:0:0:0:
192,240,92184,1,2,0:0:0:0:
259,327,92298,6,0,L|291:147,1,165,10|0,0:0|0:0,0:0:0:0:
384,108,92639,6,0,B|288:164|288:164|192:92,1,214.49999018097,14|0,0:0|0:0,0:0:0:0:
205,101,92980,6,0,P|172:140|216:224,1,132,2|0,0:0|0:0,0:0:0:0:
143,298,93207,6,0,P|265:285|288:164,1,264,14|0,0:0|0:0,0:0:0:0:
44,64,93662,5,2,0:0:0:0:
35,153,93775,1,2,0:0:0:0:
92,224,93889,1,2,0:0:0:0:
83,315,94002,1,2,0:0:0:0:
0,244,94116,6,0,B|92:224|92:224|160:256,1,165,10|0,0:0|0:0,0:0:0:0:
139,351,94457,6,0,P|234:313|247:211,1,214.49999018097,14|0,0:0|0:0,0:0:0:0:
248,212,94798,6,0,P|208:160|124:152,1,132,2|0,0:0|0:0,0:0:0:0:
156,254,95025,6,0,B|232:230|232:230|325:274|325:274|432:234,1,264,14|0,0:0|0:0,0:0:0:0:
170,70,95480,6,0,P|149:105|146:145,1,82.5,8|0,0:0|0:0,0:0:0:0:
320,176,95707,2,0,L|240:136,1,82.5,2|0,0:0|0:0,0:0:0:0:
56,240,95935,2,0,P|75:312|165:351,1,165,10|2,0:0|0:0,0:0:0:0:
221,274,96275,1,8,0:0:0:0:
221,274,96389,6,0,P|188:251|148:251,1,82.5,2|0,0:0|0:0,0:0:0:0:
248,376,96616,2,0,P|285:359|305:324,1,82.5,10|0,0:0|0:0,0:0:0:0:
476,260,96844,2,0,B|464:140|464:140|420:224,1,165,10|2,0:0|0:0,0:0:0:0:
288,200,97185,1,0,0:0:0:0:
288,200,97298,6,0,P|318:227|368:232,1,82.5,10|0,0:0|0:0,0:0:0:0:
396,68,97525,2,0,B|356:148,1,82.5,2|0,0:0|0:0,0:0:0:0:
160,248,97753,2,0,B|196:174,1,82.5,10|0,0:0|0:0,0:0:0:0:
236,304,97980,2,0,P|205:331|155:336,1,82.5,2|8,0:0|0:0,0:0:0:0:
131,129,98207,6,0,P|169:141|198:182,1,82.5,2|0,0:0|0:0,0:0:0:0:
336,340,98435,2,0,P|384:344|440:300,1,82.5,10|0,0:0|0:0,0:0:0:0:
416,180,98662,2,0,P|368:124|392:220,1,247.5,10|0,0:0|0:0,0:0:0:0:
224,128,99116,6,0,P|184:116|112:136,1,82.5,14|0,0:0|0:0,0:0:0:0:
88,28,99344,2,0,P|57:56|38:128,1,82.5,10|0,0:0|0:0,0:0:0:0:
104,332,99571,2,0,P|132:332|168:220,1,165,10|2,0:0|0:0,0:0:0:0:
280,255,99912,6,0,P|328:239|408:279,1,82.5,6|0,0:0|0:0,0:0:0:0:
503,160,100139,2,0,P|455:176|375:136,1,82.5,10|0,0:0|0:0,0:0:0:0:
352,104,100366,1,2,0:0:0:0:
360,12,100480,1,10,0:0:0:0:
400,92,100594,1,2,0:0:0:0:
336,156,100707,1,2,0:0:0:0:
248,172,100821,1,2,0:0:0:0:
172,128,100935,5,14,0:0:0:0:
152,116,101048,1,0,0:0:0:0:
128,120,101162,1,0,0:0:0:0:
116,140,101275,1,0,0:0:0:0:
116,168,101389,6,0,L|200:256,1,115.49999647522,2|0,0:0|0:0,0:0:0:0:
232,340,101730,1,2,0:0:0:0:
232,340,101844,2,0,L|300:288,2,57.7499982376099,2|0|0,0:0|0:0|0:0,0:0:0:0:
144,328,102185,1,2,0:0:0:0:
360,360,102525,1,2,0:0:0:0:
360,360,102753,5,6,0:0:0:0:
399,272,102866,1,2,0:0:0:0:
392,176,102980,1,2,0:0:0:0:
329,101,103094,1,2,0:0:0:0:
244,144,103207,2,0,P|336:136|368:28,1,214.49999018097,10|0,0:0|0:0,0:0:0:0:
128,32,103548,6,0,L|8:56,1,107.249995090485,10|0,0:0|0:0,0:0:0:0:
12,148,103775,1,0,0:0:0:0:
60,232,103889,2,0,P|108:184|104:132,1,107.249995090485,10|0,0:0|0:0,0:0:0:0:
240,44,104116,1,10,0:0:0:0:
208,88,104230,1,2,0:0:0:0:
204,140,104344,1,2,0:0:0:0:
228,188,104457,1,2,0:0:0:0:
316,124,104571,5,14,0:0:0:0:
408,152,104685,1,2,0:0:0:0:
436,244,104798,1,2,0:0:0:0:
400,332,104912,1,2,0:0:0:0:
304,344,105025,2,0,P|200:332|120:348,1,107.249995090485,10|0,0:0|0:0,0:0:0:0:
104,356,105253,1,0,0:0:0:0:
40,284,105366,6,0,L|56:172,1,107.249995090485,10|0,0:0|0:0,0:0:0:0:
256,108,105594,1,0,0:0:0:0:
348,140,105708,2,0,B|392:148|436:172|436:172|364:44,1,214.49999018097,14|0,0:0|0:0,0:0:0:0:
296,12,106049,1,2,0:0:0:0:
200,12,106162,1,2,0:0:0:0:
112,52,106276,1,2,0:0:0:0:
104,146,106389,6,2,L|184:266,1,107.249995090485,14|2,0:0|0:0,0:0:0:0:
21,332,106616,1,2,0:0:0:0:
56,242,106730,1,2,0:0:0:0:
211,139,106844,6,0,L|147:268,1,107.249995090485,8|0,0:0|0:0,0:0:0:0:
8,160,107071,1,2,0:0:0:0:
104,146,107185,1,10,0:0:0:0:
270,228,107298,6,0,L|126:237,1,107.249995090485,8|0,0:0|0:0,0:0:0:0:
149,64,107525,1,10,0:0:0:0:
210,138,107639,1,2,0:0:0:0:
222,324,107753,6,0,L|141:203,1,107.249995090485,8|0,0:0|0:0,0:0:0:0:
303,137,107980,1,2,0:0:0:0:
269,227,108094,1,2,0:0:0:0:
256,52,108207,5,14,0:0:0:0:
352,56,108321,1,2,0:0:0:0:
396,144,108435,1,2,0:0:0:0:
368,236,108548,1,2,0:0:0:0:
434,311,108662,5,10,0:0:0:0:
434,311,108775,2,0,P|465:268|464:216,1,107.249995090485,2|0,0:0|0:0,0:0:0:0:
272,0,109003,1,12,0:0:0:0:
196,56,109116,1,2,0:0:0:0:
204,152,109230,2,0,P|264:176|328:160,1,107.249995090485,2|8,0:0|0:0,0:0:0:0:
24,72,109457,1,2,0:0:0:0:
24,72,109571,6,0,B|8:136|8:136|32:200,1,132,8|0,0:0|0:0,0:0:0:0:
320,384,109798,2,0,B|272:338|272:338|205:326,1,132,4|0,0:0|0:0,0:0:0:0:
160,224,110025,5,14,0:0:0:0:
193,133,110139,1,2,0:0:0:0:
284,99,110252,1,2,0:0:0:0:
369,150,110366,1,2,0:0:0:0:
272,144,110480,2,0,P|258:84|313:1,1,107.249995090485,10|0,0:0|0:0,0:0:0:0:
364,8,110707,1,0,0:0:0:0:
456,39,110821,6,0,P|469:98|414:181,1,107.249995090485,10|0,0:0|0:0,0:0:0:0:
320,288,111048,1,0,0:0:0:0:
224,264,111162,2,0,P|162:257|100:284,1,107.249995090485,10|0,0:0|0:0,0:0:0:0:
16,348,111389,1,10,0:0:0:0:
88,284,111503,1,2,0:0:0:0:
92,188,111616,1,2,0:0:0:0:
48,104,111730,1,2,0:0:0:0:
28,200,111844,5,14,0:0:0:0:
120,232,111957,1,2,0:0:0:0:
208,192,112071,1,2,0:0:0:0:
224,96,112185,1,2,0:0:0:0:
156,28,112298,2,0,L|32:20,1,107.249995090485,10|0,0:0|0:0,0:0:0:0:
304,156,112525,1,0,0:0:0:0:
400,144,112639,6,0,B|516:128,1,107.249995090485,8|0,0:0|0:0,0:0:0:0:
272,308,112866,1,0,0:0:0:0:
176,296,112980,2,0,B|28:280|28:280|176:236,1,214.49999018097,8|8,0:0|0:0,0:0:0:0:
164,200,113321,1,2,0:0:0:0:
168,104,113435,1,2,0:0:0:0:
104,36,113548,1,2,0:0:0:0:
12,60,113662,6,0,L|118:68,1,107.249995090485,8|0,0:0|0:0,0:0:0:0:
240,160,113889,1,2,0:0:0:0:
204,76,114003,1,2,0:0:0:0:
44,148,114116,6,0,L|150:156,1,107.249995090485,8|0,0:0|0:0,0:0:0:0:
276,244,114344,1,2,0:0:0:0:
240,160,114458,1,10,0:0:0:0:
80,232,114571,6,0,L|186:240,1,107.249995090485,8|0,0:0|0:0,0:0:0:0:
312,328,114798,1,10,0:0:0:0:
276,244,114912,1,2,0:0:0:0:
116,316,115025,6,0,L|222:324,1,107.249995090485,8|0,0:0|0:0,0:0:0:0:
364,256,115253,1,2,0:0:0:0:
276,244,115366,1,2,0:0:0:0:
408,348,115480,6,0,P|456:292|460:220,1,107.249995090485,10|2,0:0|0:0,0:0:0:0:
396,68,115707,2,0,L|416:196,1,107.249995090485,2|10,0:0|0:0,0:0:0:0:
276,244,115935,1,10,0:0:0:0:
208,176,116048,2,0,P|252:152|316:160,1,107.249995090485,2|0,0:0|0:0,0:0:0:0:
156,344,116275,1,2,0:0:0:0:
76,272,116389,6,0,L|96:140,1,107.249995090485,12|0,0:0|0:0,0:0:0:0:
324,50,116616,2,0,L|304:174,1,107.249995090485,10|0,0:0|0:0,0:0:0:0:
300,344,116844,6,0,B|400:332|400:332|328:292,1,132,8|0,0:0|0:0,0:0:0:0:
164,138,117071,2,0,B|64:150|64:150|136:190,1,132,0|0,0:0|0:0,0:0:0:0:
240,248,117298,5,14,0:0:0:0:
256,192,128207,12,8,129798,0:0:0:0:
464,80,130026,5,8,0:0:0:0:
464,80,130139,2,0,P|396:48|296:64,1,165,0|0,0:0|0:0,0:0:0:0:
376,240,130480,6,0,P|385:186|364:140,1,82.5,2|0,0:0|0:0,0:0:0:0:
377,160,130707,1,2,0:0:0:0:
291,291,130821,2,0,P|321:320|360:332,1,82.5,2|0,0:0|0:0,0:0:0:0:
359,331,131048,1,2,0:0:0:0:
292,204,131162,2,0,P|263:176|224:163,1,82.5,2|0,0:0|0:0,0:0:0:0:
223,162,131389,1,2,0:0:0:0:
152,252,131503,2,0,B|157:334,1,82.5,2|0,0:0|0:0,0:0:0:0:
157,334,131730,1,2,0:0:0:0:
48,272,131844,6,0,L|40:160,1,82.5,12|0,0:0|0:0,0:0:0:0:
167,343,132071,1,0,0:0:0:0:
167,343,132185,1,0,0:0:0:0:
167,343,132298,2,0,P|208:323|355:327,1,165,8|0,0:0|0:0,0:0:0:0:
408,364,132639,5,2,0:0:0:0:
484,312,132753,1,2,0:0:0:0:
452,228,132866,1,2,0:0:0:0:
360,228,132980,1,10,0:0:0:0:
316,148,133094,1,2,0:0:0:0:
356,68,133207,6,0,B|404:52|436:64|436:64|412:4|272:0,1,247.5,10|0,0:0|0:0,0:0:0:0:
176,36,133662,1,10,0:0:0:0:
214,133,133775,1,2,0:0:0:0:
88,128,133889,1,2,0:0:0:0:
110,230,134003,1,2,0:0:0:0:
240,228,134116,5,10,0:0:0:0:
218,330,134230,1,2,0:0:0:0:
332,296,134344,1,2,0:0:0:0:
404,372,134458,1,10,0:0:0:0:
496,308,134571,5,2,0:0:0:0:
460,224,134685,1,2,0:0:0:0:
484,136,134798,1,10,0:0:0:0:
400,68,134912,1,2,0:0:0:0:
356,169,135025,5,10,0:0:0:0:
264,180,135139,1,2,0:0:0:0:
180,145,135253,2,0,P|153:92|160:29,1,82.5,0|0,0:0|0:0,0:0:0:0:
39,124,135480,2,0,B|-1:204|27:264|27:264|87:252|155:276,1,247.5,12|0,0:0|0:0,0:0:0:0:
392,200,135935,6,0,P|344:192|309:206,1,82.5,10|0,0:0|0:0,0:0:0:0:
180,145,136162,2,0,P|154:152|126:149,2,55,2|0|0,0:0|0:0|0:0,0:0:0:0:
260,124,136389,5,2,0:0:0:0:
196,236,136503,1,2,0:0:0:0:
300,284,136616,1,2,0:0:0:0:
240,384,136730,1,2,0:0:0:0:
404,356,136844,2,0,B|423:270|423:270|390:198,1,165,12|0,0:0|0:0,0:0:0:0:
336,8,137185,6,0,L|300:96,1,82.5,2|8,0:0|0:0,0:0:0:0:
120,104,137411,1,2,0:0:0:0:
212,104,137525,1,2,0:0:0:0:
268,176,137638,1,2,0:0:0:0:
388,196,137752,5,10,0:0:0:0:
342,275,137866,1,2,0:0:0:0:
251,288,137979,1,2,0:0:0:0:
174,382,138094,5,10,0:0:0:0:
128,302,138208,1,2,0:0:0:0:
163,217,138321,1,2,0:0:0:0:
268,176,138435,5,10,0:0:0:0:
212,104,138548,1,2,0:0:0:0:
120,104,138662,1,2,0:0:0:0:
81,221,138775,6,0,P|125:224|181:209,2,82.5,2|0|8,0:0|0:0|0:0,0:0:0:0:
204,308,139116,6,0,B|248:287|300:291|300:291|332:319|380:319,1,165,4|0,0:0|0:0,0:0:0:0:
480,128,139571,6,0,L|507:69,2,55,10|0|0,0:0|0:0|0:0,0:0:0:0:
372,212,139798,2,0,L|356:156,2,55,2|0|0,0:0|0:0|0:0,0:0:0:0:
272,120,140025,6,0,L|256:172,2,55,2|0|0,0:0|0:0|0:0,0:0:0:0:
125,39,140253,2,0,L|148:88,2,55,10|0|0,0:0|0:0|0:0,0:0:0:0:
72,224,140480,6,0,L|79:170,4,55,10|0|0|2|0,0:0|0:0|0:0|0:0|0:0,0:0:0:0:
176,352,140878,5,0,0:0:0:0:
176,352,140935,2,0,L|168:288,2,41.25,10|0|0,0:0|0:0|0:0,0:0:0:0:
228,160,141105,1,0,0:0:0:0:
228,160,141162,2,0,L|236:232,2,41.25,2|0|0,0:0|0:0|0:0,0:0:0:0:
324,340,141332,5,0,0:0:0:0:
324,340,141389,2,0,L|320:288,2,41.25,10|0|0,0:0|0:0|0:0,0:0:0:0:
384,152,141560,1,0,0:0:0:0:
384,152,141616,2,0,L|388:204,2,41.25,2|0|0,0:0|0:0|0:0,0:0:0:0:
472,292,141787,5,0,0:0:0:0:
472,292,141844,2,0,L|420:296,2,41.25,2|0|0,0:0|0:0|0:0,0:0:0:0:
236,200,142014,1,0,0:0:0:0:
236,200,142071,2,0,L|288:192,2,41.25,10|0|0,0:0|0:0|0:0,0:0:0:0:
236,368,142241,5,0,0:0:0:0:
236,368,142298,2,0,L|184:376,2,41.25,10|0|0,0:0|0:0|0:0,0:0:0:0:
16,272,142469,1,0,0:0:0:0:
16,272,142525,2,0,L|64:264,2,41.25,2|0|0,0:0|0:0|0:0,0:0:0:0:
236,368,142753,6,0,B|248:312|228:284|228:284|304:312|304:312|388:272,1,247.5,12|0,0:0|0:0,0:0:0:0:
464,176,143207,2,0,B|424:164|424:164|328:188,1,82.5,10|0,0:0|0:0,0:0:0:0:
300,216,143435,1,2,0:0:0:0:
208,192,143548,2,0,B|192:92,1,82.5,2|2,0:0|0:0,0:0:0:0:
304,120,143775,2,0,B|315:38,2,82.5,2|2|0,0:0|0:0|0:0,0:0:0:0:
220,284,144116,5,10,0:0:0:0:
156,348,144230,1,2,0:0:0:0:
68,324,144344,1,2,0:0:0:0:
52,236,144457,1,2,0:0:0:0:
112,160,144571,5,10,0:0:0:0:
112,160,144685,1,2,0:0:0:0:
356,240,144912,1,2,0:0:0:0:
208,76,145139,1,2,0:0:0:0:
300,332,145366,1,6,0:0:0:0:
448,64,145594,1,6,0:0:0:0:
60,328,145821,1,6,0:0:0:0:
496,200,146048,1,4,0:0:0:0:
496,200,146162,2,0,P|409:183|360:208,1,82.5,2|0,0:0|0:0,0:0:0:0:
340,236,146389,5,10,0:0:0:0:
244,228,146503,1,2,0:0:0:0:
200,144,146616,1,2,0:0:0:0:
232,52,146730,1,2,0:0:0:0:
296,124,146844,2,0,P|296:176|144:228,1,214.49999018097,10|0,0:0|0:0,0:0:0:0:
24,328,147185,6,0,P|80:320|168:356,1,107.249995090485,10|0,0:0|0:0,0:0:0:0:
216,368,147412,1,0,0:0:0:0:
300,324,147525,2,0,P|352:335|404:327,1,107.249995090485,10|0,0:0|0:0,0:0:0:0:
460,88,147753,2,0,P|484:133|476:236,1,107.249995090485,10|0,0:0|0:0,0:0:0:0:
219,95,147980,2,0,L|326:84,1,107.249995090485,2|0,0:0|0:0,0:0:0:0:
392,154,148207,5,10,0:0:0:0:
372,248,148321,1,2,0:0:0:0:
281,281,148435,1,2,0:0:0:0:
196,234,148548,1,2,0:0:0:0:
99,239,148662,2,0,P|70:271|60:339,1,107.249995090485,10|0,0:0|0:0,0:0:0:0:
154,319,148889,1,0,0:0:0:0:
196,234,149003,6,0,L|168:100,1,107.249995090485,10|0,0:0|0:0,0:0:0:0:
295,9,149230,1,0,0:0:0:0:
366,74,149344,2,0,B|323:104|323:104|244:97,1,107.249995090485,10|0,0:0|0:0,0:0:0:0:
36,167,149571,1,8,0:0:0:0:
98,240,149685,2,0,B|174:254|174:254|225:206,1,107.249995090485,10|0,0:0|0:0,0:0:0:0:
340,122,149912,1,2,0:0:0:0:
340,122,150025,6,4,L|296:230,1,107.249995090485,12|0,0:0|0:0,0:0:0:0:
424,66,150252,1,2,0:0:0:0:
512,106,150365,1,2,0:0:0:0:
340,122,150480,6,0,L|225:138,1,107.249995090485,8|0,0:0|0:0,0:0:0:0:
431,167,150707,1,2,0:0:0:0:
440,263,150821,1,10,0:0:0:0:
340,122,150934,6,0,L|269:30,1,107.249995090485,0|0,0:0|0:0,0:0:0:0:
347,224,151161,1,10,0:0:0:0:
268,280,151274,1,2,0:0:0:0:
340,122,151389,6,0,L|384:14,1,107.249995090485,8|0,0:0|0:0,0:0:0:0:
256,180,151616,1,2,0:0:0:0:
168,139,151730,1,2,0:0:0:0:
340,122,151844,5,14,0:0:0:0:
366,215,151957,1,2,0:0:0:0:
308,290,152071,1,2,0:0:0:0:
212,290,152185,1,2,0:0:0:0:
156,210,152298,5,10,0:0:0:0:
156,210,152412,2,0,B|142:153|142:153|169:80,1,107.249995090485,2|0,0:0|0:0,0:0:0:0:
0,256,152639,1,12,0:0:0:0:
40,344,152753,1,0,0:0:0:0:
136,356,152866,2,0,L|252:328,1,107.249995090485,2|8,0:0|0:0,0:0:0:0:
367,213,153094,1,2,0:0:0:0:
367,213,153207,6,0,B|465:182|465:182|424:215,1,132,8|0,0:0|0:0,0:0:0:0:
136,154,153435,2,0,B|38:185|38:185|79:152,1,132,6|0,0:0|0:0,0:0:0:0:
232,24,153662,5,14,0:0:0:0:
296,96,153775,1,2,0:0:0:0:
292,192,153889,1,2,0:0:0:0:
204,248,154003,1,2,0:0:0:0:
244,160,154116,2,0,P|292:136|448:180,1,214.49999018097,10|2,0:0|0:0,0:0:0:0:
426,269,154457,6,0,L|312:224,1,107.249995090485,10|0,0:0|0:0,0:0:0:0:
80,260,154685,1,0,0:0:0:0:
80,260,154798,2,0,L|196:324,1,107.249995090485,10|0,0:0|0:0,0:0:0:0:
328,324,155025,1,10,0:0:0:0:
276,316,155139,1,2,0:0:0:0:
224,332,155253,1,2,0:0:0:0:
204,380,155366,1,2,0:0:0:0:
300,360,155480,5,14,0:0:0:0:
288,264,155594,1,2,0:0:0:0:
192,252,155707,1,2,0:0:0:0:
128,324,155821,1,2,0:0:0:0:
224,332,155935,2,0,P|233:288|204:192,1,107.249995090485,10|0,0:0|0:0,0:0:0:0:
136,184,156162,1,2,0:0:0:0:
140,280,156275,6,0,P|196:296|348:256,1,214.49999018097,10|0,0:0|0:0,0:0:0:0:
320,60,156616,2,0,P|310:104|340:200,1,107.249995090485,10|0,0:0|0:0,0:0:0:0:
404,116,156844,1,8,0:0:0:0:
496,144,156957,1,2,0:0:0:0:
512,240,157071,1,2,0:0:0:0:
448,312,157185,1,2,0:0:0:0:
416,220,157298,6,0,L|448:117,1,107.249995090485,12|0,0:0|0:0,0:0:0:0:
336,272,157525,1,2,0:0:0:0:
356,368,157639,1,2,0:0:0:0:
324,180,157753,6,0,L|356:77,1,107.249995090485,8|0,0:0|0:0,0:0:0:0:
244,232,157980,1,2,0:0:0:0:
264,328,158094,1,10,0:0:0:0:
232,144,158207,6,0,L|264:41,1,107.249995090485,0|0,0:0|0:0,0:0:0:0:
152,196,158434,1,10,0:0:0:0:
172,292,158548,1,2,0:0:0:0:
140,104,158662,6,0,L|172:1,1,107.249995090485,8|0,0:0|0:0,0:0:0:0:
60,156,158889,1,2,0:0:0:0:
80,252,159003,1,2,0:0:0:0:
232,144,159116,5,8,0:0:0:0:
324,116,159230,2,0,P|376:118|420:184,1,107.249995090485,2|0,0:0|0:0,0:0:0:0:
376,352,159457,5,10,0:0:0:0:
292,300,159571,2,0,B|300:244|300:244|352:184,2,107.249995090485,4|0|0,0:0|0:0|0:0,0:0:0:0:
104,364,159912,5,10,0:0:0:0:
192,300,160025,2,0,B|184:244|184:244|132:184,2,107.249995090485,4|0|8,0:0|0:0|0:0,0:0:0:0:
22,161,160366,1,0,0:0:0:0:
76,56,160480,6,0,P|136:40|212:76,1,132,8|0,0:0|0:0,0:0:0:0:
483,328,160707,2,0,P|423:344|347:308,1,132,6|0,0:0|0:0,0:0:0:0:
192,300,160935,5,14,0:0:0:0:
228,212,161048,1,2,0:0:0:0:
316,172,161162,1,2,0:0:0:0:
412,176,161275,1,10,0:0:0:0:
492,124,161389,2,0,P|480:56|432:4,1,107.249995090485,10|0,0:0|0:0,0:0:0:0:
364,52,161616,1,0,0:0:0:0:
276,12,161730,6,0,P|220:8|136:60,1,107.249995090485,10|8,0:0|0:0,0:0:0:0:
28,124,161957,1,0,0:0:0:0:
28,124,162071,2,0,P|59:77|56:-21,1,107.249995090485,2|8,0:0|0:0,0:0:0:0:
152,128,162298,1,2,0:0:0:0:
200,148,162412,1,2,0:0:0:0:
252,144,162525,1,10,0:0:0:0:
296,116,162639,1,2,0:0:0:0:
384,72,162753,5,14,0:0:0:0:
476,92,162866,1,2,0:0:0:0:
504,184,162980,1,2,0:0:0:0:
464,272,163094,1,2,0:0:0:0:
368,268,163207,2,0,P|301:283|184:388,1,214.49999018097,10|2,0:0|0:0,0:0:0:0:
188,252,163548,6,0,P|164:164|140:136,1,107.249995090485,10|8,0:0|0:0,0:0:0:0:
40,20,163775,1,0,0:0:0:0:
12,109,163889,2,0,B|36:176|36:176|57:124,1,107.249995090485,2|8,0:0|0:0,0:0:0:0:
115,75,164116,1,0,0:0:0:0:
208,48,164230,1,2,0:0:0:0:
304,56,164344,1,10,0:0:0:0:
389,100,164457,1,2,0:0:0:0:
391,196,164571,5,14,0:0:0:0:
478,155,164685,1,2,0:0:0:0:
487,59,164798,1,2,0:0:0:0:
410,0,164912,1,10,0:0:0:0:
336,62,165025,5,10,0:0:0:0:
248,102,165139,1,2,0:0:0:0:
152,90,165253,1,2,0:0:0:0:
112,2,165366,1,2,0:0:0:0:
207,18,165480,5,10,0:0:0:0:
248,102,165594,1,2,0:0:0:0:
200,186,165707,1,2,0:0:0:0:
104,190,165821,1,10,0:0:0:0:
50,109,165935,6,0,P|114:97|210:133,1,107.249995090485,2|0,0:0|0:0,0:0:0:0:
275,88,166162,2,0,P|317:137|334:238,1,107.249995090485,10|0,0:0|0:0,0:0:0:0:
468,316,166389,5,10,0:0:0:0:
416,236,166503,1,2,0:0:0:0:
420,140,166616,1,2,0:0:0:0:
480,64,166730,1,2,0:0:0:0:
399,115,166844,5,10,0:0:0:0:
320,36,166957,1,10,0:0:0:0:
271,162,167071,1,10,0:0:0:0:
180,72,167185,1,10,0:0:0:0:
116,156,167298,5,10,0:0:0:0:
32,104,167412,2,0,B|4:176|4:176|52:212,1,107.249995090485,2|0,0:0|0:0,0:0:0:0:
207,260,167639,6,0,B|125:243|125:243|65:291|65:291|5:291,1,214.49999018097,6|0,0:0|0:0,0:0:0:0:
280,340,167980,2,0,L|456:312,1,107.249995090485,8|0,0:0|0:0,0:0:0:0:
180,384,168207,5,10,0:0:0:0:
136,296,168321,1,2,0:0:0:0:
152,200,168435,1,2,0:0:0:0:
228,140,168548,1,2,0:0:0:0:
244,236,168662,2,0,P|156:248|68:124,1,214.49999018097,10|0,0:0|0:0,0:0:0:0:
320,160,169003,6,0,P|348:208|332:292,1,107.249995090485,10|0,0:0|0:0,0:0:0:0:
276,324,169230,1,0,0:0:0:0:
244,236,169344,2,0,L|216:100,1,107.249995090485,10|0,0:0|0:0,0:0:0:0:
140,184,169571,1,10,0:0:0:0:
52,144,169685,1,2,0:0:0:0:
44,48,169798,1,2,0:0:0:0:
129,0,169912,1,2,0:0:0:0:
216,40,170025,6,0,B|296:44|296:44|224:8,1,107.249995090485,12|0,0:0|0:0,0:0:0:0:
280,132,170253,1,2,0:0:0:0:
368,168,170366,1,2,0:0:0:0:
440,104,170480,1,10,0:0:0:0:
328,140,170594,1,2,0:0:0:0:
308,256,170707,1,2,0:0:0:0:
396,336,170821,6,0,L|504:324,1,107.249995090485,12|0,0:0|0:0,0:0:0:0:
284,360,171048,1,0,0:0:0:0:
184,324,171162,2,0,B|47:308|47:308|120:288,1,214.49999018097,12|0,0:0|0:0,0:0:0:0:
195,227,171503,1,2,0:0:0:0:
187,131,171616,1,10,0:0:0:0:
95,99,171730,1,2,0:0:0:0:
112,195,171844,6,0,P|166:209|240:158,1,107.249995090485,12|0,0:0|0:0,0:0:0:0:
204,26,172071,1,2,0:0:0:0:
160,111,172185,1,2,0:0:0:0:
261,276,172298,6,0,P|300:235|293:146,1,107.249995090485,8|0,0:0|0:0,0:0:0:0:
160,111,172525,1,2,0:0:0:0:
212,192,172639,1,10,0:0:0:0:
406,188,172753,6,0,P|391:133|309:95,1,107.249995090485,0|0,0:0|0:0,0:0:0:0:
212,192,172980,1,10,0:0:0:0:
308,188,173094,1,2,0:0:0:0:
404,14,173207,6,0,P|349:-1|275:50,1,107.249995090485,8|0,0:0|0:0,0:0:0:0:
308,188,173434,1,2,0:0:0:0:
353,102,173548,1,2,0:0:0:0:
212,192,173662,5,14,0:0:0:0:
263,273,173775,1,2,0:0:0:0:
360,269,173889,1,2,0:0:0:0:
410,183,174003,1,2,0:0:0:0:
353,102,174116,1,10,0:0:0:0:
353,102,174230,2,0,B|197:113,1,107.249995090485,10|0,0:0|0:0,0:0:0:0:
20,232,174457,6,0,B|32:152|32:152|100:300,1,214.49999018097,6|0,0:0|0:0,0:0:0:0:
20,232,175025,6,0,B|32:152|32:152|88:273|88:273|132:245|192:264,1,321.749985271455,2|0,0:0|0:0,0:0:0:0:
288,332,175480,6,0,P|327:344|368:343,1,82.5,8|0,0:0|0:0,0:0:0:0:
504,192,175707,1,0,0:0:0:0:
504,192,175935,2,0,P|420:164|288:216,1,165,8|0,0:0|0:0,0:0:0:0:
192,176,176275,6,0,P|156:68|196:20,1,165,8|0,0:0|0:0,0:0:0:0:
328,88,176616,2,0,L|204:104,1,82.5,8|0,0:0|0:0,0:0:0:0:
24,172,176844,1,10,0:0:0:0:
12,220,176957,1,2,0:0:0:0:
44,256,177071,2,0,L|152:236,1,82.5,2|0,0:0|0:0,0:0:0:0:
345,122,177298,6,0,P|257:114|185:190,1,165,10|0,0:0|0:0,0:0:0:0:
202,308,177639,1,0,0:0:0:0:
202,308,177753,2,0,P|208:168|168:136,1,165,10|0,0:0|0:0,0:0:0:0:
8,136,178094,1,8,0:0:0:0:
8,136,178207,6,0,P|55:139|136:120,1,82.5,2|0,0:0|0:0,0:0:0:0:
124,240,178435,2,0,P|76:236|-4:256,1,82.5,10|0,0:0|0:0,0:0:0:0:
200,156,178662,2,0,L|244:60,1,82.5,10|0,0:0|0:0,0:0:0:0:
396,112,178889,2,0,P|344:128|300:112,1,82.5,0|0,0:0|0:0,0:0:0:0:
136,20,179116,5,10,0:0:0:0:
136,20,179230,1,0,0:0:0:0:
136,20,179344,2,0,P|164:48|180:100,1,82.5
124,240,179571,2,0,L|41:248,1,82.5,10|0,0:0|0:0,0:0:0:0:
304,316,179798,1,0,0:0:0:0:
212,352,179912,6,0,P|232:244|284:220,1,165,10|0,0:0|0:0,0:0:0:0:
385,275,180253,1,10,0:0:0:0:
385,275,180366,1,0,0:0:0:0:
372,97,180480,1,10,0:0:0:0:
372,97,180594,1,0,0:0:0:0:
347,192,180707,2,0,P|311:216|231:208,1,82.5,2|0,0:0|0:0,0:0:0:0:
128,164,180935,6,0,P|188:248|176:316,1,165,10|0,0:0|0:0,0:0:0:0:
8,344,181275,1,0,0:0:0:0:
23,311,181389,2,0,P|103:287|223:335,1,165,10|0,0:0|0:0,0:0:0:0:
360,256,181730,1,8,0:0:0:0:
396,220,181844,6,0,P|401:163|388:116,1,82.5,2|0,0:0|0:0,0:0:0:0:
300,24,182071,2,0,P|305:80|292:128,1,82.5,10|0,0:0|0:0,0:0:0:0:
164,108,182298,2,0,P|158:67|164:26,1,82.5,10|0,0:0|0:0,0:0:0:0:
64,148,182525,2,0,P|58:188|64:229,1,82.5,10|0,0:0|0:0,0:0:0:0:
125,333,182753,6,0,P|179:273|171:194,1,165,10|0,0:0|0:0,0:0:0:0:
92,72,183094,1,0,0:0:0:0:
92,72,183207,2,0,L|188:120,1,82.5,8|0,0:0|0:0,0:0:0:0:
272,292,183435,1,0,0:0:0:0:
344,228,183548,6,0,P|348:176|324:132,1,82.5,10|0,0:0|0:0,0:0:0:0:
380,4,183775,1,0,0:0:0:0:
380,4,183889,2,0,P|332:26|306:69,1,82.5,10|0,0:0|0:0,0:0:0:0:
164,136,184116,2,0,L|245:123,1,82.5,10|0,0:0|0:0,0:0:0:0:
417,136,184344,2,0,L|335:148,1,82.5,2|0,0:0|0:0,0:0:0:0:
164,136,184571,6,0,P|148:232|192:300,1,165,10|0,0:0|0:0,0:0:0:0:
356,384,184912,1,0,0:0:0:0:
356,384,185025,2,0,P|368:328|356:288,1,82.5,8|0,0:0|0:0,0:0:0:0:
264,152,185253,1,2,0:0:0:0:
264,152,185366,1,10,0:0:0:0:
272,248,185480,6,0,L|364:208,1,82.5,2|0,0:0|0:0,0:0:0:0:
512,128,185707,2,0,L|420:88,1,82.5,10|0,0:0|0:0,0:0:0:0:
264,152,185935,1,10,0:0:0:0:
264,152,186048,1,2,0:0:0:0:
192,216,186162,1,2,0:0:0:0:
144,224,186275,1,2,0:0:0:0:
104,196,186389,6,0,L|96:72,1,82.5,10|0,0:0|0:0,0:0:0:0:
160,328,186616,1,2,0:0:0:0:
208,340,186729,1,2,0:0:0:0:
252,316,186843,2,0,L|260:192,1,82.5,10|0,0:0|0:0,0:0:0:0:
300,48,187071,1,2,0:0:0:0:
251,35,187184,1,10,0:0:0:0:
208,60,187298,6,0,L|200:184,1,82.5,2|0,0:0|0:0,0:0:0:0:
348,232,187525,2,0,L|352:120,1,82.5,10|0,0:0|0:0,0:0:0:0:
252,235,187753,2,0,L|169:241,1,82.5,10|0,0:0|0:0,0:0:0:0:
300,48,187980,2,0,L|382:41,1,82.5,10|0,0:0|0:0,0:0:0:0:
508,152,188207,6,0,P|464:240|436:160,1,165,10|0,0:0|0:0,0:0:0:0:
352,148,188548,1,8,0:0:0:0:
352,148,188662,2,0,P|264:128|176:184,1,165,8|0,0:0|0:0,0:0:0:0:
56,344,189116,5,8,0:0:0:0:
216,24,189344,1,2,0:0:0:0:
308,312,189571,1,2,0:0:0:0:
368,244,189685,2,0,B|356:124|356:124|308:228,1,165,6|0,0:0|0:0,0:0:0:0:
192,236,190025,6,0,P|140:228|112:196,1,82.5,10|0,0:0|0:0,0:0:0:0:
32,64,190253,1,2,0:0:0:0:
72,36,190366,1,2,0:0:0:0:
120,40,190480,2,0,P|139:89|125:129,1,82.5,2|0,0:0|0:0,0:0:0:0:
56,304,190707,5,2,0:0:0:0:
28,264,190820,1,2,0:0:0:0:
32,216,190934,2,0,L|121:210,1,82.5,10|0,0:0|0:0,0:0:0:0:
296,176,191162,1,2,0:0:0:0:
324,136,191275,1,2,0:0:0:0:
320,88,191389,2,0,L|230:82,1,82.5,2|0,0:0|0:0,0:0:0:0:
364,260,191616,2,0,P|456:251|404:180,1,165,2|8,0:0|0:0,0:0:0:0:
292,196,191957,6,0,L|220:256,1,82.5,2|0,0:0|0:0,0:0:0:0:
60,368,192185,1,2,0:0:0:0:
108,352,192298,2,0,L|132:244,1,82.5,2|0,0:0|0:0,0:0:0:0:
100,84,192525,1,2,0:0:0:0:
140,52,192639,1,2,0:0:0:0:
188,68,192752,2,0,L|212:176,1,82.5,10|0,0:0|0:0,0:0:0:0:
260,292,192980,5,2,0:0:0:0:
300,324,193094,1,2,0:0:0:0:
348,308,193207,2,0,L|372:200,1,82.5,2|0,0:0|0:0,0:0:0:0:
472,108,193435,1,2,0:0:0:0:
472,108,193548,2,0,L|316:128,1,82.5,2|8,0:0|0:0,0:0:0:0:
148,48,193775,6,0,P|204:55|232:100,1,82.5,0|0,0:0|0:0,0:0:0:0:
180,244,194003,1,2,0:0:0:0:
180,244,194116,2,0,L|172:156,1,82.5,2|0,0:0|0:0,0:0:0:0:
360,228,194344,5,2,0:0:0:0:
324,260,194457,1,2,0:0:0:0:
284,292,194571,2,8,L|268:156,1,82.5,10|0,0:0|0:0,0:0:0:0:
476,292,194798,5,2,0:0:0:0:
436,324,194911,1,2,0:0:0:0:
396,356,195025,2,0,L|380:220,1,82.5,2|0,0:0|0:0,0:0:0:0:
368,160,195253,5,10,0:0:0:0:
368,160,195366,1,14,0:0:0:0:
