osu file format v14

[General]
AudioFilename: 05.mp3
AudioLeadIn: 0
PreviewTime: 179114
Countdown: 1
SampleSet: Normal
StackLeniency: 0.7
Mode: 0
LetterboxInBreaks: 1
WidescreenStoryboard: 1

[Editor]
Bookmarks: 14543,28257,55686,69400,83114,96829,151686
DistanceSpacing: 1.4
BeatDivisor: 4
GridSize: 4
TimelineZoom: 2.200001

[Metadata]
Title:Sainou Shredder
TitleUnicode:才能シュレッダー
Artist:Nanahoshi Kangengakudan
ArtistUnicode:ナナホシ管弦楽団
Creator:UnLock-
Version:Insane
Source:
Tags:HujuniseikouyuuP 不純異性交遊P abnormal_legacy Talent_Shredder Vocaloid Hatsune_miku Left
BeatmapID:1087151
BeatmapSetID:461896

[Difficulty]
HPDrainRate:5
CircleSize:5
OverallDifficulty:6
ApproachRate:9
SliderMultiplier:2.1
SliderTickRate:1

[Events]
//Background and Video events
0,0,"BG.png",0,0
//Break Periods
2,55886,68800
//Storyboard Layer 0 (Background)
//Storyboard Layer 1 (Fail)
//Storyboard Layer 2 (Pass)
//Storyboard Layer 3 (Foreground)
//Storyboard Sound Samples

[TimingPoints]
829,428.571428571429,4,1,0,100,1,0
41971,-100,4,1,0,100,0,1
55686,-100,4,1,0,100,0,0
96829,-100,4,1,0,100,0,1
110543,-100,4,1,0,100,0,0
165400,-100,4,1,0,100,0,1
192829,-100,4,1,0,100,0,0

[Colours]
Combo1 : 102,102,102
Combo2 : 1,58,116

[HitObjects]
215,162,829,6,0,P|240:166|266:164,1,52.5
327,122,1043,2,0,P|379:158|367:210,1,105
443,226,1364,2,0,P|451:202|449:176,1,52.5
307,214,1579,2,0,P|302:265|329:309,1,105
384,357,1900,2,0,L|252:357,2,105
504,272,2543,6,0,P|481:260|455:255,1,52.5
384,252,2757,2,0,L|384:357,1,105
312,336,3079,2,0,L|312:283,1,52.5
455,255,3293,2,0,P|507:231|471:171,1,105
483,119,3614,2,0,P|471:51|491:11,2,105
440,303,4257,6,0,P|414:308|388:305,1,52.5
316,292,4471,2,0,L|316:176,1,105
279,124,4793,2,0,P|258:138|248:162,1,52.5
384,220,5007,2,0,P|424:176|416:104,1,105
396,68,5329,2,0,L|501:68,2,105
255,44,5971,6,0,P|233:56|218:78,1,52.5
168,132,6186,2,0,L|168:240,1,105
147,307,6507,2,0,P|124:297|108:276,1,52.5
240,204,6721,2,0,B|259:203|272:212|272:212|302:196|341:196,1,105
412,216,7043,2,0,P|460:180|460:132,2,105
312,324,7686,6,0,P|286:319|260:325,1,52.5
196,360,7900,2,0,L|196:244,1,105
139,208,8221,2,0,P|124:229|122:255,1,52.5
272,219,8436,2,0,P|284:169|273:118,1,105
236,56,8757,2,0,B|312:56|312:56|335:39,2,105
99,116,9400,6,0,P|89:139|89:166,1,52.5
60,232,9614,2,0,L|180:232,1,105
176,304,9936,2,0,L|124:304,1,52.5
173,160,10150,2,0,B|216:160|216:160|256:160|268:185,1,105
296,252,10471,2,0,P|303:303|283:351,2,105
400,147,11114,6,0,P|400:173|414:195,1,52.5
480,232,11329,2,0,L|480:127,1,105
504,55,11650,2,0,P|478:52|452:56,1,52.5
332,152,11864,2,0,P|367:116|350:69,1,105
304,12,12186,2,0,L|408:0,2,105
191,107,12829,6,0,P|166:106|142:117,1,52.5
72,96,13043,2,0,L|72:212,1,105
52,272,13364,2,0,P|28:260|10:241,1,52.5
160,212,13579,2,0,B|200:212|200:212|220:228|220:228|259:228,1,105
332,244,13900,2,0,P|381:252|418:217,2,105
204,316,14543,1,0,0:0:0:0:
68,256,14757,6,0,P|62:230|69:205,1,52.5
51,131,14971,2,0,L|187:127,1,105
192,64,15293,2,0,L|328:68,1,105
364,40,15614,2,0,P|368:65|367:92,1,52.5
296,224,15829,2,0,P|289:199|290:173,1,52.5
436,144,16043,2,0,P|456:191|445:241,1,105
328,332,16471,5,0,0:0:0:0:
184,292,16686,2,0,L|68:288,1,105
16,328,17007,2,0,P|64:268|52:224,1,105
40,172,17329,2,0,L|144:169,2,105
160,88,17971,6,0,P|205:112|226:159,1,105
196,228,18293,2,0,B|228:244|268:224|268:224|295:236,1,105
356,279,18614,1,0,0:0:0:0:
356,279,18721,2,0,P|368:230|347:183,1,105
292,132,19043,2,0,L|400:132,2,105
72,328,19686,6,0,L|177:328,1,105
243,360,20007,2,0,P|248:308|218:267,1,105
164,220,20329,1,0,0:0:0:0:
164,220,20436,2,0,L|288:220,1,105
300,151,20757,2,0,P|274:145|248:148,1,52.5
308,284,20971,1,0,0:0:0:0:
308,284,21079,2,0,P|359:288|402:260,1,105
440,196,21400,1,0,0:0:0:0:
355,75,21614,6,0,P|334:61|309:55,1,52.5
236,64,21829,2,0,L|236:172,1,105
212,240,22150,2,0,B|248:248|280:228|280:228|309:243,1,105
360,300,22471,2,0,P|339:316|314:320,1,52.5
448,260,22686,2,0,P|472:269|488:289,1,52.5
372,200,22900,2,0,L|380:88,1,105
240,48,23329,5,0,0:0:0:0:
96,72,23543,2,0,P|71:117|81:167,1,105
88,240,23864,2,0,B|124:228|124:228|190:236,1,105
260,263,24186,1,0,0:0:0:0:
259,263,24293,2,0,P|260:332|329:322,1,157.5
329,322,24721,1,0,0:0:0:0:
480,343,24829,6,0,P|504:300|480:256,1,105
488,192,25150,2,0,B|404:192|404:192|420:178,1,105
455,115,25471,2,0,P|406:102|363:129,1,105
292,144,25793,1,0,0:0:0:0:
292,144,25900,2,0,L|300:20,2,105
68,336,26543,6,0,L|60:212,1,105
0,192,26864,2,0,P|40:160|94:167,1,105
151,211,27186,2,0,P|190:147|266:148,1,157.5
228,212,27614,1,0,0:0:0:0:
228,212,27721,1,0,0:0:0:0:
176,72,27829,2,0,L|352:72,1,157.5
396,36,28257,1,0,0:0:0:0:
396,36,28471,6,0,P|403:61|404:87,1,52.5
376,156,28686,2,0,L|508:156,1,105
436,296,29114,2,0,L|331:296,1,105
271,156,29543,2,0,L|376:156,1,105
331,296,29971,6,0,P|279:312|223:288,1,105
176,248,30293,1,0,0:0:0:0:
176,248,30400,2,0,P|161:269|158:295,1,52.5
264,192,30614,2,0,P|260:166|246:144,1,52.5
112,80,30829,1,0,0:0:0:0:
112,79,30936,2,0,P|100:102|97:128,1,52.5
52,186,31150,2,0,P|101:200|147:178,1,105
332,60,31686,1,0,0:0:0:0:
331,60,31900,6,0,P|358:58|383:63,1,52.5
456,84,32114,2,0,L|456:189,1,105
316,240,32543,2,0,L|316:135,1,105
456,189,32971,2,0,L|456:294,1,105
317,337,33400,6,0,P|300:289|315:239,1,105
312,168,33721,1,0,0:0:0:0:
312,167,33829,2,0,P|337:170|362:183,1,52.5
240,264,34043,2,0,P|214:260|189:247,1,52.5
64,176,34257,2,0,P|120:176|148:140,1,105
124,68,34579,2,0,L|232:68,1,105
432,152,35114,1,0,0:0:0:0:
432,152,35329,6,0,P|443:177|444:203,1,52.5
476,268,35543,2,0,P|425:281|375:269,1,105
256,183,35971,2,0,P|306:172|356:185,1,105
236,272,36400,2,0,P|185:283|135:270,1,105
40,160,36829,6,0,B|80:175|80:175|140:159,1,105
204,124,37150,1,0,0:0:0:0:
203,124,37257,2,0,P|211:99|212:73,1,52.5
168,12,37471,2,0,B|208:-3|208:-3|268:12,1,105
340,140,37900,1,0,0:0:0:0:
268,268,38114,2,0,B|208:284|208:284|167:268,1,105
100,244,38436,1,0,0:0:0:0:
28,224,38543,6,0,P|40:160|8:120,1,105
148,56,38971,2,0,L|264:56,1,105
323,32,39293,2,0,P|352:92|388:29,1,157.5
476,164,39829,1,0,0:0:0:0:
328,172,40043,1,0,0:0:0:0:
394,41,40257,1,0,0:0:0:0:
394,41,40900,5,0,0:0:0:0:
432,104,41007,1,0,0:0:0:0:
471,167,41114,2,0,P|477:193|474:219,1,52.5
325,223,41329,2,0,P|322:197|327:171,1,52.5
408,339,41971,6,0,P|386:353|360:357,1,52.5
228,288,42186,2,0,P|284:264|300:304,1,105
260,352,42507,1,0,0:0:0:0:
260,352,42614,2,0,L|188:352,1,52.5
136,220,42829,1,0,0:0:0:0:
136,220,42936,2,0,L|208:220,1,52.5
259,223,43150,2,0,P|234:180|259:137,1,105
227,72,43471,2,0,P|252:63|278:65,1,52.5
384,172,43686,6,0,P|336:136|360:96,1,105
400,48,44007,1,0,0:0:0:0:
400,48,44114,2,0,L|460:44,1,52.5
512,180,44329,2,0,L|452:176,1,52.5
400,312,44543,2,0,B|476:292|476:292|440:272,1,105
392,240,44864,1,0,0:0:0:0:
392,240,44971,2,0,P|366:244|346:261,1,52.5
284,304,45186,2,0,P|258:299|238:282,1,52.5
128,196,45400,6,0,B|200:192|200:192|232:164,1,105
268,112,45721,1,0,0:0:0:0:
268,112,45829,2,0,L|384:112,1,105
444,92,46150,2,0,P|417:134|441:179,1,105
472,244,46471,2,0,L|412:244,1,52.5
284,304,46686,1,0,0:0:0:0:
284,304,46793,1,0,0:0:0:0:
352,332,46900,2,0,P|356:306|354:280,1,52.5
236,192,47114,6,0,P|272:236|304:208,1,105
348,156,47436,1,0,0:0:0:0:
348,156,47543,2,0,L|348:36,1,105
420,72,47864,6,0,L|420:196,1,105
276,136,48186,2,0,L|276:72,1,52.5
136,128,48400,2,0,L|136:180,2,52.5
56,252,48829,6,0,P|71:272|95:281,1,52.5
152,328,49043,2,0,B|164:312|184:312|184:312|251:312,1,105
320,340,49364,1,0,0:0:0:0:
320,340,49471,2,0,P|324:314|320:288,1,52.5
420,176,49686,1,0,0:0:0:0:
420,176,49793,2,0,P|415:201|419:227,1,52.5
488,252,50007,2,0,P|499:201|489:150,1,105
496,75,50329,2,0,P|469:78|446:89,1,52.5
316,160,50543,6,0,P|372:128|372:88,1,105
348,24,50864,1,0,0:0:0:0:
348,24,50971,2,0,P|323:15|296:14,1,52.5
212,116,51186,2,0,P|236:124|263:125,1,52.5
336,252,51400,2,0,P|264:248|228:284,1,105
234,339,51721,1,0,0:0:0:0:
234,339,51829,2,0,P|208:334|186:320,1,52.5
131,274,52043,2,0,P|109:259|83:255,1,52.5
196,160,52257,6,0,B|236:160|236:160|260:168|260:168|300:168,1,105
368,196,52579,1,0,0:0:0:0:
368,196,52686,2,0,P|380:256|356:304,1,105
396,360,53007,2,0,L|291:360,1,105
219,379,53329,2,0,P|213:353|221:328,1,52.5
88,264,53543,2,0,B|128:264|128:264|148:256|148:256|192:256,1,105
320,188,53971,5,0,0:0:0:0:
252,160,54079,2,0,P|241:136|241:110,1,52.5
288,56,54293,2,0,L|428:56,1,105
444,108,54614,1,0,0:0:0:0:
444,108,54721,2,0,P|424:168|456:212,1,105
433,276,55043,2,0,P|459:274|484:264,1,52.5
344,216,55257,2,0,B|320:224|320:248|320:248|320:309,1,105
372,360,55579,1,0,0:0:0:0:
484,264,55686,1,0,0:0:0:0:
92,32,69400,5,0,0:0:0:0:
36,168,69614,2,0,P|32:193|35:219,1,52.5
68,288,69829,2,0,B|88:280|88:280|108:288|108:288|140:276|168:287,1,105
235,315,70150,2,0,P|207:271|215:220,1,105
196,150,70471,2,0,P|222:149|248:156,1,52.5
392,196,70686,2,0,P|380:219|361:237,1,52.5
235,315,70900,2,0,B|203:315|203:315|175:347|175:347|144:347,1,105
48,236,71329,5,0,0:0:0:0:
128,116,71543,2,0,L|256:116,1,105
300,147,71864,2,0,P|331:111|299:76,1,105
236,36,72186,2,0,L|120:36,2,105
299,76,72721,1,0,0:0:0:0:
444,44,72829,6,0,P|464:88|440:144,1,105
400,196,73150,2,0,P|380:240|404:296,1,105
356,352,73471,2,0,B|304:352|304:352|256:372|256:372|202:372,1,157.5
132,348,73900,1,0,0:0:0:0:
132,348,74007,2,0,P|124:323|128:296,1,52.5
252,220,74221,1,0,0:0:0:0:
253,220,74328,2,0,P|228:227|200:224,1,52.5
68,160,74543,6,0,B|68:132|104:132|104:132|156:132,1,105
228,108,74864,2,0,B|236:120|256:128|256:128|288:108|300:75,1,105
352,24,75186,1,0,0:0:0:0:
352,24,75293,2,0,B|436:24|436:24|422:39,1,105
376,96,75614,2,0,P|369:121|371:147,1,52.5
452,272,75829,1,0,0:0:0:0:
508,223,75936,2,0,P|528:176|511:128,1,105
452,84,76257,1,0,0:0:0:0:
304,79,76471,6,0,P|279:89|260:106,1,52.5
212,164,76686,2,0,L|100:164,1,105
88,235,77007,2,0,P|136:241|141:289,1,105
140,364,77329,2,0,P|113:362|90:350,1,52.5
220,280,77543,2,0,P|247:282|270:294,1,52.5
400,360,77757,2,0,B|328:344|328:344|352:324,1,105
472,236,78186,5,0,0:0:0:0:
400,108,78400,2,0,P|328:128|272:80,1,105
236,88,78721,2,0,B|200:80|168:96|168:96|132:80,1,105
64,76,79043,1,0,0:0:0:0:
64,76,79150,2,0,P|107:134|61:190,1,157.5
61,190,79579,1,0,0:0:0:0:
192,256,79686,6,0,B|272:256|272:256|283:233,1,105
232,180,80007,2,0,B|243:157|243:157|323:157,1,105
380,204,80329,2,0,P|368:144|464:148,1,157.5
480,60,80757,1,0,0:0:0:0:
480,60,80864,2,0,L|428:52,1,52.5
288,4,81079,1,0,0:0:0:0:
288,4,81186,2,0,L|236:11,1,52.5
100,68,81400,6,0,P|160:80|148:148,1,105
192,184,81721,2,0,B|104:184|104:184|111:199,1,105
151,263,82043,2,0,P|228:263|275:204,1,157.5
252,136,82471,1,0,0:0:0:0:
252,136,82579,1,0,0:0:0:0:
360,236,82686,2,0,B|416:260|472:236|472:236|468:217|449:200,1,157.5
388,164,83114,1,0,0:0:0:0:
387,163,83329,6,0,P|375:140|373:114,1,52.5
392,44,83543,2,0,L|287:44,1,105
192,156,83971,2,0,L|297:156,1,105
200,44,84400,2,0,L|95:44,1,105
8,164,84829,2,0,P|64:184|104:160,1,105
148,108,85150,1,0,0:0:0:0:
147,107,85257,2,0,P|165:127|172:152,1,52.5
92,276,85471,2,0,P|74:256|67:231,1,52.5
216,236,85686,1,0,0:0:0:0:
216,236,85793,2,0,P|208:261|191:280,1,52.5
140,332,86007,2,0,L|245:332,1,105
444,236,86543,1,0,0:0:0:0:
443,236,86757,6,0,P|446:209|442:184,1,52.5
404,120,86971,2,0,P|453:134|503:120,1,105
376,44,87400,2,0,P|326:29|276:43,1,105
148,120,87829,2,0,P|197:134|247:120,1,105
120,51,88257,6,0,P|81:85|73:136,1,105
48,204,88579,1,0,0:0:0:0:
47,203,88686,2,0,P|72:208|98:204,1,52.5
224,284,88900,2,0,P|229:258|225:232,1,52.5
172,96,89114,2,0,P|196:148|264:140,1,105
296,108,89436,2,0,L|401:108,1,105
476,316,89971,1,0,0:0:0:0:
476,315,90186,6,0,P|457:333|432:343,1,52.5
360,351,90400,2,0,P|372:301|359:251,1,105
244,160,90829,2,0,P|230:210|243:260,1,105
360,172,91257,2,0,P|373:121|360:71,1,105
216,36,91686,2,0,P|202:86|215:136,1,105
272,184,92007,1,0,0:0:0:0:
272,183,92114,2,0,P|251:199|227:209,1,52.5
108,124,92329,2,0,P|124:144|120:224,1,105
28,332,92757,1,0,0:0:0:0:
172,360,92971,2,0,B|248:360|248:360|270:341,1,105
322,289,93293,1,0,0:0:0:0:
373,237,93400,6,0,P|421:232|429:184,1,105
324,80,93829,2,0,L|192:80,1,105
156,120,94150,2,0,P|172:64|120:40,1,105
68,19,94471,2,0,P|64:45|71:71,1,52.5
140,204,94686,1,0,0:0:0:0:
219,80,94900,1,0,0:0:0:0:
70,70,95114,1,0,0:0:0:0:
70,70,95757,5,0,0:0:0:0:
145,75,95864,1,0,0:0:0:0:
220,80,95971,2,0,P|228:104|228:130,1,52.5
356,208,96186,2,0,P|331:216|305:216,1,52.5
192,312,96400,1,0,0:0:0:0:
176,240,96507,1,0,0:0:0:0:
193,168,96614,2,0,P|207:145|227:129,1,52.5
356,56,96829,6,0,P|367:79|370:105,1,52.5
492,188,97043,2,0,B|452:188|452:188|428:200|428:200|389:201,1,105
324,232,97364,1,0,0:0:0:0:
324,232,97471,2,0,P|317:206|321:181,1,52.5
