osu file format v14

[General]
AudioFilename: 05.mp3
AudioLeadIn: 0
PreviewTime: 179114
Countdown: 1
SampleSet: Normal
StackLeniency: 0.7
Mode: 0
LetterboxInBreaks: 1
WidescreenStoryboard: 1

[Editor]
Bookmarks: 14543,41971,96829,138186
DistanceSpacing: 1.3
BeatDivisor: 4
GridSize: 4
TimelineZoom: 3.199999

[Metadata]
Title:Sainou Shredder
TitleUnicode:才能シュレッダー
Artist:Nanahoshi Kangengakudan
ArtistUnicode:ナナホシ管弦楽団
Creator:UnLock-
Version:Expert
Source:
Tags:HujuniseikouyuuP 不純異性交遊P abnormal_legacy Talent_Shredder Vocaloid Hatsune_miku Left
BeatmapID:1038490
BeatmapSetID:461896

[Difficulty]
HPDrainRate:6
CircleSize:4.5
OverallDifficulty:6.5
ApproachRate:9.2
SliderMultiplier:2.6
SliderTickRate:1

[Events]
//Background and Video events
0,0,"BG.png",0,0
//Break Periods
2,55886,69014
//Storyboard Layer 0 (Background)
//Storyboard Layer 1 (Fail)
//Storyboard Layer 2 (Pass)
//Storyboard Layer 3 (Foreground)
//Storyboard Sound Samples

[TimingPoints]
829,428.571428571429,4,1,0,100,1,0
41971,-100,4,1,0,100,0,1
48186,-66.6666666666667,4,1,0,100,0,1
48829,-100,4,1,0,100,0,1
55686,-100,4,1,0,100,0,0
96829,-100,4,1,0,100,0,1
103043,-66.6666666666667,4,1,0,100,0,1
103686,-100,4,1,0,100,0,1
110543,-100,4,1,0,100,0,0
165400,-100,4,1,0,100,0,1
171614,-66.6666666666667,4,1,0,100,0,1
172257,-100,4,1,0,100,0,1
178471,-66.6666666666667,4,1,0,100,0,1
179114,-100,4,1,0,100,0,1
185329,-66.6666666666667,4,1,0,100,0,1
185971,-100,4,1,0,100,0,1
192829,-100,4,1,0,100,0,0

[Colours]
Combo1 : 102,102,102
Combo2 : 1,58,116

[HitObjects]
80,72,614,5,0,0:0:0:0:
80,72,721,1,0,0:0:0:0:
80,72,829,2,0,L|144:64,1,65
168,144,1043,2,0,B|104:152|104:152|82:185|91:218,1,130
72,296,1364,2,0,P|104:296|144:280,1,65
288,328,1579,2,0,P|228:304|244:240,1,130
288,184,1900,2,0,P|258:170|226:168,1,65
368,232,2114,2,0,B|392:216|392:216|392:136|392:136|406:121,1,130
468,64,2436,1,0,0:0:0:0:
312,44,2543,6,0,L|182:44,1,130
182,44,2864,1,0,0:0:0:0:
122,184,2971,1,0,0:0:0:0:
198,148,3079,2,0,L|263:148,1,65
333,195,3293,2,0,P|293:151|338:114,1,130
400,259,3614,2,0,P|373:279|343:290,1,65
192,248,3829,2,0,P|252:288|264:352,1,130
100,308,4257,6,0,P|84:279|82:247,1,65
32,180,4471,2,0,B|132:180|132:180|156:162,1,130
203,91,4793,2,0,P|173:80|141:78,1,65
288,132,5007,2,0,L|418:132,1,130
388,52,5329,2,0,L|323:52,1,65
320,216,5543,2,0,B|392:216|392:216|448:256,1,130
472,328,5864,1,0,0:0:0:0:
316,324,5971,6,0,B|264:324|264:324|244:304|244:304|194:304,1,130
112,332,6293,1,0,0:0:0:0:
216,219,6400,1,0,0:0:0:0:
216,219,6507,2,0,P|221:188|216:155,1,65
168,84,6721,2,0,P|216:120|256:72,1,130
111,16,7043,2,0,P|88:38|77:68,1,65
128,215,7257,2,0,P|102:159|41:149,1,130
84,312,7686,6,0,P|115:319|147:317,1,65
216,364,7900,2,0,P|280:324|344:360,1,130
400,380,8221,2,0,P|406:348|403:316,1,65
280,216,8436,2,0,P|331:251|388:228,1,130
416,148,8757,2,0,P|384:141|352:148,1,65
212,96,8971,2,0,B|288:96|288:96|320:96|335:73,1,130
268,20,9293,1,0,0:0:0:0:
128,90,9400,6,0,P|96:152|24:120,1,130
44,146,9721,1,0,0:0:0:0:
200,172,9829,1,0,0:0:0:0:
200,172,9936,2,0,L|280:172,1,65
393,81,10150,2,0,P|378:140|429:172,1,130
508,203,10471,2,0,P|511:171|505:140,1,65
388,248,10686,2,0,B|424:284|424:284|503:284,1,130
340,324,11114,6,0,L|272:324,1,65
196,360,11329,2,0,P|170:302|110:285,1,130
32,252,11650,2,0,P|27:283|31:316,1,65
144,208,11864,2,0,B|160:144|160:144|146:81,1,130
68,112,12186,2,0,B|60:144|60:144|68:176,1,65
192,272,12400,2,0,B|273:272|273:272|301:272|315:292,1,130
248,344,12721,1,0,0:0:0:0:
404,328,12829,6,0,B|420:296|404:264|404:264|388:232|404:200,1,130
460,144,13150,1,0,0:0:0:0:
344,40,13257,1,0,0:0:0:0:
344,40,13364,2,0,L|276:40,1,65
132,96,13579,2,0,B|220:96|220:96|256:116,1,130
292,192,13900,2,0,P|256:200|216:188,1,65
72,172,14114,2,0,P|136:200|136:264,1,130
256,380,14543,1,0,0:0:0:0:
384,268,14757,5,0,0:0:0:0:
384,268,14864,1,0,0:0:0:0:
464,240,14971,2,0,P|439:183|480:137,1,130
432,68,15293,2,0,L|302:68,1,130
260,140,15614,2,0,P|236:118|220:89,1,65
144,56,15829,2,0,B|144:144|144:144|116:188,1,130
48,216,16150,1,0,0:0:0:0:
180,296,16257,6,0,B|215:273|215:273|303:273,1,130
380,308,16579,1,0,0:0:0:0:
380,308,16686,2,0,B|388:276|380:244|380:244|372:212|380:180,1,130
460,156,17007,2,0,P|384:128|404:68,1,130
396,8,17329,2,0,P|427:17|460:48,1,65
304,88,17543,2,0,L|160:80,1,130
72,212,17971,6,0,L|216:204,1,130
264,263,18293,2,0,P|305:217|384:216,1,130
444,248,18614,2,0,B|500:212|500:212|444:176,1,130
404,104,18936,1,0,0:0:0:0:
404,104,19043,2,0,L|336:104,1,65
259,75,19257,2,0,P|228:81|205:103,1,65
124,124,19471,2,0,B|120:156|120:156|126:187,1,65
215,319,19686,6,0,P|168:278|105:285,1,130
144,360,20007,2,0,L|304:360,1,130
356,336,20329,1,0,0:0:0:0:
356,336,20436,2,0,B|372:304|372:304|372:209,1,130
359,128,20757,1,0,0:0:0:0:
359,128,20864,2,0,P|329:138|306:160,1,65
452,212,21078,2,0,B|468:196|468:196|468:88,1,130
416,20,21400,1,0,0:0:0:0:
248,24,21614,5,0,0:0:0:0:
248,24,21721,1,0,0:0:0:0:
204,96,21829,2,0,P|256:140|204:164,1,130
160,220,22150,2,0,L|290:220,1,130
256,296,22471,2,0,L|192:296,1,65
160,376,22686,2,0,L|312:376,1,130
360,328,23007,1,0,0:0:0:0:
440,352,23114,6,0,B|456:336|456:336|456:228,1,130
400,168,23436,1,0,0:0:0:0:
400,168,23543,2,0,P|410:137|408:105,2,65
328,124,23864,2,0,P|278:84|215:92,1,130
152,36,24186,1,0,0:0:0:0:
152,36,24293,2,0,P|135:61|129:96,1,65
188,240,24507,1,0,0:0:0:0:
188,240,24614,2,0,P|207:214|214:183,1,65
88,272,24829,6,0,P|122:325|183:344,1,130
264,364,25150,2,0,B|300:352|316:324|316:324|328:352|363:361,1,130
444,336,25471,2,0,P|420:288|480:264,1,130
496,180,25793,1,0,0:0:0:0:
496,180,25900,2,0,L|424:168,1,65
360,128,26114,2,0,P|326:135|300:160,1,65
256,224,26329,2,0,B|212:224|212:224|194:213,1,65
56,288,26543,6,0,P|104:240|96:180,1,130
48,116,26864,2,0,L|200:116,1,130
256,80,27186,2,0,B|288:64|320:80|320:80|350:96|384:80,1,130
460,52,27507,1,0,0:0:0:0:
460,52,27614,2,0,P|462:84|456:116,1,65
387,168,27829,2,0,P|490:205|410:279,1,260
244,276,28471,6,0,L|164:288,1,65
108,328,28686,2,0,P|140:248|88:208,1,130
52,172,29007,1,0,0:0:0:0:
204,139,29114,2,0,P|236:136|268:139,1,65
332,196,29329,2,0,B|332:244|332:244|316:268|316:268|316:321,2,130
412,168,29864,1,0,0:0:0:0:
412,168,29971,6,0,P|472:116|448:52,1,130
396,24,30293,1,0,0:0:0:0:
396,24,30400,2,0,L|324:28,1,65
268,84,30614,2,0,L|196:72,1,65
56,48,30829,1,0,0:0:0:0:
56,48,30936,2,0,P|77:73|82:105,1,65
44,180,31150,2,0,L|192:172,1,130
380,324,31686,6,0,P|408:338|440:340,1,65
484,272,31900,2,0,P|467:243|442:224,1,65
360,212,32114,2,0,P|408:160|408:80,1,130
364,36,32436,1,0,0:0:0:0:
212,76,32543,2,0,B|280:112|280:112|333:112,1,130
416,260,32971,2,0,B|348:224|348:224|294:224,1,130
216,256,33293,1,0,0:0:0:0:
216,256,33400,6,0,P|205:225|212:194,1,65
276,140,33614,2,0,L|140:140,1,130
64,116,33936,1,0,0:0:0:0:
64,116,34043,2,0,L|68:184,1,65
68,352,34257,2,0,P|93:293|165:305,1,130
296,232,34579,2,0,P|297:265|283:294,1,65
220,352,34793,1,0,0:0:0:0:
144,112,35114,6,0,P|176:112|206:100,1,65
276,56,35329,2,0,P|279:118|340:136,1,130
412,176,35650,1,0,0:0:0:0:
412,176,35757,2,0,L|416:100,1,65
492,76,35971,2,0,L|488:208,2,130
324,56,36614,1,0,0:0:0:0:
315,216,36829,6,0,P|321:279|368:321,1,130
448,356,37150,1,0,0:0:0:0:
292,360,37257,2,0,L|216:360,1,65
77,324,37471,2,0,B|164:324|164:324|166:305|146:286,1,130
8,188,37900,1,0,0:0:0:0:
136,72,38114,2,0,P|192:128|248:92,1,130
300,60,38436,1,0,0:0:0:0:
300,60,38543,6,0,L|388:64,1,65
448,80,38757,2,0,P|384:120|408:200,1,130
424,332,39186,1,0,0:0:0:0:
424,332,39293,2,0,B|376:332|376:332|344:320|344:320|296:320,1,130
220,356,39614,1,0,0:0:0:0:
80,256,39829,2,0,B|84:184|84:184|65:129,2,130
80,256,40900,5,0,0:0:0:0:
120,180,41007,1,0,0:0:0:0:
176,116,41114,2,0,P|203:106|260:108,1,65
288,32,41329,2,0,L|352:39,1,65
488,188,41971,6,0,L|423:191,1,65
351,143,42186,2,0,P|338:205|371:259,1,130
328,332,42507,1,0,0:0:0:0:
328,332,42614,2,0,P|293:339|263:337,1,65
116,288,42829,1,0,0:0:0:0:
116,288,42936,2,0,P|151:281|181:283,1,65
207,204,43150,2,0,P|142:202|78:215,1,130
0,196,43471,2,0,P|0:228|11:258,1,65
108,136,43686,6,0,B|120:102|120:102|27:113,2,130
142,211,44221,1,0,0:0:0:0:
142,211,44329,2,0,L|206:204,1,65
308,324,44543,2,0,P|232:332|244:268,1,130
288,236,44864,1,0,0:0:0:0:
288,235,44971,2,0,P|297:205|297:172,1,65
156,104,45186,2,0,P|146:134|146:167,1,65
288,236,45400,6,0,B|340:236|340:236|360:252|360:252|420:252,1,130
468,188,45721,1,0,0:0:0:0:
412,124,45829,2,0,B|359:124|359:124|339:140|339:140|287:140,1,130
140,88,46150,2,0,P|192:136|212:88,1,130
72,39,46471,2,0,P|59:69|59:102,1,65
172,216,46686,1,0,0:0:0:0:
172,216,46793,1,0,0:0:0:0:
91,187,46900,2,0,P|59:183|28:190,1,65
144,300,47114,6,0,B|192:312|232:280|232:280|272:288,1,130
348,312,47436,1,0,0:0:0:0:
428,280,47543,2,0,B|428:232|428:232|448:208|448:208|448:157,1,130
480,76,47864,6,0,B|436:64|400:84|400:84|377:74|354:71,1,130
326,246,48186,6,0,P|374:244|411:215,1,97.50000371933
252,140,48400,6,0,B|208:124|176:144|176:144|144:124|144:124|120:156|73:132,1,195.00000743866
72,300,48829,6,0,P|101:287|134:285,1,65
200,336,49043,2,0,L|200:206,1,130
252,140,49364,1,0,0:0:0:0:
252,140,49471,2,0,P|222:128|190:124,1,65
344,96,49686,1,0,0:0:0:0:
344,96,49793,2,0,L|416:88,1,65
456,156,50007,2,0,P|404:168|424:248,1,130
396,320,50329,2,0,P|428:317|456:302,1,65
316,236,50543,6,0,B|264:232|228:264|228:264|192:244,2,130
403,234,51079,1,0,0:0:0:0:
488,227,51186,2,0,P|503:199|505:167,1,65
360,108,51400,2,0,L|204:108,1,130
148,84,51721,1,0,0:0:0:0:
147,84,51829,2,0,P|142:115|152:146,1,65
264,256,52043,2,0,P|268:224|258:193,1,65
180,328,52257,6,0,P|233:362|297:360,2,130
120,268,52793,2,0,B|104:256|104:256|48:260,1,65
203,199,53007,2,0,P|262:184|263:123,1,130
276,40,53329,2,0,P|243:42|214:57,1,65
348,136,53543,2,0,P|380:133|409:118,1,65
511,235,53757,2,0,P|450:220|396:252,1,130
344,320,54079,6,0,L|260:320,1,65
128,336,54293,2,0,P|148:272|204:288,1,130
204,364,54614,1,0,0:0:0:0:
49,364,54721,2,0,B|24:340|24:340|24:240,1,130
144,140,55043,2,0,P|141:171|117:193,1,65
48,56,55257,2,0,L|200:56,1,130
236,116,55579,1,0,0:0:0:0:
348,8,55686,1,0,0:0:0:0:
444,56,69614,5,0,0:0:0:0:
444,56,69721,1,0,0:0:0:0:
364,28,69829,2,0,P|280:52|244:16,1,130
176,0,70150,2,0,B|168:32|176:64|176:64|168:96|176:128,1,130
228,195,70471,2,0,P|247:169|259:138,1,65
104,108,70686,2,0,L|108:244,1,130
256,316,71114,6,0,P|332:292|380:344,1,130
444,360,71436,1,0,0:0:0:0:
444,360,71543,2,0,L|448:224,1,130
467,152,71864,2,0,P|404:145|364:96,1,130
383,19,72186,2,0,P|351:17|322:30,1,65
196,120,72400,2,0,B|300:120|300:120|272:96,1,130
224,40,72721,1,0,0:0:0:0:
100,140,72829,6,0,L|100:288,1,130
75,351,73150,2,0,P|110:302|166:325,1,130
248,352,73471,2,0,P|212:272|312:268,1,195
340,320,73900,1,0,0:0:0:0:
340,320,74007,2,0,P|370:329|402:324,1,65
484,192,74221,1,0,0:0:0:0:
484,192,74329,2,0,P|453:182|421:187,1,65
304,84,74543,6,0,B|400:80|400:80|373:58,1,130
311,3,74864,2,0,P|251:20|223:77,1,130
252,160,75186,1,0,0:0:0:0:
252,160,75293,2,0,P|168:112|136:168,1,130
83,76,75614,1,0,0:0:0:0:
83,76,75721,2,0,P|71:106|72:138,1,65
196,240,75936,2,0,P|139:215|75:247,1,130
215,323,76257,2,0,L|280:323,1,65
436,360,76471,5,0,0:0:0:0:
436,360,76579,1,0,0:0:0:0:
476,284,76686,2,0,P|448:220|480:172,1,130
488,92,77007,2,0,B|408:108|408:108|364:87,1,130
332,8,77329,2,0,P|363:0|394:6,1,65
296,128,77543,2,0,B|252:107|252:107|172:123,1,130
32,220,77971,6,0,B|32:304|32:304|64:336,1,130
148,360,78293,1,0,0:0:0:0:
216,312,78400,2,0,P|219:279|209:249,2,65
284,360,78721,2,0,L|440:360,1,130
476,303,79043,1,0,0:0:0:0:
476,303,79150,2,0,P|484:272|473:242,1,65
384,116,79364,1,0,0:0:0:0:
384,116,79471,2,0,P|373:146|381:177,1,65
468,48,79686,6,0,B|448:20|400:20|400:20|346:20,1,130
288,84,80007,2,0,B|234:84|234:84|186:84|166:56,1,130
100,0,80329,2,0,P|148:56|72:120,1,195
24,188,80757,1,0,0:0:0:0:
24,188,80864,2,0,L|108:200,1,65
220,284,81079,1,0,0:0:0:0:
220,284,81186,2,0,L|304:272,1,65
432,224,81400,6,0,P|368:176|420:128,1,130
428,72,81721,2,0,L|298:72,1,130
272,152,82043,2,0,B|245:151|234:138|234:138|201:161|201:161|188:123|188:123|149:126|128:88,1,195
48,64,82471,1,0,0:0:0:0:
48,64,82579,1,0,0:0:0:0:
8,141,82686,2,0,B|8:319|8:319|24:275|64:265,1,260
246,268,83329,6,0,P|245:300|230:329,1,65
299,376,83543,2,0,P|330:319|329:255,1,130
276,188,83864,1,0,0:0:0:0:
420,248,83971,2,0,P|451:251|481:238,1,65
436,168,84186,2,0,B|356:168|356:168|352:140|329:126,2,130
488,104,84721,1,0,0:0:0:0:
436,36,84829,6,0,L|292:36,1,130
236,80,85150,1,0,0:0:0:0:
236,80,85257,2,0,L|224:160,1,65
100,236,85471,2,0,L|92:171,1,65
243,216,85686,1,0,0:0:0:0:
302,276,85793,2,0,L|299:340,1,65
173,243,86007,2,0,P|174:180|226:144,1,130
456,248,86543,6,0,P|429:228|410:202,1,65
356,140,86757,2,0,P|385:126|417:123,1,65
500,140,86971,2,0,P|457:94|473:34,1,130
388,24,87293,1,0,0:0:0:0:
388,24,87400,2,0,B|316:48|316:48|284:40|280:8,1,130
148,120,87829,2,0,B|220:96|220:96|252:104|256:136,1,130
240,216,88150,1,0,0:0:0:0:
240,216,88257,6,0,L|244:304,1,65
228,364,88471,2,0,P|288:336|344:364,1,130
420,332,88793,1,0,0:0:0:0:
420,331,88900,2,0,P|431:301|431:267,1,65
320,161,89114,2,0,P|382:168|429:125,1,130
404,44,89436,2,0,P|375:59|354:83,1,65
508,116,89650,1,0,0:0:0:0:
267,31,89971,6,0,P|236:37|212:58,1,65
128,44,90186,2,0,L|144:184,1,130
128,256,90507,1,0,0:0:0:0:
128,256,90614,2,0,L|200:244,1,65
240,316,90829,2,0,L|112:340,2,130
404,352,91471,1,0,0:0:0:0:
496,208,91686,6,0,L|496:68,1,130
432,24,92007,1,0,0:0:0:0:
288,84,92114,2,0,B|320:92|320:92|351:84,1,65
320,8,92329,2,0,L|184:8,1,130
92,144,92757,1,0,0:0:0:0:
172,292,92971,2,0,L|320:292,1,130
380,324,93293,1,0,0:0:0:0:
380,323,93400,6,0,P|385:292|377:260,1,65
328,192,93614,2,0,B|436:192|436:192|454:179,1,130
360,40,94043,1,0,0:0:0:0:
360,40,94150,2,0,B|252:40|252:40|233:52,1,130
188,124,94471,1,0,0:0:0:0:
20,88,94686,2,0,P|9:30|67:23,2,130
20,88,95757,5,0,0:0:0:0:
20,88,95864,1,0,0:0:0:0:
64,160,95971,2,0,P|92:176|124:178,1,65
180,244,96186,2,0,L|264:256,1,65
320,293,96400,2,0,L|312:328,2,32.5
415,304,96614,2,0,P|407:272|391:244,1,65
248,180,96829,6,0,P|279:188|311:189,1,65
436,96,97043,2,0,P|412:118|396:146,1,65
490,268,97257,2,0,P|448:223|390:243,1,130
320,292,97579,1,0,0:0:0:0:
176,352,97686,1,0,0:0:0:0:
176,352,97793,2,0,P|146:343|114:348,1,65
44,300,98007,2,0,L|44:156,1,130
96,100,98329,2,0,P|67:85|34:82,1,65
188,44,98543,6,0,B|256:44|256:44|272:52|272:52|288:44|288:44|314:44,2,130
108,16,99079,1,0,0:0:0:0:
96,100,99186,2,0,P|106:130|132:149,1,65
287,167,99400,2,0,P|225:162|187:211,1,130
204,292,99721,1,0,0:0:0:0:
204,292,99829,2,0,P|233:278|255:255,1,65
104,216,100043,2,0,L|32:216,1,65
96,360,100257,6,0,B|120:376|120:376|232:376,1,130
301,340,100579,1,0,0:0:0:0:
301,340,100686,2,0,B|320:356|320:356|360:308|327:258,1,130
204,164,101007,2,0,P|268:188|328:148,1,130
360,88,101329,1,0,0:0:0:0:
360,88,101436,2,0,B|448:88|448:88|484:60,1,130
336,8,101757,2,0,L|260:8,1,65
152,112,101971,6,0,P|210:119|220:60,1,130
140,32,102293,1,0,0:0:0:0:
104,184,102400,2,0,B|136:264|136:264|179:264,1,130
216,340,102721,6,0,B|124:340|124:340|100:340|92:312,1,130
228,184,103043,6,0,B|284:172|284:172|322:184,1,97.50000371933
492,104,103257,6,0,B|475:92|451:93|434:103|434:103|413:117|393:118|364:105|359:70|369:47|391:36,1,195.00000743866
228,88,103686,6,0,L|152:88,1,65
104,27,103900,2,0,P|78:86|101:145,1,130
128,224,104221,1,0,0:0:0:0:
128,224,104329,2,0,P|153:207|172:179,1,65
324,148,104543,1,0,0:0:0:0:
324,148,104651,2,0,P|298:164|279:192,1,65
244,268,104864,2,0,L|374:268,1,130
344,348,105186,2,0,L|280:348,1,65
280,192,105400,6,0,B|342:192|342:192|376:180|376:180|405:191,2,130
200,168,105936,1,0,0:0:0:0:
120,200,106043,2,0,P|111:169|118:137,1,65
268,88,106257,2,0,B|320:88|320:88|340:76|340:76|394:76,1,130
476,44,106579,1,0,0:0:0:0:
476,44,106686,2,0,P|480:76|473:107,1,65
348,196,106900,2,0,P|373:176|404:166,1,65
392,320,107114,6,0,B|348:340|348:340|266:340,2,130
332,260,107650,2,0,L|256:260,1,65
112,224,107864,2,0,B|133:202|133:202|202:202|202:202|226:182,1,130
268,108,108186,2,0,P|237:98|205:101,1,65
52,108,108400,2,0,P|58:139|77:165,1,65
172,292,108614,2,0,B|252:292|252:292|287:327,1,130
344,263,108936,6,0,P|371:248|403:248,1,65
507,132,109150,2,0,P|462:174|402:156,1,130
352,88,109471,1,0,0:0:0:0:
232,188,109579,2,0,B|200:204|200:204|106:190,1,130
112,348,109900,2,0,L|176:336,1,65
332,344,110114,2,0,P|272:292|280:240,1,130
324,176,110436,1,0,0:0:0:0:
404,204,110543,6,0,L|484:204,1,65
492,120,110757,2,0,P|404:112|376:28,1,130
311,36,111079,1,0,0:0:0:0:
311,36,111186,2,0,P|282:49|250:52,1,65
168,28,111400,2,0,P|175:92|165:156,1,130
112,220,111721,1,0,0:0:0:0:
112,220,111829,2,0,P|172:268|160:324,1,130
244,348,112150,1,0,0:0:0:0:
244,348,112257,6,0,B|320:332|320:332|337:352|364:359,1,130
444,328,112579,2,0,L|444:198,1,130
372,152,112900,2,0,P|317:184|253:177,1,130
188,124,113221,1,0,0:0:0:0:
188,124,113329,2,0,L|123:124,1,65
64,184,113543,2,0,P|128:212|108:272,1,130
68,328,113864,1,0,0:0:0:0:
68,327,113971,6,0,P|127:303|190:313,1,130
268,352,114293,2,0,P|331:361|390:337,1,130
472,356,114614,2,0,L|468:204,1,130
504,148,114936,2,0,P|472:141|440:146,1,65
364,184,115150,1,0,0:0:0:0:
364,184,115257,1,0,0:0:0:0:
284,164,115364,2,0,P|258:146|243:118,2,65
308,248,115686,6,0,P|288:320|212:344,1,130
160,320,116007,1,0,0:0:0:0:
160,320,116114,2,0,L|160:148,1,130
112,120,116436,1,0,0:0:0:0:
112,120,116543,2,0,P|173:136|227:104,1,130
268,28,116864,2,0,L|436:28,1,130
479,55,117186,2,0,P|485:88|482:120,1,65
440,192,117400,2,0,P|434:224|437:256,1,65
484,328,117614,5,0,0:0:0:0:
484,328,117721,1,0,0:0:0:0:
484,328,117829,1,0,0:0:0:0:
484,328,117936,1,0,0:0:0:0:
484,328,118043,1,0,0:0:0:0:
484,328,118150,1,0,0:0:0:0:
483,328,118257,2,0,P|456:345|425:353,1,65
348,324,118471,2,0,P|324:301|313:271,1,65
232,252,118686,2,0,L|168:252,1,65
92,288,118900,5,0,0:0:0:0:
92,288,119007,1,0,0:0:0:0:
92,288,119114,1,0,0:0:0:0:
92,288,119221,1,0,0:0:0:0:
93,288,119329,2,0,P|83:257|87:225,1,65
132,152,119543,2,0,P|141:121|137:89,1,65
92,20,119757,5,0,0:0:0:0:
92,20,119864,1,0,0:0:0:0:
92,20,119971,1,0,0:0:0:0:
92,20,120079,1,0,0:0:0:0:
92,20,120186,2,0,L|176:28,1,65
240,12,120400,2,0,P|268:72|360:84,1,130
408,72,120721,1,0,0:0:0:0:
500,200,120829,6,0,B|408:200|408:200|360:248,1,130
320,284,121150,1,0,0:0:0:0:
320,284,121257,2,0,L|236:288,1,65
112,348,121471,2,0,L|28:344,1,65
124,208,121686,2,0,P|204:192|200:120,1,130
256,79,122007,1,0,0:0:0:0:
256,79,122114,2,0,P|288:79|320:84,1,65
416,208,122329,2,0,P|383:208|351:203,1,65
204,252,122543,6,0,P|268:276|288:344,1,130
444,315,122864,1,0,0:0:0:0:
444,315,122971,2,0,B|475:307|475:307|507:307,2,65
289,329,123293,2,0,B|252:324|224:348|224:348|164:348,1,130
80,360,123614,1,0,0:0:0:0:
196,256,123721,1,0,0:0:0:0:
48,204,123829,2,0,P|3:133|84:144,1,195
84,47,124257,6,0,P|114:37|147:35,1,65
216,84,124471,2,0,P|247:92|279:87,1,65
344,31,124686,2,0,P|353:93|411:119,1,130
492,92,125007,1,0,0:0:0:0:
415,228,125114,2,0,P|384:236|352:235,1,65
228,136,125329,2,0,P|250:158|266:187,1,65
164,303,125543,2,0,P|212:264|272:283,1,130
131,375,125971,6,0,P|90:328|94:264,1,130
136,188,126293,1,0,0:0:0:0:
136,188,126400,2,0,L|140:100,1,65
128,40,126614,2,0,P|256:64|304:24,1,195
448,80,127043,2,0,B|406:79|382:119|382:119|389:234,1,195
449,289,127471,2,0,P|423:309|392:316,1,65
240,276,127686,5,0,0:0:0:0:
240,276,127793,1,0,0:0:0:0:
240,276,127900,2,0,P|266:256|297:249,1,65
236,188,128114,2,0,L|104:188,1,130
43,48,128436,2,0,P|52:108|112:120,1,130
235,24,128757,2,0,P|211:45|196:73,1,65
320,168,128971,2,0,L|450:168,1,130
420,248,129293,1,0,0:0:0:0:
420,248,129400,6,0,L|272:248,1,130
251,323,129721,2,0,P|208:277|210:214,1,130
248,140,130043,1,0,0:0:0:0:
248,140,130150,2,0,L|96:140,1,130
152,64,130471,2,0,L|217:64,1,65
296,28,130686,2,0,P|356:84|424:60,1,130
472,232,131114,5,0,0:0:0:0:
396,268,131221,1,0,0:0:0:0:
320,308,131329,2,0,P|313:339|312:372,1,65
176,292,131543,1,0,0:0:0:0:
176,292,131650,1,0,0:0:0:0:
176,292,131757,2,0,L|176:208,1,65
32,164,131971,2,0,P|104:180|140:132,1,130
196,83,132293,1,0,0:0:0:0:
196,83,132400,2,0,P|227:76|260:77,1,65
336,40,132614,2,0,P|342:71|341:104,1,65
288,252,132829,5,0,0:0:0:0:
368,228,132936,1,0,0:0:0:0:
448,204,133043,2,0,L|512:204,1,65
412,320,133257,1,0,0:0:0:0:
412,320,133364,2,0,L|340:320,1,65
196,276,133579,2,0,P|216:196|168:136,1,130
194,70,133900,2,0,P|162:76|135:95,1,65
284,148,134114,2,0,L|280:4,1,130
436,88,134543,6,0,L|472:80,4,32.5
360,56,134864,1,0,0:0:0:0:
364,140,134971,2,0,L|324:136,4,32.5
440,180,135293,1,0,0:0:0:0:
444,264,135400,2,0,L|480:256,4,32.5
368,232,135721,1,0,0:0:0:0:
372,316,135828,2,0,L|332:312,4,32.5
448,356,136150,1,0,0:0:0:0:
368,232,136257,6,0,L|336:224,4,32.5
444,264,136579,1,0,0:0:0:0:
364,140,136686,2,0,L|368:92,4,32.5
292,188,137007,1,0,0:0:0:0:
440,180,137114,2,0,L|484:180,4,32.5
368,232,137436,1,0,0:0:0:0:
436,88,137543,2,0,L|472:96,4,32.5
360,56,137864,1,0,0:0:0:0:
292,188,137971,1,0,0:0:0:0:
116,136,138186,5,0,0:0:0:0:
116,136,138293,1,0,0:0:0:0:
96,55,138400,2,0,P|158:62|195:113,1,130
172,196,138721,2,0,B|174:242|204:284|204:284|222:254,1,130
304,284,139043,2,0,P|311:252|304:221,1,65
240,364,139257,2,0,L|370:364,1,130
480,236,139686,6,0,B|504:224|504:224|504:120,1,130
460,48,140007,1,0,0:0:0:0:
460,48,140114,2,0,P|405:79|342:70,1,130
307,147,140436,2,0,P|262:103|262:40,1,130
180,16,140757,2,0,L|84:16,1,65
36,152,140971,2,0,B|68:124|68:124|155:124,1,130
228,172,141293,1,0,0:0:0:0:
384,172,141400,6,0,P|360:112|300:148,1,130
232,92,141721,2,0,P|208:32|148:68,1,130
76,16,142043,2,0,B|76:96|76:96|100:124|100:124|100:208,1,195
60,276,142471,1,0,0:0:0:0:
60,276,142578,2,0,B|76:288|76:288|121:288,1,65
264,356,142793,1,0,0:0:0:0:
264,356,142900,2,0,B|280:344|280:344|325:344,1,65
468,280,143114,6,0,P|392:256|416:192,1,130
440,148,143436,2,0,L|292:148,1,130
232,120,143757,1,0,0:0:0:0:
232,120,143864,2,0,B|224:148|232:172|232:172|216:188|216:188|224:212|216:244,1,130
188,320,144186,1,0,0:0:0:0:
188,320,144293,2,0,P|220:323|251:317,1,65
117,228,144507,2,0,B|60:228|60:228|24:228|24:264|62:263,1,130
172,152,144829,2,0,P|179:120|177:88,1,65
320,28,145043,5,0,0:0:0:0:
320,28,145150,1,0,0:0:0:0:
400,8,145257,2,0,P|393:70|343:109,1,130
296,180,145579,2,0,B|396:180|396:180|373:199,1,130
412,276,145900,2,0,L|347:276,1,65
192,292,146114,2,0,P|280:308|288:364,1,130
120,340,146543,6,0,L|120:200,1,130
172,144,146864,1,0,0:0:0:0:
172,144,146971,2,0,B|139:142|125:122|125:122|104:95,2,86.6666666666667
340,144,147400,2,0,B|372:142|386:122|386:122|407:95,2,86.6666666666667
256,0,147829,1,0,0:0:0:0:
256,168,148043,5,0,0:0:0:0:
256,168,148150,1,0,0:0:0:0:
196,226,148257,2,0,P|254:249|312:224,1,130
312,308,148579,2,0,P|253:282|195:306,1,130
118,337,148900,2,0,B|114:318|132:296|132:296|112:280|112:280|144:256|144:188|88:172,1,195
56,104,149329,1,0,0:0:0:0:
56,104,149437,2,0,P|88:102|116:86,1,65
256,16,149651,1,0,0:0:0:0:
256,16,149758,2,0,P|283:31|316:33,1,65
460,88,149971,6,0,P|392:112|392:180,1,130
408,244,150293,2,0,L|260:244,1,130
196,232,150614,2,0,P|208:172|120:208,1,195
128,280,151043,1,0,0:0:0:0:
128,280,151150,1,0,0:0:0:0:
128,280,151257,2,0,B|128:332|52:348|52:348|124:380|196:349,1,260
352,283,151900,6,0,P|384:280|415:286,1,65
452,212,152114,2,0,P|389:195|324:201,1,130
264,264,152436,1,0,0:0:0:0:
312,116,152543,2,0,L|400:116,1,65
460,136,152757,2,0,B|496:136|496:100|496:100|496:24,2,130
377,116,153293,1,0,0:0:0:0:
296,100,153400,6,0,B|268:100|248:112|248:112|200:76|178:76,1,130
92,80,153721,1,0,0:0:0:0:
92,80,153829,2,0,P|65:98|49:126,1,65
168,228,154043,2,0,P|164:195|148:167,1,65
20,260,154257,1,0,0:0:0:0:
84,316,154364,2,0,L|148:319,1,65
296,264,154579,2,0,P|239:289|239:350,1,130
459,227,155114,6,0,P|453:196|436:168,1,65
416,84,155329,2,0,B|384:72|384:72|352:72,1,65
288,20,155543,2,0,B|252:12|224:32|224:32|196:16|164:20,1,130
116,92,155864,1,0,0:0:0:0:
116,92,155971,2,0,P|108:123|111:155,1,65
268,180,156186,2,0,P|244:157|215:144,1,65
104,256,156400,2,0,L|244:256,1,130
396,195,156829,5,0,0:0:0:0:
391,111,156936,2,0,P|367:90|337:79,1,65
188,127,157150,2,0,P|240:93|252:30,1,130
172,48,157471,1,0,0:0:0:0:
288,156,157579,2,0,P|293:187|283:218,1,65
236,288,157793,1,0,0:0:0:0:
87,335,157900,2,0,P|66:311|59:280,1,65
48,196,158114,2,0,B|96:208|96:208|176:208,1,130
240,152,158436,1,0,0:0:0:0:
332,280,158543,6,0,P|363:287|395:285,1,65
479,291,158757,2,0,P|488:228|478:164,1,130
488,80,159079,1,0,0:0:0:0:
488,80,159186,2,0,L|392:72,1,65
352,120,159400,2,0,P|308:64|240:88,1,130
184,32,159721,2,0,L|180:104,1,65
76,236,160043,2,0,P|94:262|122:277,1,65
184,336,160257,6,0,P|256:288|300:308,1,130
372,324,160579,1,0,0:0:0:0:
452,291,160686,2,0,P|466:262|469:230,1,65
352,128,160900,2,0,P|355:160|369:189,1,65
428,44,161114,2,0,L|288:44,1,130
224,4,161436,1,0,0:0:0:0:
76,208,161757,1,0,0:0:0:0:
76,208,161864,1,0,0:0:0:0:
76,208,161971,6,0,P|132:260|184:232,1,130
332,184,162400,2,0,L|476:184,1,130
495,108,162721,2,0,P|437:97|437:37,1,130
355,64,163043,2,0,P|323:66|294:53,1,65
156,128,163257,2,0,B|208:140|248:108|248:108|237:92|224:86,1,130
152,44,163579,1,0,0:0:0:0:
152,44,163686,1,0,0:0:0:0:
151,43,164329,6,0,P|123:29|91:32,1,65
28,176,164543,1,0,0:0:0:0:
108,204,164650,1,0,0:0:0:0:
188,232,164757,1,0,0:0:0:0:
268,264,164864,2,0,L|348:264,1,65
400,212,165079,2,0,P|427:155|399:98,1,130
417,16,165400,6,0,P|384:13|354:24,1,65
264,152,165614,2,0,P|281:125|287:93,1,65
136,52,165829,2,0,B|116:104|136:160|136:160|151:147,1,130
208,88,166150,1,0,0:0:0:0:
64,28,166257,1,0,0:0:0:0:
11,96,166364,2,0,P|6:128|9:160,1,65
96,292,166579,2,0,B|102:244|96:188|96:188|81:209,1,130
19,264,166900,2,0,P|13:295|21:326,1,65
168,376,167114,6,0,B|200:388|232:376|232:376|264:364|296:376,2,130
92,336,167650,1,0,0:0:0:0:
92,336,167757,2,0,P|109:310|160:292,1,65
268,208,167971,2,0,L|124:208,1,130
168,128,168293,1,0,0:0:0:0:
168,128,168400,2,0,L|252:128,1,65
368,48,168614,2,0,L|303:48,1,65
376,187,168829,6,0,P|435:208|458:267,1,130
416,340,169150,1,0,0:0:0:0:
416,340,169257,2,0,L|264:340,1,130
132,376,169579,2,0,B|224:376|224:376|225:358|206:344,1,130
156,276,169900,2,0,P|124:266|92:267,1,65
232,200,170114,2,0,P|287:172|288:110,1,130
228,52,170436,1,0,0:0:0:0:
372,112,170543,6,0,L|504:112,1,130
484,196,170864,2,0,P|412:204|428:272,1,130
352,312,171186,1,0,0:0:0:0:
280,360,171293,6,0,L|116:360,1,130
116,167,171614,6,0,P|162:155|206:173,1,97.50000371933
280,360,171829,6,0,B|264:336|264:336|124:336|124:336|107:315,1,195.00000743866
3,183,172257,6,0,P|0:152|13:122,1,65
72,64,172471,2,0,L|202:64,1,130
280,28,172793,1,0,0:0:0:0:
280,28,172900,2,0,P|286:59|281:91,1,65
160,192,173114,1,0,0:0:0:0:
160,192,173221,2,0,P|184:170|214:158,1,65
344,248,173436,2,0,B|308:272|308:272|221:272,1,130
137,294,173757,2,0,P|149:323|175:343,1,65
160,188,173971,6,0,B|128:176|96:188|96:188|64:200|32:188,2,130
240,220,174507,1,0,0:0:0:0:
312,175,174614,2,0,P|322:145|322:112,1,65
168,80,174829,2,0,B|248:88|248:88|256:64|276:48,1,130
348,3,175150,1,0,0:0:0:0:
348,3,175257,2,0,P|379:-2|411:3,1,65
480,144,175471,2,0,P|448:150|416:144,1,65
352,288,175686,6,0,P|424:296|432:360,1,130
356,368,176007,1,0,0:0:0:0:
272,360,176114,2,0,B|240:360|240:336|240:336|240:251,1,130
84,272,176436,2,0,B|116:272|116:248|116:248|116:163,1,130
108,80,176757,2,0,P|77:90|52:110,1,65
196,172,176971,2,0,L|261:172,1,65
420,188,177186,2,0,P|360:156|356:96,1,130
396,23,177507,6,0,P|364:16|332:18,1,65
192,92,177721,2,0,B|292:92|292:92|270:70,1,130
212,12,178043,1,0,0:0:0:0:
128,144,178150,6,0,B|128:212|128:212|128:256|160:255,1,130
356,220,178471,6,0,P|319:188|272:175,1,97.50000371933
318,375,178686,6,0,B|352:376|352:376|384:364|384:364|416:376|416:376|472:376|487:321,1,195.00000743866
512,160,179114,6,0,P|505:128|486:102,1,65
344,168,179329,2,0,P|374:178|406:174,1,65
324,40,179543,2,0,B|224:40|224:40|200:88,1,130
268,128,179864,1,0,0:0:0:0:
120,80,179971,1,0,0:0:0:0:
47,128,180079,2,0,P|35:157|39:189,1,65
164,284,180293,2,0,P|172:216|108:236,1,130
83,284,180614,2,0,P|87:315|106:341,1,65
264,356,180829,6,0,B|296:368|328:356|328:356|360:344|392:356,2,130
264,272,181364,1,0,0:0:0:0:
264,272,181471,2,0,P|294:262|325:271,1,65
468,332,181686,2,0,P|440:260|468:200,1,130
508,144,182007,1,0,0:0:0:0:
508,144,182114,2,0,P|477:132|445:130,1,65
300,184,182329,2,0,B|336:188|336:188|363:180,1,65
224,112,182543,6,0,B|176:112|176:112|152:112|136:120|136:120|120:112|96:112,1,130
20,143,182864,1,0,0:0:0:0:
20,143,182971,2,0,P|37:200|96:189,1,130
216,292,183293,2,0,B|264:292|264:292|280:300|280:300|296:292|296:292|342:292,1,130
312,372,183614,2,0,B|280:380|280:380|247:372,1,65
144,256,183829,1,0,0:0:0:0:
144,256,183936,1,0,0:0:0:0:
196,188,184043,2,0,L|268:188,1,65
416,192,184257,6,0,P|360:152|364:80,1,130
416,36,184579,1,0,0:0:0:0:
272,96,184686,2,0,B|224:104|224:104|192:92|192:92|145:99,1,130
64,116,185007,6,0,P|128:152|80:196,1,130
235,355,185329,6,0,P|245:310|289:292,1,97.50000371933
452,172,185543,6,0,B|424:172|424:172|400:164|400:164|380:172|360:172|360:172|312:172|296:144|312:112|325:112,1,195.00000743866
163,59,185971,6,0,P|132:54|101:64,1,65
28,104,186186,2,0,B|28:156|28:156|48:172|48:172|48:224,1,130
28,308,186507,1,0,0:0:0:0:
28,308,186614,2,0,P|60:307|91:298,1,65
215,200,186829,1,0,0:0:0:0:
215,200,186936,2,0,P|198:228|191:259,1,65
324,344,187150,2,0,B|352:328|352:328|352:212,1,130
344,148,187471,2,0,P|312:154|289:176,1,65
440,228,187686,6,0,B|452:196|440:164|440:164|428:132|440:100,2,130
412,308,188221,1,0,0:0:0:0:
340,352,188329,2,0,P|308:358|276:352,1,65
132,292,188543,2,0,B|188:312|228:276|228:276|204:261,1,130
160,188,188864,1,0,0:0:0:0:
160,188,188971,2,0,P|128:179|95:179,1,65
236,104,189186,2,0,P|267:95|300:95,1,65
424,192,189400,6,0,P|384:140|456:136,1,130
500,156,189721,1,0,0:0:0:0:
492,240,189829,2,0,B|459:273|459:273|368:272,1,130
224,312,190150,2,0,B|256:345|256:345|339:344,1,130
244,220,190471,2,0,P|211:216|181:226,1,65
36,160,190686,2,0,P|68:163|98:153,1,65
208,40,190900,2,0,P|236:108|312:96,1,130
364,139,191221,6,0,P|395:134|428:137,1,65
512,276,191436,2,0,B|500:308|464:308|464:308|396:308,1,130
320,276,191757,1,0,0:0:0:0:
176,336,191864,2,0,P|232:312|200:240,1,130
128,128,192186,2,0,P|120:168|132:200,1,65
284,192,192400,1,0,0:0:0:0:
292,184,192454,1,0,0:0:0:0:
300,176,192507,1,0,0:0:0:0:
308,168,192561,1,0,0:0:0:0:
316,160,192614,2,0,L|252:146,1,65
80,72,192829,6,0,L|144:64,1,65
168,144,193043,2,0,B|104:152|104:152|82:185|91:218,1,130
72,296,193364,2,0,P|104:296|144:280,1,65
288,328,193579,2,0,P|228:304|244:240,1,130
288,184,193900,2,0,P|258:170|226:168,1,65
368,232,194114,2,0,B|392:216|392:216|392:136|392:136|406:121,1,130
468,64,194436,1,0,0:0:0:0:
312,44,194543,6,0,L|182:44,1,130
182,44,194864,1,0,0:0:0:0:
122,184,194971,1,0,0:0:0:0:
198,148,195079,2,0,L|263:148,1,65
333,195,195293,2,0,P|293:151|338:114,1,130
400,259,195614,2,0,P|373:279|343:290,1,65
192,248,195829,2,0,P|252:288|264:352,1,130
100,308,196257,6,0,P|84:279|82:247,1,65
32,180,196471,2,0,B|132:180|132:180|156:162,1,130
203,91,196793,2,0,P|173:80|141:78,1,65
288,132,197007,2,0,L|418:132,1,130
388,52,197329,2,0,L|323:52,1,65
320,216,197543,2,0,B|392:216|392:216|448:256,1,130
472,328,197864,1,0,0:0:0:0:
316,324,197971,6,0,B|264:324|264:324|244:304|244:304|194:304,1,130
112,332,198293,1,0,0:0:0:0:
216,219,198400,1,0,0:0:0:0:
216,219,198507,2,0,P|221:188|216:155,1,65
168,84,198721,2,0,P|216:120|256:72,1,130
111,16,199043,2,0,P|88:38|77:68,1,65
128,215,199257,2,0,P|102:159|41:149,1,130
84,312,199686,6,0,P|115:319|147:317,1,65
216,364,199900,2,0,P|280:324|344:360,1,130
400,380,200221,2,0,P|406:348|403:316,1,65
280,216,200436,2,0,P|331:251|388:228,1,130
416,148,200757,2,0,P|384:141|352:148,1,65
212,96,200971,2,0,B|288:96|288:96|320:96|335:73,1,130
268,20,201293,1,0,0:0:0:0:
128,90,201400,6,0,P|96:152|24:120,1,130
44,146,201721,1,0,0:0:0:0:
200,172,201829,1,0,0:0:0:0:
200,172,201936,2,0,L|280:172,1,65
393,81,202150,2,0,P|378:140|429:172,1,130
508,203,202471,2,0,P|511:171|505:140,1,65
388,248,202686,2,0,B|424:284|424:284|503:284,1,130
340,324,203114,6,0,L|272:324,1,65
196,360,203329,2,0,P|170:302|110:285,1,130
32,252,203650,2,0,P|27:283|31:316,1,65
144,208,203864,2,0,B|160:144|160:144|146:81,1,130
68,112,204186,2,0,B|60:144|60:144|68:176,1,65
192,272,204400,2,0,B|273:272|273:272|301:272|315:292,1,130
248,344,204721,1,0,0:0:0:0:
404,328,204829,6,0,B|420:296|404:264|404:264|388:232|404:200,1,130
460,144,205150,1,0,0:0:0:0:
344,40,205257,1,0,0:0:0:0:
344,40,205364,2,0,L|276:40,1,65
132,96,205579,2,0,B|220:96|220:96|256:116,1,130
292,192,205900,2,0,P|256:200|216:188,1,65
72,172,206114,2,0,P|136:200|136:264,1,130
256,380,206543,1,0,0:0:0:0:
256,192,206650,12,0,208257,0:0:0:0:
