osu file format v14

[General]
AudioFilename: 05.mp3
AudioLeadIn: 0
PreviewTime: 179114
Countdown: 1
SampleSet: Normal
StackLeniency: 0.7
Mode: 0
LetterboxInBreaks: 1
WidescreenStoryboard: 1

[Editor]
Bookmarks: 14543,41971,96829
DistanceSpacing: 1.3
BeatDivisor: 2
GridSize: 4
TimelineZoom: 0.6

[Metadata]
Title:Sainou Shredder
TitleUnicode:才能シュレッダー
Artist:Nanahoshi Kangengakudan
ArtistUnicode:ナナホシ管弦楽団
Creator:UnLock-
Version:Easy
Source:
Tags:HujuniseikouyuuP 不純異性交遊P abnormal_legacy Talent_Shredder Vocaloid Hatsune_miku Left
BeatmapID:1082909
BeatmapSetID:461896

[Difficulty]
HPDrainRate:2
CircleSize:3.5
OverallDifficulty:2
ApproachRate:3
SliderMultiplier:0.799999999999998
SliderTickRate:1

[Events]
//Background and Video events
0,0,"BG.png",0,0
//Break Periods
2,55886,67960
//Storyboard Layer 0 (Background)
//Storyboard Layer 1 (Fail)
//Storyboard Layer 2 (Pass)
//Storyboard Layer 3 (Foreground)
//Storyboard Sound Samples

[TimingPoints]
829,428.571428571429,4,1,0,100,1,0
41971,-100,4,1,0,100,0,1
55686,-100,4,1,0,100,0,0
96829,-100,4,1,0,100,0,1
110543,-100,4,1,0,100,0,0
165400,-100,4,1,0,100,0,1
192829,-100,4,1,0,100,0,0

[Colours]
Combo1 : 102,102,102
Combo2 : 1,58,116

[HitObjects]
60,56,829,6,0,P|140:104|176:64,1,160
272,28,2114,1,0,0:0:0:0:
372,56,2543,2,0,L|472:48,2,79.9999999999998
304,132,3829,1,0,0:0:0:0:
404,152,4257,6,0,P|432:192|352:260,1,160
268,232,5543,1,0,0:0:0:0:
175,183,5971,2,0,P|136:176|97:180,2,79.9999999999998
260,124,7257,1,0,0:0:0:0:
352,76,7686,6,0,P|347:153|420:176,1,160
496,244,8971,1,0,0:0:0:0:
404,288,9400,2,0,L|404:372,2,79.9999999999998
312,240,10686,1,0,0:0:0:0:
228,300,11114,6,0,B|168:324|124:296|124:296|124:244,1,160
72,156,12400,1,0,0:0:0:0:
168,120,12829,2,0,B|176:80|176:80|168:40,2,79.9999999999998
264,160,14114,1,0,0:0:0:0:
344,96,14543,6,0,B|395:97|416:128|416:128|416:206,1,160
452,304,15829,1,0,0:0:0:0:
364,356,16257,2,0,B|328:312|328:312|220:312,1,160
136,256,17543,1,0,0:0:0:0:
84,168,17971,6,0,P|64:108|84:44,2,120
188,168,19686,2,0,P|208:108|188:44,2,120
136,256,21400,6,0,L|304:256,1,160
392,300,22686,1,0,0:0:0:0:
444,212,23114,2,0,P|424:120|360:156,1,160
288,172,24400,1,0,0:0:0:0:
196,120,24829,6,0,B|164:96|164:96|84:96,2,120
196,224,26543,2,0,B|164:248|164:248|84:248,2,120
288,172,28257,5,0,0:0:0:0:
452,44,29114,1,0,0:0:0:0:
287,172,29971,2,0,P|282:211|292:249,1,79.9999999999998
396,248,30829,2,0,P|405:209|400:170,1,79.9999999999998
344,80,31686,5,0,0:0:0:0:
144,132,32543,1,0,0:0:0:0:
344,79,33400,2,0,P|383:82|419:100,1,79.9999999999998
420,204,34257,2,0,P|384:221|344:224,1,79.9999999999998
268,156,35114,5,0,0:0:0:0:
132,312,35971,1,0,0:0:0:0:
268,155,36829,2,0,P|263:116|238:85,1,79.9999999999998
144,132,37686,2,0,P|148:171|173:202,1,79.9999999999998
260,260,38543,5,0,0:0:0:0:
440,156,39400,1,0,0:0:0:0:
388,64,39829,2,0,L|284:64,1,79.9999999999998
100,48,41114,1,0,0:0:0:0:
32,244,41971,6,0,P|68:259|108:259,1,79.9999999999998
204,304,42829,2,0,L|204:208,1,79.9999999999998
172,124,43686,2,0,P|247:142|308:95,1,160
396,40,44971,1,0,0:0:0:0:
468,116,45400,6,0,L|468:280,1,160
384,340,46686,1,0,0:0:0:0:
296,288,47114,2,0,L|296:208,1,79.9999999999998
296,104,47971,1,0,0:0:0:0:
384,52,48400,1,0,0:0:0:0:
467,116,48829,6,0,P|438:142|401:157,1,79.9999999999998
332,236,49686,2,0,L|232:236,1,79.9999999999998
199,327,50543,2,0,P|148:269|154:191,1,160
208,104,51829,1,0,0:0:0:0:
304,64,52257,6,0,P|376:92|456:64,1,160
492,164,53543,1,0,0:0:0:0:
456,264,53971,2,0,L|360:264,1,79.9999999999998
296,332,54829,1,0,0:0:0:0:
212,268,55257,1,0,0:0:0:0:
128,328,55686,1,0,0:0:0:0:
464,52,69400,6,0,P|464:112|368:124,1,160
284,88,70686,1,0,0:0:0:0:
184,108,71114,2,0,B|136:134|132:180|132:180|64:180,1,160
20,276,72400,1,0,0:0:0:0:
108,328,72829,6,0,B|184:340|184:340|225:327,2,120
108,223,74543,2,0,B|184:211|184:211|225:223,2,120
20,276,76257,6,0,B|20:176|20:176|56:126,1,160
144,72,77543,1,0,0:0:0:0:
232,128,77971,2,0,L|412:128,1,160
476,192,79257,1,0,0:0:0:0:
396,260,79686,6,0,P|408:316|480:336,2,120
292,264,81400,2,0,P|280:320|208:340,2,120
344,176,83114,5,0,0:0:0:0:
488,24,83971,1,0,0:0:0:0:
343,176,84829,2,0,P|305:184|265:179,1,79.9999999999998
172,136,85686,2,0,P|133:127|93:132,1,79.9999999999998
8,192,86543,5,0,0:0:0:0:
152,40,87400,1,0,0:0:0:0:
7,192,88257,2,0,P|24:228|62:248,1,79.9999999999998
160,256,89114,2,0,P|194:275|210:311,1,79.9999999999998
300,368,89971,5,0,0:0:0:0:
96,332,90829,1,0,0:0:0:0:
300,368,91686,2,0,P|368:348|384:324,1,79.9999999999998
440,264,92543,2,0,L|444:168,1,79.9999999999998
476,84,93400,5,0,0:0:0:0:
271,52,94257,2,0,P|239:75|220:110,1,79.9999999999998
320,144,95114,1,0,0:0:0:0:
116,184,95971,1,0,0:0:0:0:
276,316,96829,6,0,L|380:312,1,79.9999999999998
452,267,97686,2,0,P|469:232|458:195,1,79.9999999999998
436,92,98543,2,0,B|396:96|372:132|372:132|289:132,1,160
192,96,99829,1,0,0:0:0:0:
91,120,100257,6,0,P|69:196|84:273,1,160
168,340,101543,1,0,0:0:0:0:
264,299,101971,2,0,P|303:293|340:304,1,79.9999999999998
424,364,102829,1,0,0:0:0:0:
492,284,103257,1,0,0:0:0:0:
500,180,103686,6,0,P|499:138|478:104,1,79.9999999999998
380,72,104543,2,0,L|288:72,1,79.9999999999998
199,44,105400,2,0,P|208:121|269:171,1,160
352,232,106686,1,0,0:0:0:0:
276,304,107114,6,0,B|196:304|196:304|164:284|164:284|122:284,1,160
56,204,108400,1,0,0:0:0:0:
144,144,108829,2,0,L|236:140,1,79.9999999999998
316,92,109686,1,0,0:0:0:0:
420,100,110114,1,0,0:0:0:0:
488,176,110543,6,0,P|494:215|488:254,1,79.9999999999998
412,324,111400,2,0,P|372:330|333:324,1,79.9999999999998
240,276,112257,2,0,P|272:208|256:136,2,120
164,348,113971,2,0,P|232:380|304:364,2,120
88,276,115686,1,0,0:0:0:0:
172,84,116543,1,0,0:0:0:0:
348,192,117400,6,0,P|404:208|432:200,1,79.9999999999998
440,100,118257,2,0,P|384:84|356:92,1,79.9999999999998
263,124,119114,2,0,P|203:162|171:99,1,160
112,16,120400,1,0,0:0:0:0:
28,80,120829,6,0,L|24:248,1,160
108,300,122114,1,0,0:0:0:0:
192,236,122543,2,0,P|272:216|320:296,1,160
404,328,123829,1,0,0:0:0:0:
480,256,124257,5,0,0:0:0:0:
452,156,124686,2,0,B|416:128|416:128|301:128,1,160
204,92,125971,2,0,P|200:148|216:180,1,79.9999999999998
280,248,126829,2,0,P|291:286|284:325,1,79.9999999999998
196,376,127686,5,0,0:0:0:0:
96,348,128114,2,0,B|64:332|64:332|64:204,1,160
36,108,129400,2,0,P|84:104|120:120,1,79.9999999999998
216,112,130257,2,0,P|253:99|292:104,1,79.9999999999998
384,56,131114,5,0,0:0:0:0:
456,132,131543,2,0,B|420:204|420:204|340:204,1,160
264,276,132829,2,0,B|224:284|224:284|185:276,1,79.9999999999998
92,324,133686,2,0,B|84:284|84:284|91:245,1,79.9999999999998
52,148,134543,6,0,B|92:136|132:148|132:148|208:128|208:128|248:140|289:128,1,239.999999999999
388,112,136257,2,0,P|424:144|352:200,1,160
268,252,137543,1,0,0:0:0:0:
188,320,137971,6,0,P|148:244|68:252,1,160
12,164,139257,1,0,0:0:0:0:
84,92,139686,2,0,L|256:92,1,160
340,52,140971,1,0,0:0:0:0:
420,120,141400,6,0,B|432:196|432:196|467:220,2,120
328,172,143114,2,0,B|316:248|316:248|280:272,2,120
252,100,144829,6,0,B|221:112|204:140|204:140|107:140,1,160
52,228,146114,1,0,0:0:0:0:
116,311,146543,2,0,P|170:260|237:295,1,160
332,336,147829,1,0,0:0:0:0:
404,260,148257,6,0,P|468:252|500:208,2,120
320,196,149971,2,0,P|256:188|224:144,2,120
412,148,151686,5,0,0:0:0:0:
252,284,152543,1,0,0:0:0:0:
412,147,153400,2,0,P|421:109|414:70,1,79.9999999999998
320,24,154257,2,0,L|220:24,1,79.9999999999998
160,88,155114,5,0,0:0:0:0:
348,180,155971,1,0,0:0:0:0:
159,87,156829,2,0,P|120:88|81:97,1,79.9999999999998
80,204,157686,2,0,P|118:213|158:213,1,79.9999999999998
260,184,158543,5,0,0:0:0:0:
360,368,159400,1,0,0:0:0:0:
260,184,160257,2,0,P|276:136|308:116,1,79.9999999999998
402,119,161114,2,0,P|431:145|440:183,1,79.9999999999998
352,240,161971,5,0,0:0:0:0:
167,336,162829,2,0,P|130:348|91:341,1,79.9999999999998
124,240,163686,1,0,0:0:0:0:
304,348,164543,1,0,0:0:0:0:
480,236,165400,6,0,P|488:184|468:152,1,79.9999999999998
404,84,166257,2,0,L|312:84,1,79.9999999999998
219,83,167114,2,0,P|190:57|182:19,2,79.9999999999998
268,176,168400,1,0,0:0:0:0:
320,264,168829,6,0,L|400:264,1,79.9999999999998
492,311,169686,2,0,P|499:234|450:173,1,160
352,136,170971,1,0,0:0:0:0:
252,168,171400,2,0,P|213:175|175:163,1,79.9999999999998
79,204,172257,6,0,P|68:242|73:281,1,79.9999999999998
148,356,173114,2,0,B|176:336|176:336|221:336,1,79.9999999999998
284,252,173971,2,0,L|284:156,2,79.9999999999998
348,336,175257,1,0,0:0:0:0:
408,252,175686,6,0,L|408:172,1,79.9999999999998
479,95,176543,2,0,P|407:65|335:94,1,160
260,168,177829,1,0,0:0:0:0:
187,95,178257,2,0,P|149:86|110:94,1,79.9999999999998
44,176,179114,6,0,B|52:217|52:217|44:254,1,79.9999999999998
120,328,179971,2,0,L|216:332,1,79.9999999999998
284,268,180829,2,0,P|296:216|272:168,2,79.9999999999998
348,352,182114,1,0,0:0:0:0:
444,308,182543,6,0,P|460:264|452:224,1,79.9999999999998
456,128,183400,2,0,B|424:128|392:152|392:152|327:89,1,160
256,12,184686,1,0,0:0:0:0:
184,88,185114,2,0,L|127:144,1,79.9999999999998
53,215,185971,6,0,P|85:239|124:248,1,79.9999999999998
204,312,186829,2,0,L|300:312,1,79.9999999999998
384,288,187686,2,0,P|412:315|424:353,2,79.9999999999998
308,216,188971,1,0,0:0:0:0:
368,131,189400,6,0,P|406:121|443:132,1,79.9999999999998
484,36,190257,2,0,P|407:16|330:34,1,160
252,104,191543,1,0,0:0:0:0:
172,172,191971,2,0,L|80:172,1,79.9999999999998
48,267,192829,6,0,P|124:258|179:313,1,160
272,356,194114,1,0,0:0:0:0:
372,328,194543,2,0,L|472:336,2,79.9999999999998
304,252,195829,1,0,0:0:0:0:
404,232,196257,6,0,P|432:192|352:124,1,160
268,152,197543,1,0,0:0:0:0:
175,201,197971,2,0,P|136:208|97:204,2,79.9999999999998
260,260,199257,1,0,0:0:0:0:
352,308,199686,6,0,P|347:231|420:208,1,160
496,140,200971,1,0,0:0:0:0:
404,96,201400,2,0,L|404:12,2,79.9999999999998
312,144,202686,1,0,0:0:0:0:
228,84,203114,6,0,B|168:60|124:88|124:88|124:140,1,160
72,228,204400,1,0,0:0:0:0:
168,264,204829,2,0,B|176:304|176:304|168:344,2,79.9999999999998
264,224,206114,1,0,0:0:0:0:
168,180,206543,1,0,0:0:0:0:
256,192,206757,12,0,208257,0:0:0:0:
