osu file format v14

[General]
AudioFilename: 05.mp3
AudioLeadIn: 0
PreviewTime: 179114
Countdown: 1
SampleSet: Normal
StackLeniency: 0.7
Mode: 0
LetterboxInBreaks: 1
WidescreenStoryboard: 1

[Editor]
Bookmarks: 55686,69400,151686
DistanceSpacing: 0.9
BeatDivisor: 4
GridSize: 4
TimelineZoom: 1.300001

[Metadata]
Title:Sainou Shredder
TitleUnicode:才能シュレッダー
Artist:Nanahoshi Kangengakudan
ArtistUnicode:ナナホシ管弦楽団
Creator:UnLock-
Version:Collab Normal
Source:
Tags:HujuniseikouyuuP 不純異性交遊P abnormal_legacy Talent_Shredder Vocaloid Hatsune_miku Left
BeatmapID:1033439
BeatmapSetID:461896

[Difficulty]
HPDrainRate:3
CircleSize:4
OverallDifficulty:4
ApproachRate:4
SliderMultiplier:1.2
SliderTickRate:1

[Events]
//Background and Video events
0,0,"BG.png",0,0
//Break Periods
2,55886,68080
//Storyboard Layer 0 (Background)
//Storyboard Layer 1 (Fail)
//Storyboard Layer 2 (Pass)
//Storyboard Layer 3 (Foreground)
//Storyboard Sound Samples

[TimingPoints]
829,428.571428571429,4,1,0,100,1,0
41971,-100,4,1,0,100,0,1
55686,-100,4,1,0,100,0,0
96829,-100,4,1,0,100,0,1
110543,-100,4,1,0,100,0,0
165400,-100,4,1,0,100,0,1
192829,-100,4,1,0,100,0,0

[Colours]
Combo1 : 102,102,102
Combo2 : 1,58,116

[HitObjects]
349,57,829,6,0,L|367:145,1,60
351,168,1257,1,0,0:0:0:0:
279,129,1579,2,0,P|272:192|339:252,1,150
383,246,2329,1,0,0:0:0:0:
426,214,2543,6,0,L|433:294,1,60
455,321,2971,1,0,0:0:0:0:
388,366,3293,2,0,P|328:324|244:348,1,150
213,370,4043,1,0,0:0:0:0:
162,349,4257,6,0,L|156:278,1,60
125,246,4686,1,0,0:0:0:0:
64,299,5007,2,0,B|50:242|50:242|83:152,1,150
80,102,5757,1,0,0:0:0:0:
118,64,5971,6,0,P|154:60|196:69,1,60
218,27,6400,2,0,P|271:56|316:45,1,90
364,100,7043,2,0,P|379:71|376:31,2,60
319,130,7686,6,0,L|331:215,1,60
321,242,8114,2,0,P|269:233|224:245,1,90
161,277,8757,2,0,L|174:359,2,60
122,239,9400,6,0,P|135:203|136:168,1,60
114,132,9829,2,0,P|102:73|107:30,1,90
175,4,10471,1,0,0:0:0:0:
210,44,10686,2,0,L|276:40,1,60
323,46,11114,6,0,P|331:96|326:124,1,60
315,156,11543,1,0,0:0:0:0:
241,190,11864,2,0,P|307:233|388:191,1,150
394,163,12614,1,0,0:0:0:0:
442,187,12829,6,0,L|528:182,1,60
472,228,13257,2,0,P|448:274|458:323,1,90
380,348,13900,2,0,L|371:279,1,60
331,253,14329,1,0,0:0:0:0:
291,289,14543,6,0,P|227:312|169:288,1,120
107,332,15293,2,0,L|100:236,1,90
65,200,15829,2,0,P|78:159|74:118,1,60
112,100,16257,6,0,P|99:59|103:18,2,60
180,55,17007,2,0,P|243:38|288:47,1,90
316,62,17543,1,0,0:0:0:0:
330,168,17971,6,0,B|373:159|373:159|429:168,2,90
253,195,18936,1,0,0:0:0:0:
305,256,19257,2,0,L|283:334,1,60
287,367,19686,6,0,P|217:336|182:343,1,90
135,377,20329,2,0,P|128:309|174:262,1,120
232,240,21079,2,0,L|230:134,1,90
211,99,21614,5,0,0:0:0:0:
255,67,21829,2,0,P|286:59|326:60,1,60
364,76,22257,2,0,L|373:4,2,60
383,126,22900,1,0,0:0:0:0:
344,164,23114,6,0,P|359:211|360:247,1,60
348,274,23543,2,0,L|271:268,1,60
237,250,23971,5,0,0:0:0:0:
224,302,24186,1,0,0:0:0:0:
207,353,24400,1,0,0:0:0:0:
119,289,24829,6,0,P|58:273|10:284,2,90
159,218,25793,1,0,0:0:0:0:
193,144,26114,2,0,P|154:137|119:148,1,60
88,169,26543,6,0,L|79:62,1,90
143,28,27186,2,0,P|217:59|275:38,1,120
302,27,27829,1,0,0:0:0:0:
392,84,28257,6,0,P|355:162|370:214,1,120
379,242,28900,1,0,0:0:0:0:
348,286,29114,2,0,L|352:358,2,60
239,285,29971,6,0,L|229:209,1,60
177,228,30400,2,0,L|169:287,1,60
115,292,30829,2,0,P|116:228|97:189,1,90
79,158,31364,1,0,0:0:0:0:
106,81,31686,6,0,P|175:61|238:84,1,120
263,105,32329,1,0,0:0:0:0:
312,83,32543,2,0,L|318:15,2,60
382,164,33400,2,0,L|378:242,1,60
339,261,33829,1,0,0:0:0:0:
292,233,34043,1,0,0:0:0:0:
249,265,34257,2,0,P|228:331|250:389,1,120
147,325,35114,6,0,L|30:299,1,120
6,250,35757,1,0,0:0:0:0:
41,209,35971,2,0,P|34:173|36:129,1,60
57,101,36400,1,0,0:0:0:0:
144,38,36829,6,0,P|219:68|271:54,1,120
354,103,37686,2,0,B|361:73|361:73|360:28,2,60
307,200,38543,6,0,P|380:179|436:204,1,120
451,235,39186,1,0,0:0:0:0:
430,284,39400,2,0,L|444:368,1,60
400,380,39829,2,0,P|393:318|338:299,1,120
184,322,40900,5,0,0:0:0:0:
147,361,41114,2,0,P|136:319|169:261,1,90
233,168,41971,6,0,L|218:90,1,60
190,64,42400,2,0,P|266:87|321:59,1,120
342,38,43043,2,0,L|361:117,1,60
348,149,43471,1,0,0:0:0:0:
384,189,43686,6,0,P|377:231|383:259,1,60
394,299,44114,2,0,L|308:293,1,60
304,340,44543,2,0,P|264:312|220:320,1,90
169,258,45186,1,0,0:0:0:0:
125,290,45400,6,0,L|56:283,1,60
30,242,45829,1,0,0:0:0:0:
101,205,46150,2,0,P|119:142|111:102,1,90
82,76,46686,2,0,L|146:69,1,60
179,31,47114,6,0,L|243:38,1,60
258,87,47543,2,0,P|316:49|357:65,1,90
405,87,48186,5,0,0:0:0:0:
403,140,48400,1,0,0:0:0:0:
398,193,48614,1,0,0:0:0:0:
429,237,48829,6,0,P|411:283|412:311,1,60
436,340,49257,2,0,L|314:332,1,120
267,356,49900,2,0,L|248:279,1,60
279,250,50329,1,0,0:0:0:0:
312,207,50543,6,0,P|324:173|319:125,1,60
310,97,50971,2,0,L|240:105,1,60
206,135,51400,2,0,P|210:84|191:43,1,90
133,101,52043,1,0,0:0:0:0:
98,142,52257,6,0,L|108:212,1,60
152,230,52686,1,0,0:0:0:0:
125,306,53007,2,0,P|187:303|221:277,1,90
253,258,53543,2,0,L|263:330,1,60
303,351,53971,6,0,P|349:338|376:343,1,60
412,355,54400,2,0,P|404:293|419:252,1,90
438,190,55043,2,0,L|504:193,2,60
393,159,55686,5,0,0:0:0:0:
456,52,69400,6,0,L|456:120,1,60
476,164,69829,2,0,P|400:144|360:168,1,120
324,196,70471,1,0,0:0:0:0:
308,248,70686,2,0,L|308:324,1,60
323,359,71114,6,0,P|269:335|210:329,1,120
156,344,71757,1,0,0:0:0:0:
104,359,71971,2,0,P|114:301|107:241,1,120
60,140,72829,6,0,L|60:50,2,90
132,180,73793,2,0,P|180:152|264:184,1,150
312,160,74543,6,0,L|312:250,1,90
352,320,75186,2,0,B|304:340|266:315|266:315|238:327,1,120
196,360,75829,1,0,0:0:0:0:
104,304,76257,6,0,L|96:236,1,60
64,200,76686,2,0,P|120:176|136:116,1,120
144,68,77329,1,0,0:0:0:0:
148,16,77543,2,0,P|176:6|206:8,1,60
248,40,77971,6,0,L|376:40,1,120
408,76,78614,1,0,0:0:0:0:
432,124,78829,2,0,L|432:248,1,120
352,316,79686,6,0,P|388:341|431:352,2,90
288,268,80650,2,0,B|172:296|172:296|146:279,1,150
92,292,81400,6,0,P|104:249|94:205,1,90
36,147,82043,2,0,P|89:122|145:138,1,120
184,180,82686,1,0,0:0:0:0:
248,268,83114,6,0,B|368:244|368:244|436:272,1,180
444,316,83971,2,0,B|422:262|422:262|446:142,1,180
456,88,84829,5,0,0:0:0:0:
352,60,85257,1,0,0:0:0:0:
248,36,85686,1,0,0:0:0:0:
248,36,85900,2,0,L|208:108,1,60
116,124,86543,6,0,P|176:160|168:276,1,180
156,312,87400,2,0,P|192:252|308:260,1,180
344,272,88257,5,0,0:0:0:0:
368,168,88686,1,0,0:0:0:0:
392,64,89114,1,0,0:0:0:0:
392,64,89329,2,0,L|312:52,1,60
228,36,89971,6,0,P|192:96|84:72,1,180
84,32,90829,2,0,L|108:232,1,180
132,256,91686,6,0,P|76:271|57:325,2,120
220,320,92971,1,0,0:0:0:0:
304,252,93400,6,0,P|340:224|408:248,1,120
456,268,94043,1,0,0:0:0:0:
503,248,94257,2,0,P|507:218|506:188,1,60
468,148,94686,2,0,P|464:118|465:88,1,60
500,48,95114,1,0,0:0:0:0:
340,60,95757,5,0,0:0:0:0:
288,72,95971,2,0,L|292:152,1,60
300,296,96829,6,0,P|216:272|180:304,1,120
148,316,97471,1,0,0:0:0:0:
116,360,97686,2,0,L|116:220,1,120
104,188,98329,1,0,0:0:0:0:
68,148,98543,5,0,0:0:0:0:
164,104,98971,2,0,L|224:104,1,60
272,128,99400,2,0,P|336:108|380:144,1,120
420,168,100043,1,0,0:0:0:0:
420,168,100257,6,0,L|420:296,1,120
380,324,100900,1,0,0:0:0:0:
340,360,101114,2,0,P|308:308|240:312,1,120
204,328,101757,1,0,0:0:0:0:
168,368,101971,5,0,0:0:0:0:
100,284,102400,2,0,L|100:208,1,60
120,171,102829,2,0,P|90:166|63:177,2,60
204,240,103686,6,0,P|300:240|316:224,1,120
352,192,104329,1,0,0:0:0:0:
385,147,104543,2,0,B|448:147|448:147|488:148|495:123,1,120
492,68,105186,1,0,0:0:0:0:
444,40,105400,5,0,0:0:0:0:
340,72,105829,2,0,L|280:72,1,60
228,52,106257,2,0,P|240:104|200:156,1,120
148,164,106900,1,0,0:0:0:0:
148,164,107114,6,0,B|188:204|188:204|251:204,1,120
300,224,107757,1,0,0:0:0:0:
348,248,107971,2,0,B|411:248|411:248|451:288,1,120
492,324,108614,1,0,0:0:0:0:
484,376,108829,5,0,0:0:0:0:
380,340,109257,2,0,L|296:340,1,60
276,308,109686,2,0,P|266:339|276:368,2,60
176,272,110543,6,0,L|92:256,1,60
116,208,110971,2,0,L|200:192,1,60
172,144,111400,2,0,L|88:128,1,60
112,80,111828,2,0,L|196:64,1,60
224,52,112257,6,0,L|332:32,2,90
260,152,113329,2,0,L|318:138,2,60
235,200,113971,6,0,P|223:242|228:287,2,90
344,219,115043,2,0,P|333:247|338:277,2,60
380,180,115686,5,0,0:0:0:0:
444,96,116114,1,0,0:0:0:0:
380,8,116543,2,0,B|272:60|272:60|216:32,1,180
164,24,117400,6,0,L|164:156,1,120
164,200,118043,1,0,0:0:0:0:
164,200,118257,2,0,B|164:288|164:288|189:307,1,120
244,308,118900,6,0,B|269:288|269:288|269:200,1,120
269,144,119543,1,0,0:0:0:0:
269,144,119758,2,0,L|269:24,1,120
216,12,120400,1,0,0:0:0:0:
112,44,120829,6,0,P|144:96|56:176,1,180
60,228,121686,2,0,L|178:244,1,120
224,272,122329,1,0,0:0:0:0:
272,244,122543,6,0,L|390:227,1,120
443,227,123186,2,0,P|409:180|417:123,1,120
448,80,123829,1,0,0:0:0:0:
348,44,124257,6,0,L|208:44,1,120
176,56,124900,1,0,0:0:0:0:
132,84,125114,2,0,L|136:160,1,60
180,176,125543,2,0,L|176:252,1,60
196,284,125971,6,0,P|110:284|71:360,2,180
268,368,127686,6,0,P|327:373|383:355,1,120
427,323,128329,1,0,0:0:0:0:
455,279,128543,2,0,L|447:211,1,60
408,184,128971,2,0,L|416:116,1,60
392,76,129400,6,0,B|516:52|516:52|476:12,2,180
288,48,131114,6,0,L|228:48,1,60
176,32,131543,2,0,P|184:100|144:144,1,120
124,184,132186,1,0,0:0:0:0:
124,184,132400,2,0,P|129:213|145:238,1,60
200,236,132829,6,0,P|215:210|221:181,1,60
264,148,133257,2,0,B|340:148|340:148|380:172,1,120
424,196,133900,1,0,0:0:0:0:
424,196,134114,2,0,L|496:196,1,60
512,244,134543,6,0,L|392:244,1,120
348,276,135186,1,0,0:0:0:0:
348,276,135400,2,0,L|228:276,1,120
184,308,136043,1,0,0:0:0:0:
140,340,136257,6,0,L|140:220,1,120
108,176,136900,1,0,0:0:0:0:
108,176,137114,2,0,L|108:56,2,120
148,212,138186,5,0,0:0:0:0:
148,212,138400,2,0,L|232:212,1,60
248,247,138829,2,0,P|298:218|353:237,1,120
396,268,139471,1,0,0:0:0:0:
444,240,139686,6,0,L|444:120,1,120
420,72,140329,1,0,0:0:0:0:
376,40,140543,2,0,L|256:40,1,120
159,91,141400,6,0,P|147:49|153:5,2,90
232,132,142364,2,0,P|280:104|364:136,1,150
412,112,143114,6,0,L|412:202,1,90
452,272,143757,2,0,B|404:292|366:267|366:267|338:279,1,120
296,312,144400,1,0,0:0:0:0:
192,336,144829,6,0,L|128:336,1,60
88,304,145257,2,0,L|90:244,1,60
67,195,145686,2,0,P|125:188|149:135,1,120
188,96,146329,1,0,0:0:0:0:
228,60,146543,6,0,L|368:60,1,120
396,84,147186,1,0,0:0:0:0:
424,132,147400,2,0,L|424:256,1,120
315,241,148257,6,0,P|320:285|343:323,2,90
264,180,149221,2,0,B|192:164|156:204|156:204|125:190,1,150
76,164,149971,6,0,P|70:119|77:75,1,90
148,32,150614,2,0,L|268:32,1,120
316,60,151257,1,0,0:0:0:0:
414,14,151686,6,0,P|425:76|397:137,1,120
439,230,152543,2,0,L|368:235,1,60
338,269,152971,2,0,L|267:264,1,60
235,298,153400,2,0,P|162:275|106:291,1,120
78,316,154043,1,0,0:0:0:0:
30,289,154257,2,0,L|23:178,1,90
46,149,154793,1,0,0:0:0:0:
10,76,155114,6,0,P|53:68|124:116,1,120
143,152,155757,1,0,0:0:0:0:
114,197,155971,2,0,L|108:273,2,60
221,187,156829,2,0,P|238:142|232:79,1,90
231,47,157364,1,0,0:0:0:0:
275,16,157579,2,0,L|376:25,1,90
403,61,158114,1,0,0:0:0:0:
357,159,158543,6,0,P|347:216|379:289,1,120
395,319,159186,1,0,0:0:0:0:
361,361,159400,2,0,L|287:353,1,60
266,313,159829,2,0,L|192:321,1,60
155,337,160257,2,0,P|172:272|149:210,1,120
94,134,161114,2,0,P|151:114|202:122,1,90
314,108,161971,6,0,L|306:43,2,60
390,80,162721,2,0,P|394:130|367:169,1,90
331,196,163257,2,0,L|339:264,1,60
377,292,163686,1,0,0:0:0:0:
161,283,164543,2,0,L|155:321,3,30
108,337,165079,1,0,0:0:0:0:
65,268,165400,6,0,P|57:220|62:190,1,60
33,160,165829,2,0,L|160:177,1,120
182,131,166471,2,0,P|222:156|258:157,1,60
326,102,167114,6,0,P|338:140|339:175,1,60
307,203,167543,2,0,P|295:241|294:276,1,60
313,310,167971,2,0,P|261:296|219:301,1,90
150,330,168614,1,0,0:0:0:0:
109,294,168829,6,0,L|122:224,1,60
135,183,169257,2,0,P|94:162|36:178,1,90
34,88,169900,1,0,0:0:0:0:
66,45,170114,2,0,L|132:53,1,60
169,83,170543,2,0,P|168:33|202:-2,1,90
246,7,171079,1,0,0:0:0:0:
294,30,171293,2,0,L|283:129,1,90
305,169,171829,1,0,0:0:0:0:
358,159,172043,1,0,0:0:0:0:
410,145,172257,6,0,P|424:185|424:218,1,60
412,254,172686,2,0,L|492:246,1,60
498,294,173114,2,0,P|442:313|380:291,1,120
294,237,173971,2,0,L|281:307,1,60
267,347,174400,2,0,P|232:344|203:329,1,60
162,306,174829,2,0,L|156:202,1,90
120,143,175471,1,0,0:0:0:0:
161,108,175686,6,0,P|205:103|237:108,1,60
263,137,176114,2,0,P|305:142|359:115,1,90
404,66,176757,1,0,0:0:0:0:
438,107,176971,2,0,L|444:183,1,60
482,204,177400,2,0,P|454:245|467:297,1,90
481,332,177936,1,0,0:0:0:0:
445,372,178150,2,0,L|338:358,1,90
317,321,178686,1,0,0:0:0:0:
216,360,179114,6,0,P|208:306|213:283,1,60
225,249,179543,2,0,L|96:226,1,120
52,224,180186,2,0,L|67:159,1,60
42,59,180829,2,0,P|92:57|116:66,1,60
141,95,181257,2,0,P|170:99|200:95,1,60
248,70,181686,2,0,P|232:121|252:169,1,90
315,119,182329,1,0,0:0:0:0:
350,159,182543,6,0,L|415:152,1,60
459,131,182971,2,0,P|442:190|452:239,1,90
482,289,183614,1,0,0:0:0:0:
458,337,183829,2,0,L|389:325,1,60
352,298,184257,6,0,L|283:310,1,60
240,322,184686,2,0,P|226:276|231:226,1,90
245,155,185329,1,0,0:0:0:0:
197,128,185543,1,0,0:0:0:0:
148,105,185757,1,0,0:0:0:0:
150,51,185971,6,0,P|187:40|224:45,1,60
255,66,186400,2,0,L|386:49,1,120
420,79,187043,1,0,0:0:0:0:
409,131,187257,1,0,0:0:0:0:
344,218,187686,2,0,P|389:239|419:242,1,60
451,249,188114,2,0,L|436:313,1,60
443,361,188543,2,0,P|370:335|345:337,1,90
279,353,189186,1,0,0:0:0:0:
232,325,189400,6,0,L|221:257,1,60
244,216,189829,2,0,P|184:231|146:218,1,90
104,163,190471,1,0,0:0:0:0:
134,118,190686,2,0,L|138:57,1,60
176,19,191114,2,0,P|222:45|276:37,1,90
311,35,191650,1,0,0:0:0:0:
354,67,191864,2,0,L|351:162,1,90
316,198,192400,2,0,L|328:265,1,60
357,301,192829,6,0,P|261:279|227:292,1,120
183,338,193579,2,0,B|165:284|165:284|179:245|179:245|161:180,1,150
127,156,194329,1,0,0:0:0:0:
144,104,194543,2,0,L|220:106,1,60
245,71,194971,1,0,0:0:0:0:
309,21,195293,2,0,P|326:63|315:111,1,90
294,154,195829,2,0,L|367:166,1,60
405,150,196257,6,0,P|386:197|412:271,1,120
476,297,197007,2,0,B|417:345|417:345|338:315,1,150
298,297,197757,1,0,0:0:0:0:
248,318,197971,2,0,L|236:238,1,60
254,206,198400,1,0,0:0:0:0:
310,148,198721,2,0,P|260:126|202:144,1,90
184,165,199257,2,0,L|168:91,1,60
158,53,199686,6,0,P|117:44|75:56,1,60
50,69,200114,2,0,P|69:137|61:175,1,90
41,232,200757,1,0,0:0:0:0:
63,280,200971,2,0,L|129:271,1,60
143,222,201400,2,0,P|188:237|219:236,1,60
238,276,201829,2,0,P|283:261|346:280,1,90
402,287,202471,1,0,0:0:0:0:
409,233,202686,1,0,0:0:0:0:
418,179,202900,1,0,0:0:0:0:
453,138,203114,6,0,P|375:150|321:115,1,120
281,76,203864,2,0,B|258:150|258:150|179:167,1,150
137,143,204614,1,0,0:0:0:0:
91,172,204829,2,0,L|103:249,1,60
79,281,205257,1,0,0:0:0:0:
139,335,205579,2,0,P|195:298|232:296,1,90
265,316,206114,2,0,L|273:246,1,60
308,216,206543,6,0,B|269:177|228:187|228:187|172:199|141:170|78:111|148:0|250:19|279:84|279:84|277:44|311:22,1,480
