osu file format v14

[General]
AudioFilename: audio.mp3
AudioLeadIn: 0
PreviewTime: 41547
Countdown: 0
SampleSet: Normal
StackLeniency: 0.5
Mode: 0
LetterboxInBreaks: 0
WidescreenStoryboard: 1

[Editor]
Bookmarks: 14118,14332,14548,28262,38548,40261,41977,55690,69404,83118,93404,96832,110547,112261,117404,120832,122547,123832,124261,131118,134547,137975,147350,148315,151690,162029,165404,179172,192832,196261,199261,199690,206547,208207
DistanceSpacing: 0.7
BeatDivisor: 4
GridSize: 16
TimelineZoom: 1.6

[Metadata]
Title:Sainou Shredder
TitleUnicode:才能シュレッダー
Artist:Nanahoshi Kangengakudan
ArtistUnicode:ナナホシ管弦楽団
Creator:Antares-
Version:Special
Source:
Tags:不純異性交遊P FujuniseikouyuuP hatsune miku talent shredder alternator remaster abnormal legacy
BeatmapID:2074251
BeatmapSetID:991844

[Difficulty]
HPDrainRate:5
CircleSize:3.6
OverallDifficulty:8.8
ApproachRate:9.5
SliderMultiplier:2.4
SliderTickRate:1

[Events]
//Background and Video events
0,0,"bg.jpg",0,0
//Break Periods
//Storyboard Layer 0 (Background)
//Storyboard Layer 1 (Fail)
//Storyboard Layer 2 (Pass)
//Storyboard Layer 3 (Foreground)
//Storyboard Layer 4 (Overlay)
//Storyboard Sound Samples

[TimingPoints]
833,214.285714285714,4,1,1,70,1,0
14547,-111.111111111111,4,1,1,60,0,0
17975,-100,4,1,1,70,0,0
21404,-111.111111111111,4,1,1,60,0,0
24832,-100,4,1,1,70,0,0
27832,-133.333333333333,4,1,1,70,0,0
28154,-133.333333333333,4,1,1,5,0,0
28261,-133.333333333333,4,1,1,60,0,0
29975,-100,4,1,1,70,0,0
31368,-166.666666666667,4,1,1,60,0,0
31582,-166.666666666667,4,1,1,5,0,0
31690,-133.333333333333,4,1,1,60,0,0
33404,-100,4,1,1,70,0,0
34797,-166.666666666667,4,1,1,60,0,0
35011,-166.666666666667,4,1,1,5,0,0
35119,-133.333333333333,4,1,1,60,0,0
40261,-1000,4,1,1,60,0,0
40582,-1000,4,1,1,5,0,0
40904,-100,4,1,1,60,0,0
41011,-100,4,1,1,75,0,0
41761,-666.666666666667,4,1,1,60,0,0
41922,-666.666666666667,4,1,1,5,0,0
41975,-100,4,1,2,75,0,1
42029,-100,4,1,1,75,0,1
48190,-80,4,1,1,75,0,1
48618,-133.333333333333,4,1,1,75,0,0
48832,-100,4,1,2,75,0,1
48886,-100,4,1,1,75,0,1
55690,-100,4,1,1,70,0,0
69404,-111.111111111111,4,1,1,60,0,0
72832,-100,4,1,1,70,0,0
76261,-111.111111111111,4,1,1,60,0,0
79690,-100,4,1,1,70,0,0
82690,-133.333333333333,4,1,1,70,0,0
83011,-133.333333333333,4,1,1,5,0,0
83118,-133.333333333333,4,1,1,60,0,0
84832,-100,4,1,1,70,0,0
86225,-166.666666666667,4,1,1,60,0,0
86440,-166.666666666667,4,1,1,5,0,0
86547,-133.333333333333,4,1,1,60,0,0
88261,-100,4,1,1,70,0,0
89654,-166.666666666667,4,1,1,60,0,0
89868,-166.666666666667,4,1,1,5,0,0
89975,-133.333333333333,4,1,1,60,0,0
91690,-100,4,1,1,60,0,0
93404,-133.333333333333,4,1,1,60,0,0
95118,-1000,4,1,1,60,0,0
95440,-1000,4,1,1,5,0,0
95761,-100,4,1,1,60,0,0
95868,-100,4,1,1,75,0,0
96618,-666.666666666667,4,1,1,60,0,0
96779,-666.666666666667,4,1,1,5,0,0
96832,-100,4,1,2,75,0,1
96886,-100,4,1,1,75,0,1
103047,-80,4,1,1,75,0,1
103475,-133.333333333333,4,1,1,75,0,0
103690,-100,4,1,2,75,0,1
103743,-100,4,1,1,75,0,1
110547,-111.111111111111,4,1,1,70,0,0
117404,-100,4,1,1,70,0,0
120832,-100,4,1,1,80,0,0
123832,-166.666666666667,4,1,1,70,0,0
124154,-166.666666666667,4,1,1,5,0,0
124261,-90.9090909090909,4,1,1,80,0,0
137975,-111.111111111111,4,1,1,60,0,0
141404,-100,4,1,1,70,0,0
144832,-111.111111111111,4,1,1,60,0,0
148261,-100,4,1,1,70,0,0
151261,-133.333333333333,4,1,1,70,0,0
151582,-133.333333333333,4,1,1,5,0,0
151690,-133.333333333333,4,1,1,60,0,0
153404,-100,4,1,1,70,0,0
154797,-166.666666666667,4,1,1,60,0,0
155011,-166.666666666667,4,1,1,5,0,0
155118,-133.333333333333,4,1,1,60,0,0
156832,-100,4,1,1,70,0,0
158225,-166.666666666667,4,1,1,60,0,0
158440,-166.666666666667,4,1,1,5,0,0
158547,-133.333333333333,4,1,1,60,0,0
160261,-90.9090909090909,4,1,1,60,0,0
161975,-133.333333333333,4,1,1,60,0,0
163690,-1000,4,1,1,60,0,0
164011,-1000,4,1,1,5,0,0
164332,-100,4,1,1,60,0,0
164440,-100,4,1,1,75,0,0
165082,-666.666666666667,4,1,1,60,0,0
165350,-666.666666666667,4,1,1,5,0,0
165404,-100,4,1,2,75,0,1
165457,-100,4,1,1,75,0,1
167868,-90.9090909090909,4,1,1,75,0,1
168297,-83.3333333333333,4,1,1,75,0,1
168618,-100,4,1,1,75,0,1
171618,-80,4,1,1,75,0,1
172047,-133.333333333333,4,1,1,75,0,0
172261,-100,4,1,2,75,0,1
172315,-100,4,1,1,75,0,1
174725,-90.9090909090909,4,1,1,75,0,1
175154,-83.3333333333333,4,1,1,75,0,1
175475,-100,4,1,1,75,0,1
178475,-80,4,1,1,75,0,1
178904,-133.333333333333,4,1,1,75,0,0
179118,-100,4,1,2,75,0,1
179172,-100,4,1,1,75,0,1
181582,-90.9090909090909,4,1,1,75,0,1
182011,-83.3333333333333,4,1,1,75,0,1
182332,-100,4,1,1,75,0,1
185332,-80,4,1,1,75,0,1
185761,-133.333333333333,4,1,1,75,0,0
185975,-100,4,1,2,75,0,1
186029,-100,4,1,1,75,0,1
188440,-90.9090909090909,4,1,1,75,0,1
188868,-83.3333333333333,4,1,1,75,0,1
189190,-100,4,1,1,75,0,1
192833,-100,4,1,1,70,0,0
199261,-71.4285714285714,4,1,1,70,0,0
199690,-100,4,1,1,70,0,0
206547,-200,4,1,1,70,0,0

[Colours]
Combo1 : 105,105,105
Combo2 : 16,201,159
Combo3 : 225,30,90

[HitObjects]
84,91,618,5,2,0:0:0:0:
84,91,725,1,2,0:0:0:0:
152,31,833,6,0,P|174:97|144:162,1,120,4|0,0:0|0:0,0:0:0:0:
265,255,1047,2,0,P|241:198|259:134,1,120,8|0,0:0|0:0,0:0:0:0:
159,240,1261,2,0,P|173:298|152:353,1,120,2|0,0:0|0:0,0:0:0:0:
85,290,1475,1,8,0:0:0:0:
0,267,1582,6,0,L|268:262,1,240,2|0,0:0|0:0,0:0:0:0:
247,352,1904,2,0,P|324:294|321:231,1,120,8|0,0:0|0:0,0:0:0:0:
383,206,2118,2,0,P|415:255|408:314,1,120,2|0,0:0|0:0,0:0:0:0:
455,155,2332,2,0,P|366:117|313:151,1,120,8|0,0:0|0:0,0:0:0:0:
239,262,2547,5,6,0:0:0:0:
96,248,2761,2,0,L|235:245,1,120,8|0,0:0|0:0,0:0:0:0:
277,79,2975,1,2,0:0:0:0:
196,36,3082,1,2,0:0:0:0:
107,49,3190,1,8,0:0:0:0:
43,129,3297,6,0,P|138:65|59:61,1,240,2|0,0:0|0:0,0:0:0:0:
15,275,3618,2,0,P|69:332|139:325,1,120,8|0,0:0|0:0,0:0:0:0:
205,286,3832,2,0,P|128:304|99:368,1,120,2|0,0:0|0:0,0:0:0:0:
272,345,4047,2,0,P|294:269|253:212,1,120,8|0,0:0|0:0,0:0:0:0:
106,335,4261,6,0,L|351:316,1,240,6|8,0:0|0:0,0:0:0:0:
398,243,4582,1,0,0:0:0:0:
438,324,4690,2,0,P|486:260|480:195,1,120,2|0,0:0|0:0,0:0:0:0:
425,158,4904,1,8,0:0:0:0:
398,243,5011,6,0,L|149:259,1,240,2|0,0:0|0:0,0:0:0:0:
329,158,5332,2,0,L|374:45,1,120,8|0,0:0|0:0,0:0:0:0:
266,79,5547,2,0,L|220:190,1,120,2|0,0:0|0:0,0:0:0:0:
111,221,5761,2,0,L|157:110,1,120,8|0,0:0|0:0,0:0:0:0:
6,298,5975,6,0,P|148:252|253:301,1,240,6|8,0:0|0:0,0:0:0:0:
349,323,6297,1,0,0:0:0:0:
349,323,6404,1,2,0:0:0:0:
313,234,6511,1,2,0:0:0:0:
351,147,6618,1,8,0:0:0:0:
443,191,6725,6,0,P|451:231|372:177,1,240,2|0,0:0|0:0,0:0:0:0:
412,81,7047,2,0,P|334:58|282:87,1,120,8|0,0:0|0:0,0:0:0:0:
235,13,7261,2,0,P|215:68|233:124,1,120,2|0,0:0|0:0,0:0:0:0:
313,234,7475,1,12,0:0:0:0:
313,234,7690,6,0,P|242:217|190:246,1,120,6|0,0:0|0:0,0:0:0:0:
202,346,7904,2,0,P|219:275|190:223,1,120,8|0,0:0|0:0,0:0:0:0:
134,291,8118,2,0,P|78:311|23:293,1,120,2|0,0:0|0:0,0:0:0:0:
77,221,8332,1,8,0:0:0:0:
126,144,8440,6,0,L|83:408,1,240,2|0,0:0|0:0,0:0:0:0:
139,53,8761,2,0,P|191:79|217:132,1,120,8|0,0:0|0:0,0:0:0:0:
262,206,8975,2,0,P|296:157|293:99,1,120,2|0,0:0|0:0,0:0:0:0:
336,262,9190,2,0,P|286:294|227:289,1,120,8|0,0:0|0:0,0:0:0:0:
77,221,9404,5,6,0:0:0:0:
58,358,9618,2,0,L|60:238,1,120,8|0,0:0|0:0,0:0:0:0:
126,144,9832,1,2,0:0:0:0:
210,108,9940,1,2,0:0:0:0:
297,128,10047,1,8,0:0:0:0:
358,213,10154,6,0,P|268:140|347:143,1,240,2|0,0:0|0:0,0:0:0:0:
275,323,10475,2,0,P|220:303|180:251,1,120,8|0,0:0|0:0,0:0:0:0:
78,303,10690,2,0,P|122:265|187:256,1,120,2|0,0:0|0:0,0:0:0:0:
193,142,10904,2,0,P|203:199|178:260,1,120,8|0,0:0|0:0,0:0:0:0:
56,123,11118,6,0,L|312:127,1,240,6|8,0:0|0:0,0:0:0:0:
378,96,11439,1,0,0:0:0:0:
462,128,11547,2,0,P|424:172|366:183,1,120,2|0,0:0|0:0,0:0:0:0:
301,51,11761,1,8,0:0:0:0:
378,96,11868,6,0,L|138:92,1,240,2|0,0:0|0:0,0:0:0:0:
83,239,12190,2,0,L|56:123,1,120,8|0,0:0|0:0,0:0:0:0:
162,191,12404,2,0,L|190:307,1,120,2|0,0:0|0:0,0:0:0:0:
297,375,12618,2,0,L|270:259,1,120,8|0,0:0|0:0,0:0:0:0:
74,346,12832,6,0,P|150:323|300:378,1,240,6|8,0:0|0:0,0:0:0:0:
432,347,13154,1,0,0:0:0:0:
432,347,13261,1,2,0:0:0:0:
475,261,13368,1,2,0:0:0:0:
445,171,13475,1,8,0:0:0:0:
348,207,13582,6,0,P|336:246|419:199,1,240,2|0,0:0|0:0,0:0:0:0:
388,102,13904,2,0,P|332:82|276:100,1,120,8|0,0:0|0:0,0:0:0:0:
261,189,14118,2,0,P|205:208|149:190,1,120,2|0,0:0|0:0,0:0:0:0:
117,108,14332,2,0,P|61:88|5:106,1,120,8|0,0:0|0:0,0:0:0:0:
112,206,14547,6,0,P|209:247|307:208,1,215.999993408203,2|8,0:0|0:0,0:0:0:0:
369,148,14868,1,0,0:0:0:0:
387,232,14975,1,2,0:0:0:0:
340,304,15082,1,2,0:0:0:0:
259,337,15190,1,8,0:0:0:0:
176,311,15297,6,0,L|401:334,1,215.999993408203,2|0,0:0|0:0,0:0:0:0:
501,268,15618,2,0,L|286:246,1,215.999993408203,8|0,0:0|0:0,0:0:0:0:
216,185,15940,1,2,0:0:0:0:
216,185,16047,2,0,P|277:159|334:167,1,107.999996704102,8|0,0:0|0:0,0:0:0:0:
146,36,16261,6,0,L|100:163,1,107.999996704102
36,96,16475,2,0,L|-9:223,1,107.999996704102,8|0,0:0|0:0,0:0:0:0:
138,232,16690,2,0,L|101:333,1,107.999996704102
206,317,16904,5,8,0:0:0:0:
296,301,17011,2,0,P|257:243|196:226,1,107.999996704102,2|0,0:0|0:0,0:0:0:0:
71,173,17225,1,2,0:0:0:0:
39,259,17332,2,0,P|108:254|153:209,1,107.999996704102,8|0,0:0|0:0,0:0:0:0:
225,67,17547,1,2,0:0:0:0:
208,52,17761,5,8,0:0:0:0:
318,74,17868,1,2,0:0:0:0:
428,96,17975,6,0,L|302:103,1,120,8|0,0:0|0:0,0:0:0:0:
336,211,18190,1,0,0:0:0:0:
186,199,18297,2,0,L|305:192,2,120,8|0|0,0:0|0:0|0:0,0:0:0:0:
24,275,18618,1,8,0:0:0:0:
15,186,18725,2,0,P|73:198|108:245,1,120
201,356,18940,5,8,0:0:0:0:
241,330,19047,1,2,0:0:0:0:
295,346,19154,1,2,0:0:0:0:
350,380,19261,1,2,0:0:0:0:
428,368,19368,1,2,0:0:0:0:
473,300,19475,2,0,P|489:237|459:174,1,120,8|0,0:0|0:0,0:0:0:0:
186,85,19690,6,0,P|167:141|183:197,1,120,8|0,0:0|0:0,0:0:0:0:
256,142,19904,1,0,0:0:0:0:
401,108,20011,2,0,L|281:114,1,120,8|0,0:0|0:0,0:0:0:0:
375,280,20225,1,0,0:0:0:0:
415,207,20332,1,8,0:0:0:0:
375,136,20440,2,0,L|255:142,1,120,2|0,0:0|0:0,0:0:0:0:
58,143,20654,5,8,0:0:0:0:
37,188,20761,1,2,0:0:0:0:
64,243,20868,1,2,0:0:0:0:
125,294,20975,1,2,0:0:0:0:
129,383,21082,2,0,P|51:347|36:291,1,120,8|0,0:0|0:0,0:0:0:0:
142,281,21297,1,8,0:0:0:0:
219,342,21404,6,0,P|326:314|429:341,1,215.999993408203,2|8,0:0|0:0,0:0:0:0:
479,271,21725,1,2,0:0:0:0:
406,224,21832,1,2,0:0:0:0:
371,144,21940,1,2,0:0:0:0:
394,60,22047,1,8,0:0:0:0:
466,13,22154,6,0,L|232:28,1,215.999993408203,2|0,0:0|0:0,0:0:0:0:
183,113,22475,1,8,0:0:0:0:
280,107,22582,1,0,0:0:0:0:
371,144,22690,2,0,L|256:151,1,107.999996704102,2|0,0:0|0:0,0:0:0:0:
95,133,22904,2,0,P|120:180|168:204,1,107.999996704102,8|0,0:0|0:0,0:0:0:0:
183,113,23118,5,2,0:0:0:0:
195,298,23332,1,8,0:0:0:0:
104,281,23440,1,2,0:0:0:0:
53,211,23547,1,2,0:0:0:0:
53,211,23654,1,2,0:0:0:0:
130,260,23761,1,8,0:0:0:0:
223,276,23868,6,0,L|370:277,1,107.999996704102,2|0,0:0|0:0,0:0:0:0:
465,226,24082,1,2,0:0:0:0:
452,138,24190,2,0,P|388:183|390:240,1,107.999996704102,8|0,0:0|0:0,0:0:0:0:
439,370,24404,2,0,P|503:325|501:268,1,107.999996704102,2|0,0:0|0:0,0:0:0:0:
452,138,24618,5,8,0:0:0:0:
344,150,24725,1,2,0:0:0:0:
236,162,24832,6,0,L|377:174,1,120,8|0,0:0|0:0,0:0:0:0:
240,280,25047,1,0,0:0:0:0:
132,268,25154,2,0,L|273:256,1,120,8|0,0:0|0:0,0:0:0:0:
161,87,25368,1,0,0:0:0:0:
28,101,25475,2,0,L|154:112,2,120,8|0|0,0:0|0:0|0:0,0:0:0:0:
0,302,25797,5,8,0:0:0:0:
0,335,25904,1,2,0:0:0:0:
28,357,26011,1,2,0:0:0:0:
77,360,26118,1,2,0:0:0:0:
116,324,26225,1,2,0:0:0:0:
132,268,26332,1,8,0:0:0:0:
207,245,26440,1,2,0:0:0:0:
279,289,26547,6,0,L|420:301,1,120,8|0,0:0|0:0,0:0:0:0:
379,193,26761,1,0,0:0:0:0:
487,181,26868,2,0,L|346:169,1,120,8|0,0:0|0:0,0:0:0:0:
195,222,27082,1,0,0:0:0:0:
87,234,27189,2,0,L|206:244,2,120,8|0|0,0:0|0:0|0:0,0:0:0:0:
11,141,27511,5,8,0:0:0:0:
37,107,27618,1,2,0:0:0:0:
96,94,27725,1,2,0:0:0:0:
152,124,27832,2,0,B|214:155|280:120|280:120|346:85|434:112,1,270.000010299683,8|0,0:0|0:0,0:0:0:0:
487,181,28261,5,6,0:0:0:0:
496,190,28475,2,0,L|399:186,1,90.0000034332277
321,265,28690,2,0,L|410:268,1,90.0000034332277,2|0,0:0|0:0,0:0:0:0:
480,344,28904,1,0,0:0:0:0:
480,344,29011,1,0,0:0:0:0:
480,344,29118,5,2,0:0:0:0:
321,265,29332,1,0,0:0:0:0:
176,368,29547,1,2,0:0:0:0:
284,187,29761,1,2,0:0:0:0:
307,107,29868,1,2,0:0:0:0:
276,36,29975,6,0,B|301:77|353:82|353:82|425:37|519:89,1,240,6|8,0:0|0:0,0:0:0:0:
488,107,30297,1,2,0:0:0:0:
488,107,30404,1,2,0:0:0:0:
397,88,30511,1,2,0:0:0:0:
307,107,30618,2,0,L|297:241,1,120,8|0,0:0|0:0,0:0:0:0:
337,191,30832,5,2,0:0:0:0:
279,256,30940,1,2,0:0:0:0:
197,268,31047,1,8,0:0:0:0:
118,239,31154,1,2,0:0:0:0:
46,291,31261,1,2,0:0:0:0:
40,201,31368,6,0,L|30:50,1,143.999995605469,8|0,0:0|0:0,0:0:0:0:
40,37,31690,5,6,0:0:0:0:
49,53,31904,1,2,0:0:0:0:
182,0,32118,1,2,0:0:0:0:
298,86,32332,2,0,L|413:78,1,90.0000034332277,2|0,0:0|0:0,0:0:0:0:
475,80,32547,6,0,P|434:155|415:164,1,90.0000034332277,2|0,0:0|0:0,0:0:0:0:
477,231,32761,2,0,P|391:232|374:221,1,90.0000034332277
347,308,32975,2,0,P|302:234|304:214,2,90.0000034332277,2|0|0,0:0|0:0|0:0,0:0:0:0:
224,352,33297,1,0,0:0:0:0:
224,352,33404,5,2,0:0:0:0:
135,362,33511,1,2,0:0:0:0:
56,320,33618,1,8,0:0:0:0:
13,240,33725,1,2,0:0:0:0:
53,159,33832,2,0,L|49:292,1,120,2|0,0:0|0:0,0:0:0:0:
173,217,34047,2,0,L|176:97,1,120,8|0,0:0|0:0,0:0:0:0:
94,25,34261,5,2,0:0:0:0:
164,84,34368,1,2,0:0:0:0:
253,93,34475,1,10,0:0:0:0:
330,48,34582,1,2,0:0:0:0:
419,62,34690,1,2,0:0:0:0:
475,132,34797,6,0,L|474:277,1,143.999995605469,8|0,0:0|0:0,0:0:0:0:
462,296,35118,5,6,0:0:0:0:
452,278,35332,1,0,0:0:0:0:
285,316,35547,1,2,0:0:0:0:
511,361,35761,1,0,0:0:0:0:
221,376,35975,6,0,L|107:384,1,90.0000034332277,2|0,0:0|0:0,0:0:0:0:
151,298,36190,2,0,L|37:306,1,90.0000034332277
97,215,36404,2,0,L|-17:223,1,90.0000034332277,2|0,0:0|0:0,0:0:0:0:
37,90,36618,1,2,0:0:0:0:
121,84,36725,1,2,0:0:0:0:
205,78,36832,6,0,B|229:107|229:107|63:120,1,180.000006866455,2|0,0:0|0:0,0:0:0:0:
297,188,37261,1,2,0:0:0:0:
380,183,37368,2,0,B|404:212|404:212|240:222,1,180.000006866455,2|0,0:0|0:0,0:0:0:0:
151,298,37690,5,2,0:0:0:0:
297,188,37904,1,0,0:0:0:0:
206,359,38118,2,0,P|166:379|113:370,1,90.0000034332277,2|0,0:0|0:0,0:0:0:0:
213,194,38332,1,2,0:0:0:0:
297,188,38440,1,2,0:0:0:0:
380,183,38547,5,2,0:0:0:0:
206,359,38761,1,2,0:0:0:0:
297,188,38975,1,2,0:0:0:0:
454,308,39190,1,2,0:0:0:0:
371,313,39297,1,2,0:0:0:0:
287,319,39404,5,2,0:0:0:0:
254,118,39618,1,2,0:0:0:0:
48,148,39832,1,2,0:0:0:0:
78,354,40047,1,2,0:0:0:0:
63,133,40261,6,0,L|63:169,1,36,2|0,0:0|0:0,0:0:0:0:
78,120,40904,5,8,0:0:0:0:
62,99,41011,1,0,0:0:0:0:
36,95,41118,1,8,0:0:0:0:
116,37,41225,1,8,0:0:0:0:
193,98,41332,1,8,0:0:0:0:
281,53,41439,1,8,0:0:0:0:
281,53,41761,6,0,L|308:53,1,26.9999991760254
320,53,41975,6,0,P|347:126|319:195,1,120,6|0,0:0|0:0,0:0:0:0:
433,172,42190,2,0,P|394:239|323:262,1,120,8|0,0:0|0:0,0:0:0:0:
416,333,42404,2,0,P|339:346|276:307,1,120,2|0,0:0|0:0,0:0:0:0:
178,226,42618,1,8,0:0:0:0:
95,185,42725,1,2,0:0:0:0:
14,231,42832,5,2,0:0:0:0:
106,276,42940,1,2,0:0:0:0:
190,210,43047,1,8,0:0:0:0:
151,114,43154,2,0,L|148:361,1,240,2|0,0:0|0:0,0:0:0:0:
319,298,43475,1,8,0:0:0:0:
404,270,43582,1,0,0:0:0:0:
476,327,43690,6,0,P|495:269|454:192,1,120,6|0,0:0|0:0,0:0:0:0:
325,163,43904,2,0,P|267:175|228:220,1,120,8|0,0:0|0:0,0:0:0:0:
109,225,44118,2,0,P|42:206|-5:157,1,120,2|0,0:0|0:0,0:0:0:0:
134,48,44332,1,8,0:0:0:0:
63,120,44440,6,0,P|175:139|231:26,1,240,2|0,0:0|0:0,0:0:0:0:
134,48,44761,1,8,0:0:0:0:
233,142,44868,2,0,P|352:105|485:154,1,240,2|0,0:0|0:0,0:0:0:0:
403,8,45190,2,0,P|355:24|280:4,1,120,8|0,0:0|0:0,0:0:0:0:
292,203,45404,6,0,P|340:187|415:207,1,120,6|0,0:0|0:0,0:0:0:0:
408,384,45618,2,0,P|365:343|350:286,1,120,8|0,0:0|0:0,0:0:0:0:
507,192,45832,2,0,P|492:249|451:291,1,120,2|0,0:0|0:0,0:0:0:0:
292,203,46047,1,8,0:0:0:0:
405,200,46154,6,0,P|294:237|167:204,1,240,2|0,0:0|0:0,0:0:0:0:
78,160,46475,1,8,0:0:0:0:
58,245,46582,1,2,0:0:0:0:
92,326,46690,1,2,0:0:0:0:
171,367,46797,1,2,0:0:0:0:
260,355,46904,1,8,0:0:0:0:
320,288,47011,1,2,0:0:0:0:
292,203,47118,6,0,L|285:354,1,120,6|0,0:0|0:0,0:0:0:0:
439,233,47332,2,0,L|444:113,1,120,8|0,0:0|0:0,0:0:0:0:
249,11,47547,2,0,L|242:162,1,120,2|0,0:0|0:0,0:0:0:0:
209,236,47761,1,8,0:0:0:0:
243,130,47868,6,0,P|141:153|114:296,1,240,2|2,0:0|0:0,0:0:0:0:
453,218,48190,6,0,P|486:138|455:62,1,150,8|0,0:0|0:0,0:0:0:0:
73,194,48404,6,0,P|66:270|116:351,1,150,2|0,0:0|0:0,0:0:0:0:
376,137,48618,6,0,L|232:127,1,135.000005149841,8|0,0:0|0:0,0:0:0:0:
222,127,48832,6,0,P|280:189|276:250,1,120,6|0,0:0|0:0,0:0:0:0:
234,321,49047,2,0,P|242:262|284:221,1,120,8|0,0:0|0:0,0:0:0:0:
404,230,49261,2,0,L|268:219,1,120,2|0,0:0|0:0,0:0:0:0:
39,170,49475,1,8,0:0:0:0:
107,231,49582,1,2,0:0:0:0:
124,141,49690,5,2,0:0:0:0:
46,79,49797,1,2,0:0:0:0:
20,172,49904,1,8,0:0:0:0:
92,246,50011,2,0,L|87:-9,1,240,2|0,0:0|0:0,0:0:0:0:
220,24,50332,1,8,0:0:0:0:
304,58,50440,1,0,0:0:0:0:
389,31,50547,6,0,P|458:7|522:24,1,120,6|0,0:0|0:0,0:0:0:0:
294,205,50761,2,0,P|248:168|231:112,1,120,8|0,0:0|0:0,0:0:0:0:
393,206,50975,2,0,P|375:262|329:299,1,120,2|0,0:0|0:0,0:0:0:0:
92,246,51190,1,8,0:0:0:0:
8,222,51297,6,0,P|132:327|176:273,1,240,2|0,0:0|0:0,0:0:0:0:
267,288,51618,1,8,0:0:0:0:
157,306,51725,2,0,P|281:248|390:311,1,240,2|0,0:0|0:0,0:0:0:0:
462,373,52047,1,8,0:0:0:0:
497,290,52154,1,0,0:0:0:0:
472,203,52261,6,0,P|444:137|465:64,1,120,6|0,0:0|0:0,0:0:0:0:
322,4,52475,2,0,P|350:70|329:143,1,120,8|0,0:0|0:0,0:0:0:0:
138,56,52690,2,0,P|197:51|251:78,1,120,2|0,0:0|0:0,0:0:0:0:
178,149,52904,1,8,0:0:0:0:
174,285,53011,6,0,L|154:157,1,120,2|0,0:0|0:0,0:0:0:0:
10,104,53225,1,2,0:0:0:0:
14,197,53332,1,8,0:0:0:0:
46,280,53440,1,2,0:0:0:0:
113,344,53547,2,0,L|252:332,1,120,2|0,0:0|0:0,0:0:0:0:
297,138,53761,2,0,L|177:148,1,120,8|0,0:0|0:0,0:0:0:0:
60,28,53975,5,6,0:0:0:0:
146,54,54082,1,2,0:0:0:0:
236,51,54190,1,8,0:0:0:0:
317,14,54297,2,0,L|436:3,1,120,2|0,0:0|0:0,0:0:0:0:
375,210,54511,2,0,L|255:220,1,120,2|8,0:0|0:0,0:0:0:0:
123,147,54725,1,0,0:0:0:0:
123,147,54832,5,6,0:0:0:0:
197,78,54940,1,2,0:0:0:0:
278,128,55047,1,8,0:0:0:0:
256,221,55154,1,2,0:0:0:0:
160,230,55261,2,0,P|244:183|301:199,1,120,8|0,0:0|0:0,0:0:0:0:
448,157,55475,1,8,0:0:0:0:
512,92,55582,1,8,0:0:0:0:
503,0,55690,6,0,L|466:235,1,240,6|8,0:0|0:0,0:0:0:0:
348,371,56011,1,0,0:0:0:0:
432,337,56119,2,0,P|394:293|336:282,1,120,2|0,0:0|0:0,0:0:0:0:
225,309,56333,1,8,0:0:0:0:
335,282,56440,6,0,L|95:278,1,240,2|0,0:0|0:0,0:0:0:0:
58,80,56762,2,0,L|31:196,1,120,8|0,0:0|0:0,0:0:0:0:
130,154,56975,2,0,L|158:38,1,120,2|0,0:0|0:0,0:0:0:0:
258,5,57190,2,0,L|231:121,1,120,8|0,0:0|0:0,0:0:0:0:
207,228,57404,6,0,P|256:148|418:142,1,240,6|8,0:0|0:0,0:0:0:0:
426,267,57725,1,0,0:0:0:0:
426,267,57833,1,2,0:0:0:0:
384,186,57940,1,2,0:0:0:0:
294,183,58047,1,8,0:0:0:0:
302,286,58154,6,0,P|290:247|373:294,1,240,2|0,0:0|0:0,0:0:0:0:
207,362,58475,2,0,P|152:381|96:364,1,120,8|0,0:0|0:0,0:0:0:0:
36,272,58690,2,0,P|92:252|149:266,1,120,2|0,0:0|0:0,0:0:0:0:
302,286,58904,1,12,0:0:0:0:
302,286,59118,6,0,P|328:218|306:165,1,120,6|0,0:0|0:0,0:0:0:0:
323,64,59332,2,0,P|297:132|319:185,1,120,8|0,0:0|0:0,0:0:0:0:
499,133,59547,2,0,P|443:115|385:127,1,120,2|0,0:0|0:0,0:0:0:0:
237,222,59761,1,8,0:0:0:0:
398,244,59868,6,0,L|48:271,1,240,2|0,0:0|0:0,0:0:0:0:
158,142,60190,2,0,P|210:168|236:221,1,120,8|0,0:0|0:0,0:0:0:0:
127,369,60403,2,0,P|161:320|158:262,1,120,2|0,0:0|0:0,0:0:0:0:
49,114,60618,2,0,P|99:146|158:141,1,120,8|0,0:0|0:0,0:0:0:0:
323,64,60832,5,6,0:0:0:0:
402,236,61046,2,0,L|404:116,1,120,8|0,0:0|0:0,0:0:0:0:
497,333,61260,1,2,0:0:0:0:
410,361,61367,1,2,0:0:0:0:
325,334,61475,1,8,0:0:0:0:
274,243,61582,6,0,P|357:323|278:313,1,240,2|0,0:0|0:0,0:0:0:0:
194,228,61904,2,0,P|223:177|281:146,1,120,8|0,0:0|0:0,0:0:0:0:
82,180,62118,2,0,P|111:230|108:296,1,120,2|0,0:0|0:0,0:0:0:0:
179,104,62332,2,0,P|120:104|65:68,1,120,8|0,0:0|0:0,0:0:0:0:
281,18,62547,6,0,P|309:81|230:282,1,240,6|8,0:0|0:0,0:0:0:0:
179,104,62868,1,0,0:0:0:0:
41,98,62976,2,0,L|209:84,1,120,2|0,0:0|0:0,0:0:0:0:
273,242,63190,1,8,0:0:0:0:
414,198,63297,6,0,L|175:216,1,240,2|0,0:0|0:0,0:0:0:0:
13,215,63618,2,0,L|42:97,1,120,8|0,0:0|0:0,0:0:0:0:
135,185,63833,2,0,L|159:308,1,120,2|0,0:0|0:0,0:0:0:0:
273,242,64047,2,0,L|303:117,1,120,8|0,0:0|0:0,0:0:0:0:
501,242,64261,6,0,P|397:210|271:242,1,240,6|8,0:0|0:0,0:0:0:0:
217,93,64583,1,0,0:0:0:0:
217,93,64690,1,2,0:0:0:0:
301,125,64797,1,2,0:0:0:0:
384,91,64904,1,10,0:0:0:0:
465,27,65011,6,0,P|400:122|396:43,1,240,2|0,0:0|0:0,0:0:0:0:
279,25,65333,2,0,P|224:5|146:40,1,120,8|0,0:0|0:0,0:0:0:0:
122,178,65547,2,0,P|177:198|255:163,1,120,2|0,0:0|0:0,0:0:0:0:
386,91,65761,1,12,0:0:0:0:
386,91,65975,6,0,P|435:149|440:204,1,120,6|0,0:0|0:0,0:0:0:0:
282,279,66190,2,0,P|325:239|341:182,1,120,8|0,0:0|0:0,0:0:0:0:
336,364,66404,2,0,P|278:379|221:362,1,120,2|0,0:0|0:0,0:0:0:0:
169,252,66618,1,8,0:0:0:0:
42,293,66725,6,0,L|326:277,1,240,2|0,0:0|0:0,0:0:0:0:
372,256,67047,2,0,P|313:189|241:190,1,120,8|0,0:0|0:0,0:0:0:0:
83,178,67261,2,0,P|114:229|169:252,1,120,2|0,0:0|0:0,0:0:0:0:
286,182,67475,2,0,L|322:67,1,120,8|0,0:0|0:0,0:0:0:0:
372,256,67690,5,6,0:0:0:0:
512,276,67904,2,0,L|392:278,1,120,8|0,0:0|0:0,0:0:0:0:
206,328,68118,1,2,0:0:0:0:
202,239,68225,1,2,0:0:0:0:
142,173,68332,1,8,0:0:0:0:
29,218,68440,6,0,P|68:230|21:147,1,240,2|0,0:0|0:0,0:0:0:0:
128,50,68761,2,0,P|183:30|246:47,1,120,8|0,0:0|0:0,0:0:0:0:
247,144,68975,2,0,P|308:161|366:142,1,120,2|0,0:0|0:0,0:0:0:0:
394,62,69189,2,0,P|455:45|514:59,1,120,8|0,0:0|0:0,0:0:0:0:
399,160,69404,6,0,P|302:201|204:162,1,215.999993408203,2|8,0:0|0:0,0:0:0:0:
307,118,69725,1,0,0:0:0:0:
248,232,69832,2,0,P|182:195|170:148,1,107.999996704102,2|0,0:0|0:0,0:0:0:0:
112,250,70047,1,8,0:0:0:0:
158,327,70154,6,0,L|391:321,1,215.999993408203,2|0,0:0|0:0,0:0:0:0:
463,226,70475,2,0,L|247:231,1,215.999993408203,8|0,0:0|0:0,0:0:0:0:
385,106,70797,1,2,0:0:0:0:
385,106,70904,2,0,P|365:169|322:207,1,107.999996704102,8|0,0:0|0:0,0:0:0:0:
175,126,71118,6,0,L|283:114,1,107.999996704102,2|0,0:0|0:0,0:0:0:0:
65,57,71332,2,0,L|172:44,1,107.999996704102,8|0,0:0|0:0,0:0:0:0:
0,203,71547,2,0,L|107:190,1,107.999996704102,2|0,0:0|0:0,0:0:0:0:
283,114,71761,1,8,0:0:0:0:
144,154,71868,6,0,L|406:124,1,215.999993408203,2|0,0:0|0:0,0:0:0:0:
207,43,72190,2,0,P|265:108|303:117,1,107.999996704102,8|0,0:0|0:0,0:0:0:0:
468,43,72404,1,2,0:0:0:0:
482,30,72618,5,8,0:0:0:0:
471,137,72725,1,2,0:0:0:0:
460,244,72832,6,0,L|323:261,1,120,8|0,0:0|0:0,0:0:0:0:
236,176,73047,1,0,0:0:0:0:
100,215,73154,2,0,L|219:200,1,120,8|0,0:0|0:0,0:0:0:0:
10,353,73368,1,0,0:0:0:0:
146,314,73475,2,0,L|26:328,1,120,8|0,0:0|0:0,0:0:0:0:
7,183,73690,5,2,0:0:0:0:
22,158,73797,1,8,0:0:0:0:
59,135,73904,1,2,0:0:0:0:
132,134,74011,1,2,0:0:0:0:
205,161,74118,1,2,0:0:0:0:
284,138,74225,1,8,0:0:0:0:
278,225,74332,2,0,P|240:166|270:77,1,120,10|0,0:0|0:0,0:0:0:0:
330,41,74547,6,0,L|449:50,1,120,8|0,0:0|0:0,0:0:0:0:
376,149,74761,1,0,0:0:0:0:
512,181,74868,2,0,L|392:171,1,120,8|0,0:0|0:0,0:0:0:0:
446,352,75082,1,0,0:0:0:0:
496,277,75190,1,8,0:0:0:0:
459,194,75297,2,0,L|339:184,1,120,2|0,0:0|0:0,0:0:0:0:
270,271,75511,5,8,0:0:0:0:
245,301,75618,1,2,0:0:0:0:
169,318,75725,1,2,0:0:0:0:
96,284,75832,1,2,0:0:0:0:
11,260,75940,2,0,P|63:303|66:383,1,120,8|0,0:0|0:0,0:0:0:0:
82,196,76154,1,8,0:0:0:0:
167,225,76261,6,0,P|264:188|387:223,1,215.999993408203,2|8,0:0|0:0,0:0:0:0:
478,310,76582,1,0,0:0:0:0:
508,234,76690,1,2,0:0:0:0:
501,153,76797,1,2,0:0:0:0:
467,79,76904,1,8,0:0:0:0:
396,40,77011,6,0,L|161:46,1,215.999993408203,2|0,0:0|0:0,0:0:0:0:
106,63,77332,1,8,0:0:0:0:
169,122,77440,1,0,0:0:0:0:
247,83,77547,2,0,L|125:86,1,107.999996704102,2|0,0:0|0:0,0:0:0:0:
0,183,77761,2,0,L|107:180,1,107.999996704102,8|0,0:0|0:0,0:0:0:0:
312,227,77975,5,2,0:0:0:0:
319,239,78190,1,8,0:0:0:0:
394,270,78297,1,2,0:0:0:0:
471,243,78404,1,2,0:0:0:0:
491,163,78511,1,2,0:0:0:0:
512,248,78618,1,8,0:0:0:0:
484,329,78725,6,0,P|386:359|261:334,1,215.999993408203,2|0,0:0|0:0,0:0:0:0:
47,213,79047,1,8,0:0:0:0:
130,190,79154,1,2,0:0:0:0:
216,216,79261,2,0,P|160:274|107:276,1,107.999996704102,2|0,0:0|0:0,0:0:0:0:
47,213,79475,5,8,0:0:0:0:
74,108,79582,1,2,0:0:0:0:
101,3,79690,6,0,L|242:0,1,120,8|0,0:0|0:0,0:0:0:0:
296,98,79904,1,0,0:0:0:0:
438,70,80011,2,0,L|318:72,1,120,8|0,0:0|0:0,0:0:0:0:
358,188,80225,1,0,0:0:0:0:
216,216,80332,2,0,L|335:213,2,120,8|0|0,0:0|0:0|0:0,0:0:0:0:
47,283,80654,5,8,0:0:0:0:
26,276,80761,1,2,0:0:0:0:
55,249,80868,1,2,0:0:0:0:
109,243,80975,1,2,0:0:0:0:
156,280,81082,1,2,0:0:0:0:
176,338,81190,1,8,0:0:0:0:
258,359,81297,1,2,0:0:0:0:
330,309,81404,6,0,L|471:306,1,120,8|0,0:0|0:0,0:0:0:0:
207,199,81618,1,0,0:0:0:0:
349,171,81725,2,0,L|229:173,1,120,8|0,0:0|0:0,0:0:0:0:
222,47,81940,1,0,0:0:0:0:
80,75,82047,2,0,L|199:72,2,120,8|0|0,0:0|0:0|0:0,0:0:0:0:
15,202,82368,5,8,0:0:0:0:
10,257,82475,1,2,0:0:0:0:
51,318,82582,1,2,0:0:0:0:
129,323,82690,2,0,B|191:287|261:319|261:319|329:346|393:318,1,270.000010299683,8|0,0:0|0:0,0:0:0:0:
499,230,83118,5,6,0:0:0:0:
506,247,83332,1,0,0:0:0:0:
373,185,83547,1,2,0:0:0:0:
493,101,83761,1,0,0:0:0:0:
348,266,83975,6,0,P|298:221|296:166,1,90.0000034332277,2|0,0:0|0:0,0:0:0:0:
210,216,84190,2,0,P|223:150|270:120,1,90.0000034332277
184,73,84404,2,0,P|247:52|296:77,1,90.0000034332277,2|0,0:0|0:0,0:0:0:0:
210,216,84618,1,2,0:0:0:0:
126,248,84725,1,2,0:0:0:0:
41,227,84832,6,0,P|102:291|-5:304,1,240,6|8,0:0|0:0,0:0:0:0:
48,372,85154,1,2,0:0:0:0:
48,372,85261,1,2,0:0:0:0:
130,338,85368,1,2,0:0:0:0:
126,248,85475,1,8,0:0:0:0:
48,202,85582,1,2,0:0:0:0:
133,233,85690,5,2,0:0:0:0:
221,218,85797,1,2,0:0:0:0:
283,153,85904,1,8,0:0:0:0:
366,115,86011,1,2,0:0:0:0:
446,162,86118,1,2,0:0:0:0:
408,238,86225,6,0,L|397:80,1,143.999995605469,2|0,0:0|0:0,0:0:0:0:
314,34,86547,5,6,0:0:0:0:
309,55,86761,1,0,0:0:0:0:
512,123,86975,1,2,0:0:0:0:
249,133,87190,1,0,0:0:0:0:
487,248,87404,6,0,L|482:153,1,90.0000034332277,2|0,0:0|0:0,0:0:0:0:
400,203,87618,2,0,L|406:303,1,90.0000034332277
459,138,87832,2,0,L|454:40,2,90.0000034332277,2|0|0,0:0|0:0|0:0,0:0:0:0:
325,71,88154,1,2,0:0:0:0:
325,71,88261,5,2,0:0:0:0:
241,37,88368,1,2,0:0:0:0:
152,53,88475,1,8,0:0:0:0:
79,106,88582,1,2,0:0:0:0:
118,186,88690,2,0,L|114:53,1,120,2|0,0:0|0:0,0:0:0:0:
0,182,88904,2,0,L|3:302,1,120,8|0,0:0|0:0,0:0:0:0:
115,368,89118,5,2,0:0:0:0:
188,316,89225,1,2,0:0:0:0:
277,304,89332,1,8,0:0:0:0:
351,354,89440,1,2,0:0:0:0:
423,299,89547,1,2,0:0:0:0:
492,244,89654,6,0,P|511:167|493:88,1,143.999995605469,2|0,0:0|0:0,0:0:0:0:
485,83,89975,5,6,0:0:0:0:
481,101,90190,1,0,0:0:0:0:
354,182,90404,1,2,0:0:0:0:
303,6,90618,1,0,0:0:0:0:
158,95,90832,6,0,L|36:106,1,90.0000034332277,2|0,0:0|0:0,0:0:0:0:
137,191,91047,2,0,L|15:202,1,90.0000034332277
112,287,91261,2,0,L|-10:298,1,90.0000034332277,2|0,0:0|0:0,0:0:0:0:
244,130,91475,1,2,0:0:0:0:
51,81,91690,6,0,P|145:47|245:134,1,240,2|8,0:0|0:0,0:0:0:0:
236,61,92011,1,2,0:0:0:0:
236,61,92118,1,2,0:0:0:0:
320,91,92225,1,2,0:0:0:0:
406,67,92332,1,8,0:0:0:0:
487,106,92440,1,2,0:0:0:0:
485,16,92547,5,6,0:0:0:0:
236,61,92761,1,0,0:0:0:0:
312,286,92975,2,0,L|451:276,1,120,2|0,0:0|0:0,0:0:0:0:
287,192,93190,2,0,L|167:200,1,120,2|0,0:0|0:0,0:0:0:0:
53,155,93404,5,2,0:0:0:0:
119,347,93618,1,2,0:0:0:0:
133,100,93832,1,2,0:0:0:0:
286,336,94047,1,2,0:0:0:0:
203,341,94154,1,2,0:0:0:0:
119,347,94261,5,2,0:0:0:0:
133,100,94475,1,2,0:0:0:0:
203,341,94689,1,2,0:0:0:0:
20,249,94904,1,2,0:0:0:0:
287,192,95118,6,0,L|323:190,1,36,2|0,0:0|0:0,0:0:0:0:
338,190,95761,5,8,0:0:0:0:
370,139,95868,1,0,0:0:0:0:
338,62,95975,1,8,0:0:0:0:
255,114,96082,1,8,0:0:0:0:
171,56,96190,1,8,0:0:0:0:
131,148,96297,1,8,0:0:0:0:
131,148,96618,6,0,L|104:148,1,26.9999991760254
81,164,96832,6,0,P|54:237|82:306,1,120,6|0,0:0|0:0,0:0:0:0:
226,318,97047,2,0,P|177:284|153:230,1,120,8|0,0:0|0:0,0:0:0:0:
255,222,97261,2,0,P|311:239|368:224,1,120,2|0,0:0|0:0,0:0:0:0:
396,97,97475,1,8,0:0:0:0:
314,138,97582,1,2,0:0:0:0:
229,102,97690,5,2,0:0:0:0:
312,48,97797,1,2,0:0:0:0:
396,97,97904,1,8,0:0:0:0:
395,192,98011,2,0,L|129:180,1,240,2|0,0:0|0:0,0:0:0:0:
37,135,98332,1,8,0:0:0:0:
37,135,98439,1,0,0:0:0:0:
128,112,98547,6,0,P|124:170|87:216,1,120,6|0,0:0|0:0,0:0:0:0:
4,331,98761,2,0,P|55:302|114:311,1,120,8|0,0:0|0:0,0:0:0:0:
258,330,98975,2,0,P|201:289|174:227,1,120,2|0,0:0|0:0,0:0:0:0:
286,219,99189,1,8,0:0:0:0:
417,262,99297,6,0,L|161:243,1,240,2|0,0:0|0:0,0:0:0:0:
170,167,99618,1,8,0:0:0:0:
40,130,99725,2,0,L|279:147,1,240,2|0,0:0|0:0,0:0:0:0:
369,66,100047,2,0,L|242:55,1,120,8|0,0:0|0:0,0:0:0:0:
71,225,100261,6,0,P|104:187|179:166,1,120,6|0,0:0|0:0,0:0:0:0:
163,381,100475,2,0,P|146:324|162:267,1,120,8|0,0:0|0:0,0:0:0:0:
244,324,100690,2,0,P|286:365|343:380,1,120,2|0,0:0|0:0,0:0:0:0:
346,263,100904,1,8,0:0:0:0:
473,323,101011,6,0,P|361:293|227:334,1,240,2|0,0:0|0:0,0:0:0:0:
130,316,101332,1,8,0:0:0:0:
244,324,101439,2,0,P|132:354|-2:313,1,240,2|0,0:0|0:0,0:0:0:0:
19,121,101761,1,8,0:0:0:0:
105,88,101868,1,0,0:0:0:0:
186,125,101975,6,0,P|203:178|179:276,1,120,6|0,0:0|0:0,0:0:0:0:
318,142,102190,2,0,P|301:89|325:-9,1,120,8|0,0:0|0:0,0:0:0:0:
418,75,102404,2,0,P|435:128|411:226,1,120,0|0,0:0|0:0,0:0:0:0:
303,332,102618,1,8,0:0:0:0:
204,383,102725,6,0,P|228:249|337:226,1,240,2|0,0:0|0:0,0:0:0:0:
467,355,103047,6,0,P|390:375|308:351,1,150,8|0,0:0|0:0,0:0:0:0:
65,229,103261,6,0,P|142:209|224:233,1,150,2|0,0:0|0:0,0:0:0:0:
471,99,103475,6,0,L|320:110,1,135.000005149841,8|0,0:0|0:0,0:0:0:0:
312,126,103690,6,0,P|370:64|366:3,1,120,6|0,0:0|0:0,0:0:0:0:
215,131,103904,2,0,P|233:187|281:220,1,120,8|0,0:0|0:0,0:0:0:0:
264,28,104118,2,0,L|118:39,1,120,2|0,0:0|0:0,0:0:0:0:
44,134,104332,1,8,0:0:0:0:
89,213,104439,1,2,0:0:0:0:
49,297,104547,5,2,0:0:0:0:
111,223,104654,1,2,0:0:0:0:
206,212,104761,1,8,0:0:0:0:
283,267,104868,2,0,L|12:246,1,240,2|0,0:0|0:0,0:0:0:0:
144,37,105190,1,8,0:0:0:0:
226,74,105297,1,0,0:0:0:0:
306,34,105404,6,0,P|368:17|436:42,1,120,6|0,0:0|0:0,0:0:0:0:
424,224,105618,2,0,P|381:184|365:127,1,120,8|0,0:0|0:0,0:0:0:0:
283,267,105832,2,0,P|242:310|185:326,1,120,2|0,0:0|0:0,0:0:0:0:
169,229,106047,1,8,0:0:0:0:
43,258,106154,6,0,L|300:267,1,240,2|0,0:0|0:0,0:0:0:0:
344,203,106475,1,8,0:0:0:0:
470,174,106582,2,0,L|213:165,1,240,2|0,0:0|0:0,0:0:0:0:
22,50,106904,1,8,0:0:0:0:
104,85,107011,1,0,0:0:0:0:
164,18,107118,6,0,L|296:23,1,120,6|0,0:0|0:0,0:0:0:0:
365,90,107332,2,0,P|337:156|358:229,1,120,8|0,0:0|0:0,0:0:0:0:
213,332,107547,2,0,P|239:278|234:219,1,120,2|0,0:0|0:0,0:0:0:0:
104,85,107761,1,8,0:0:0:0:
247,61,107868,6,0,L|127:56,1,120,2|0,0:0|0:0,0:0:0:0:
6,154,108082,1,2,0:0:0:0:
4,244,108190,1,8,0:0:0:0:
49,321,108297,1,2,0:0:0:0:
130,359,108404,2,0,L|249:363,1,120,2|0,0:0|0:0,0:0:0:0:
354,224,108618,2,0,L|234:219,1,120,8|0,0:0|0:0,0:0:0:0:
6,154,108832,5,6,0:0:0:0:
57,69,108940,2,0,P|98:114|93:191,1,120,2|8,0:0|0:0,0:0:0:0:
231,333,109154,2,0,P|218:260|250:197,1,120,2|0,0:0|0:0,0:0:0:0:
276,53,109368,1,2,0:0:0:0:
362,28,109475,1,8,0:0:0:0:
434,80,109582,2,0,P|447:153|415:216,1,120,2|0,0:0|0:0,0:0:0:0:
231,333,109797,5,2,0:0:0:0:
160,268,109904,1,8,0:0:0:0:
207,184,110011,1,2,0:0:0:0:
306,192,110118,2,0,L|160:206,1,120,8|0,0:0|0:0,0:0:0:0:
35,165,110332,1,8,0:0:0:0:
0,82,110440,1,8,0:0:0:0:
43,2,110547,6,0,P|26:67|53:127,1,107.999996704102,6|0,0:0|0:0,0:0:0:0:
172,149,110761,2,0,P|136:110|125:58,1,107.999996704102,8|0,0:0|0:0,0:0:0:0:
228,68,110975,1,2,0:0:0:0:
228,68,111082,1,0,0:0:0:0:
278,150,111190,2,0,P|313:110|324:58,1,107.999996704102,8|0,0:0|0:0,0:0:0:0:
408,3,111404,6,0,P|425:68|398:128,1,107.999996704102,2|0,0:0|0:0,0:0:0:0:
370,197,111618,2,0,P|317:186|278:150,1,107.999996704102,8|0,0:0|0:0,0:0:0:0:
275,274,111832,2,0,L|298:381,1,107.999996704102,2|0,0:0|0:0,0:0:0:0:
163,225,112047,2,0,L|186:332,1,107.999996704102,8|0,0:0|0:0,0:0:0:0:
73,226,112261,6,0,P|183:278|301:265,1,215.999993408203,2|8,0:0|0:0,0:0:0:0:
370,197,112582,1,0,0:0:0:0:
397,120,112690,1,2,0:0:0:0:
354,52,112797,1,0,0:0:0:0:
286,98,112904,2,0,L|157:96,1,107.999996704102,8|0,0:0|0:0,0:0:0:0:
73,226,113118,5,2,0:0:0:0:
73,226,113225,1,0,0:0:0:0:
47,321,113332,2,0,P|115:317|159:270,1,107.999996704102,8|0,0:0|0:0,0:0:0:0:
110,24,113547,2,0,P|79:84|98:146,1,107.999996704102,2|0,0:0|0:0,0:0:0:0:
178,96,113761,2,0,L|285:97,1,107.999996704102,8|0,0:0|0:0,0:0:0:0:
300,234,113975,6,0,P|336:153|257:211,1,215.999993408203,2|8,0:0|0:0,0:0:0:0:
234,315,114297,1,0,0:0:0:0:
306,343,114404,1,2,0:0:0:0:
384,323,114511,1,0,0:0:0:0:
434,259,114618,2,0,P|450:200|441:134,1,107.999996704102,8|0,0:0|0:0,0:0:0:0:
308,34,114832,5,2,0:0:0:0:
257,14,114940,1,0,0:0:0:0:
203,16,115047,1,8,0:0:0:0:
154,39,115154,1,0,0:0:0:0:
125,76,115261,5,2,0:0:0:0:
206,38,115368,1,0,0:0:0:0:
292,47,115475,1,8,0:0:0:0:
363,102,115582,1,0,0:0:0:0:
371,186,115690,6,0,L|247:182,1,107.999996704102,2|0,0:0|0:0,0:0:0:0:
281,283,115904,1,8,0:0:0:0:
341,210,116011,2,0,L|448:213,1,107.999996704102,2|0,0:0|0:0,0:0:0:0:
448,124,116225,1,2,0:0:0:0:
371,186,116332,2,0,L|263:182,1,107.999996704102,8|0,0:0|0:0,0:0:0:0:
173,279,116547,6,0,L|280:282,1,107.999996704102,2|0,0:0|0:0,0:0:0:0:
371,186,116761,1,8,0:0:0:0:
368,82,116868,2,0,P|334:201|369:293,1,215.999993408203,2|2,0:0|0:0,0:0:0:0:
471,84,117190,2,0,P|417:69|352:92,1,107.999996704102,8|0,0:0|0:0,0:0:0:0:
293,185,117404,5,2,0:0:0:0:
264,223,117511,1,0,0:0:0:0:
218,238,117618,1,2,0:0:0:0:
173,219,117725,1,0,0:0:0:0:
148,177,117832,1,2,0:0:0:0:
155,129,117940,1,0,0:0:0:0:
193,99,118047,1,2,0:0:0:0:
240,97,118154,1,0,0:0:0:0:
282,119,118261,5,2,0:0:0:0:
224,75,118368,1,0,0:0:0:0:
153,90,118475,1,2,0:0:0:0:
115,151,118582,1,0,0:0:0:0:
130,221,118690,1,2,0:0:0:0:
191,257,118797,1,0,0:0:0:0:
262,250,118904,5,2,0:0:0:0:
183,279,119011,1,0,0:0:0:0:
106,243,119118,1,2,0:0:0:0:
86,161,119225,1,0,0:0:0:0:
106,79,119332,2,0,P|114:176|154:227,1,120,10|0,0:0|0:0,0:0:0:0:
280,365,119547,2,0,P|272:268|232:217,1,120,2|0,0:0|0:0,0:0:0:0:
117,55,119761,5,8,0:0:0:0:
194,87,119868,1,0,0:0:0:0:
277,75,119975,1,2,0:0:0:0:
348,31,120082,1,0,0:0:0:0:
252,63,120190,2,0,P|155:55|104:15,1,120,8|0,0:0|0:0,0:0:0:0:
61,167,120404,6,0,L|29:328,1,120,8|0,0:0|0:0,0:0:0:0:
217,204,120618,2,0,L|193:86,1,120,8|0,0:0|0:0,0:0:0:0:
148,324,120832,5,6,0:0:0:0:
138,313,121047,2,0,P|190:338|284:328,1,120,8|0,0:0|0:0,0:0:0:0:
471,240,121261,2,0,P|419:265|325:255,1,120,2|0,0:0|0:0,0:0:0:0:
103,177,121475,2,0,P|155:202|249:192,1,120,8|0,0:0|0:0,0:0:0:0:
512,88,121690,6,0,P|399:20|259:45,1,240,2|8,0:0|0:0,0:0:0:0:
336,131,122011,1,0,0:0:0:0:
266,78,122118,2,0,P|317:43|386:50,1,120,2|0,0:0|0:0,0:0:0:0:
480,94,122332,2,0,P|509:132|510:207,1,120,8|0,0:0|0:0,0:0:0:0:
430,361,122547,5,6,0:0:0:0:
359,303,122654,1,0,0:0:0:0:
284,355,122761,1,8,0:0:0:0:
194,368,122868,1,0,0:0:0:0:
105,345,122975,1,2,0:0:0:0:
42,278,123082,1,0,0:0:0:0:
26,187,123190,1,8,0:0:0:0:
33,96,123297,2,0,P|93:53|159:54,1,120,8|0,0:0|0:0,0:0:0:0:
462,187,123511,5,8,0:0:0:0:
358,230,123618,1,8,0:0:0:0:
246,187,123725,1,8,0:0:0:0:
137,212,123832,2,0,L|382:212,1,215.999993408203,8|0,0:0|0:0,0:0:0:0:
476,173,124261,6,0,P|515:113|503:34,1,132.00000402832,6|0,0:0|0:0,0:0:0:0:
346,247,124475,2,0,P|385:307|373:386,1,132.00000402832,8|0,0:0|0:0,0:0:0:0:
194,146,124690,2,0,P|303:129|209:73,1,264.000008056641,2|8,0:0|0:0,0:0:0:0:
133,56,125011,1,2,0:0:0:0:
62,160,125118,6,0,L|247:139,1,132.00000402832,2|0,0:0|0:0,0:0:0:0:
126,233,125332,2,0,L|73:354,1,132.00000402832,8|0,0:0|0:0,0:0:0:0:
270,384,125547,2,0,L|191:277,1,132.00000402832,2|0,0:0|0:0,0:0:0:0:
295,286,125761,2,0,L|426:271,1,132.00000402832,8|0,0:0|0:0,0:0:0:0:
268,101,125975,6,0,L|5:130,1,264.000008056641,6|8,0:0|0:0,0:0:0:0:
173,248,126297,1,0,0:0:0:0:
63,252,126404,2,0,P|80:191|146:137,1,132.00000402832,2|0,0:0|0:0,0:0:0:0:
323,35,126618,2,0,P|369:129|268:102,1,264.000008056641,8|0,0:0|0:0,0:0:0:0:
183,41,126940,5,2,0:0:0:0:
129,144,127047,2,0,P|185:159|269:129,1,132.00000402832,8|0,0:0|0:0,0:0:0:0:
63,252,127261,2,0,B|81:125|81:125|121:185|227:171,1,264.000008056641,2|8,0:0|0:0,0:0:0:0:
267,100,127582,1,2,0:0:0:0:
183,41,127690,6,0,P|297:4|356:143,1,264.000008056641,6|8,0:0|0:0,0:0:0:0:
388,205,128011,1,0,0:0:0:0:
476,158,128118,2,0,P|429:113|364:108,1,132.00000402832,2|0,0:0|0:0,0:0:0:0:
388,205,128332,1,8,0:0:0:0:
365,109,128440,6,0,L|341:383,1,264.000008056641,2|0,0:0|0:0,0:0:0:0:
195,283,128761,2,0,P|293:265|346:292,1,132.00000402832,8|0,0:0|0:0,0:0:0:0:
261,161,128975,2,0,L|272:29,1,132.00000402832,2|0,0:0|0:0,0:0:0:0:
148,346,129190,2,0,L|159:214,1,132.00000402832,8|0,0:0|0:0,0:0:0:0:
117,16,129404,6,0,P|158:122|62:66,1,264.000008056641,6|8,0:0|0:0,0:0:0:0:
158,214,129726,1,0,0:0:0:0:
9,226,129833,2,0,L|149:236,1,132.00000402832,2|0,0:0|0:0,0:0:0:0:
294,175,130047,2,0,P|152:268|162:394,1,264.000008056641,8|0,0:0|0:0,0:0:0:0:
399,217,130368,5,2,0:0:0:0:
230,157,130475,2,0,P|295:136|379:166,1,132.00000402832,8|0,0:0|0:0,0:0:0:0:
54,86,130690,2,0,P|119:107|203:77,1,132.00000402832,2|0,0:0|0:0,0:0:0:0:
348,42,130904,1,8,0:0:0:0:
427,10,131011,1,2,0:0:0:0:
495,58,131118,5,2,0:0:0:0:
508,149,131225,1,2,0:0:0:0:
461,228,131332,2,0,P|394:241|329:221,1,132.00000402832,8|0,0:0|0:0,0:0:0:0:
102,182,131547,1,2,0:0:0:0:
19,233,131654,1,2,0:0:0:0:
106,204,131761,1,8,0:0:0:0:
194,231,131868,1,2,0:0:0:0:
258,297,131975,6,0,P|358:311|419:285,1,132.00000402832,6|0,0:0|0:0,0:0:0:0:
194,231,132190,2,0,P|168:315|199:368,1,132.00000402832,8|0,0:0|0:0,0:0:0:0:
386,173,132404,6,0,P|286:159|225:185,1,132.00000402832,2|0,0:0|0:0,0:0:0:0:
451,238,132619,2,0,P|477:154|446:101,1,132.00000402832,8|0,0:0|0:0,0:0:0:0:
267,46,132832,6,0,P|241:130|272:183,1,132.00000402832,2|0,0:0|0:0,0:0:0:0:
78,80,133047,2,0,P|163:60|194:7,1,132.00000402832,8|0,0:0|0:0,0:0:0:0:
194,231,133261,2,0,P|134:166|72:166,1,132.00000402832,2|0,0:0|0:0,0:0:0:0:
267,46,133475,1,8,0:0:0:0:
346,93,133582,1,2,0:0:0:0:
257,63,133690,1,2,0:0:0:0:
165,76,133797,1,2,0:0:0:0:
82,118,133904,6,0,L|56:278,1,132.00000402832,8|0,0:0|0:0,0:0:0:0:
180,311,134118,2,0,L|201:180,1,132.00000402832,2|0,0:0|0:0,0:0:0:0:
29,219,134332,2,0,L|7:349,1,132.00000402832,8|0,0:0|0:0,0:0:0:0:
216,91,134547,5,2,0:0:0:0:
165,76,134654,1,0,0:0:0:0:
114,90,134761,1,2,0:0:0:0:
90,137,134868,1,0,0:0:0:0:
92,189,134975,1,2,0:0:0:0:
133,221,135082,1,0,0:0:0:0:
185,228,135190,1,2,0:0:0:0:
228,198,135297,1,0,0:0:0:0:
236,146,135404,5,2,0:0:0:0:
224,224,135511,1,0,0:0:0:0:
148,249,135618,1,2,0:0:0:0:
76,216,135725,1,0,0:0:0:0:
53,140,135832,1,2,0:0:0:0:
92,70,135940,1,0,0:0:0:0:
169,52,136047,1,2,0:0:0:0:
236,88,136154,1,0,0:0:0:0:
267,160,136261,6,0,P|332:176|400:153,1,132.00000402832,8|0,0:0|0:0,0:0:0:0:
168,353,136475,2,0,P|106:325|35:336,1,132.00000402832,8|0,0:0|0:0,0:0:0:0:
306,152,136690,2,0,P|372:144|428:99,1,132.00000402832,8|0,0:0|0:0,0:0:0:0:
210,380,136904,2,0,P|170:325|103:299,1,132.00000402832,8|0,0:0|0:3,0:3:0:0:
7,170,137118,5,8,0:0:0:0:
99,166,137225,1,8,0:0:0:0:
170,107,137332,1,8,0:0:0:0:
188,15,137440,1,8,0:0:0:0:
101,46,137547,5,8,0:0:0:0:
170,107,137654,1,8,0:0:0:0:
260,123,137761,1,8,0:0:0:0:
349,99,137868,1,8,0:0:0:0:
414,31,137975,6,0,B|464:2|516:28|516:28|459:82|503:148,1,215.999993408203,6|8,0:0|0:0,0:0:0:0:
472,245,138297,1,0,0:0:0:0:
393,281,138404,1,2,0:0:0:0:
307,271,138511,1,2,0:0:0:0:
236,220,138619,1,8,0:0:0:0:
153,246,138725,6,0,L|391:251,1,215.999993408203,2|0,0:0|0:0,0:0:0:0:
258,346,139047,2,0,L|42:341,1,215.999993408203,8|0,0:0|0:0,0:0:0:0:
236,220,139369,1,2,0:0:0:0:
236,220,139475,2,0,P|257:170|298:136,1,107.999996704102,8|0,0:0|0:0,0:0:0:0:
190,86,139690,6,0,L|74:92,1,107.999996704102,2|0,0:0|0:0,0:0:0:0:
117,185,139904,2,0,L|1:191,1,107.999996704102,8|0,0:0|0:0,0:0:0:0:
229,65,140118,2,0,L|113:71,1,107.999996704102,2|0,0:0|0:0,0:0:0:0:
351,184,140332,5,8,0:0:0:0:
236,220,140440,2,0,L|343:214,1,107.999996704102,2|0,0:0|0:0,0:0:0:0:
441,123,140654,1,2,0:0:0:0:
461,32,140761,2,0,P|388:50|358:94,1,107.999996704102,8|0,0:0|0:0,0:0:0:0:
441,123,140976,1,2,0:0:0:0:
455,134,141190,5,8,0:0:0:0:
436,239,141297,1,2,0:0:0:0:
415,344,141404,6,0,L|291:351,1,120,8|0,0:0|0:0,0:0:0:0:
236,220,141618,1,0,0:0:0:0:
97,255,141725,2,0,L|216:248,1,120,8|0,0:0|0:0,0:0:0:0:
156,79,141940,1,0,0:0:0:0:
304,100,142047,2,0,L|184:106,2,120,8|0|0,0:0|0:0|0:0,0:0:0:0:
465,175,142369,5,8,0:0:0:0:
487,177,142475,1,2,0:0:0:0:
458,150,142583,1,2,0:0:0:0:
404,153,142690,1,2,0:0:0:0:
359,209,142797,1,2,0:0:0:0:
285,248,142904,1,8,0:0:0:0:
211,206,143012,1,2,0:0:0:0:
133,237,143118,6,0,L|258:228,1,120,8|0,0:0|0:0,0:0:0:0:
44,368,143332,1,0,0:0:0:0:
183,333,143440,2,0,L|58:342,1,120,8|0,0:0|0:0,0:0:0:0:
90,96,143654,1,0,0:0:0:0:
53,179,143761,1,8,0:0:0:0:
97,263,143868,2,0,L|222:254,1,120,2|0,0:0|0:0,0:0:0:0:
499,199,144082,5,8,0:0:0:0:
454,176,144190,1,2,0:0:0:0:
386,185,144297,1,2,0:0:0:0:
336,256,144404,1,2,0:0:0:0:
333,345,144511,2,0,P|389:330|423:281,1,120,8|0,0:0|0:0,0:0:0:0:
322,241,144725,1,8,0:0:0:0:
253,298,144832,6,0,P|158:274|43:302,1,215.999993408203,2|0,0:0|0:0,0:0:0:0:
29,137,145154,1,0,0:0:0:0:
111,162,145261,1,2,0:0:0:0:
194,138,145368,1,2,0:0:0:0:
261,83,145475,1,8,0:0:0:0:
342,111,145582,6,0,L|118:102,1,215.999993408203,2|0,0:0|0:0,0:0:0:0:
29,137,145904,1,8,0:0:0:0:
7,220,146011,1,0,0:0:0:0:
57,289,146118,2,0,P|37:221|50:165,1,107.999996704102,2|0,0:0|0:0,0:0:0:0:
126,102,146332,2,0,P|146:170|133:226,1,107.999996704102,8|0,0:0|0:0,0:0:0:0:
113,363,146547,5,2,0:0:0:0:
126,349,146761,2,0,P|195:331|251:349,1,107.999996704102,8|0,0:0|0:0,0:0:0:0:
443,207,146975,6,0,B|370:227|370:227|300:206,2,143.999995605469,2|2|2,0:0|0:0|0:0,0:0:0:0:
228,128,147404,5,2,0:0:0:0:
456,176,147547,1,2,0:0:0:0:
173,200,147690,1,2,0:0:0:0:
493,97,147832,5,2,0:0:0:0:
290,64,147975,1,2,0:0:0:0:
307,64,148047,1,10,0:0:0:0:
324,64,148118,1,2,0:0:0:0:
218,47,148261,6,0,L|349:51,1,120,10|0,0:0|0:0,0:0:0:0:
155,223,148476,1,0,0:0:0:0:
292,203,148582,2,0,L|172:199,1,120,8|0,0:0|0:0,0:0:0:0:
136,81,148797,1,0,0:0:0:0:
0,103,148904,2,0,L|119:106,2,120,8|0|0,0:0|0:0|0:0,0:0:0:0:
30,272,149226,5,8,0:0:0:0:
4,265,149333,1,2,0:0:0:0:
23,303,149440,1,2,0:0:0:0:
78,320,149547,1,2,0:0:0:0:
129,287,149654,1,2,0:0:0:0:
183,232,149761,1,8,0:0:0:0:
264,240,149868,1,2,0:0:0:0:
317,307,149976,6,0,L|458:319,1,120,8|0,0:0|0:0,0:0:0:0:
256,132,150190,1,0,0:0:0:0:
403,121,150297,2,0,L|262:109,1,120,8|0,0:0|0:0,0:0:0:0:
183,232,150511,1,0,0:0:0:0:
43,246,150618,2,0,L|162:256,2,120,8|0|0,0:0|0:0|0:0,0:0:0:0:
9,44,150940,5,8,0:0:0:0:
46,71,151047,1,2,0:0:0:0:
110,65,151154,1,2,0:0:0:0:
177,31,151261,2,0,B|246:0|307:30|307:30|377:62|463:27,1,270.000010299683,8|0,0:0|0:0,0:0:0:0:
496,116,151690,5,6,0:0:0:0:
481,106,151904,1,0,0:0:0:0:
368,273,152118,1,2,0:0:0:0:
264,52,152332,1,0,0:0:0:0:
141,172,152547,6,0,P|76:195|25:170,1,90.0000034332277,2|0,0:0|0:0,0:0:0:0:
32,272,152761,2,0,P|44:204|91:172,1,90.0000034332277
0,129,152975,2,0,P|52:173|56:230,1,90.0000034332277,2|0,0:0|0:0,0:0:0:0:
145,329,153190,1,2,0:0:0:0:
228,360,153297,1,2,0:0:0:0:
311,335,153404,6,0,B|379:307|428:332|428:332|363:267|384:200,1,240,6|8,0:0|0:0,0:0:0:0:
410,246,153725,1,2,0:0:0:0:
410,246,153832,1,2,0:0:0:0:
381,159,153940,1,2,0:0:0:0:
391,69,154047,1,8,0:0:0:0:
466,19,154154,1,2,0:0:0:0:
375,59,154261,5,2,0:0:0:0:
281,80,154368,1,2,0:0:0:0:
186,62,154475,1,8,0:0:0:0:
102,14,154582,1,2,0:0:0:0:
17,61,154690,1,2,0:0:0:0:
70,138,154797,6,0,L|50:315,1,143.999995605469,2|0,0:0|0:0,0:0:0:0:
24,375,155118,5,6,0:0:0:0:
17,358,155332,1,0,0:0:0:0:
186,384,155547,1,2,0:0:0:0:
232,200,155761,1,0,0:0:0:0:
364,331,155975,6,0,L|475:334,1,90.0000034332277,2|0,0:0|0:0,0:0:0:0:
421,250,156190,2,0,L|532:253,1,90.0000034332277
325,349,156404,2,0,L|436:352,1,90.0000034332277,2|0,0:0|0:0,0:0:0:0:
443,231,156618,1,2,0:0:0:0:
481,149,156725,1,2,0:0:0:0:
452,64,156832,5,2,0:0:0:0:
367,96,156940,1,2,0:0:0:0:
278,81,157047,1,8,0:0:0:0:
199,36,157154,1,2,0:0:0:0:
109,32,157261,1,2,0:0:0:0:
42,92,157368,2,0,P|24:159|43:224,1,120,2|8,0:0|0:0,0:0:0:0:
134,307,157582,1,0,0:0:0:0:
134,307,157690,5,2,0:0:0:0:
151,212,157797,1,2,0:0:0:0:
232,161,157904,1,8,0:0:0:0:
323,190,158011,1,2,0:0:0:0:
289,279,158118,1,2,0:0:0:0:
328,367,158225,2,0,L|314:223,1,143.999995605469,2|0,0:0|0:0,0:0:0:0:
232,161,158547,5,6,0:0:0:0:
225,179,158761,1,0,0:0:0:0:
430,128,158975,1,2,0:0:0:0:
158,87,159190,1,0,0:0:0:0:
383,207,159404,6,0,P|429:218|483:200,1,90.0000034332277,2|0,0:0|0:0,0:0:0:0:
472,50,159618,2,0,P|426:39|372:57,1,90.0000034332277
430,128,159832,1,2,0:0:0:0:
225,179,160047,1,2,0:0:0:0:
137,202,160154,1,2,0:0:0:0:
51,173,160261,6,0,P|20:107|35:46,1,132.00000402832,2|0,0:0|0:0,0:0:0:0:
239,162,160475,2,0,P|270:228|255:289,1,132.00000402832,8|0,0:0|0:0,0:0:0:0:
49,133,160690,6,0,P|55:60|98:15,1,132.00000402832,2|0,0:0|0:0,0:0:0:0:
240,211,160904,2,0,P|233:283|190:328,1,132.00000402832,8|0,0:0|0:0,0:0:0:0:
72,95,161118,6,0,P|130:26|298:51,1,264.000008056641,2|8,0:0|0:0,0:0:0:0:
232,96,161440,2,0,B|211:82|179:78|140:93|141:140|141:140|195:135|225:169|238:213|214:274,1,264.000008056641,2|2,0:0|0:0,0:0:0:0:
391,299,161761,1,8,0:0:0:0:
360,208,161868,1,2,0:0:0:0:
395,120,161975,5,2,0:0:0:0:
145,221,162190,1,2,0:0:0:0:
391,299,162404,1,2,0:0:0:0:
395,120,162619,1,2,0:0:0:0:
304,120,162726,1,2,0:0:0:0:
163,347,162940,5,2,0:0:0:0:
254,347,163046,1,2,0:0:0:0:
304,120,163261,1,2,0:0:0:0:
66,252,163476,1,2,0:0:0:0:
355,298,163690,6,0,L|393:299,1,36,2|0,0:0|0:0,0:0:0:0:
401,309,164332,5,8,0:0:0:0:
438,270,164440,1,0,0:0:0:0:
440,183,164547,1,8,0:0:0:0:
344,220,164654,1,8,0:0:0:0:
247,167,164761,1,8,0:0:0:0:
161,234,164868,1,8,0:0:0:0:
150,248,165082,6,0,L|151:204,1,44.999998626709
143,181,165404,6,0,P|71:199|16:177,1,120,6|0,0:0|0:0,0:0:0:0:
17,0,165618,2,0,P|64:35|80:91,1,120,8|0,0:0|0:0,0:0:0:0:
61,244,165832,2,0,P|76:300|123:336,1,120,2|0,0:0|0:0,0:0:0:0:
318,240,166047,1,8,0:0:0:0:
401,199,166154,1,2,0:0:0:0:
482,245,166261,5,2,0:0:0:0:
390,290,166369,1,2,0:0:0:0:
306,224,166475,1,8,0:0:0:0:
358,129,166582,2,0,L|347:375,1,240,2|0,0:0|0:0,0:0:0:0:
61,244,166904,1,8,0:0:0:0:
102,164,167011,1,0,0:0:0:0:
31,109,167118,6,0,P|96:74|153:90,1,120,6|0,0:0|0:0,0:0:0:0:
305,223,167332,2,0,P|256:256|198:251,1,120,8|0,0:0|0:0,0:0:0:0:
100,38,167547,2,0,P|168:50|216:107,1,120,2|0,0:0|0:0,0:0:0:0:
198,251,167761,1,8,0:0:0:0:
123,375,167868,6,0,P|134:263|184:352,1,264.000008056641,2|0,0:0|0:0,0:0:0:0:
301,145,168190,1,8,0:0:0:0:
373,282,168297,2,0,P|362:159|312:248,1,287.999991210938,2|0,0:0|0:0,0:0:0:0:
118,58,168618,1,8,0:0:0:0:
204,83,168725,1,0,0:0:0:0:
285,45,168832,6,0,P|358:20|425:39,1,120,6|0,0:0|0:0,0:0:0:0:
373,282,169047,2,0,P|300:307|233:288,1,120,8|0,0:0|0:0,0:0:0:0:
41,308,169261,1,2,0:0:0:0:
0,221,169368,1,2,0:0:0:0:
36,132,169475,1,8,0:0:0:0:
134,152,169582,2,0,P|48:218|67:113,1,240,2|0,0:0|0:0,0:0:0:0:
277,5,169904,5,8,0:0:0:0:
206,47,170011,1,0,0:0:0:0:
299,22,170118,2,0,P|291:99|242:136,1,120,2|0,0:0|0:0,0:0:0:0:
407,279,170332,1,8,0:0:0:0:
449,203,170439,1,0,0:0:0:0:
390,282,170547,6,0,P|353:236|354:178,1,120,6|0,0:0|0:0,0:0:0:0:
198,300,170761,1,8,0:0:0:0:
266,241,170868,2,0,P|195:209|138:233,1,120,2|0,0:0|0:0,0:0:0:0:
71,311,171082,2,0,P|141:342|198:318,1,120,2|8,0:0|0:0,0:0:0:0:
295,89,171297,6,0,P|396:86|354:178,1,240,2|0,0:0|0:0,0:0:0:0:
161,339,171618,6,0,P|88:328|42:271,1,150,8|0,0:0|0:0,0:0:0:0:
247,87,171832,6,0,P|311:26|409:38,1,150,2|0,0:0|0:0,0:0:0:0:
419,354,172047,6,0,L|262:355,1,135.000005149841,8|0,0:0|0:0,0:0:0:0:
240,376,172261,6,0,P|278:323|261:237,1,120,6|0,0:0|0:0,0:0:0:0:
247,87,172475,1,8,0:0:0:0:
186,153,172582,1,0,0:0:0:0:
318,129,172690,2,0,L|198:126,1,120,2|0,0:0|0:0,0:0:0:0:
62,234,172904,1,8,0:0:0:0:
145,266,173011,1,2,0:0:0:0:
232,245,173118,5,2,0:0:0:0:
139,286,173225,1,2,0:0:0:0:
45,244,173332,1,8,0:0:0:0:
13,146,173440,2,0,L|44:396,1,240,2|0,0:0|0:0,0:0:0:0:
232,245,173761,1,8,0:0:0:0:
325,224,173868,1,0,0:0:0:0:
392,292,173975,6,0,P|420:231|399:165,1,120,6|0,0:0|0:0,0:0:0:0:
174,81,174190,2,0,P|146:142|167:208,1,120,8|0,0:0|0:0,0:0:0:0:
365,352,174404,2,0,P|419:313|434:245,1,120,2|0,0:0|0:0,0:0:0:0:
312,54,174618,1,8,0:0:0:0:
437,91,174725,6,0,L|171:80,1,264.000008056641,2|0,0:0|0:0,0:0:0:0:
130,257,175047,1,8,0:0:0:0:
5,220,175154,2,0,L|301:232,1,287.999991210938,2|0,0:0|0:0,0:0:0:0:
435,264,175475,1,8,0:0:0:0:
471,179,175582,1,0,0:0:0:0:
437,91,175690,6,0,P|373:75|311:89,1,120,6|0,0:0|0:0,0:0:0:0:
130,257,175904,2,0,P|194:273|256:259,1,120,8|0,0:0|0:0,0:0:0:0:
158,16,176118,1,2,0:0:0:0:
125,99,176225,1,2,0:0:0:0:
166,178,176332,1,8,0:0:0:0:
130,257,176440,2,0,P|67:221|167:180,1,240,2|0,0:0|0:0,0:0:0:0:
270,300,176761,5,8,0:0:0:0:
364,336,176868,1,0,0:0:0:0:
458,316,176975,2,0,P|496:258|483:182,1,120,2|0,0:0|0:0,0:0:0:0:
403,42,177190,1,8,0:0:0:0:
397,60,177404,5,6,0:0:0:0:
310,19,177511,1,2,0:0:0:0:
226,65,177618,1,8,0:0:0:0:
148,8,177725,2,0,P|132:82|170:151,1,120,2|0,0:0|0:0,0:0:0:0:
85,196,177940,2,0,P|139:217|196:201,1,120,2|8,0:0|0:0,0:0:0:0:
393,144,178154,6,0,P|359:193|347:91,1,240,2|0,0:0|0:0,0:0:0:0:
85,196,178475,6,0,L|123:376,1,150,8|0,0:0|0:0,0:0:0:0:
447,278,178690,6,0,L|502:93,1,150,8|0,0:0|0:0,0:0:0:0:
73,56,178904,5,8,0:0:0:0:
104,178,179011,1,8,0:0:0:0:
135,300,179118,6,0,P|197:329|274:314,1,120,6|0,0:0|0:0,0:0:0:0:
489,134,179332,2,0,P|427:105|351:116,1,120,8|0,0:0|0:0,0:0:0:0:
69,256,179547,2,0,P|98:305|154:330,1,120,2|0,0:0|0:0,0:0:0:0:
408,145,179761,1,8,0:0:0:0:
329,175,179868,1,2,0:0:0:0:
309,256,179975,5,2,0:0:0:0:
240,196,180082,1,2,0:0:0:0:
147,206,180190,1,8,0:0:0:0:
69,256,180297,2,0,L|346:256,1,240,2|0,0:0|0:0,0:0:0:0:
512,290,180618,1,8,0:0:0:0:
441,343,180725,1,0,0:0:0:0:
365,297,180832,6,0,L|231:298,1,120,6|0,0:0|0:0,0:0:0:0:
11,176,181047,2,0,L|130:175,1,120,8|0,0:0|0:0,0:0:0:0:
273,329,181261,2,0,L|139:330,1,120,2|0,0:0|0:0,0:0:0:0:
238,105,181475,1,8,0:0:0:0:
156,70,181583,6,0,P|236:195|321:139,1,264.000008056641,2|0,0:0|0:0,0:0:0:0:
373,23,181904,1,8,0:0:0:0:
238,105,182011,2,0,P|371:54|540:125,1,287.999991210938,2|0,0:0|0:0,0:0:0:0:
289,200,182332,2,0,P|231:214|175:197,1,120,8|0,0:0|0:0,0:0:0:0:
48,345,182547,6,0,P|81:307|156:286,1,120,6|0,0:0|0:0,0:0:0:0:
348,299,182761,2,0,P|305:258|290:201,1,120,8|0,0:0|0:0,0:0:0:0:
144,54,182975,2,0,P|129:111|88:153,1,120,2|0,0:0|0:0,0:0:0:0:
236,297,183190,1,8,0:0:0:0:
175,203,183297,2,0,P|231:185|288:199,1,120,2|0,0:0|0:0,0:0:0:0:
257,50,183511,6,0,P|201:68|144:54,1,120,2|8,0:0|0:0,0:0:0:0:
73,294,183725,1,2,0:0:0:0:
152,338,183832,1,2,0:0:0:0:
236,297,183940,1,2,0:0:0:0:
331,301,184047,1,8,0:0:0:0:
416,344,184154,1,2,0:0:0:0:
497,300,184261,6,0,P|426:318|353:284,1,120,6|0,0:0|0:0,0:0:0:0:
175,203,184475,2,0,P|226:255|233:335,1,120,8|0,0:0|0:0,0:0:0:0:
435,206,184690,2,0,P|454:135|520:89,1,120,2|0,0:0|0:0,0:0:0:0:
207,111,184904,1,8,0:0:0:0:
108,70,185011,6,0,P|126:170|198:82,1,240,2|0,0:0|0:0,0:0:0:0:
453,69,185333,6,0,P|469:140|436:206,1,150,8|0,0:0|0:0,0:0:0:0:
90,199,185547,6,0,P|56:133|72:61,1,150,2|0,0:0|0:0,0:0:0:0:
372,332,185761,5,8,0:0:0:0:
264,294,185868,1,8,0:0:0:0:
159,331,185975,6,0,P|87:346|34:325,1,120,6|0,0:0|0:0,0:0:0:0:
205,200,186190,2,0,P|277:185|330:206,1,120,8|0,0:0|0:0,0:0:0:0:
486,331,186404,2,0,P|414:346|361:325,1,120,2|0,0:0|0:0,0:0:0:0:
395,153,186618,1,8,0:0:0:0:
425,236,186725,1,2,0:0:0:0:
479,167,186833,5,2,0:0:0:0:
379,137,186940,1,2,0:0:0:0:
287,184,187047,1,8,0:0:0:0:
294,288,187154,2,0,L|355:26,1,240,2|0,0:0|0:0,0:0:0:0:
210,102,187475,1,8,0:0:0:0:
121,121,187583,1,0,0:0:0:0:
43,73,187690,6,0,P|89:36|148:35,1,120,6|0,0:0|0:0,0:0:0:0:
287,184,187904,2,0,P|231:152|210:97,1,120,8|0,0:0|0:0,0:0:0:0:
362,1,188118,2,0,P|344:58|298:93,1,120,2|0,0:0|0:0,0:0:0:0:
85,203,188332,1,8,0:0:0:0:
151,264,188440,6,0,P|41:282|11:152,1,264.000008056641,2|0,0:0|0:0,0:0:0:0:
85,203,188761,1,8,0:0:0:0:
151,264,188868,2,0,P|294:218|432:266,1,287.999991210938,2|0,0:0|0:0,0:0:0:0:
508,120,189190,2,0,P|451:134|383:113,1,120,8|0,0:0|0:0,0:0:0:0:
229,311,189404,6,0,P|287:296|345:310,1,120,6|0,0:0|0:0,0:0:0:0:
141,102,189618,2,0,P|125:159|84:202,1,120,8|0,0:0|0:0,0:0:0:0:
392,118,189832,2,0,P|350:75|333:18,1,120,2|0,0:0|0:0,0:0:0:0:
262,182,190047,1,8,0:0:0:0:
122,210,190154,6,0,L|249:203,1,120,2|0,0:0|0:0,0:0:0:0:
31,104,190368,1,2,0:0:0:0:
0,198,190475,1,8,0:0:0:0:
19,292,190583,1,2,0:0:0:0:
93,355,190690,2,0,L|220:348,1,120,2|0,0:0|0:0,0:0:0:0:
262,182,190904,2,0,L|142:188,1,120,8|0,0:0|0:0,0:0:0:0:
449,341,191118,5,6,0:0:0:0:
482,251,191225,1,2,0:0:0:0:
432,167,191332,1,8,0:0:0:0:
480,82,191440,2,0,L|464:226,1,120,2|0,0:0|0:0,0:0:0:0:
283,243,191654,2,0,L|296:123,1,120,2|8,0:0|0:0,0:0:0:0:
21,235,191868,1,0,0:0:0:0:
21,235,191975,5,2,0:0:0:0:
93,168,192082,1,2,0:0:0:0:
176,216,192190,1,8,0:0:0:0:
154,309,192297,1,2,0:0:0:0:
58,318,192404,2,0,P|142:271|199:287,1,120,8|0,0:0|0:0,0:0:0:0:
336,324,192618,1,8,0:0:0:0:
425,355,192725,1,8,0:0:0:0:
511,316,192832,6,0,P|525:258|509:198,1,120,6|0,0:0|0:0,0:0:0:0:
412,189,193047,2,0,P|369:147|308:131,1,120,8|0,0:0|0:0,0:0:0:0:
261,214,193261,2,0,P|203:230|161:271,1,120,2|0,0:0|0:0,0:0:0:0:
123,117,193474,1,8,0:0:0:0:
0,99,193582,6,0,L|264:75,1,240,2|0,0:0|0:0,0:0:0:0:
449,75,193904,2,0,L|407:207,1,120,8|0,0:0|0:0,0:0:0:0:
224,328,194118,2,0,L|260:213,1,120,2|0,0:0|0:0,0:0:0:0:
495,48,194332,2,0,L|453:180,1,120,8|0,0:0|0:0,0:0:0:0:
340,324,194547,6,0,P|277:339|220:326,1,120,6|0,0:0|0:0,0:0:0:0:
144,217,194761,2,0,P|207:202|264:215,1,120,8|0,0:0|0:0,0:0:0:0:
60,329,194974,1,2,0:0:0:0:
17,248,195082,1,2,0:0:0:0:
30,159,195190,1,8,0:0:0:0:
110,95,195297,6,0,P|46:190|42:111,1,240,2|0,0:0|0:0,0:0:0:0:
252,120,195618,2,0,P|317:144|386:118,1,120,8|0,0:0|0:0,0:0:0:0:
167,17,195832,2,0,P|105:0|50:20,1,120,2|0,0:0|0:0,0:0:0:0:
312,223,196047,1,8,0:0:0:0:
364,132,196154,1,0,0:0:0:0:
315,42,196261,6,0,L|344:285,1,240,6|8,0:0|0:0,0:0:0:0:
211,237,196582,1,0,0:0:0:0:
262,324,196690,2,0,P|310:260|304:195,1,120,2|0,0:0|0:0,0:0:0:0:
364,132,196904,1,8,0:0:0:0:
489,139,197011,6,0,P|376:181|263:141,1,240,2|0,0:0|0:0,0:0:0:0:
153,145,197332,2,0,P|113:194|107:250,1,120,8|0,0:0|0:0,0:0:0:0:
0,74,197547,2,0,P|53:49|86:0,1,120,2|0,0:0|0:0,0:0:0:0:
267,144,197761,2,0,P|209:128|153:145,1,120,8|0,0:0|0:0,0:0:0:0:
0,321,197975,6,0,P|93:285|230:319,1,240,6|8,0:0|0:0,0:0:0:0:
417,373,198297,1,0,0:0:0:0:
417,373,198404,1,2,0:0:0:0:
381,284,198511,1,2,0:0:0:0:
425,198,198618,1,8,0:0:0:0:
511,241,198725,6,0,P|519:281|440:227,1,240,2|0,0:0|0:0,0:0:0:0:
412,81,199047,2,0,P|334:58|282:87,1,120,8|0,0:0|0:0,0:0:0:0:
284,200,199261,6,0,P|389:108|289:113,1,335.999989746094,8|8,0:0|0:0,0:0:0:0:
193,168,199582,1,2,0:0:0:0:
196,268,199690,6,0,P|269:232|286:154,1,120,6|0,0:0|0:0,0:0:0:0:
205,57,199904,2,0,P|179:125|201:178,1,120,8|0,0:0|0:0,0:0:0:0:
114,224,200118,2,0,P|58:206|0:218,1,120,2|0,0:0|0:0,0:0:0:0:
196,268,200332,1,8,0:0:0:0:
51,317,200440,6,0,L|290:298,1,240,2|0,0:0|0:0,0:0:0:0:
298,209,200761,2,0,P|350:235|376:288,1,120,8|0,0:0|0:0,0:0:0:0:
434,366,200975,2,0,P|468:317|465:259,1,120,2|0,0:0|0:0,0:0:0:0:
471,163,201190,2,0,P|412:166|363:133,1,120,8|0,0:0|0:0,0:0:0:0:
439,68,201404,5,6,0:0:0:0:
178,218,201618,2,0,L|315:207,1,120,8|0,0:0|0:0,0:0:0:0:
248,49,201832,1,2,0:0:0:0:
161,21,201939,1,2,0:0:0:0:
76,48,202047,1,8,0:0:0:0:
25,139,202154,6,0,P|108:59|29:69,1,240,2|0,0:0|0:0,0:0:0:0:
178,218,202475,2,0,L|315:207,1,120,8|0,0:0|0:0,0:0:0:0:
403,145,202690,2,0,P|358:107|338:44,1,120,2|0,0:0|0:0,0:0:0:0:
297,208,202904,2,0,P|341:245|361:308,1,120,8|0,0:0|0:0,0:0:0:0:
495,171,203119,6,0,L|206:198,1,240,6|8,0:0|0:0,0:0:0:0:
199,132,203440,1,0,0:0:0:0:
55,120,203548,2,0,L|223:106,1,120,2|0,0:0|0:0,0:0:0:0:
297,208,203762,1,8,0:0:0:0:
399,136,203868,6,0,P|316:189|362:101,1,240,2|0,0:0|0:0,0:0:0:0:
455,66,204190,2,0,P|492:111|494:170,1,120,8|0,0:0|0:0,0:0:0:0:
307,319,204404,2,0,P|282:265|296:207,1,120,2|0,0:0|0:0,0:0:0:0:
188,20,204618,2,0,P|212:73|198:131,1,120,8|0,0:0|0:0,0:0:0:0:
43,335,204832,6,0,P|71:225|-9:283,1,240,6|8,0:0|0:0,0:0:0:0:
142,321,205154,1,2,0:0:0:0:
231,302,205261,1,2,0:0:0:0:
316,334,205369,1,2,0:0:0:0:
393,292,205476,1,8,0:0:0:0:
481,250,205583,6,0,P|382:206|419:301,1,240,2|0,0:0|0:0,0:0:0:0:
231,302,205904,2,0,P|171:296|119:267,1,120,8|0,0:0|0:0,0:0:0:0:
191,188,206118,2,0,P|251:180|301:146,1,120,2|0,0:0|0:0,0:0:0:0:
227,64,206332,2,0,P|167:58|115:29,1,120,8|0,0:0|0:0,0:0:0:0:
155,27,206547,6,0,B|261:63|333:26|333:26|269:110|180:108|180:108|241:149|306:144|306:144|244:184|190:188|190:188|240:229|287:218|287:218|243:254|212:255|212:255|235:280|269:284|269:284|213:329|231:362|231:362,1,960,6|0,0:0|0:0,0:0:0:0:
