osu file format v14

[General]
AudioFilename: audio.mp3
AudioLeadIn: 0
PreviewTime: 73266
Countdown: 0
SampleSet: Soft
StackLeniency: 0.4
Mode: 0
LetterboxInBreaks: 0
WidescreenStoryboard: 0

[Editor]
Bookmarks: 31834,125239
DistanceSpacing: 0.3
BeatDivisor: 4
GridSize: 32
TimelineZoom: 4.799997

[Metadata]
Title:Meisou Suru Saraband
TitleUnicode:迷走するサラバンド
Artist:Nanahoshi Kangengakudan
ArtistUnicode:ナナホシ管弦楽団
Creator:Nattu
Version:Collab Insane
Source:
Tags:vocaloid Hatsune miku sarabando niat spain dance tatemae blourgh ent entsetzen kudou chitose let1s3 letiss defreeyay japanese rock metal alternative anishina kodoku loreley runigh Paranormal LEGACY Nanahoshi Orchestra Sarabande
BeatmapID:3468297
BeatmapSetID:1103560

[Difficulty]
HPDrainRate:5
CircleSize:4
OverallDifficulty:8
ApproachRate:9
SliderMultiplier:1.64999990463257
SliderTickRate:0.5

[Events]
//Background and Video events
0,0,"YzZZEVI.png",0,0
//Break Periods
//Storyboard Layer 0 (Background)
//Storyboard Layer 1 (Fail)
//Storyboard Layer 2 (Pass)
//Storyboard Layer 3 (Foreground)
//Storyboard Layer 4 (Overlay)
//Storyboard Sound Samples

[TimingPoints]
699,324.324324324324,4,2,3,70,1,0
1753,-100,4,2,3,70,0,0
1996,-100,4,2,3,70,0,0
3658,-100,4,2,3,70,0,0
3942,-100,4,2,3,70,0,0
11077,-90.9090909090909,4,2,3,75,0,0
31834,-100,4,2,3,70,0,0
42212,-100,4,2,3,75,0,0
43509,-76.9230769230769,4,2,3,75,0,0
44158,-62.5,4,2,3,75,0,0
44807,-100,4,2,3,75,0,0
46104,-142.857142857143,4,2,3,75,0,0
46753,-250,4,2,3,75,0,0
47401,-100,4,2,3,75,0,0
48698,-76.9230769230769,4,2,3,75,0,0
49347,-62.5,4,2,3,75,0,0
49996,-100,4,2,3,75,0,0
51293,-142.857142857143,4,2,3,75,0,0
51942,-83.3333333333333,4,2,3,75,0,0
52590,-100,4,2,3,70,0,0
62320,-83.3333333333333,4,2,3,70,0,0
62644,-100,4,2,3,70,0,0
62969,-100,4,2,3,70,0,0
65563,-100,4,2,3,75,0,0
68158,-100,4,2,3,70,0,0
72050,-200,4,2,3,70,0,0
72374,-100,4,2,3,70,0,0
73347,-83.3333333333333,4,2,3,80,0,0
94023,-83.3333333333333,4,2,3,75,0,0
94104,-100,4,2,3,75,0,0
104482,-100,4,2,3,70,0,0
114861,-100,4,2,3,70,0,0
115509,-83.3333333333333,4,2,3,70,0,0
116158,-71.4285714285714,4,2,3,70,0,0
117455,-71.4285714285714,4,2,3,70,0,0
118104,-83.3333333333333,4,2,3,70,0,0
118753,-100,4,2,3,70,0,0
122644,-125,4,2,3,70,0,0
123293,-166.666666666667,4,2,3,70,0,0
125239,-100,4,2,3,70,0,0
127834,-100,4,2,3,75,0,0
130428,-100,4,2,3,70,0,0
134320,-200,4,2,3,70,0,0
134644,-100,4,2,3,70,0,0
135617,-83.3333333333333,4,2,3,80,0,0
140158,-100,4,2,3,80,0,0
140807,-83.3333333333333,4,2,3,80,0,0
150536,-100,4,2,3,80,0,0
151185,-83.3333333333333,4,2,3,80,0,0
156374,-100,4,2,3,70,0,0
163834,-83.3333333333333,4,2,3,70,0,0
164158,-100,4,2,3,70,0,0
164807,-83.3333333333333,4,2,3,70,0,0
165780,-200,4,2,3,70,0,1
166753,-100,4,2,3,75,0,0
168050,-76.9230769230769,4,2,3,75,0,0
168698,-62.5,4,2,3,75,0,0
169347,-100,4,2,3,75,0,0
170644,-142.857142857143,4,2,3,75,0,0
171942,-100,4,2,3,75,0,0
173239,-76.9230769230769,4,2,3,75,0,0
173888,-62.5,4,2,3,75,0,0
174536,-100,4,2,3,75,0,0
175834,-142.857142857143,4,2,3,75,0,0
176482,-83.3333333333333,4,2,3,75,0,0
177131,-100,4,2,3,75,0,0
179320,-83.3333333333333,4,2,3,75,0,1
179726,-100,4,2,3,75,0,0
181915,-76.9230769230769,4,2,3,75,0,1
182320,-100,4,2,3,75,0,0
183617,-76.9230769230769,4,2,3,75,0,0
184266,-62.5,4,2,3,75,0,0
184915,-100,4,2,3,75,0,0
186374,-76.9230769230769,4,2,3,75,0,0
187509,-100,4,2,3,70,0,0
190104,-100,4,2,3,75,0,0
192698,-100,4,2,3,70,0,0
196590,-200,4,2,3,70,0,0
196915,-100,4,2,3,70,0,0
197888,-200,4,2,3,70,0,1
198536,324.324324324324,4,2,3,70,1,0
198536,-83.3333333333333,4,2,3,80,0,0
203076,-100,4,2,3,80,0,0
203725,-83.3333333333333,4,2,3,80,0,0
213454,-100,4,2,3,80,0,0
214103,-83.3333333333333,4,2,3,80,0,0
219292,-100,4,2,3,75,0,0
220590,-76.9230769230769,4,2,3,75,0,0
221238,-62.5,4,2,3,75,0,0
221887,-100,4,2,3,75,0,0
223184,-142.857142857143,4,2,3,75,0,0
223833,-250,4,2,3,75,0,0
224481,-100,4,2,3,75,0,0
225779,-76.9230769230769,4,2,3,75,0,0
226427,-62.5,4,2,3,75,0,0
227076,-100,4,2,3,75,0,0
228373,-142.857142857143,4,2,3,75,0,0
229022,-83.3333333333333,4,2,3,75,0,0
229671,-100,4,2,3,70,0,0

[Colours]
Combo1 : 255,255,128
Combo2 : 255,45,45
Combo3 : 255,196,0
Combo4 : 0,218,236

[HitObjects]
65,80,699,6,0,L|46:8,4,41.2499976158143,8|8|8|8|8,3:2|0:2|0:2|0:2|3:2,0:0:0:0:
153,339,1347,2,0,L|134:411,4,41.2499976158143,8|8|8|8|8,3:2|0:2|0:2|0:2|3:2,0:0:0:0:
269,83,1996,5,8,3:2:0:0:
269,83,2077,1,8,0:2:0:0:
269,83,2158,1,8,0:2:0:0:
269,83,2239,1,8,0:2:0:0:
269,83,2320,2,0,L|249:25,3,41.2499976158143,8|8|8|8,3:2|0:2|0:2|0:2,0:0:0:0:
334,135,2644,2,0,L|315:207,3,41.2499976158143,8|8|8|8,3:2|0:2|0:2|0:2,0:0:0:0:
369,29,2969,1,8,3:2:0:0:
471,213,3293,6,0,L|543:194,4,41.2499976158143,8|8|8|8|8,3:2|0:2|0:2|0:2|3:2,0:0:0:0:
253,373,3942,2,0,L|293:384,4,41.2499976158143,8|8|8|8|8,3:2|0:2|0:2|0:2|3:2,0:0:0:0:
61,299,4590,5,8,3:2:0:0:
61,299,4671,1,8,0:2:0:0:
61,299,4752,1,8,0:2:0:0:
61,299,4833,1,8,0:2:0:0:
61,299,4914,2,0,L|23:313,3,41.2499976158143,8|8|8|8,3:2|0:2|0:2|0:2,0:0:0:0:
106,205,5239,2,0,L|86:147,3,41.2499976158143,8|8|8|8,3:2|0:2|0:2|0:2,0:0:0:0:
148,327,5563,1,8,3:2:0:0:
148,327,5726,1,8,0:2:0:0:
240,227,5888,5,8,3:2:0:0:
259,232,5969,1,8,0:2:0:0:
279,237,6050,1,8,0:2:0:0:
299,243,6131,1,10,0:3:0:0:
319,248,6212,2,0,L|406:225,1,82.4999952316285,8|2,3:2|0:3,0:0:0:0:
302,0,6536,5,8,3:2:0:0:
297,19,6617,1,8,0:2:0:0:
292,39,6698,1,8,0:2:0:0:
286,59,6779,1,10,0:3:0:0:
281,79,6860,2,0,L|304:166,1,82.4999952316285,8|2,3:2|0:3,0:0:0:0:
196,159,7185,5,8,3:2:0:0:
176,156,7266,1,8,0:2:0:0:
156,153,7347,1,8,0:2:0:0:
135,149,7428,1,10,0:3:0:0:
115,146,7509,2,0,L|131:78,3,41.2499976158143,8|8|10|8,3:2|0:2|0:3|0:2,0:0:0:0:
80,232,7834,2,0,L|91:273,3,41.2499976158143,8|8|8|10,3:2|0:2|0:2|0:3,0:0:0:0:
61,345,8158,1,8,3:2:0:0:
61,345,8320,1,2,0:3:0:0:
219,384,8482,5,8,3:2:0:0:
208,367,8563,1,8,0:2:0:0:
197,350,8644,1,8,0:2:0:0:
186,333,8725,1,10,0:3:0:0:
175,315,8807,2,0,L|193:227,1,82.4999952316285,8|2,3:2|0:3,0:0:0:0:
421,271,9131,5,8,3:2:0:0:
404,282,9212,1,8,0:2:0:0:
387,293,9293,1,8,0:2:0:0:
370,304,9374,1,10,0:3:0:0:
352,315,9456,2,0,L|264:296,1,82.4999952316285,8|2,3:2|0:3,0:0:0:0:
309,187,9780,6,0,L|321:233,3,41.2499976158143,8|0|0|0,3:2|0:0|0:0|0:0,0:0:0:0:
393,192,10104,2,0,L|382:152,3,41.2499976158143,8|8|8|8,0:2|0:2|0:2|0:2,0:0:0:0:
334,69,10428,1,8,0:2:0:0:
324,67,10510,1,8,0:2:0:0:
312,65,10591,1,8,0:2:0:0:
301,63,10672,1,8,0:2:0:0:
292,61,10752,1,8,0:2:0:0:
282,59,10834,1,8,0:2:0:0:
270,57,10915,1,8,0:2:0:0:
259,55,10996,1,8,0:2:0:0:
247,53,11077,5,4,3:2:0:0:
165,133,11239,2,0,L|110:141,1,45.3749987621307,10|0,0:3|0:0,0:0:0:0:
44,151,11401,2,0,L|-36:163,1,45.3749987621307,2|0,3:2|0:0,0:0:0:0:
73,81,11563,1,10,0:3:0:0:
73,81,11644,2,0,L|65:2,1,45.3749987621307,2|0,0:2|3:2,0:0:0:0:
96,214,11807,1,2,0:2:0:0:
96,214,11888,2,0,L|104:289,1,45.3749987621307,10|0,0:3|0:0,0:0:0:0:
161,342,12050,2,0,P|189:276|154:236,1,90.7499975242615,2|10,3:2|0:3,0:0:0:0:
252,193,12374,6,0,B|295:200|295:200|307:195|307:195|368:205,1,90.7499975242615,0|10,3:2|0:3,0:0:0:0:
442,199,12698,2,0,L|457:120,1,45.3749987621307,2|0,3:2|0:0,0:0:0:0:
424,277,12861,1,10,0:3:0:0:
424,277,12942,2,0,P|375:299|380:365,1,90.7499975242615,2|2,0:2|0:2,0:0:0:0:
427,383,13185,5,10,0:3:0:0:
284,329,13347,2,0,L|163:348,1,90.7499975242615,2|10,3:2|0:3,0:0:0:0:
0,176,13671,6,0,B|42:182|42:182|55:177|55:177|115:188,1,90.7499975242615,0|10,3:2|0:3,0:0:0:0:
233,213,13996,2,0,L|296:222,1,45.3749987621307,2|0,3:2|0:0,0:0:0:0:
155,235,14158,1,10,0:3:0:0:
155,235,14239,2,0,L|143:288,1,45.3749987621307,2|0,0:2|3:2,0:0:0:0:
173,157,14401,1,2,0:2:0:0:
173,157,14482,2,0,B|184:106|184:106|156:48,1,90.7499975242615,10|2,0:3|3:2,0:0:0:0:
78,83,14807,1,10,0:3:0:0:
308,115,14969,6,0,B|360:110|333:146|433:127,1,90.7499975242615,0|10,3:2|0:3,0:0:0:0:
508,97,15293,2,0,L|515:25,2,45.3749987621307,2|0|10,3:2|0:0|0:3,0:0:0:0:
480,190,15536,2,0,P|450:231|397:210,1,90.7499975242615,2|2,0:2|0:2,0:0:0:0:
323,200,15780,1,10,0:3:0:0:
395,313,15942,2,0,B|396:260|396:260|414:227,1,90.7499975242615,2|10,3:2|0:3,0:0:0:0:
183,256,16266,6,0,L|60:278,1,90.7499975242615,4|10,3:2|0:3,0:0:0:0:
258,284,16590,2,0,L|270:354,1,45.3749987621307,2|0,3:2|0:0,0:0:0:0:
250,209,16753,1,10,0:3:0:0:
250,209,16834,2,0,L|317:197,1,45.3749987621307,2|0,0:2|3:2,0:0:0:0:
169,180,16996,1,2,0:2:0:0:
169,180,17077,2,0,B|158:131|158:131|178:55,1,90.7499975242615,10|2,0:3|3:2,0:0:0:0:
245,120,17401,1,10,0:3:0:0:
326,272,17563,6,0,B|369:279|369:279|381:274|381:274|442:284,1,90.7499975242615,0|10,3:2|0:3,0:0:0:0:
494,292,17888,1,2,3:2:0:0:
275,328,18050,1,10,0:3:0:0:
275,328,18131,2,0,L|296:387,1,45.3749987621307,2|0,0:2|3:2,0:0:0:0:
202,292,18293,2,0,B|124:307,1,45.3749987621307,2|10,0:2|0:3,0:0:0:0:
244,225,18455,1,2,0:2:0:0:
247,210,18536,1,2,3:2:0:0:
250,195,18617,1,2,0:2:0:0:
254,180,18698,1,10,0:3:0:0:
257,166,18779,1,2,0:2:0:0:
259,154,18861,6,0,L|185:129,1,45.3749987621307,0|0,3:2|0:0,0:0:0:0:
237,67,19023,2,0,L|279:81,1,45.3749987621307,10|0,0:3|0:0,0:0:0:0:
349,150,19185,2,0,L|358:194,1,45.3749987621307,2|0,3:2|0:0,0:0:0:0:
436,184,19347,1,10,0:3:0:0:
437,184,19428,2,0,L|428:139,1,45.3749987621307,2|0,0:2|3:2,0:0:0:0:
349,150,19590,2,0,L|358:194,1,45.3749987621307,2|10,0:2|0:3,0:0:0:0:
412,277,19753,1,2,0:2:0:0:
412,277,19834,2,0,L|356:290,1,45.3749987621307,2|0,3:2|0:0,0:0:0:0:
291,316,19996,2,0,L|282:272,1,45.3749987621307,10|0,0:3|0:0,0:0:0:0:
250,165,20158,6,0,B|216:159|216:159|204:164|204:164|161:157,1,90.7499975242615,0|10,3:2|0:3,0:0:0:0:
87,116,20401,1,2,0:2:0:0:
87,116,20482,2,0,L|71:49,3,45.3749987621307,2|2|10|2,3:2|0:2|0:3|0:2,0:0:0:0:
84,197,20807,2,0,P|52:244|77:309,1,90.7499975242615,2|10,3:2|0:3,0:0:0:0:
132,311,21050,2,0,B|98:279|98:279|35:273,1,90.7499975242615,2|0,0:2|0:0,0:0:0:0:
174,183,21293,2,0,L|210:123,1,45.3749987621307,10|0,0:3|0:0,0:0:0:0:
232,264,21455,6,0,L|352:274,1,90.7499975242615,4|10,3:2|0:3,0:0:0:0:
404,337,21780,2,0,L|378:395,1,45.3749987621307,2|0,3:2|0:0,0:0:0:0:
468,284,21942,1,10,0:3:0:0:
468,284,22023,2,0,L|547:269,1,45.3749987621307,2|0,0:2|3:2,0:0:0:0:
409,222,22185,1,2,0:2:0:0:
409,222,22266,2,0,B|414:172|414:172|460:112,1,90.7499975242615,10|2,0:3|3:2,0:0:0:0:
438,139,22590,1,10,0:3:0:0:
287,166,22753,6,0,B|244:159|244:159|233:162|233:162|165:150,1,90.7499975242615,0|10,3:2|0:3,0:0:0:0:
66,71,23077,2,0,L|42:22,1,45.3749987621307,2|0,3:2|0:0,0:0:0:0:
152,68,23239,1,10,0:3:0:0:
152,68,23320,2,0,L|187:-4,1,45.3749987621307,2|0,0:2|3:2,0:0:0:0:
111,139,23482,1,2,0:2:0:0:
111,139,23563,2,0,L|82:197,1,45.3749987621307,10|0,0:3|0:0,0:0:0:0:
156,230,23726,2,0,L|164:321,1,90.7499975242615,2|10,3:2|0:3,0:0:0:0:
377,101,24050,6,0,L|366:198,1,90.7499975242615,0|10,3:2|0:3,0:0:0:0:
428,262,24374,2,0,L|462:207,1,45.3749987621307,2|0,3:2|0:0,0:0:0:0:
339,277,24536,1,10,0:3:0:0:
339,277,24617,2,0,P|347:335|401:352,1,90.7499975242615,2|2,0:2|0:2,0:0:0:0:
454,342,24861,1,10,0:3:0:0:
279,209,25023,2,0,L|155:195,1,90.7499975242615,2|10,3:2|0:3,0:0:0:0:
148,85,25347,6,0,P|107:149|135:184,1,90.7499975242615,0|10,3:2|0:3,0:0:0:0:
106,233,25671,2,0,L|34:224,2,45.3749987621307,2|0|10,3:2|0:0|0:3,0:0:0:0:
170,280,25915,2,0,B|184:325|184:325|168:396,1,90.7499975242615,2|2,0:2|0:2,0:0:0:0:
235,132,26239,1,2,0:2:0:0:
235,132,26320,2,0,L|287:120,1,45.3749987621307,2|0,3:2|0:0,0:0:0:0:
299,201,26482,2,0,L|238:213,1,45.3749987621307,10|0,0:3|0:0,0:0:0:0:
370,246,26644,6,0,P|415:255|449:202,1,90.7499975242615,4|10,3:2|0:3,0:0:0:0:
404,77,26969,2,0,L|376:188,1,90.7499975242615,2|10,3:2|0:3,0:0:0:0:
349,318,27212,2,0,L|350:378,1,45.3749987621307,2|0,0:2|3:2,0:0:0:0:
280,286,27374,1,2,0:2:0:0:
280,286,27455,2,0,L|244:335,1,45.3749987621307,10|0,0:3|0:0,0:0:0:0:
254,209,27617,2,0,B|211:202|211:202|200:205|200:205|132:193,1,90.7499975242615,2|10,3:2|0:3,0:0:0:0:
113,40,27942,6,0,P|62:57|79:122,1,90.7499975242615,0|10,3:2|0:3,0:0:0:0:
178,94,28266,1,2,3:2:0:0:
183,99,28347,2,0,L|264:87,1,45.3749987621307,2|10,0:2|0:3,0:0:0:0:
312,134,28509,1,2,0:2:0:0:
318,134,28590,1,2,3:2:0:0:
325,135,28671,1,2,0:2:0:0:
332,136,28752,1,10,0:3:0:0:
339,137,28834,1,2,0:2:0:0:
347,139,28915,2,0,L|410:148,1,45.3749987621307,2|2,3:2|0:2,0:0:0:0:
403,72,29077,2,0,L|445:56,1,45.3749987621307,10|2,0:3|0:2,0:0:0:0:
483,129,29239,5,0,3:2:0:0:
483,129,29401,1,10,0:3:0:0:
240,233,29563,2,0,B|274:240|274:240|286:237|286:237|328:246,1,90.7499975242615,2|10,3:2|0:3,0:0:0:0:
419,225,29807,2,0,P|431:268|416:310,1,90.7499975242615,2|2,0:2|0:2,0:0:0:0:
332,343,30050,1,10,0:3:0:0:
308,153,30212,2,0,B|307:100|307:100|352:36,1,90.7499975242615,2|10,3:2|0:3,0:0:0:0:
486,122,30536,6,0,L|374:141,1,90.7499975242615,0|10,3:2|0:3,0:0:0:0:
52,187,30861,2,0,L|167:207,1,90.7499975242615,2|10,3:2|0:3,0:0:0:0:
261,313,31185,1,6,3:2:0:0:
257,297,31266,1,2,0:2:0:0:
255,282,31347,1,8,0:2:0:0:
252,266,31428,1,10,0:2:0:0:
251,252,31509,2,0,L|216:207,1,45.3749987621307,8|10,3:2|0:2,0:0:0:0:
296,185,31671,2,0,L|325:113,1,45.3749987621307,8|10,0:2|0:2,0:0:0:0:
349,64,31834,6,0,B|346:28|293:12|293:12|236:50|266:99,1,164.999990463257,6|2,3:2|3:2,0:0:0:0:
169,167,32320,2,0,P|129:158|106:125,1,82.4999952316285,8|2,0:2|3:2,0:0:0:0:
135,50,32644,1,10,0:2:0:0:
226,219,32807,2,0,P|213:261|215:314,1,82.4999952316285,0|10,3:2|0:2,0:0:0:0:
309,373,33131,5,2,3:2:0:0:
380,338,33293,1,10,0:2:0:0:
314,299,33455,1,2,3:2:0:0:
165,367,33617,2,0,P|112:347|91:291,1,82.4999952316285,10|0,0:2|3:2,0:0:0:0:
53,243,33942,1,10,0:2:0:0:
212,299,34104,2,0,P|265:279|286:223,1,82.4999952316285,2|8,3:3|0:2,0:0:0:0:
44,92,34428,6,0,P|113:136|146:210,1,164.999990463257,0|2,3:2|3:2,0:0:0:0:
14,171,34915,1,10,0:2:0:0:
153,131,35077,2,0,L|239:108,1,82.4999952316285,2|10,3:2|0:2,0:0:0:0:
326,39,35401,1,2,3:2:0:0:
313,136,35563,1,10,0:2:0:0:
241,28,35726,5,2,3:2:0:0:
241,28,35888,1,10,0:2:0:0:
392,94,36050,1,2,3:2:0:0:
392,94,36212,1,10,0:2:0:0:
385,169,36374,5,2,3:2:0:0:
313,136,36536,1,10,0:3:0:0:
369,107,36698,1,2,3:2:0:0:
328,199,36861,1,10,0:2:0:0:
241,28,37023,6,0,P|294:30|350:39,1,82.4999952316285,0|10,3:2|0:2,0:0:0:0:
438,14,37347,2,0,B|443:69|443:69|430:46,1,82.4999952316285,2|10,3:2|0:2,0:0:0:0:
492,129,37671,1,2,3:2:0:0:
431,220,37834,2,0,B|425:164|425:164|438:187,1,82.4999952316285,10|0,0:2|3:2,0:0:0:0:
503,266,38158,1,10,0:2:0:0:
358,262,38320,5,0,3:2:0:0:
358,262,38482,1,10,0:2:0:0:
337,335,38644,1,2,3:2:0:0:
413,314,38807,1,10,0:2:0:0:
253,173,38969,1,2,3:2:0:0:
281,277,39131,1,10,0:3:0:0:
314,110,39293,1,2,3:2:0:0:
147,161,39455,1,10,0:2:0:0:
138,241,39617,6,0,B|178:257|178:257|219:243,1,82.4999952316285,0|8,3:2|0:2,0:0:0:0:
420,199,39942,2,0,L|330:187,1,82.4999952316285,2|8,3:2|0:2,0:0:0:0:
225,50,40266,1,2,3:2:0:0:
228,171,40428,2,0,L|146:160,1,82.4999952316285,10|2,0:2|3:3,0:0:0:0:
99,100,40753,1,10,0:2:0:0:
49,296,40915,5,2,3:3:0:0:
108,251,41077,1,10,0:2:0:0:
183,245,41239,1,2,3:3:0:0:
244,291,41401,1,10,0:2:0:0:
276,380,41563,5,2,3:3:0:0:
340,162,41726,1,8,0:2:0:0:
474,315,41888,1,8,3:2:0:0:
453,312,41969,1,8,0:2:0:0:
432,309,42050,1,8,0:2:0:0:
411,306,42131,1,8,0:2:0:0:
390,303,42212,6,0,L|405:213,1,82.4999952316285,4|10,3:2|0:3,0:0:0:0:
310,295,42536,2,0,L|324:214,1,82.4999952316285,0|10,3:2|0:3,0:0:0:0:
115,191,42861,2,0,L|100:101,1,82.4999952316285,0|10,3:2|0:3,0:0:0:0:
194,183,43185,2,0,L|180:101,1,82.4999952316285,0|10,3:2|0:3,0:0:0:0:
377,10,43509,6,0,L|397:130,1,107.249988891602,0|10,3:2|0:3,0:0:0:0:
297,23,43833,2,0,L|315:131,1,107.249988891602,0|10,3:2|0:3,0:0:0:0:
99,90,44158,6,0,L|74:236,1,131.999992370606,0|10,3:2|0:3,0:0:0:0:
180,101,44482,2,0,L|157:233,1,131.999992370606,0|10,3:2|0:3,0:0:0:0:
348,367,44807,6,0,L|256:379,1,82.4999952316285,0|10,3:2|0:3,0:0:0:0:
333,292,45131,2,0,L|241:304,1,82.4999952316285,0|10,3:2|0:3,0:0:0:0:
402,193,45455,2,0,L|422:102,1,82.4999952316285,0|10,3:2|0:3,0:0:0:0:
477,204,45779,2,0,L|497:113,1,82.4999952316285,0|10,3:2|0:3,0:0:0:0:
266,83,46104,6,0,L|193:92,1,57.74999489975,0|10,3:2|0:3,0:0:0:0:
254,4,46428,2,0,L|181:13,1,57.74999489975,0|10,3:2|0:3,0:0:0:0:
33,207,46753,6,0,L|42:163,1,32.9999980926514,0|10,3:2|0:3,0:0:0:0:
109,221,47077,2,0,L|118:177,1,32.9999980926514,0|10,3:2|0:3,0:0:0:0:
286,348,47401,6,0,L|184:367,1,82.4999952316285,6|10,3:2|0:3,0:0:0:0:
270,274,47726,2,0,L|168:293,1,82.4999952316285,0|10,3:2|0:3,0:0:0:0:
447,260,48050,2,0,L|345:279,1,82.4999952316285,0|10,3:2|0:3,0:0:0:0:
431,186,48375,2,0,L|329:205,1,82.4999952316285,0|10,3:2|0:3,0:0:0:0:
157,124,48698,6,0,L|274:145,1,107.249988891602,0|10,3:2|0:3,0:0:0:0:
175,48,49023,2,0,L|292:69,1,107.249988891602,0|10,3:2|0:3,0:0:0:0:
0,222,49347,6,0,L|145:194,1,131.999992370606,0|10,3:2|0:3,0:0:0:0:
13,297,49672,2,0,L|158:269,1,131.999992370606,0|10,3:2|0:3,0:0:0:0:
340,350,49996,6,0,L|327:253,1,82.4999952316285,0|10,3:2|0:3,0:0:0:0:
266,363,50321,2,0,L|253:266,1,82.4999952316285,0|10,3:2|0:3,0:0:0:0:
381,190,50644,2,0,L|393:93,1,82.4999952316285,0|10,3:2|0:3,0:0:0:0:
455,203,50969,2,0,L|467:106,1,82.4999952316285,0|10,3:2|0:3,0:0:0:0:
191,27,51293,6,0,L|200:100,1,57.74999489975,0|10,3:2|0:3,0:0:0:0:
265,17,51618,2,0,L|274:90,1,57.74999489975,0|10,3:2|0:3,0:0:0:0:
133,189,51942,6,0,L|66:197,1,49.4999956283571,4|0,3:2|0:0,0:0:0:0:
15,275,52104,1,8,0:2:0:0:
15,275,52185,1,8,0:2:0:0:
15,275,52266,2,0,L|85:265,1,49.4999956283571,8|8,3:2|0:2,0:0:0:0:
150,327,52428,2,0,L|100:334,1,49.4999956283571,10|8,0:3|0:0,0:0:0:0:
14,349,52590,6,0,P|-6:258|6:167,1,164.999990463257,6|2,3:2|3:2,0:0:0:0:
22,97,53077,1,8,0:2:0:0:
83,194,53239,2,0,P|99:150|97:96,1,82.4999952316285,2|10,3:2|0:2,0:0:0:0:
150,27,53563,2,0,P|179:78|227:63,1,82.4999952316285,0|10,3:2|0:2,0:0:0:0:
284,57,53888,5,2,3:2:0:0:
267,141,54050,1,10,0:2:0:0:
369,126,54212,1,2,3:2:0:0:
344,243,54374,1,10,0:2:0:0:
460,172,54536,2,0,P|421:165|361:156,1,82.4999952316285,0|10,3:2|0:2,0:0:0:0:
185,323,54861,2,0,P|258:310|272:308,1,82.4999952316285,2|8,3:3|0:2,0:0:0:0:
146,249,55185,5,0,3:2:0:0:
146,249,55347,1,10,0:2:0:0:
98,330,55509,1,2,3:2:0:0:
98,330,55671,1,10,0:2:0:0:
58,251,55834,5,2,3:2:0:0:
126,291,55996,1,10,0:2:0:0:
209,158,56158,2,0,B|188:194|188:194|191:246,1,82.4999952316285,2|10,3:2|0:2,0:0:0:0:
308,358,56482,5,2,3:2:0:0:
391,300,56644,1,10,0:2:0:0:
410,197,56807,1,2,3:2:0:0:
374,101,56969,1,10,0:2:0:0:
289,39,57131,6,0,L|199:53,1,82.4999952316285,2|10,3:2|0:3,0:0:0:0:
24,52,57455,2,0,B|23:14|23:14|98:5|117:79,1,164.999990463257,2|0,3:2|3:2,0:0:0:0:
146,163,57942,5,10,0:2:0:0:
30,192,58104,2,0,L|125:171,1,82.4999952316285,2|8,3:2|0:2,0:0:0:0:
283,321,58428,5,2,3:2:0:0:
167,292,58590,2,0,L|262:313,1,82.4999952316285,10|0,0:2|3:2,0:0:0:0:
41,378,58915,2,0,P|57:340|84:309,1,82.4999952316285,10|0,0:2|3:2,0:0:0:0:
230,221,59239,5,10,0:2:0:0:
155,193,59401,1,2,3:2:0:0:
155,193,59563,1,10,0:2:0:0:
302,178,59726,5,2,3:3:0:0:
375,212,59888,1,10,0:2:0:0:
441,163,60050,1,2,3:2:0:0:
507,216,60212,1,10,0:3:0:0:
302,178,60374,6,0,P|231:157|229:52,1,164.999990463257,0|2,3:2|3:2,0:0:0:0:
137,52,60861,1,8,0:2:0:0:
114,174,61023,2,0,P|183:166|205:150,1,82.4999952316285,2|10,3:2|0:2,0:0:0:0:
292,30,61347,2,0,P|338:39|364:84,1,82.4999952316285,0|10,3:2|0:2,0:0:0:0:
357,219,61671,5,2,3:2:0:0:
426,177,61834,1,10,0:2:0:0:
356,141,61996,1,2,3:2:0:0:
307,309,62158,1,10,0:2:0:0:
422,266,62320,6,0,L|190:298,1,197.999982513428,0|8,3:2|0:2,0:0:0:0:
225,293,62969,5,2,3:2:0:0:
138,314,63131,1,10,0:2:0:0:
138,314,63212,1,10,0:2:0:0:
138,314,63293,2,0,L|150:365,1,41.2499976158143,2|8,3:2|0:2,0:0:0:0:
190,235,63455,2,0,L|202:286,1,41.2499976158143,2|10,0:2|0:2,0:0:0:0:
94,233,63617,5,2,3:2:0:0:
94,233,63698,2,0,L|109:291,1,41.2499976158143,10|2,0:2|0:2,0:0:0:0:
183,159,63861,1,10,0:2:0:0:
183,159,63942,2,0,L|198:217,1,41.2499976158143,10|10,3:2|0:2,0:0:0:0:
22,180,64104,1,0,3:2:0:0:
22,180,64185,1,2,0:2:0:0:
22,180,64266,6,0,P|97:142|118:144,1,82.4999952316285,6|2,3:2|3:2,0:0:0:0:
156,77,64509,1,0,3:2:0:0:
156,77,64590,2,0,P|237:96|252:111,1,82.4999952316285,10|10,0:2|0:2,0:0:0:0:
352,154,64834,1,8,0:2:0:0:
352,154,64915,2,0,L|396:149,2,41.2499976158143,2|0|2,3:2|3:2|0:2,0:0:0:0:
306,68,65158,1,0,3:2:0:0:
306,68,65239,2,0,P|271:115|256:204,1,123.749992847443,14|0,0:2|0:0,0:0:0:0:
272,261,65563,6,0,L|367:270,1,82.4999952316285,6|10,3:2|0:3,0:0:0:0:
175,384,65888,2,0,P|179:343|198:307,1,82.4999952316285,2|10,3:2|0:3,0:0:0:0:
272,261,66212,5,0,3:2:0:0:
109,224,66374,1,10,0:3:0:0:
203,163,66536,1,0,3:2:0:0:
46,136,66698,1,10,0:3:0:0:
113,40,66861,6,0,L|126:137,1,82.4999952316285,2|10,3:2|0:3,0:0:0:0:
64,290,67185,2,0,P|29:241|33:209,1,82.4999952316285,2|10,3:2|0:3,0:0:0:0:
109,224,67509,5,0,3:2:0:0:
101,380,67671,1,10,0:3:0:0:
262,314,67834,1,2,3:2:0:0:
154,305,67996,1,8,0:2:0:0:
154,305,68077,1,8,0:2:0:0:
154,305,68158,6,0,P|191:255|296:221,1,164.999990463257,4|2,3:2|3:2,0:0:0:0:
402,250,68644,1,10,0:3:0:0:
438,176,68807,1,2,3:2:0:0:
319,129,68969,1,10,0:3:0:0:
306,50,69131,1,2,3:2:0:0:
387,80,69293,1,10,0:3:0:0:
224,145,69455,6,0,L|128:129,1,82.4999952316285,2|10,3:2|0:3,0:0:0:0:
101,49,69780,1,2,3:2:0:0:
4,175,69942,2,0,P|48:155|69:118,1,82.4999952316285,10|0,0:3|3:2,0:0:0:0:
180,50,70266,1,10,0:3:0:0:
9,17,70428,1,2,3:2:0:0:
104,217,70590,1,10,0:2:0:0:
104,217,70671,1,8,0:2:0:0:
104,217,70753,6,0,P|167:185|209:178,1,82.4999952316285,6|0,3:2|0:0,0:0:0:0:
253,301,70996,1,0,3:2:0:0:
253,301,71077,2,0,P|316:333|358:340,1,82.4999952316285,10|2,0:2|0:2,0:0:0:0:
358,260,71320,1,8,0:2:0:0:
358,260,71401,2,0,P|295:228|253:221,1,82.4999952316285,6|2,3:2|0:2,0:0:0:0:
158,309,71644,1,0,3:2:0:0:
158,309,71726,2,0,L|149:356,1,41.2499976158143,10|0,0:2|0:0,0:0:0:0:
104,217,71888,2,0,L|95:170,1,41.2499976158143,10|8,0:2|0:2,0:0:0:0:
0,309,72050,6,0,L|68:294,1,61.8749964237214,2|8,3:2|0:2,0:0:0:0:
60,295,72374,6,0,L|75:347,3,41.2499976158143,8|8|8|8,0:2|0:2|0:2|0:2,0:0:0:0:
71,334,72698,1,2,3:3:0:0:
154,239,72861,1,8,0:2:0:0:
154,239,72942,1,8,0:2:0:0:
154,239,73023,1,8,0:2:0:0:
270,348,73185,1,0,3:2:0:0:
270,348,73266,1,0,3:2:0:0:
270,348,73347,6,0,P|290:274|280:238,2,98.9999912567142,6|10|2,3:2|0:3|3:2,0:0:0:0:
331,132,73834,2,0,P|364:167|379:214,2,98.9999912567142,10|2|10,0:3|3:2|0:3,0:0:0:0:
213,175,74320,1,2,3:2:0:0:
271,54,74482,1,10,0:3:0:0:
286,253,74644,6,0,P|197:209|99:200,1,197.999982513428,2|2,3:2|3:2,0:0:0:0:
66,121,75131,1,10,0:3:0:0:
117,323,75293,2,0,P|160:275|161:225,1,98.9999912567142,0|10,3:2|0:3,0:0:0:0:
140,98,75617,1,2,3:2:0:0:
99,200,75780,1,10,0:3:0:0:
225,152,75942,6,0,P|277:139|331:131,1,98.9999912567142,0|10,3:2|0:3,0:0:0:0:
469,194,76266,1,2,3:2:0:0:
409,99,76428,1,10,0:3:0:0:
335,292,76590,2,0,P|292:251|289:206,1,98.9999912567142,0|10,3:2|0:3,0:0:0:0:
321,131,76915,1,2,3:2:0:0:
365,219,77077,1,10,0:3:0:0:
233,107,77239,5,2,3:2:0:0:
160,241,77401,1,10,0:3:0:0:
87,74,77563,1,2,3:2:0:0:
16,183,77726,2,0,B|83:175|83:175|115:151,1,98.9999912567142,10|2,0:3|3:2,0:0:0:0:
187,40,78050,5,10,0:3:0:0:
307,49,78212,1,2,3:2:0:0:
378,141,78374,1,10,0:3:0:0:
373,278,78536,6,0,P|307:278|257:158,2,197.999982513428,4|2|2,3:2|3:2|3:2,0:0:0:0:
443,233,79347,1,10,0:3:0:0:
375,363,79509,2,0,P|296:368|266:375,1,98.9999912567142,2|10,3:2|0:3,0:0:0:0:
443,233,79834,6,0,P|459:168|446:109,1,98.9999912567142,2|10,3:2|0:3,0:0:0:0:
387,28,80158,1,2,3:2:0:0:
252,171,80320,2,0,P|347:152|370:149,1,98.9999912567142,10|0,0:3|3:2,0:0:0:0:
227,80,80644,1,10,0:3:0:0:
176,233,80807,2,0,P|127:221|78:213,1,98.9999912567142,2|10,3:2|0:3,0:0:0:0:
37,117,81131,5,2,3:2:0:0:
0,188,81293,1,10,0:3:0:0:
37,117,81455,1,2,3:2:0:0:
0,188,81617,1,10,0:3:0:0:
17,40,81780,6,0,P|71:30|131:37,1,98.9999912567142,2|10,3:2|0:3,0:0:0:0:
219,162,82104,2,0,P|267:164|295:113,1,98.9999912567142,0|10,3:2|0:3,0:0:0:0:
363,67,82428,5,2,3:2:0:0:
285,45,82590,1,10,0:3:0:0:
363,67,82752,1,2,3:2:0:0:
285,45,82914,1,10,0:3:0:0:
460,125,83077,6,0,P|453:76|434:31,1,98.9999912567142,2|10,3:2|0:3,0:0:0:0:
383,185,83401,1,0,3:2:0:0:
380,204,83482,1,0,3:2:0:0:
377,224,83563,1,8,0:2:0:0:
374,243,83644,1,8,0:2:0:0:
371,261,83726,6,0,P|325:314|280:328,2,98.9999912567142,6|10|2,3:2|0:3|3:2,0:0:0:0:
125,234,84212,2,0,P|166:259|215:264,2,98.9999912567142,10|2|10,0:3|3:2|0:3,0:0:0:0:
197,184,84698,1,2,3:2:0:0:
22,286,84861,1,10,0:3:0:0:
69,163,85023,6,0,P|101:241|120:370,1,197.999982513428,2|2,3:2|3:2,0:0:0:0:
0,126,85509,1,10,0:3:0:0:
136,119,85671,2,0,P|107:80|59:76,1,98.9999912567142,0|10,3:2|0:3,0:0:0:0:
69,163,85996,1,2,3:2:0:0:
161,28,86158,1,10,0:3:0:0:
201,174,86320,6,0,P|253:160|305:150,1,98.9999912567142,0|10,3:2|0:3,0:0:0:0:
395,68,86644,1,2,3:2:0:0:
378,234,86807,1,10,0:3:0:0:
395,68,86969,2,0,P|343:54|291:44,1,98.9999912567142,0|10,3:2|0:3,0:0:0:0:
453,202,87293,2,0,P|471:155|492:111,1,98.9999912567142,0|10,3:2|0:3,0:0:0:0:
378,234,87617,5,2,3:2:0:0:
487,280,87780,1,10,0:3:0:0:
341,353,87942,1,2,3:2:0:0:
276,155,88104,2,0,B|303:196|303:196|294:244,1,98.9999912567142,10|2,0:3|3:2,0:0:0:0:
143,380,88428,5,10,0:3:0:0:
125,258,88590,1,2,3:2:0:0:
104,128,88753,1,10,0:3:0:0:
24,250,88915,6,0,L|231:209,1,197.999982513428,4|2,3:2|3:2,0:0:0:0:
14,161,89401,1,10,0:3:0:0:
117,49,89563,2,0,P|170:78|182:124,1,98.9999912567142,2|10,3:2|0:3,0:0:0:0:
104,128,89888,1,2,3:2:0:0:
213,13,90050,1,10,0:3:0:0:
277,119,90212,6,0,P|254:166|240:224,1,98.9999912567142,2|10,3:2|0:3,0:0:0:0:
228,376,90536,1,2,3:2:0:0:
302,369,90698,2,0,P|325:322|339:264,1,98.9999912567142,10|0,0:3|3:2,0:0:0:0:
339,189,91023,1,10,0:3:0:0:
427,214,91185,1,2,3:2:0:0:
492,160,91347,1,10,0:3:0:0:
502,78,91509,5,2,3:2:0:0:
387,59,91671,1,10,0:3:0:0:
502,78,91834,1,2,3:2:0:0:
387,59,91996,1,10,0:3:0:0:
492,160,92158,2,0,P|509:216|510:263,1,98.9999912567142,2|10,3:2|0:3,0:0:0:0:
355,373,92482,2,0,P|338:317|337:270,1,98.9999912567142,0|10,3:2|0:3,0:0:0:0:
259,157,92807,5,2,3:2:0:0:
234,270,92969,1,10,0:3:0:0:
259,157,93132,1,2,3:2:0:0:
234,270,93293,1,10,0:2:0:0:
158,100,93455,2,0,P|175:156|176:203,1,98.9999912567142,6|8,3:2|0:2,0:0:0:0:
60,332,93780,1,8,3:2:0:0:
49,315,93861,1,8,0:2:0:0:
41,296,93942,1,8,0:2:0:0:
36,277,94023,1,8,0:2:0:0:
30,260,94104,6,0,L|124:237,1,82.4999952316285,4|10,3:2|0:3,0:0:0:0:
234,270,94428,2,0,L|248:318,1,41.2499976158143,2|0,3:2|0:0,0:0:0:0:
272,201,94590,1,10,0:3:0:0:
272,201,94671,2,0,P|297:180|324:178,1,41.2499976158143,2|0,0:2|3:2,0:0:0:0:
210,138,94834,1,2,0:2:0:0:
210,138,94915,2,0,P|185:117|158:115,1,41.2499976158143,10|0,0:3|0:0,0:0:0:0:
103,78,95077,5,2,3:2:0:0:
284,14,95239,1,10,0:3:0:0:
103,78,95401,2,0,P|53:63|11:21,1,82.4999952316285,0|10,3:2|0:3,0:0:0:0:
284,14,95726,2,0,P|295:47|297:68,1,41.2499976158143,2|0,3:2|0:0,0:0:0:0:
361,111,95888,1,10,0:3:0:0:
361,111,95969,2,0,P|372:78|374:57,1,41.2499976158143,2|0,0:2|3:2,0:0:0:0:
466,105,96131,1,2,0:2:0:0:
466,105,96212,2,0,P|453:72|441:55,1,41.2499976158143,10|2,0:3|0:2,0:0:0:0:
416,174,96374,1,2,3:2:0:0:
413,186,96455,1,2,0:2:0:0:
411,198,96536,1,10,0:3:0:0:
409,210,96617,1,2,0:2:0:0:
409,221,96698,6,0,L|303:241,1,82.4999952316285,0|10,3:2|0:3,0:0:0:0:
246,337,97023,2,0,L|255:296,1,41.2499976158143,2|0,3:2|0:0,0:0:0:0:
187,247,97185,1,10,0:3:0:0:
187,247,97266,2,0,L|175:194,1,41.2499976158143,2|0,0:2|3:2,0:0:0:0:
218,91,97428,1,2,0:2:0:0:
218,91,97509,2,0,L|206:144,1,41.2499976158143,10|0,0:3|0:0,0:0:0:0:
266,188,97671,5,2,3:2:0:0:
57,109,97834,1,10,0:3:0:0:
266,188,97996,6,0,L|358:168,1,82.4999952316285,0|10,3:2|0:3,0:0:0:0:
358,167,98239,1,2,0:2:0:0:
364,156,98320,1,2,3:2:0:0:
361,143,98401,1,2,0:2:0:0:
353,133,98482,1,10,0:3:0:0:
340,130,98563,1,2,0:2:0:0:
330,138,98644,6,0,P|321:206|332:234,1,82.4999952316285,2|10,3:2|0:3,0:0:0:0:
441,226,98888,1,2,0:2:0:0:
441,226,98969,2,0,P|450:158|439:130,1,82.4999952316285,0|10,3:2|0:3,0:0:0:0:
363,9,99212,1,0,0:0:0:0:
360,25,99293,6,0,P|299:64|273:64,1,82.4999952316285,4|10,3:2|0:3,0:0:0:0:
177,12,99617,2,0,P|191:26|202:43,1,41.2499976158143,2|0,3:2|0:0,0:0:0:0:
113,84,99779,1,10,0:3:0:0:
113,84,99860,2,0,P|138:105|165:107,1,41.2499976158143,2|0,0:2|3:2,0:0:0:0:
220,150,100023,1,2,0:2:0:0:
220,150,100104,2,0,P|195:171|168:173,1,41.2499976158143,10|0,0:3|0:0,0:0:0:0:
103,203,100266,5,2,3:2:0:0:
202,43,100428,1,10,0:3:0:0:
103,203,100590,2,0,P|134:229|155:264,1,82.4999952316285,0|10,3:2|0:3,0:0:0:0:
151,384,100915,2,0,P|140:351|138:330,1,41.2499976158143,2|2,3:2|0:2,0:0:0:0:
215,323,101077,2,0,P|226:356|228:377,1,41.2499976158143,10|2,0:3|0:2,0:0:0:0:
302,334,101239,5,2,3:2:0:0:
311,325,101320,1,2,0:2:0:0:
322,321,101401,1,10,0:3:0:0:
334,321,101482,1,2,0:2:0:0:
344,326,101563,1,2,3:2:0:0:
352,334,101644,1,2,0:2:0:0:
357,345,101726,1,10,0:3:0:0:
358,357,101807,1,2,0:2:0:0:
350,366,101887,6,0,P|338:327|332:259,1,82.4999952316285,0|10,3:2|0:3,0:0:0:0:
438,212,102212,2,0,L|397:220,1,41.2499976158143,2|0,3:2|0:0,0:0:0:0:
292,202,102374,1,10,0:3:0:0:
292,202,102455,2,0,L|280:149,1,41.2499976158143,2|0,0:2|3:2,0:0:0:0:
376,142,102617,1,2,0:2:0:0:
376,142,102698,2,0,L|364:89,1,41.2499976158143,10|0,0:3|0:0,0:0:0:0:
305,60,102860,5,2,3:2:0:0:
196,202,103023,1,10,0:3:0:0:
304,59,103185,6,0,L|224:42,1,82.4999952316285,0|10,3:2|0:3,0:0:0:0:
76,50,103509,2,0,L|93:97,1,41.2499976158143,2|0,3:2|0:0,0:0:0:0:
15,120,103671,2,0,L|0:81,1,41.2499976158143,10|0,0:3|0:0,0:0:0:0:
164,120,103834,5,6,3:2:0:0:
158,144,103915,1,2,0:2:0:0:
153,168,103996,1,8,0:2:0:0:
147,192,104077,1,10,0:2:0:0:
143,216,104158,2,0,L|187:223,1,41.2499976158143,8|10,3:2|0:2,0:0:0:0:
273,282,104320,1,8,0:2:0:0:
273,282,104401,1,10,0:2:0:0:
273,282,104482,6,0,P|190:264|117:334,1,164.999990463257,6|2,3:2|3:2,0:0:0:0:
53,364,104969,1,8,0:2:0:0:
28,182,105131,2,0,L|45:289,1,82.4999952316285,2|10,3:2|0:2,0:0:0:0:
40,263,105374,1,0,0:0:0:0:
40,263,105455,1,0,3:2:0:0:
114,175,105617,1,10,0:2:0:0:
60,114,105780,5,2,3:2:0:0:
179,225,105942,2,0,L|270:207,1,82.4999952316285,10|0,0:2|3:2,0:0:0:0:
356,139,106266,1,10,0:2:0:0:
341,272,106428,1,2,3:2:0:0:
259,208,106590,1,10,0:2:0:0:
428,178,106753,2,0,P|459:118|454:82,1,82.4999952316285,2|8,3:3|0:2,0:0:0:0:
250,17,107077,6,0,P|296:66|329:170,1,164.999990463257,0|2,3:2|3:2,0:0:0:0:
262,292,107563,1,10,0:2:0:0:
191,250,107726,1,2,3:2:0:0:
259,208,107888,1,10,0:2:0:0:
206,349,108050,2,0,L|115:361,1,82.4999952316285,2|10,3:2|0:2,0:0:0:0:
25,332,108374,5,2,3:2:0:0:
25,332,108536,1,10,0:2:0:0:
106,280,108698,1,2,3:2:0:0:
106,280,108861,1,10,0:2:0:0:
25,332,109023,5,2,3:2:0:0:
10,255,109185,1,10,0:3:0:0:
117,195,109347,1,2,3:2:0:0:
106,118,109509,1,10,0:2:0:0:
3,78,109671,6,0,L|20:173,1,82.4999952316285,0|10,3:2|0:2,0:0:0:0:
220,35,109996,2,0,P|147:23|86:113,1,164.999990463257,2|2,3:2|3:2,0:0:0:0:
323,109,110482,2,0,P|335:51|313:13,1,82.4999952316285,10|0,0:2|3:2,0:0:0:0:
214,137,110807,1,10,0:2:0:0:
251,312,110969,5,0,3:2:0:0:
208,384,111131,2,0,L|219:289,1,82.4999952316285,10|2,0:2|3:2,0:0:0:0:
162,239,111455,1,10,0:2:0:0:
82,234,111617,1,2,3:2:0:0:
34,297,111780,1,10,0:3:0:0:
260,195,111942,1,2,3:2:0:0:
332,218,112104,1,10,0:2:0:0:
366,286,112266,5,0,3:2:0:0:
361,367,112428,1,8,0:2:0:0:
361,367,112509,1,0,0:0:0:0:
361,367,112590,2,0,P|314:364|255:361,1,82.4999952316285,2|8,3:2|0:2,0:0:0:0:
113,356,112915,2,0,P|171:327|186:300,1,82.4999952316285,2|10,3:2|0:2,0:0:0:0:
176,203,113239,1,2,3:3:0:0:
243,248,113401,1,10,0:2:0:0:
310,191,113563,5,2,3:3:0:0:
229,208,113726,1,10,0:2:0:0:
147,236,113888,1,2,3:3:0:0:
71,262,114050,1,10,0:2:0:0:
0,170,114212,2,0,L|112:191,1,82.4999952316285,2|8,3:3|0:2,0:0:0:0:
251,67,114536,1,8,3:2:0:0:
238,64,114617,1,8,0:2:0:0:
225,61,114698,1,8,0:2:0:0:
212,58,114780,1,8,0:2:0:0:
200,54,114861,6,0,L|176:154,1,82.4999952316285,6|8,3:2|0:2,0:0:0:0:
84,17,115185,2,0,L|104:119,1,82.4999952316285,2|8,3:2|0:2,0:0:0:0:
266,160,115509,6,0,L|289:268,1,98.9999912567142,2|10,3:2|0:2,0:0:0:0:
405,120,115834,2,0,L|371:223,1,98.9999912567142,0|10,3:2|0:2,0:0:0:0:
144,225,116158,6,0,L|120:356,1,115.4999897995,2|10,3:2|0:2,0:0:0:0:
28,139,116482,2,0,L|51:260,1,115.4999897995,2|10,3:2|0:2,0:0:0:0:
208,377,116807,5,0,3:2:0:0:
276,339,116969,1,10,0:2:0:0:
295,265,117131,1,0,3:2:0:0:
275,191,117293,1,8,0:2:0:0:
225,130,117455,6,0,L|101:166,1,115.4999897995,0|10,3:2|0:2,0:0:0:0:
392,43,117780,2,0,L|272:80,1,115.4999897995,2|10,3:2|0:2,0:0:0:0:
99,74,118104,6,0,L|-29:56,1,98.9999912567142,2|10,3:2|0:2,0:0:0:0:
223,21,118428,2,0,L|95:3,1,98.9999912567142,2|10,3:2|0:2,0:0:0:0:
127,235,118753,6,0,L|23:266,1,82.4999952316285,2|10,3:2|0:2,0:0:0:0:
275,162,119077,2,0,L|171:193,1,82.4999952316285,2|10,3:2|0:2,0:0:0:0:
165,311,119401,5,2,3:2:0:0:
227,354,119563,1,10,0:2:0:0:
232,278,119726,1,2,3:2:0:0:
211,319,119888,1,10,0:2:0:0:
306,314,120050,5,0,3:2:0:0:
195,185,120212,1,10,0:2:0:0:
265,43,120374,2,0,L|282:154,1,82.4999952316285,2|8,3:2|0:2,0:0:0:0:
359,158,120698,1,2,3:2:0:0:
359,158,120861,1,10,0:2:0:0:
414,6,121023,2,0,L|397:117,1,82.4999952316285,0|2,3:2|0:2,0:0:0:0:
465,258,121347,6,0,P|405:231|366:229,1,82.4999952316285,0|10,3:2|0:2,0:0:0:0:
277,124,121671,2,0,P|215:147|186:173,1,82.4999952316285,2|10,3:2|0:2,0:0:0:0:
155,223,121996,1,2,3:2:0:0:
155,223,122158,1,10,0:2:0:0:
103,154,122320,5,0,3:2:0:0:
52,242,122482,1,2,0:2:0:0:
46,96,122644,6,0,P|85:75|112:75,1,65.9999961853028,0|8,3:2|0:2,0:0:0:0:
173,15,122969,2,0,P|215:27|234:46,1,65.9999961853028,2|8,3:2|0:2,0:0:0:0:
221,168,123293,6,0,P|188:148|177:127,1,49.4999956283571,2|10,3:2|0:2,0:0:0:0:
112,121,123618,2,0,P|103:84|109:61,1,49.4999956283571,0|10,3:2|0:2,0:0:0:0:
173,15,123942,5,2,3:2:0:0:
201,95,124104,1,10,0:2:0:0:
197,178,124266,1,2,3:2:0:0:
160,258,124428,1,10,0:3:0:0:
91,317,124590,1,0,3:2:0:0:
85,301,124671,1,0,3:2:0:0:
81,286,124752,1,0,3:2:0:0:
80,270,124833,1,0,3:2:0:0:
82,255,124914,1,8,0:2:0:0:
297,309,125239,5,2,3:2:0:0:
382,308,125401,1,10,0:2:0:0:
382,308,125482,1,10,0:2:0:0:
382,308,125564,2,0,L|368:370,1,41.2499976158143,2|8,3:2|0:2,0:0:0:0:
297,231,125726,2,0,L|283:293,1,41.2499976158143,2|10,0:2|0:2,0:0:0:0:
414,236,125888,5,2,3:2:0:0:
414,236,125969,2,0,L|400:298,1,41.2499976158143,8|2,0:2|0:2,0:0:0:0:
297,153,126131,1,10,0:2:0:0:
297,153,126212,2,0,L|283:215,1,41.2499976158143,10|8,3:2|0:2,0:0:0:0:
485,179,126374,1,2,3:2:0:0:
485,179,126455,1,2,0:2:0:0:
485,179,126536,6,0,P|452:152|384:150,1,82.4999952316285,6|2,3:2|3:2,0:0:0:0:
338,78,126780,1,0,3:2:0:0:
338,78,126861,2,0,P|296:67|235:95,1,82.4999952316285,10|10,0:2|0:2,0:0:0:0:
176,126,127104,1,8,0:2:0:0:
176,126,127185,2,0,L|131:120,2,41.2499976158143,2|0|2,3:2|3:2|0:2,0:0:0:0:
116,49,127428,1,0,3:2:0:0:
116,49,127509,2,0,P|112:108|42:149,1,123.749992847443,14|0,0:2|0:0,0:0:0:0:
19,213,127834,6,0,L|114:235,1,82.4999952316285,6|10,3:2|0:3,0:0:0:0:
64,368,128158,2,0,P|23:336|18:278,1,82.4999952316285,0|10,3:2|0:3,0:0:0:0:
19,213,128482,5,0,3:2:0:0:
147,300,128644,1,10,0:3:0:0:
189,203,128807,1,0,3:2:0:0:
317,290,128969,1,10,0:3:0:0:
290,153,129131,6,0,L|254:253,1,82.4999952316285,2|10,3:2|0:3,0:0:0:0:
446,183,129455,2,0,P|421:142|388:124,1,82.4999952316285,2|10,3:2|0:3,0:0:0:0:
365,206,129780,5,0,3:2:0:0:
493,107,129942,1,10,0:3:0:0:
343,46,130104,1,2,3:2:0:0:
217,134,130266,1,8,0:2:0:0:
217,134,130347,1,8,0:2:0:0:
217,134,130428,6,0,P|152:164|52:105,1,164.999990463257,4|2,3:2|3:2,0:0:0:0:
61,31,130915,1,10,0:3:0:0:
150,73,131077,1,2,3:2:0:0:
147,193,131239,1,10,0:3:0:0:
58,237,131401,1,2,3:2:0:0:
142,290,131563,1,10,0:3:0:0:
251,215,131726,6,0,L|326:255,1,82.4999952316285,2|10,3:2|0:3,0:0:0:0:
333,344,132050,1,2,3:2:0:0:
475,284,132212,2,0,P|424:275|385:298,1,82.4999952316285,10|0,0:3|3:2,0:0:0:0:
479,194,132536,1,10,0:3:0:0:
386,156,132698,1,2,0:2:0:0:
432,61,132861,1,10,0:2:0:0:
432,61,132942,1,8,0:2:0:0:
432,61,133023,6,0,L|350:30,1,82.4999952316285,6|0,3:2|0:0,0:0:0:0:
245,112,133266,1,0,3:2:0:0:
245,112,133347,2,0,P|270:149|272:187,1,82.4999952316285,10|10,0:2|0:2,0:0:0:0:
196,209,133590,1,8,0:2:0:0:
196,209,133671,2,0,P|169:170|167:132,1,82.4999952316285,6|2,3:2|0:2,0:0:0:0:
169,0,133915,1,0,3:2:0:0:
169,0,133996,2,0,L|124:10,1,41.2499976158143,10|8,0:2|0:2,0:0:0:0:
22,69,134158,2,0,L|67:79,1,41.2499976158143,10|8,0:2|0:2,0:0:0:0:
63,170,134320,6,0,L|49:232,1,61.8749964237214,2|8,3:2|0:2,0:0:0:0:
49,230,134644,6,0,L|8:221,3,41.2499976158143,8|8|8|8,0:2|0:2|0:2|0:2,0:0:0:0:
8,221,134969,1,2,3:3:0:0:
42,354,135131,1,8,0:2:0:0:
42,354,135212,1,8,0:2:0:0:
42,354,135293,1,8,0:2:0:0:
164,329,135455,1,0,3:2:0:0:
164,329,135536,1,0,3:2:0:0:
164,329,135617,6,0,P|219:349|262:384,2,98.9999912567142,6|10|2,3:2|0:3|3:2,0:0:0:0:
371,244,136104,2,0,P|315:264|272:299,2,98.9999912567142,10|2|10,0:3|3:2|0:3,0:0:0:0:
426,132,136590,1,2,3:2:0:0:
462,292,136753,1,10,0:3:0:0:
337,170,136915,6,0,P|394:128|399:-8,1,197.999982513428,2|2,3:2|3:2,0:0:0:0:
314,63,137401,2,0,P|251:85|141:63,1,148.499986885071,10|0,0:3|0:0,0:0:0:0:
106,48,137726,1,10,0:3:0:0:
167,173,137888,1,2,3:2:0:0:
30,171,138050,5,10,0:3:0:0:
30,171,138212,2,0,L|12:273,1,98.9999912567142,0|10,3:2|0:3,0:0:0:0:
174,317,138536,1,2,3:2:0:0:
104,249,138698,1,10,0:3:0:0:
104,249,138860,2,0,L|86:351,1,98.9999912567142,0|10,3:2|0:3,0:0:0:0:
252,285,139185,1,2,3:2:0:0:
252,285,139347,1,10,0:3:0:0:
432,365,139509,6,0,P|444:315|430:264,1,98.9999912567142,2|10,3:2|0:3,0:0:0:0:
332,105,139834,2,0,P|320:155|334:206,1,98.9999912567142,2|10,3:2|0:3,0:0:0:0:
512,185,140158,6,0,P|462:173|411:187,1,82.4999952316285,2|10,3:2|0:3,0:0:0:0:
252,285,140482,2,0,P|302:297|353:283,1,82.4999952316285,2|10,3:2|0:3,0:0:0:0:
331,200,140807,6,0,P|277:119|168:132,2,197.999982513428,4|2|2,3:2|3:2|3:2,0:0:0:0:
332,292,141617,1,10,0:3:0:0:
404,149,141780,1,2,3:2:0:0:
404,149,141942,2,0,P|438:102|498:67,1,98.9999912567142,10|0,0:3|3:2,0:0:0:0:
470,208,142266,1,10,0:3:0:0:
345,74,142428,1,2,3:2:0:0:
345,74,142590,2,0,P|294:42|200:35,1,148.499986885071,10|0,0:3|0:0,0:0:0:0:
140,58,142915,1,10,0:3:0:0:
71,188,143077,2,0,L|176:204,1,98.9999912567142,2|10,3:2|0:3,0:0:0:0:
127,356,143401,5,2,3:2:0:0:
93,276,143563,1,10,0:3:0:0:
127,356,143726,1,2,3:2:0:0:
93,276,143888,1,10,0:3:0:0:
211,348,144050,6,0,P|262:355|301:325,1,98.9999912567142,0|10,3:2|0:3,0:0:0:0:
288,182,144374,2,0,P|339:193|360:236,1,98.9999912567142,0|10,3:2|0:3,0:0:0:0:
416,349,144698,5,2,3:2:0:0:
485,288,144861,1,10,0:3:0:0:
416,349,145023,1,2,3:2:0:0:
485,288,145185,1,10,0:3:0:0:
440,178,145347,6,0,P|429:118|442:43,1,98.9999912567142,2|10,3:2|0:3,0:0:0:0:
331,9,145671,1,0,3:2:0:0:
311,13,145753,1,0,3:2:0:0:
291,17,145834,1,8,0:2:0:0:
271,21,145915,1,8,0:2:0:0:
252,27,145996,6,0,P|217:54|193:103,1,98.9999912567142,6|10,3:2|0:3,0:0:0:0:
221,190,146239,1,2,0:2:0:0:
221,190,146320,2,0,P|256:163|280:114,1,98.9999912567142,2|10,3:2|0:3,0:0:0:0:
281,310,146644,2,0,P|242:277|195:266,1,98.9999912567142,2|10,3:2|0:3,0:0:0:0:
98,278,146969,1,2,3:2:0:0:
191,384,147131,1,10,0:3:0:0:
5,332,147293,6,0,P|58:276|46:141,1,197.999982513428,2|2,3:2|3:2,0:0:0:0:
1,76,147780,2,0,P|55:48|153:46,1,148.499986885071,10|0,0:3|0:0,0:0:0:0:
208,74,148104,1,10,0:3:0:0:
147,159,148266,1,2,3:2:0:0:
323,161,148428,5,10,0:3:0:0:
323,161,148590,2,0,L|221:179,1,98.9999912567142,0|10,3:2|0:3,0:0:0:0:
367,300,148915,1,2,3:2:0:0:
292,242,149077,1,10,0:3:0:0:
292,242,149239,2,0,L|190:260,1,98.9999912567142,0|10,3:2|0:3,0:0:0:0:
336,381,149564,1,2,3:2:0:0:
336,381,149726,1,10,0:3:0:0:
434,220,149888,6,0,P|449:172|431:119,1,98.9999912567142,2|10,3:2|0:3,0:0:0:0:
286,234,150212,2,0,P|268:281|286:334,1,98.9999912567142,2|10,3:2|0:3,0:0:0:0:
351,154,150536,6,0,P|302:137|249:155,1,82.4999952316285,2|10,3:2|0:3,0:0:0:0:
367,300,150861,2,0,P|413:316|466:298,1,82.4999952316285,2|10,3:2|0:3,0:0:0:0:
286,234,151185,6,0,P|209:263|215:399,2,197.999982513428,4|2|2,3:2|3:2|3:2,0:0:0:0:
367,300,151996,1,10,0:3:0:0:
351,154,152158,1,2,3:2:0:0:
351,154,152320,2,0,P|363:98|412:62,1,98.9999912567142,10|2,0:3|3:2,0:0:0:0:
417,208,152644,1,10,0:3:0:0:
282,55,152807,1,2,3:2:0:0:
282,55,152969,2,0,P|201:31|139:53,1,148.499986885071,10|0,0:3|0:0,0:0:0:0:
93,103,153293,1,10,0:3:0:0:
103,209,153455,2,0,L|9:155,1,98.9999912567142,2|10,3:2|0:3,0:0:0:0:
207,182,153780,5,2,3:2:0:0:
162,300,153942,1,10,0:3:0:0:
207,182,154104,1,2,3:2:0:0:
162,300,154266,1,10,0:3:0:0:
293,219,154428,2,0,P|338:181|379:171,1,98.9999912567142,2|10,3:2|0:3,0:0:0:0:
383,277,154753,2,0,P|402:335|449:369,1,98.9999912567142,0|10,3:2|0:3,0:0:0:0:
511,260,155077,6,0,L|492:210,1,49.4999956283571,2|0,3:2|3:2,0:0:0:0:
466,142,155239,1,10,0:3:0:0:
511,260,155401,1,2,3:2:0:0:
466,142,155563,1,10,0:2:0:0:
504,12,155726,5,10,3:2:0:0:
491,15,155807,1,8,0:2:0:0:
478,19,155888,1,8,0:2:0:0:
465,21,155969,1,8,0:2:0:0:
453,25,156050,1,10,3:2:0:0:
441,27,156131,1,8,0:2:0:0:
428,30,156212,1,10,0:2:0:0:
415,33,156293,1,8,0:2:0:0:
402,36,156374,6,0,L|358:46,4,41.2499976158143,8|8|10|10|10,3:2|0:2|0:2|0:2|3:2,0:0:0:0:
145,0,157023,2,0,L|134:43,4,41.2499976158143,10|10|10|10|10,3:2|0:2|0:2|0:2|3:2,0:0:0:0:
28,265,157671,1,10,3:2:0:0:
28,265,157753,1,10,0:2:0:0:
28,265,157834,1,10,0:2:0:0:
28,265,157915,1,10,0:2:0:0:
28,265,157996,2,0,L|71:275,3,41.2499976158143,10|10|10|10,3:2|0:2|0:2|0:2,0:0:0:0:
113,335,158320,2,0,L|156:324,3,41.2499976158143,10|10|10|10,3:2|0:2|0:2|0:2,0:0:0:0:
186,257,158644,1,10,3:2:0:0:
477,331,158969,6,0,L|491:381,4,41.2499976158143,10|10|10|10|10,3:2|0:2|0:2|0:2|3:2,0:0:0:0:
395,120,159617,2,0,L|381:170,4,41.2499976158143,10|10|10|10|10,3:2|0:2|0:2|0:2|3:2,0:0:0:0:
158,178,160266,1,10,3:2:0:0:
158,178,160347,1,10,0:2:0:0:
158,178,160428,1,10,0:2:0:0:
158,178,160509,1,10,0:2:0:0:
158,178,160590,2,0,L|208:164,3,41.2499976158143,10|10|10|10,3:2|0:2|0:2|0:2,0:0:0:0:
188,93,160915,2,0,L|230:62,3,41.2499976158143,10|10|10|10,3:2|0:2|0:2|0:2,0:0:0:0:
192,0,161239,1,10,3:2:0:0:
192,0,161401,1,8,0:2:0:0:
61,34,161563,5,8,3:2:0:0:
60,46,161644,1,8,0:2:0:0:
59,58,161726,1,8,0:2:0:0:
58,70,161807,1,10,0:3:0:0:
57,82,161888,1,8,3:2:0:0:
0,171,162211,5,8,3:2:0:0:
1,183,162292,1,8,0:2:0:0:
2,195,162374,1,8,0:2:0:0:
3,207,162455,1,10,0:3:0:0:
4,219,162536,1,8,3:2:0:0:
54,337,162861,6,0,L|105:341,3,41.2499976158143,8|8|8|10,3:2|0:2|0:2|0:3,0:0:0:0:
156,297,163185,2,0,L|207:293,3,41.2499976158143,8|8|10|8,3:2|0:2|0:3|0:2,0:0:0:0:
248,348,163509,1,8,3:2:0:0:
260,349,163590,1,8,0:2:0:0:
272,350,163672,1,8,0:2:0:0:
284,351,163753,1,10,0:3:0:0:
296,352,163834,6,0,P|349:338|397:255,1,148.499986885071,8|0,3:2|0:0,0:0:0:0:
398,190,164158,6,0,L|389:133,1,41.2499976158143,10|8,3:2|0:2,0:0:0:0:
328,111,164320,1,8,0:2:0:0:
328,111,164401,2,0,L|319:54,1,41.2499976158143,10|8,0:3|3:2,0:0:0:0:
299,253,164644,1,2,0:3:0:0:
226,137,164807,6,0,L|216:198,1,49.4999956283571,10|8,3:2|0:2,0:0:0:0:
150,221,164969,1,8,0:2:0:0:
150,221,165050,2,0,L|140:282,1,49.4999956283571,10|8,0:3|3:2,0:0:0:0:
119,69,165293,1,2,3:3:0:0:
21,165,165455,1,8,3:2:0:0:
21,165,165780,6,0,B|28:246|28:246|31:246|31:246|28:246|28:246|35:340,1,164.999990463257,0|2,0:0|0:3,0:0:0:0:
256,384,166753,5,4,3:2:0:0:
256,384,166915,2,0,P|287:337|248:215,1,164.999990463257,10|10,0:3|0:3,0:0:0:0:
189,303,167401,1,0,3:2:0:0:
381,384,167563,1,10,0:3:0:0:
378,373,167644,1,0,0:0:0:0:
374,362,167726,2,0,P|371:297|405:231,1,123.749992847443,0|0,3:2|0:0,0:0:0:0:
433,179,168050,6,0,L|307:159,1,107.249988891602,0|10,3:2|0:3,0:0:0:0:
447,99,168374,2,0,L|321:79,1,107.249988891602,0|10,3:2|0:3,0:0:0:0:
98,36,168698,6,0,L|233:14,1,131.999992370606,0|10,3:2|0:3,0:0:0:0:
111,118,169022,2,0,L|246:96,1,131.999992370606,0|10,3:2|0:3,0:0:0:0:
33,206,169347,5,0,3:2:0:0:
33,206,169509,2,0,L|24:295,1,82.4999952316285,10|0,0:3|3:2,0:0:0:0:
131,256,169834,1,10,0:3:0:0:
131,256,169996,2,0,L|175:251,3,41.2499976158143,0|0|10|0,3:2|0:0|0:3|0:0,0:0:0:0:
222,310,170320,1,0,3:2:0:0:
242,312,170401,1,0,0:0:0:0:
263,314,170482,1,10,0:3:0:0:
283,316,170563,1,0,0:0:0:0:
304,318,170644,1,0,3:2:0:0:
416,384,170807,6,0,L|428:261,1,115.4999897995,10|10,0:3|0:3,0:0:0:0:
512,205,171293,2,0,L|501:105,1,86.624992349625,0|0,3:2|0:0,0:0:0:0:
501,106,171617,1,0,3:2:0:0:
499,93,171698,1,0,0:0:0:0:
498,80,171779,1,10,0:3:0:0:
497,67,171860,1,0,0:0:0:0:
495,54,171942,6,0,L|387:72,1,82.4999952316285,4|10,3:2|0:3,0:0:0:0:
277,28,172266,2,0,L|328:53,3,41.2499976158143,0|0|10|0,3:2|0:0|0:3|0:0,0:0:0:0:
352,112,172590,2,0,L|334:220,1,82.4999952316285,0|10,3:2|0:3,0:0:0:0:
221,130,172915,1,0,3:2:0:0:
217,110,172996,1,0,0:0:0:0:
214,90,173077,1,10,0:3:0:0:
211,71,173158,1,0,0:0:0:0:
207,51,173239,6,0,L|80:26,1,107.249988891602,0|10,3:2|0:3,0:0:0:0:
105,129,173563,2,0,L|-22:104,1,107.249988891602,0|10,3:2|0:3,0:0:0:0:
207,219,173888,6,0,L|351:190,1,131.999992370606,0|10,3:2|0:3,0:0:0:0:
323,307,174212,2,0,L|467:278,1,131.999992370606,0|10,3:2|0:3,0:0:0:0:
218,373,174536,5,0,3:2:0:0:
218,373,174698,2,0,P|149:349|124:288,1,123.749992847443,10|0,0:3|0:0,0:0:0:0:
114,238,175023,2,0,L|132:195,3,41.2499976158143,10|0|0|0,0:3|0:0|3:2|0:0,0:0:0:0:
101,131,175347,1,10,0:3:0:0:
101,131,175428,1,0,0:0:0:0:
101,131,175509,2,0,L|119:88,3,41.2499976158143,0|0|10|0,3:2|0:0|0:3|0:0,0:0:0:0:
103,19,175834,6,0,L|141:10,3,28.874997449875,0|0|10|0,3:2|0:0|0:3|0:0,0:0:0:0:
206,8,176158,2,0,L|244:17,3,28.874997449875,0|0|10|0,3:2|0:0|0:3|0:0,0:0:0:0:
237,88,176482,6,0,P|257:151|351:141,1,148.499986885071,0|0,3:2|0:0,0:0:0:0:
343,152,176807,1,0,3:2:0:0:
353,141,176888,1,0,3:2:0:0:
362,129,176969,1,8,0:2:0:0:
368,115,177050,1,8,0:2:0:0:
371,100,177131,6,0,L|360:15,1,82.4999952316285,4|10,3:2|0:3,0:0:0:0:
479,134,177455,2,0,L|468:215,1,82.4999952316285,0|10,3:2|0:3,0:0:0:0:
512,318,177780,1,0,3:2:0:0:
512,318,177942,1,10,0:3:0:0:
377,280,178104,1,0,3:2:0:0:
377,280,178266,1,10,0:3:0:0:
421,382,178428,6,0,P|361:383|318:364,1,82.4999952316285,0|10,3:2|0:3,0:0:0:0:
294,311,178671,1,0,0:0:0:0:
294,311,178753,2,0,P|234:310|191:329,1,82.4999952316285,0|10,3:2|0:3,0:0:0:0:
121,268,179077,5,0,3:2:0:0:
102,384,179239,1,10,0:3:0:0:
102,384,179320,2,0,L|64:184,1,197.999982513428
52,117,179726,5,0,3:2:0:0:
161,30,179888,1,10,0:3:0:0:
181,167,180050,1,0,3:2:0:0:
131,104,180212,1,10,0:3:0:0:
299,32,180374,6,0,P|337:75|350:125,1,82.4999952316285,0|10,3:2|0:3,0:0:0:0:
281,145,180617,1,0,0:0:0:0:
281,145,180698,2,0,P|243:102|230:52,1,82.4999952316285,0|10,3:2|0:3,0:0:0:0:
359,176,181023,5,0,3:2:0:0:
359,176,181185,1,10,0:3:0:0:
440,74,181347,1,0,3:2:0:0:
440,74,181509,1,10,0:3:0:0:
512,188,181671,5,0,3:2:0:0:
431,290,181834,1,10,0:3:0:0:
431,290,181915,2,0,L|203:260,1,214.499977783204
149,252,182320,5,4,3:2:0:0:
108,384,182482,1,10,0:3:0:0:
108,384,182644,2,0,L|83:302,1,82.4999952316285,0|10,3:2|0:3,0:0:0:0:
6,229,182969,2,0,L|31:147,1,82.4999952316285,0|10,3:2|0:3,0:0:0:0:
118,78,183293,2,0,L|93:0,1,82.4999952316285,0|10,3:2|0:3,0:0:0:0:
249,44,183617,6,0,L|233:163,1,107.249988891602,0|10,3:2|0:3,0:0:0:0:
379,280,183942,2,0,L|363:161,1,107.249988891602,0|10,3:2|0:3,0:0:0:0:
383,57,184266,6,0,L|534:30,1,131.999992370606,0|10,3:2|0:3,0:0:0:0:
365,174,184590,2,0,L|235:150,1,131.999992370606,0|10,3:2|0:3,0:0:0:0:
49,87,184915,6,0,L|60:171,1,82.4999952316285,0|10,3:2|0:3,0:0:0:0:
139,159,185239,2,0,L|129:78,1,82.4999952316285,0|10,3:2|0:3,0:0:0:0:
226,232,185563,6,0,L|216:314,1,82.4999952316285,0|10,3:2|0:3,0:0:0:0:
296,323,185887,2,0,L|307:239,1,82.4999952316285,0|10,3:2|0:3,0:0:0:0:
83,351,186212,5,0,3:2:0:0:
83,351,186293,1,0,3:2:0:0:
83,351,186374,2,0,L|343:316,1,214.499977783204,10|8,0:3|0:2,0:0:0:0:
402,219,186861,1,8,0:2:0:0:
400,234,186942,1,0,3:2:0:0:
396,249,187023,1,0,3:2:0:0:
388,263,187104,1,0,3:2:0:0:
379,275,187185,1,12,0:2:0:0:
256,0,187509,5,2,3:2:0:0:
216,103,187671,1,10,0:2:0:0:
216,103,187753,1,10,0:2:0:0:
216,103,187834,2,0,L|216:42,1,41.2499976158143,2|10,3:2|0:2,0:0:0:0:
296,103,187996,2,0,L|296:42,1,41.2499976158143,0|10,0:0|0:2,0:0:0:0:
176,206,188158,5,2,3:2:0:0:
176,206,188239,2,0,L|176:145,1,41.2499976158143,10|2,0:2|0:2,0:0:0:0:
336,206,188401,1,10,0:2:0:0:
336,206,188482,2,0,L|336:145,1,41.2499976158143,10|8,3:2|0:2,0:0:0:0:
212,279,188644,1,2,3:2:0:0:
212,279,188726,1,2,0:2:0:0:
212,279,188807,6,0,P|168:289|122:273,1,82.4999952316285,6|2,3:2|3:2,0:0:0:0:
45,324,189050,1,0,3:2:0:0:
45,324,189131,2,0,P|35:280|48:230,1,82.4999952316285,10|2,0:2|0:2,0:0:0:0:
70,152,189374,1,8,0:2:0:0:
70,152,189455,2,0,L|59:111,2,41.2499976158143,2|0|2,3:2|3:2|0:2,0:0:0:0:
0,61,189698,1,2,3:2:0:0:
0,61,189780,2,0,P|43:79|136:41,1,123.749992847443,14|0,0:2|0:0,0:0:0:0:
176,20,190104,6,0,L|216:99,1,82.4999952316285,6|10,3:2|0:3,0:0:0:0:
355,40,190428,2,0,P|313:12|274:14,1,82.4999952316285,2|10,3:2|0:3,0:0:0:0:
176,20,190753,5,0,3:2:0:0:
207,179,190915,1,10,0:3:0:0:
291,104,191077,1,0,3:2:0:0:
322,263,191239,1,10,0:3:0:0:
405,161,191401,6,0,L|313:183,1,82.4999952316285,2|10,3:2|0:3,0:0:0:0:
463,245,191726,2,0,P|491:216|505:175,1,82.4999952316285,2|10,3:2|0:3,0:0:0:0:
511,334,192050,5,0,3:2:0:0:
371,345,192212,1,10,0:3:0:0:
231,356,192374,1,2,3:2:0:0:
322,263,192536,1,8,0:2:0:0:
322,263,192617,1,8,0:2:0:0:
322,263,192698,6,0,P|248:228|157:248,1,164.999990463257,4|10,3:2|0:3,0:0:0:0:
101,313,193185,1,10,0:2:0:0:
101,313,193266,1,8,0:2:0:0:
101,313,193347,2,0,P|136:239|116:148,1,164.999990463257,2|10,0:2|0:3,0:0:0:0:
44,62,193834,1,2,0:2:0:0:
44,62,193915,1,8,0:2:0:0:
44,62,193996,6,0,L|142:48,1,82.4999952316285,2|2,3:2|3:2,0:0:0:0:
211,114,194320,1,10,0:3:0:0:
407,88,194644,2,0,L|415:0,1,82.4999952316285,0|2,3:0|3:2,0:0:0:0:
320,149,194969,1,10,0:3:0:0:
432,252,195131,1,10,0:2:0:0:
432,252,195212,1,8,0:2:0:0:
432,252,195293,6,0,L|343:292,1,82.4999952316285,6|2,3:2|0:2,0:0:0:0:
241,278,195536,1,0,3:2:0:0:
241,278,195617,2,0,P|275:310|290:340,1,82.4999952316285,10|2,0:2|0:2,0:0:0:0:
229,384,195861,1,8,0:2:0:0:
229,384,195942,2,0,P|193:350|178:320,1,82.4999952316285,6|2,3:2|0:2,0:0:0:0:
167,219,196185,1,0,3:2:0:0:
167,219,196266,2,0,L|180:177,1,41.2499976158143,10|0,0:2|0:0,0:0:0:0:
73,284,196428,2,0,L|86:326,1,41.2499976158143,10|8,0:2|0:2,0:0:0:0:
74,167,196590,6,0,L|9:129,1,61.8749964237214,2|8,3:2|0:2,0:0:0:0:
20,135,196915,6,0,L|57:70,3,41.2499976158143,8|8|8|8,0:2|0:2|0:2|0:2,0:0:0:0:
40,100,197239,1,2,3:3:0:0:
149,0,197401,1,8,0:2:0:0:
160,2,197482,1,8,0:2:0:0:
172,4,197563,1,8,0:2:0:0:
184,6,197644,1,0,3:2:0:0:
196,8,197726,1,0,3:2:0:0:
208,10,197807,1,0,3:2:0:0:
219,12,197888,6,0,B|299:26|299:26|300:23|300:23|299:26|299:26|365:37,1,144.37499165535
424,57,198536,6,0,P|424:118|383:168,2,98.9999912567142,6|10|2,3:2|0:3|3:2,0:0:0:0:
512,208,199023,2,0,P|451:213|404:258,2,98.9999912567142,10|2|10,0:3|3:2|0:3,0:0:0:0:
395,344,199509,1,2,3:2:0:0:
341,204,199671,1,10,0:3:0:0:
489,301,199834,6,0,P|386:312|269:254,1,197.999982513428,2|2,3:2|3:2,0:0:0:0:
188,359,200320,2,0,P|221:292|208:221,1,148.499986885071,10|0,0:3|0:0,0:0:0:0:
161,169,200644,1,10,0:3:0:0:
107,276,200807,1,2,3:2:0:0:
64,104,200969,5,10,0:3:0:0:
64,104,201131,2,0,L|177:81,1,98.9999912567142,0|10,3:2|0:3,0:0:0:0:
300,173,201455,1,2,3:2:0:0:
276,93,201617,1,10,0:3:0:0:
276,93,201780,2,0,L|389:70,1,98.9999912567142,0|10,3:2|0:3,0:0:0:0:
512,162,202103,1,2,3:2:0:0:
512,162,202266,1,10,0:3:0:0:
512,305,202428,6,0,P|486:254|440:233,1,98.9999912567142,2|10,3:2|0:3,0:0:0:0:
260,168,202753,2,0,P|285:218|331:239,1,98.9999912567142,2|10,3:2|0:3,0:0:0:0:
454,110,203077,6,0,P|403:135|382:181,1,82.4999952316285,2|10,3:2|0:3,0:0:0:0:
317,362,203401,2,0,P|367:336|388:290,1,82.4999952316285,2|10,3:2|0:3,0:0:0:0:
322,238,203726,6,0,P|241:264|195:372,2,197.999982513428,4|2|2,3:2|3:2|3:2,0:0:0:0:
317,362,204536,1,10,0:3:0:0:
418,211,204698,1,2,3:2:0:0:
418,211,204861,2,0,P|381:157|331:141,1,98.9999912567142,10|2,0:3|3:2,0:0:0:0:
322,238,205185,1,10,0:3:0:0:
386,43,205347,1,2,3:2:0:0:
386,43,205509,2,0,P|319:42|250:104,1,148.499986885071,10|0,0:3|0:0,0:0:0:0:
223,155,205834,1,10,0:3:0:0:
63,68,205996,2,0,L|162:88,1,98.9999912567142,2|10,3:2|0:3,0:0:0:0:
0,149,206320,5,2,3:2:0:0:
17,243,206482,1,10,0:3:0:0:
0,149,206644,1,2,3:2:0:0:
17,243,206806,1,10,0:3:0:0:
126,177,206969,6,0,P|172:192|202:230,1,98.9999912567142,2|10,3:2|0:3,0:0:0:0:
152,341,207293,2,0,P|200:346|244:324,1,98.9999912567142,0|10,3:2|0:3,0:0:0:0:
391,276,207617,5,2,3:2:0:0:
300,241,207780,1,10,0:3:0:0:
391,276,207942,1,2,3:2:0:0:
300,241,208103,1,10,0:3:0:0:
449,210,208266,6,0,P|479:277|462:328,1,98.9999912567142,2|10,3:2|0:3,0:0:0:0:
369,151,208590,1,0,3:2:0:0:
372,136,208671,1,0,3:2:0:0:
375,121,208753,1,8,0:2:0:0:
378,106,208834,1,8,0:2:0:0:
382,92,208915,6,0,P|413:57|467:48,2,98.9999912567142,6|10|2,3:2|0:3|3:2,0:0:0:0:
264,18,209401,2,0,P|285:59|276:112,2,98.9999912567142,10|2|10,0:3|3:2|0:3,0:0:0:0:
205,174,209888,1,2,3:2:0:0:
165,63,210050,1,10,0:3:0:0:
74,157,210212,6,0,P|172:185|211:269,1,197.999982513428,2|2,3:2|3:2,0:0:0:0:
92,272,210698,2,0,P|115:333|193:381,1,148.499986885071,10|0,0:3|0:0,0:0:0:0:
255,375,211023,1,10,0:3:0:0:
211,266,211185,1,2,3:2:0:0:
334,305,211347,5,10,0:3:0:0:
334,305,211509,2,0,L|437:314,1,98.9999912567142,0|10,3:2|0:3,0:0:0:0:
473,168,211834,1,2,3:2:0:0:
354,232,211996,1,10,0:3:0:0:
354,232,212158,2,0,L|457:241,1,98.9999912567142,0|10,3:2|0:3,0:0:0:0:
493,95,212481,1,0,3:2:0:0:
493,95,212644,1,10,0:3:0:0:
349,41,212807,6,0,P|280:52|249:75,1,98.9999912567142,2|10,3:2|0:3,0:0:0:0:
163,237,213131,2,0,P|231:225|262:202,1,98.9999912567142,2|10,3:2|0:3,0:0:0:0:
157,46,213455,6,0,P|168:114|191:145,1,82.4999952316285,2|10,3:2|0:3,0:0:0:0:
354,232,213780,2,0,P|342:163|319:132,1,82.4999952316285,2|10,3:2|0:3,0:0:0:0:
255,208,214104,6,0,P|267:288|367:335,2,197.999982513428,4|2|2,3:2|3:2|3:2,0:0:0:0:
337,153,214915,1,10,0:3:0:0:
175,125,215077,1,2,3:2:0:0:
175,125,215239,2,0,P|112:135|78:158,1,98.9999912567142,10|2,0:3|3:2,0:0:0:0:
29,245,215563,1,10,0:3:0:0:
0,86,215726,1,2,3:2:0:0:
0,86,215888,2,0,P|55:46|155:19,1,148.499986885071,10|0,0:3|0:0,0:0:0:0:
202,21,216212,1,10,0:3:0:0:
316,136,216374,2,0,L|332:38,1,98.9999912567142,2|10,3:2|0:3,0:0:0:0:
460,137,216698,5,2,3:2:0:0:
402,260,216861,1,10,0:3:0:0:
460,137,217023,1,2,3:2:0:0:
402,260,217184,1,10,0:3:0:0:
485,349,217347,6,0,P|434:379|371:373,1,98.9999912567142,2|10,3:2|0:3,0:0:0:0:
236,362,217671,2,0,P|283:329|293:252,1,98.9999912567142,0|10,3:2|0:3,0:0:0:0:
176,141,217996,5,2,3:2:0:0:
205,272,218157,1,10,0:3:0:0:
176,141,218319,1,2,3:2:0:0:
205,272,218482,1,10,0:2:0:0:
38,224,218644,5,10,3:2:0:0:
40,209,218726,1,8,0:2:0:0:
42,194,218807,1,10,0:2:0:0:
44,179,218888,1,8,0:2:0:0:
46,164,218969,1,10,3:2:0:0:
48,149,219050,1,8,0:2:0:0:
50,134,219131,1,10,0:2:0:0:
52,119,219212,1,8,0:2:0:0:
54,104,219293,6,0,L|148:75,1,82.4999952316285,14|10,3:2|0:3,0:0:0:0:
32,23,219617,2,0,L|126:-5,1,82.4999952316285,0|10,3:2|0:3,0:0:0:0:
300,33,219942,2,0,L|205:61,1,82.4999952316285,0|10,3:2|0:3,0:0:0:0:
322,114,220266,2,0,L|227:142,1,82.4999952316285,0|10,3:2|0:3,0:0:0:0:
393,177,220590,6,0,L|423:73,1,107.249988891602,0|10,3:2|0:3,0:0:0:0:
480,201,220914,2,0,L|519:69,1,107.249988891602,0|10,3:2|0:3,0:0:0:0:
342,321,221239,6,0,L|303:193,1,131.999992370606,0|10,3:2|0:3,0:0:0:0:
249,347,221563,2,0,L|209:215,1,131.999992370606,0|10,3:2|0:3,0:0:0:0:
51,169,221888,6,0,L|139:179,1,82.4999952316285,2|10,3:2|0:3,0:0:0:0:
41,248,222212,2,0,L|129:258,1,82.4999952316285,0|10,3:2|0:3,0:0:0:0:
150,91,222536,2,0,L|140:9,1,82.4999952316285,0|10,3:2|0:3,0:0:0:0:
229,81,222860,2,0,L|219:0,1,82.4999952316285,0|10,3:2|0:3,0:0:0:0:
394,69,223185,6,0,L|320:60,1,57.74999489975,0|10,3:2|0:3,0:0:0:0:
385,143,223509,2,0,L|311:134,1,57.74999489975,0|10,3:2|0:3,0:0:0:0:
471,204,223834,6,0,L|507:199,1,32.9999980926514,0|10,3:2|0:3,0:0:0:0:
480,278,224158,2,0,L|516:273,1,32.9999980926514,2|10,3:2|0:3,0:0:0:0:
309,325,224482,6,0,L|332:216,1,82.4999952316285,6|10,3:2|0:3,0:0:0:0:
414,384,224807,2,0,L|394:274,1,82.4999952316285,0|10,3:2|0:3,0:0:0:0:
262,191,225131,2,0,L|239:82,1,82.4999952316285,0|10,3:2|0:3,0:0:0:0:
176,295,225454,2,0,L|196:185,1,82.4999952316285,0|10,3:2|0:3,0:0:0:0:
84,145,225780,6,0,L|102:271,1,107.249988891602,0|10,3:2|0:3,0:0:0:0:
29,0,226104,2,0,L|11:126,1,107.249988891602,0|10,3:2|0:3,0:0:0:0:
255,80,226428,6,0,L|123:52,1,131.999992370606,0|10,3:2|0:3,0:0:0:0:
452,101,226753,2,0,L|322:128,1,131.999992370606,0|10,3:2|0:3,0:0:0:0:
434,226,227077,6,0,L|418:315,1,82.4999952316285,0|10,3:2|0:3,0:0:0:0:
499,321,227401,2,0,L|513:239,1,82.4999952316285,0|10,3:2|0:3,0:0:0:0:
249,303,227726,2,0,L|263:385,1,82.4999952316285,0|10,3:2|0:3,0:0:0:0:
342,371,228050,2,0,L|327:289,1,82.4999952316285,0|10,3:2|0:3,0:0:0:0:
120,223,228374,6,0,L|184:231,1,57.74999489975,0|10,3:2|0:3,0:0:0:0:
168,306,228698,2,0,L|104:298,1,57.74999489975,0|10,3:2|0:3,0:0:0:0:
32,143,229023,6,0,L|18:40,1,98.9999912567142,0|10,3:2|0:3,0:0:0:0:
125,33,229347,1,0,3:2:0:0:
128,57,229428,1,0,3:2:0:0:
131,82,229509,1,8,0:2:0:0:
135,106,229590,1,8,0:2:0:0:
138,131,229671,6,0,L|187:137,4,41.2499976158143,8|8|8|8|8,3:2|0:2|0:2|0:2|3:2,0:0:0:0:
392,40,230320,2,0,L|385:-9,4,41.2499976158143,8|8|8|8|8,3:2|0:2|0:2|0:2|3:2,0:0:0:0:
512,163,230969,2,0,L|505:212,3,41.2499976158143,8|8|8|8,3:2|0:2|0:2|0:2,0:0:0:0:
465,264,231293,2,0,L|471:313,3,41.2499976158143,8|8|8|8,3:2|0:2|0:2|0:2,0:0:0:0:
499,373,231617,1,8,3:2:0:0:
478,375,231698,1,8,0:2:0:0:
458,378,231779,1,8,0:2:0:0:
437,381,231860,1,8,0:2:0:0:
417,384,231941,1,8,3:2:0:0:
204,344,232266,6,0,L|191:397,4,41.2499976158143,8|8|8|8|8,3:2|0:2|0:2|0:2|3:2,0:0:0:0:
390,206,232915,2,0,L|443:193,4,41.2499976158143,8|8|8|8|8,3:2|0:2|0:2|0:2|3:2,0:0:0:0:
187,73,233563,1,8,3:2:0:0:
197,78,233644,1,8,0:2:0:0:
206,86,233726,1,8,0:2:0:0:
216,94,233807,1,8,0:2:0:0:
223,104,233888,1,8,3:2:0:0:
229,114,233969,1,8,0:2:0:0:
235,124,234050,1,8,0:2:0:0:
241,136,234131,1,8,0:2:0:0:
245,148,234212,6,0,L|254:200,3,41.2499976158143,0|0|0|0,3:2|0:0|3:2|3:2,0:0:0:0:
252,188,234536,1,4,3:2:0:0:
256,192,234617,12,8,237212,0:2:0:0:
260,186,237293,6,0,L|250:241,2,41.2499976158143,8|8|0,0:2|0:2|3:0,0:0:0:0:
