osu file format v14

[General]
AudioFilename: hot jazz.mp3
AudioLeadIn: 0
PreviewTime: 13715
Countdown: 0
SampleSet: Soft
StackLeniency: 0.6
Mode: 0
LetterboxInBreaks: 0
WidescreenStoryboard: 1

[Editor]
Bookmarks: 13740,39340,52140,64940,77840,103340,116140,128940,141840,167440,180140,205840,218640,233440,250540,276140
DistanceSpacing: 0.9
BeatDivisor: 4
GridSize: 16
TimelineZoom: 2.4

[Metadata]
Title:Meikaruza
TitleUnicode:メイカルーザ
Artist:Nanahoshi Kangengakudan
ArtistUnicode:ナナホシ管弦楽団
Creator:Snowin
Version:Insane
Source:
Tags:Iron Quality MONSTER BEERGARDEN jazz fusion fujun isei kouyuu p fujuniseikouyuup 不純異性交遊p illicit sexual relations monaka モナカ pkk alternate double-bpm
BeatmapID:2142807
BeatmapSetID:1019721

[Difficulty]
HPDrainRate:5
CircleSize:3.5
OverallDifficulty:7.5
ApproachRate:9
SliderMultiplier:1.5
SliderTickRate:1

[Events]
//Background and Video events
0,0,"BG.jpg",0,0
//Break Periods
2,167140,176440
//Storyboard Layer 0 (Background)
//Storyboard Layer 1 (Fail)
//Storyboard Layer 2 (Pass)
//Storyboard Layer 3 (Foreground)
//Storyboard Layer 4 (Overlay)
//Storyboard Sound Samples

[TimingPoints]
1040,200,4,2,1,25,1,0
1040,-133.333333333333,4,2,1,25,0,0
2640,-133.333333333333,4,2,1,45,0,0
3440,-133.333333333333,4,2,1,25,0,0
4040,-133.333333333333,4,2,1,45,0,0
4240,-133.333333333333,4,2,1,25,0,0
5840,-133.333333333333,4,2,1,45,0,0
7440,-133.333333333333,4,2,1,25,0,0
9040,-133.333333333333,4,2,1,45,0,0
9840,-133.333333333333,4,2,1,25,0,0
12440,-133.333333333333,4,2,1,45,0,0
13040,-133.333333333333,4,2,1,60,0,0
13740,-100,4,2,1,65,0,1
26340,-100,4,2,1,65,0,0
26540,-100,4,2,1,65,0,1
39040,-133.333333333333,4,2,1,65,0,0
49440,-111.111111111111,4,2,1,65,0,0
52140,-125,4,2,1,65,0,0
63240,-111.111111111111,4,2,1,65,0,0
74640,-125,4,2,1,65,0,0
77440,-133.333333333333,4,2,1,35,0,0
77840,-100,4,2,1,65,0,1
83840,-100,4,2,1,45,0,1
84240,-100,4,2,1,65,0,1
90240,-100,4,2,1,45,0,0
90640,-100,4,2,1,65,0,1
96540,-100,4,2,1,45,0,1
97040,-100,4,2,1,65,0,1
101840,-200,4,2,1,65,0,0
102540,-200,4,2,1,35,0,0
103340,-133.333333333333,4,2,1,65,0,0
113440,-111.111111111111,4,2,1,65,0,0
116040,-125,4,2,1,65,0,0
127440,-111.111111111111,4,2,1,65,0,0
138640,-125,4,2,1,65,0,0
141240,-100,4,2,1,65,0,0
141840,-100,4,2,1,65,0,1
147840,-100,4,2,1,45,0,1
148240,-100,4,2,1,65,0,1
154240,-100,4,2,1,45,0,0
154640,-100,4,2,1,65,0,1
160540,-100,4,2,1,45,0,1
161040,-100,4,2,1,65,0,1
165840,-200,4,2,1,65,0,0
166640,-200,4,2,1,35,0,0
177040,-200,4,2,1,45,0,0
179440,-200,4,2,1,35,0,0
179740,-400,4,2,1,35,0,0
180140,-100,4,2,1,65,0,0
204240,-200,4,2,1,65,0,0
205040,-200,4,2,1,45,0,0
205640,-200,4,2,1,65,0,0
205840,-111.111111111111,4,2,1,65,0,0
215440,-125,4,2,1,65,0,0
218640,-200,4,2,1,65,0,0
219040,-100,4,2,1,65,0,1
224640,-100,4,2,1,45,0,1
225040,-100,4,2,1,65,0,1
231040,-100,4,2,1,65,0,0
231440,-100,4,2,1,65,0,1
237340,-100,4,2,1,45,0,1
237840,-100,4,2,1,65,0,1
242640,-200,4,2,1,65,0,0
243440,-125,4,2,1,45,0,0
243840,-111.111111111111,4,2,1,55,0,0
244240,-100,4,2,1,65,0,1
245840,-166.666666666667,4,2,1,65,0,1
246240,-125,4,2,1,65,0,1
246640,-100,4,2,1,65,0,1
249040,-200,4,2,1,65,0,0
249740,-200,4,2,1,35,0,0
250540,-100,4,2,1,65,0,1
261840,-100,4,2,1,65,0,0
263140,-111.111111111111,4,2,1,65,0,0
263340,-100,4,2,1,65,0,1
275840,-100,4,2,1,65,0,0

[Colours]
Combo1 : 243,90,73
Combo2 : 98,210,166
Combo3 : 238,133,83
Combo4 : 75,118,188

[HitObjects]
7,38,1040,6,0,P|16:99|9:158,1,112.500004291535,0|0,3:2|0:2,0:0:0:0:
132,123,1440,2,0,P|123:184|130:243,1,112.500004291535,0|8,3:2|0:2,0:0:0:0:
36,322,1840,2,0,P|91:315|145:329,1,112.500004291535,0|8,3:2|0:2,0:0:0:0:
279,314,2240,2,0,P|223:320|169:306,1,112.500004291535,0|8,3:2|0:2,0:0:0:0:
234,176,2640,6,0,L|228:239,1,56.2500021457673,0|0,3:2|0:2,0:0:0:0:
318,175,2840,1,8,0:2:0:0:
318,175,2940,2,0,L|313:118,2,56.2500021457673,8|0|0,0:2|3:2|0:2,0:0:0:0:
387,255,3240,1,8,0:2:0:0:
512,127,3440,6,0,L|384:115,1,112.500004291535,0|8,3:2|0:2,0:0:0:0:
327,30,3840,2,0,L|214:39,1,112.500004291535,0|8,3:2|0:2,0:0:0:0:
123,113,4140,1,8,0:2:0:0:
123,113,4240,6,0,P|129:53|123:-5,1,112.500004291535,0|0,3:2|0:2,0:0:0:0:
0,120,4640,2,0,P|-4:175|1:231,1,112.500004291535,0|8,3:2|0:2,0:0:0:0:
187,248,5040,2,0,P|140:215|89:193,1,112.500004291535,0|8,3:2|0:2,0:0:0:0:
0,353,5440,2,0,P|50:329|96:296,1,112.500004291535,0|8,3:2|0:2,0:0:0:0:
250,299,5840,6,0,L|240:187,1,112.500004291535,0|8,3:2|0:2,0:0:0:0:
330,120,6140,1,8,0:2:0:0:
330,120,6239,2,0,L|325:176,1,56.2500021457673,0|0,3:2|0:2,0:0:0:0:
428,261,6440,2,0,L|418:148,1,112.500004291535,8|0,0:2|3:2,0:0:0:0:
360,27,6840,6,0,L|280:33,1,56.2500021457673,8|8,0:2|3:2,0:0:0:0:
244,102,7040,2,0,L|164:95,1,56.2500021457673,8|0,0:2|3:2,0:0:0:0:
127,25,7240,1,10,0:2:0:0:
125,158,7440,6,0,P|128:215|120:284,1,112.500004291535,0|0,3:2|0:2,0:0:0:0:
218,359,7840,2,0,P|212:303|215:246,1,112.500004291535,0|8,3:2|0:2,0:0:0:0:
387,184,8240,2,0,P|331:189|274:186,1,112.500004291535,0|8,3:2|0:2,0:0:0:0:
368,96,8640,2,0,P|424:92|480:98,1,112.500004291535,0|8,3:2|0:2,0:0:0:0:
478,245,9040,6,0,L|483:181,1,56.2500021457673,0|0,3:2|0:2,0:0:0:0:
389,273,9240,1,8,0:0:0:0:
389,273,9340,2,0,L|393:329,2,56.2500021457673,8|0|0,0:0|3:2|0:2,0:0:0:0:
307,350,9640,1,8,2:2:0:0:
140,258,9840,6,0,L|251:267,1,112.500004291535,0|8,3:2|0:2,0:0:0:0:
347,167,10240,2,0,L|235:176,1,112.500004291535,0|8,3:2|0:2,0:0:0:0:
158,147,10540,1,8,0:2:0:0:
158,147,10640,1,0,3:2:0:0:
39,283,10840,2,0,P|32:227|44:172,2,112.500004291535,0|0|8,0:2|3:2|0:2,0:0:0:0:
234,176,11440,2,0,P|180:193|135:226,1,112.500004291535,0|8,3:2|0:2,0:0:0:0:
112,365,11841,2,0,P|165:347|210:314,1,112.500004291535,0|0,3:2|0:0,0:0:0:0:
296,366,12240,6,0,P|307:311|301:255,1,112.500004291535,0|8,3:2|0:2,0:0:0:0:
360,85,12540,1,8,0:2:0:0:
360,85,12640,2,0,L|354:148,1,56.2500021457673,0|0,3:2|0:2,0:0:0:0:
471,211,12840,2,0,L|466:154,1,56.2500021457673,8|0,0:2|0:2,0:0:0:0:
273,177,13040,5,10,0:2:0:0:
216,174,13140,1,8,0:2:0:0:
159,171,13240,1,10,0:2:0:0:
102,169,13340,1,8,0:2:0:0:
102,169,13740,6,0,P|89:99|116:14,1,150,4|0,3:2|0:2,0:0:0:0:
257,120,14040,2,0,P|202:127|180:126,1,75,10|0,0:2|0:2,0:0:0:0:
316,19,14240,2,0,P|353:19|390:25,1,75,2|0,3:2|0:2,0:0:0:0:
355,189,14440,2,0,L|349:115,1,75,10|0,0:2|0:2,0:0:0:0:
491,87,14640,5,2,3:2:0:0:
491,87,14740,2,0,L|485:161,1,75,2|8,0:2|0:2,0:0:0:0:
472,313,14940,2,0,P|421:329|369:325,1,75,2|0,2:2|3:2,0:0:0:0:
282,172,15140,2,0,P|319:175|354:188,1,75,2|8,3:2|0:2,0:0:0:0:
204,365,15340,6,0,P|218:292|208:218,1,150,4|0,0:2|0:2,0:0:0:0:
63,91,15640,2,0,P|62:128|68:165,1,75,10|0,0:2|0:2,0:0:0:0:
299,17,15840,5,2,3:2:0:0:
321,55,15940,1,2,0:2:0:0:
302,87,16040,1,10,0:2:0:0:
316,113,16140,1,2,0:2:0:0:
304,132,16240,6,0,P|227:123|153:142,1,150,2|10,3:2|0:2,0:0:0:0:
74,247,16540,2,0,L|0:253,1,75,2|0,2:2|3:2,0:0:0:0:
66,343,16740,2,0,L|141:350,1,75,2|8,3:2|0:2,0:0:0:0:
193,269,16940,6,0,B|226:253|226:253|350:246,1,150,4|0,0:2|0:2,0:0:0:0:
441,343,17240,2,0,L|434:263,1,75,8|0,2:2|0:2,0:0:0:0:
258,169,17440,2,0,P|284:169|338:152,1,75,2|0,3:2|0:2,0:0:0:0:
473,93,17640,2,0,P|437:81|400:79,1,75,10|0,2:2|0:2,0:0:0:0:
286,74,17840,5,2,3:2:0:0:
286,74,17940,2,0,P|282:37|286:0,1,75,2|8,0:2|2:2,0:0:0:0:
170,30,18140,2,0,P|180:81|173:134,1,75,2|0,2:2|3:2,0:0:0:0:
263,174,18340,2,0,P|227:213|180:238,1,75,2|8,3:2|0:2,0:0:0:0:
0,189,18540,6,0,P|66:158|149:206,1,150,4|0,0:2|0:2,0:0:0:0:
73,280,18840,2,0,L|79:355,1,75,10|0,0:2|0:2,0:0:0:0:
175,384,19040,2,0,L|182:309,1,75,2|0,3:2|0:2,0:0:0:0:
274,279,19240,2,0,L|280:354,1,75,10|0,0:2|0:2,0:0:0:0:
372,339,19440,5,2,3:2:0:0:
368,301,19540,1,2,0:2:0:0:
365,264,19640,1,10,0:2:0:0:
362,226,19740,1,2,2:2:0:0:
358,189,19840,2,0,P|306:171|281:171,2,75,2|2|8,3:2|3:2|0:2,0:0:0:0:
179,104,20140,6,0,P|256:95|323:61,1,150,4|0,0:2|0:2,0:0:0:0:
411,3,20440,2,0,P|403:60|412:95,1,75,10|0,0:2|0:2,0:0:0:0:
352,138,20640,2,0,P|321:159|285:170,1,75,2|0,3:2|0:2,0:0:0:0:
241,48,20840,2,0,P|195:12|160:2,1,75,10|0,0:2|0:2,0:0:0:0:
37,74,21040,6,0,L|112:68,1,75,2|0,3:2|0:2,0:0:0:0:
210,163,21240,2,0,L|285:169,1,75,10|0,0:2|0:2,0:0:0:0:
237,331,21440,2,0,P|227:275|228:244,1,75,2|0,3:2|3:2,0:0:0:0:
117,217,21640,2,0,P|126:180|127:143,1,75,10|0,0:2|0:2,0:0:0:0:
261,28,21840,6,0,P|335:30|411:47,1,150,2|8,3:2|0:2,0:0:0:0:
480,68,22140,2,0,P|406:52|331:49,1,150,2|0,0:2|0:2,0:0:0:0:
178,194,22440,2,0,P|259:175|341:172,1,150,10|0,0:2|3:2,0:0:0:0:
395,147,22740,2,0,P|320:150|246:165,1,150,2|0,0:2|0:2,0:0:0:0:
254,302,23040,5,2,3:2:0:0:
327,345,23140,2,0,P|366:346|406:338,1,75,2|8,0:2|0:2,0:0:0:0:
510,265,23340,2,0,L|357:251,1,150,4|0,0:2|0:2,0:0:0:0:
228,261,23640,2,0,L|221:340,1,75,10|0,0:2|0:2,0:0:0:0:
82,321,23840,6,0,P|124:277|157:265,1,75,2|2,3:2|0:2,0:0:0:0:
61,259,24040,2,0,P|119:241|153:248,1,75,10|2,0:2|0:2,0:0:0:0:
74,195,24240,2,0,P|133:209|159:231,1,75,2|2,3:2|0:2,0:0:0:0:
117,146,24440,2,0,P|160:188|173:221,1,75,10|2,2:2|0:2,0:0:0:0:
179,126,24640,2,0,P|196:184|189:218,1,75,2|2,3:2|3:2,0:0:0:0:
37,119,24840,2,0,P|38:81|53:47,1,75,8|0,2:2|2:0,0:0:0:0:
186,28,25040,5,2,3:2:0:0:
186,28,25140,2,0,L|260:36,1,75,2|8,2:2|0:2,0:0:0:0:
368,115,25340,2,0,L|294:123,1,75,2|0,0:2|3:2,0:0:0:0:
387,132,25540,2,0,L|313:140,1,75,2|8,0:2|0:2,0:0:0:0:
173,208,25740,2,0,L|247:216,1,75,2|0,0:2|3:2,0:0:0:0:
154,225,25940,2,0,L|228:233,1,75,2|8,0:2|0:2,0:0:0:0:
411,301,26140,2,0,L|337:309,1,75,2|0,2:2|3:2,0:0:0:0:
430,318,26340,2,0,L|356:326,1,75,2|8,3:2|2:2,0:0:0:0:
173,208,26540,6,0,P|182:277|163:364,1,150,4|0,0:2|0:2,0:0:0:0:
70,235,26840,2,0,P|72:184|80:150,1,75,10|0,0:2|0:2,0:0:0:0:
159,27,27040,2,0,P|165:63|165:101,1,75,2|0,3:2|0:2,0:0:0:0:
0,77,27240,2,0,L|79:83,1,75,10|0,2:2|0:2,0:0:0:0:
165,186,27440,5,2,3:2:0:0:
165,186,27540,2,0,L|239:179,1,75,2|8,0:2|2:2,0:0:0:0:
333,77,27740,2,0,P|321:124|327:174,1,75,2|0,0:2|3:2,0:0:0:0:
288,265,27940,2,0,P|323:298|369:319,1,75,2|8,3:2|0:2,0:0:0:0:
501,219,28140,6,0,P|424:188|362:236,1,150,6|0,0:2|0:2,0:0:0:0:
334,384,28440,2,0,P|349:332|341:292,1,75,10|0,0:2|0:2,0:0:0:0:
182,64,28640,5,2,3:2:0:0:
204,102,28740,1,2,0:2:0:0:
185,134,28840,1,10,0:2:0:0:
199,160,28940,1,2,0:2:0:0:
193,181,29040,6,0,L|208:356,1,150,2|10,3:2|2:2,0:0:0:0:
91,292,29340,2,0,L|97:217,1,75,2|0,0:2|3:2,0:0:0:0:
187,107,29540,2,0,L|194:182,1,75,2|8,3:2|0:2,0:0:0:0:
55,32,29740,6,0,B|93:36|93:36|209:22,1,150,4|0,0:2|0:2,0:0:0:0:
261,113,30040,2,0,L|186:106,1,75,10|0,0:2|0:2,0:0:0:0:
349,97,30240,2,0,P|350:134|342:170,1,75,2|0,3:2|0:2,0:0:0:0:
203,281,30440,2,0,P|195:223|206:175,1,75,10|0,0:2|0:2,0:0:0:0:
315,266,30640,5,2,3:2:0:0:
315,266,30740,2,0,P|352:270|389:262,1,75,2|8,0:2|0:2,0:0:0:0:
405,58,30940,2,0,P|402:95|409:132,1,75,2|0,0:2|3:2,0:0:0:0:
500,217,31140,2,0,P|506:180|504:142,1,75,2|8,3:2|0:2,0:0:0:0:
308,117,31340,6,0,P|323:191|314:265,1,150,4|0,0:2|0:2,0:0:0:0:
250,331,31640,2,0,P|213:332|176:324,1,75,10|0,0:2|0:2,0:0:0:0:
184,169,31840,2,0,P|204:202|216:237,1,75,2|0,3:2|0:2,0:0:0:0:
78,315,32040,2,0,P|95:282|119:254,1,75,10|0,0:2|0:2,0:0:0:0:
260,164,32240,5,2,3:2:0:0:
222,167,32340,1,2,0:2:0:0:
185,170,32440,1,10,0:2:0:0:
147,173,32540,1,2,0:2:0:0:
109,176,32640,2,0,P|99:109|105:83,2,75,2|2|8,3:2|3:2|0:2,0:0:0:0:
0,108,32940,6,0,P|16:216|6:258,1,150,4|0,0:2|0:2,0:0:0:0:
16,345,33240,2,0,P|54:350|93:343,1,75,10|0,0:2|0:2,0:0:0:0:
153,259,33440,2,0,P|191:254|230:261,1,75,2|0,3:2|0:2,0:0:0:0:
171,278,33640,2,0,P|209:273|248:280,1,75,10|0,0:2|0:2,0:0:0:0:
353,247,33840,6,0,L|347:173,1,75,2|0,3:2|0:2,0:0:0:0:
335,231,34040,2,0,L|329:157,1,75,10|0,0:2|0:2,0:0:0:0:
417,39,34240,1,2,3:2:0:0:
417,39,34340,2,0,L|411:113,1,75,2|8,3:2|0:2,0:0:0:0:
274,19,34540,6,0,P|199:19|124:28,1,150,4|0,0:2|0:2,0:0:0:0:
49,87,34840,1,10,0:2:0:0:
196,185,35040,1,2,3:2:0:0:
196,185,35140,2,0,P|202:149|198:111,1,75,2|8,3:2|0:2,0:0:0:0:
52,203,35340,6,0,L|201:189,1,150,2|2,0:2|0:2,0:0:0:0:
410,293,35740,2,0,L|257:279,1,150,2|2,0:2|3:2,0:0:0:0:
65,342,36140,1,4,0:2:0:0:
256,192,36240,12,0,37740,0:2:0:0:
274,153,38040,6,0,P|282:116|283:78,1,75,8|0,0:2|0:0,0:0:0:0:
197,199,38240,2,0,P|225:224|257:242,1,75,0|0,3:2|3:2,0:0:0:0:
192,103,38440,1,8,2:2:0:0:
192,103,38540,1,0,0:2:0:0:
192,103,38640,2,0,P|156:115|125:135,3,75,8|8|4|4,3:3|3:3|3:3|3:3,0:0:0:0:
84,219,39040,1,8,3:2:0:0:
84,219,39340,6,0,P|91:153|79:84,1,112.500004291535,2|0,3:2|0:2,0:0:0:0:
36,41,39640,1,10,0:2:0:0:
36,41,39840,2,0,P|89:57|165:37,1,112.500004291535,2|10,3:2|0:2,0:0:0:0:
335,134,40240,2,0,P|270:151|205:133,1,112.500004291535,2|10,3:2|2:2,0:0:0:0:
305,41,40640,1,2,3:2:0:0:
305,41,40740,2,0,P|347:34|382:43,1,56.2500021457673,2|8,3:2|3:2,0:0:0:0:
473,123,40940,6,0,L|462:239,1,112.500004291535,2|0,3:2|0:2,0:0:0:0:
402,359,41240,1,10,0:2:0:0:
402,359,41440,2,0,L|269:347,1,112.500004291535,2|10,3:2|0:2,0:0:0:0:
111,267,41840,2,0,L|240:255,1,112.500004291535,2|10,3:2|0:2,0:0:0:0:
350,137,42240,2,0,P|345:177|344:204,1,56.2500021457673,2|2,3:2|3:2,0:0:0:0:
240,171,42440,1,8,3:2:0:0:
239,171,42541,6,0,P|240:103|229:37,1,112.500004291535,6|0,3:2|0:2,0:0:0:0:
131,67,42840,1,10,0:2:0:0:
131,67,43040,2,0,P|72:77|0:59,1,112.500004291535,2|10,3:2|0:2,0:0:0:0:
108,175,43440,2,0,P|169:159|232:170,1,112.500004291535,2|10,3:2|0:2,0:0:0:0:
374,117,43840,1,2,3:2:0:0:
374,117,43940,1,2,3:2:0:0:
374,117,44040,1,8,3:2:0:0:
374,117,44140,6,0,L|362:244,1,112.500004291535,2|0,3:2|0:2,0:0:0:0:
282,322,44440,1,10,0:2:0:0:
282,322,44640,2,0,P|209:335|153:322,1,112.500004291535,2|10,3:2|0:2,0:0:0:0:
10,217,45040,2,0,P|84:230|142:217,1,112.500004291535,2|10,3:2|0:2,0:0:0:0:
233,101,45340,1,0,2:2:0:0:
233,101,45440,2,0,P|229:145|234:175,1,56.2500021457673,2|2,3:2|3:2,0:0:0:0:
354,207,45640,1,8,3:2:0:0:
354,207,45740,6,0,P|358:139|350:72,1,112.500004291535,6|0,3:2|0:2,0:0:0:0:
266,16,46040,1,10,0:2:0:0:
266,16,46240,2,0,L|133:4,1,112.500004291535,2|10,3:2|0:2,0:0:0:0:
0,133,46640,2,0,L|135:120,1,112.500004291535,2|10,3:2|0:2,0:0:0:0:
282,227,47040,1,2,3:2:0:0:
282,227,47140,2,0,L|209:220,1,56.2500021457673,2|8,3:2|3:2,0:0:0:0:
95,345,47340,6,0,P|110:287|101:211,1,112.500004291535,6|0,3:2|0:2,0:0:0:0:
134,121,47640,1,10,0:2:0:0:
134,121,47840,2,0,P|185:137|262:135,1,112.500004291535,2|10,3:2|0:2,0:0:0:0:
394,22,48240,2,0,P|329:18|268:37,1,112.500004291535,2|10,3:2|2:2,0:0:0:0:
369,178,48640,2,0,P|378:129|374:97,1,56.2500021457673,2|2,3:2|3:2,0:0:0:0:
482,59,48840,1,8,3:2:0:0:
482,59,48940,6,0,P|481:125|497:190,1,112.500004291535,6|0,3:2|0:2,0:0:0:0:
437,289,49240,1,10,2:2:0:0:
437,289,49440,2,0,P|455:338|465:262,1,202.499993820191,10|0,2:2|3:2,0:0:0:0:
360,245,49840,5,10,3:2:0:0:
360,245,49940,2,0,P|343:306|348:334,1,67.4999979400635,10|0,3:2|3:2,0:0:0:0:
250,362,50140,2,0,P|246:328|233:297,1,67.4999979400635,10|0,2:2|0:2,0:0:0:0:
122,260,50340,2,0,P|149:240|169:213,1,67.4999979400635,10|0,2:2|0:2,0:0:0:0:
165,106,50540,1,8,0:2:0:0:
165,106,50640,6,0,P|195:120|228:123,1,67.4999979400635,2|0,3:2|0:2,0:0:0:0:
367,39,50840,2,0,P|333:42|303:56,1,67.4999979400635,10|0,0:2|0:2,0:0:0:0:
316,223,51040,2,0,L|322:143,1,67.4999979400635,2|0,3:2|0:2,0:0:0:0:
223,56,51240,2,0,L|228:123,1,67.4999979400635,10|0,0:2|0:2,0:0:0:0:
331,248,51440,2,0,L|337:168,1,67.4999979400635,2|0,3:2|0:2,0:0:0:0:
99,223,51640,2,0,P|128:275|238:210,1,202.499993820191,14|0,0:2|3:2,0:0:0:0:
31,144,52140,6,0,P|7:208|20:303,1,120,6|0,3:2|0:2,0:0:0:0:
83,339,52440,1,10,0:2:0:0:
83,339,52640,2,0,P|154:316|217:318,1,120,2|10,3:2|0:2,0:0:0:0:
399,384,53040,2,0,P|343:334|313:278,1,120,2|10,3:2|0:2,0:0:0:0:
253,138,53440,2,0,P|242:185|221:219,1,60,2|2,3:2|3:2,0:0:0:0:
180,79,53640,1,8,3:2:0:0:
180,79,53740,6,0,P|230:50|314:65,1,120,2|0,3:2|0:2,0:0:0:0:
363,135,54040,1,10,0:2:0:0:
365,140,54240,2,0,L|377:-3,1,120,2|10,3:2|0:2,0:0:0:0:
469,228,54640,2,0,L|456:84,1,120,2|10,3:2|0:2,0:0:0:0:
337,303,55040,1,2,3:2:0:0:
337,303,55140,2,0,P|336:261|345:209,1,60,2|8,3:2|3:2,0:0:0:0:
239,150,55340,6,0,P|245:202|230:307,1,120,2|0,3:2|0:2,0:0:0:0:
161,347,55640,1,10,0:2:0:0:
161,347,55840,2,0,P|101:321|27:324,1,120,2|10,3:2|0:2,0:0:0:0:
0,195,56240,2,0,P|60:169|134:172,1,120,2|10,3:2|0:2,0:0:0:0:
294,228,56640,1,2,3:2:0:0:
294,228,56740,1,2,3:2:0:0:
294,228,56840,1,8,3:2:0:0:
294,228,56940,6,0,L|307:68,1,120,2|0,3:2|0:2,0:0:0:0:
215,30,57240,1,10,0:2:0:0:
215,30,57440,2,0,L|221:109,1,60,2|0,3:2|0:2,0:0:0:0:
201,197,57640,6,0,P|160:175|111:167,1,60,10|0,0:2|0:2,0:0:0:0:
75,225,57840,2,0,P|115:201|163:191,1,60,2|0,3:2|0:2,0:0:0:0:
224,299,58040,2,0,P|183:277|134:269,1,60,10|0,0:2|0:2,0:0:0:0:
98,327,58240,2,0,P|138:303|186:293,1,60,2|2,3:2|3:2,0:0:0:0:
309,341,58440,2,0,L|302:261,1,60,8|2,3:2|3:2,0:0:0:0:
391,216,58640,2,0,L|385:283,1,60,0|0,2:2|0:2,0:0:0:0:
483,327,58840,2,0,L|470:180,1,120,10|2,0:2|3:2,0:0:0:0:
317,98,59240,6,0,P|338:113|386:119,1,60,10|0,0:2|0:2,0:0:0:0:
456,10,59440,2,0,P|422:14|394:32,1,60,2|0,3:2|0:0,0:0:0:0:
317,98,59640,2,0,P|296:113|248:119,1,60,10|0,0:2|0:2,0:0:0:0:
178,10,59840,2,0,P|211:14|239:32,1,60,2|2,3:2|3:2,0:0:0:0:
158,236,60040,2,0,L|170:92,1,120,8|0,3:2|0:2,0:0:0:0:
57,171,60440,6,0,L|63:250,1,60,10|0,0:2|0:2,0:0:0:0:
34,188,60640,2,0,L|40:267,1,60,2|0,3:2|0:2,0:0:0:0:
152,303,60840,2,0,L|157:235,1,60,10|0,0:2|0:2,0:0:0:0:
175,320,61040,2,0,L|180:252,1,60,2|0,3:2|0:2,0:0:0:0:
304,183,61240,6,0,P|258:180|234:173,1,60,10|0,0:2|0:2,0:0:0:0:
322,165,61440,2,0,P|276:162|252:155,1,60,2|2,3:2|3:2,0:0:0:0:
418,253,61640,2,0,P|372:256|348:263,1,60,8|2,0:2|3:2,0:0:0:0:
436,271,61840,2,0,P|344:279|296:297,1,120,0|10,2:2|0:2,0:0:0:0:
153,184,62240,1,2,3:2:0:0:
213,48,62440,6,0,P|217:93|215:125,1,60,10|0,0:2|0:2,0:0:0:0:
299,223,62640,2,0,P|297:150|305:78,1,120,2|8,3:2|3:2,0:0:0:0:
407,41,62940,1,0,3:2:0:0:
407,41,63040,2,0,L|474:46,1,60,2|0,3:2|0:0,0:0:0:0:
480,149,63240,1,8,0:2:0:0:
480,149,63340,1,8,0:2:0:0:
480,149,63440,6,0,L|326:162,1,134.999995880127,4|8,3:2|0:2,0:0:0:0:
341,253,63740,1,8,0:2:0:0:
341,253,63840,2,0,L|201:187,1,134.999995880127,6|8,3:2|0:2,0:0:0:0:
162,272,64140,1,0,0:2:0:0:
162,272,64240,6,0,L|109:195,1,67.4999979400635,6|8,3:2|0:2,0:0:0:0:
27,223,64440,2,0,L|22:156,1,67.4999979400635,8|8,0:2|0:2,0:0:0:0:
177,100,64640,2,0,P|121:118|90:113,1,67.4999979400635,6|0,3:2|0:0,0:0:0:0:
189,8,64840,1,8,0:2:0:0:
189,8,64940,1,8,0:2:0:0:
189,8,65040,6,0,P|258:14|322:45,1,134.999995880127,8|0,3:2|2:2,0:0:0:0:
264,234,65340,1,0,3:2:0:0:
264,234,65440,2,0,P|234:171|229:100,1,134.999995880127,12|0,0:2|3:2,0:0:0:0:
419,167,65740,5,8,3:2:0:0:
419,167,65840,2,0,P|393:202|356:228,1,67.4999979400635,0|8,3:2|0:2,0:0:0:0:
390,318,66040,1,0,3:2:0:0:
390,318,66140,1,0,3:2:0:0:
390,318,66240,2,0,P|345:314|305:294,1,67.4999979400635,8|0,0:2|3:2,0:0:0:0:
265,207,66440,6,0,P|209:259|130:168,1,202.499993820191,4|8,3:2|0:2,0:0:0:0:
142,34,66840,1,0,3:2:0:0:
142,34,66940,1,0,0:2:0:0:
142,34,67040,2,0,P|136:78|142:110,1,67.4999979400635,8|8,0:2|0:2,0:0:0:0:
34,116,67240,1,8,3:2:0:0:
34,116,67340,6,0,P|48:187|24:269,1,134.999995880127,4|0,2:2|3:2,0:0:0:0:
25,358,67640,2,0,P|71:333|106:332,1,67.4999979400635,10|0,2:2|3:2,0:0:0:0:
145,259,67840,2,0,P|191:284|226:285,1,67.4999979400635,10|0,2:2|3:2,0:0:0:0:
297,229,68040,2,0,L|290:308,1,67.4999979400635,10|8,0:2|0:2,0:0:0:0:
213,195,68240,6,0,L|199:37,1,134.999995880127,0|0,3:0|3:2,0:0:0:0:
349,96,68540,1,0,3:2:0:0:
349,96,68640,2,0,P|311:111|271:111,1,67.4999979400635,12|0,0:2|3:2,0:0:0:0:
385,13,68840,2,0,P|418:16|449:29,1,67.4999979400635,8|0,0:2|3:2,0:0:0:0:
444,178,69040,6,0,P|429:132|429:92,1,67.4999979400635,0|8,2:2|0:2,0:0:0:0:
512,227,69240,2,0,P|507:260|495:291,1,67.4999979400635,0|0,0:2|3:2,0:0:0:0:
443,362,69440,1,8,0:2:0:0:
443,362,69540,1,0,3:2:0:0:
443,362,69640,6,0,P|383:326|314:314,1,134.999995880127,4|0,2:2|2:2,0:0:0:0:
223,372,69940,1,0,3:2:0:0:
223,372,70040,2,0,L|229:292,1,67.4999979400635,0|0,3:2|2:2,0:0:0:0:
127,214,70240,2,0,L|132:281,3,67.4999979400635,8|8|8|8,0:2|0:2|0:2|0:2,0:0:0:0:
25,342,70640,2,0,L|30:274,3,67.4999979400635,2|4|0|0,3:2|3:3|0:0|3:2,0:0:0:0:
59,152,71040,6,0,P|108:129|148:127,1,67.4999979400635,8|0,3:2|3:2,0:0:0:0:
209,192,71240,2,0,P|258:215|298:217,1,67.4999979400635,8|8,3:2|3:2,0:0:0:0:
359,112,71440,6,0,P|355:179|369:244,1,134.999995880127,2|8,3:2|0:2,0:0:0:0:
471,188,71740,1,0,0:2:0:0:
471,188,71840,2,0,P|474:255|460:320,1,134.999995880127,2|8,3:2|0:2,0:0:0:0:
247,338,72140,1,0,0:2:0:0:
247,338,72240,2,0,P|296:304|344:355,1,134.999995880127,2|8,3:2|0:2,0:0:0:0:
113,341,72640,6,0,L|119:261,1,67.4999979400635,2|0,3:2|0:2,0:0:0:0:
215,225,72840,2,0,L|208:145,1,67.4999979400635,8|0,0:2|0:2,0:0:0:0:
69,42,73040,6,0,L|212:54,1,134.999995880127,6|8,3:2|0:2,0:0:0:0:
343,145,73340,1,0,0:2:0:0:
343,145,73440,2,0,L|208:156,1,134.999995880127,2|8,3:2|0:2,0:0:0:0:
304,38,73740,1,0,0:2:0:0:
304,38,73840,2,0,L|447:50,1,134.999995880127,2|8,3:2|0:2,0:0:0:0:
431,287,74240,5,2,3:2:0:0:
431,287,74340,1,0,0:2:0:0:
431,287,74440,1,8,0:2:0:0:
431,287,74540,1,0,0:2:0:0:
431,287,74640,6,0,P|427:221|436:145,1,120,4|0,0:2|0:2,0:0:0:0:
315,368,75040,2,0,P|319:302|310:226,1,120,8|8,0:2|0:2,0:0:0:0:
113,279,75340,1,0,0:2:0:0:
113,279,75440,2,0,P|163:314|243:323,1,120,0|0,3:2|0:0,0:0:0:0:
285,100,75840,1,4,0:2:0:0:
199,239,76040,1,4,0:2:0:0:
117,59,76240,5,8,0:2:0:0:
117,59,76340,1,8,0:2:0:0:
260,155,76540,1,8,0:2:0:0:
161,152,76740,1,8,0:2:0:0:
375,49,76940,6,8,L|361:201,1,120,10|0,0:2|0:2,0:0:0:0:
435,346,77240,1,10,0:2:0:0:
435,346,77440,2,0,P|421:313|391:360,1,112.500004291535,6|2,0:2|0:2,0:0:0:0:
385,353,77840,6,0,P|336:333|219:336,1,150,4|8,3:2|2:2,0:0:0:0:
71,362,78140,1,0,2:2:0:0:
151,377,78240,2,0,P|160:332|160:293,1,75,2|0,3:2|3:2,0:0:0:0:
16,219,78440,2,0,P|17:256|25:292,1,75,8|0,2:2|2:2,0:0:0:0:
250,209,78640,6,0,P|185:218|92:194,1,150,2|8,3:2|2:2,0:0:0:0:
213,74,78940,1,0,2:2:0:0:
213,74,79040,2,0,P|182:134|152:80,1,150,4|8,3:2|2:2,0:0:0:0:
310,64,79340,1,0,2:2:0:0:
310,64,79440,6,0,P|311:111|300:153,1,75,2|0,3:2|0:2,0:0:0:0:
338,79,79640,2,0,P|339:126|328:168,1,75,10|0,2:2|0:2,0:0:0:0:
463,196,79840,2,0,P|462:243|473:285,1,75,2|0,3:2|3:2,0:0:0:0:
435,211,80040,2,0,P|434:258|445:300,1,75,10|0,3:2|2:2,0:0:0:0:
319,347,80240,6,0,L|239:340,1,75,2|0,3:2|2:2,0:0:0:0:
105,268,80440,2,0,L|184:261,1,75,10|0,2:2|2:2,0:0:0:0:
353,262,80640,2,0,L|273:255,1,75,2|0,3:2|3:2,0:0:0:0:
139,183,80840,2,0,L|218:176,1,75,10|0,0:2|0:2,0:0:0:0:
405,131,81040,1,2,3:2:0:0:
404,131,81241,6,0,P|338:50|244:96,1,225,12|0,0:2|3:2,0:0:0:0:
206,250,81640,2,0,P|207:211|219:158,1,75,10|0,0:2|0:2,0:0:0:0:
92,76,81840,2,0,P|106:155|108:235,1,150,2|8,3:2|0:2,0:0:0:0:
62,379,82140,1,0,2:2:0:0:
17,311,82240,2,0,P|72:299|110:309,1,75,0|0,3:2|3:2,0:0:0:0:
239,350,82440,6,0,L|232:270,1,75,10|0,2:2|0:2,0:0:0:0:
296,313,82640,2,0,L|250:247,1,75,2|0,3:2|0:2,0:0:0:0:
328,252,82840,2,0,L|255:218,1,75,10|0,2:2|0:2,0:0:0:0:
325,183,83040,5,2,3:2:0:0:
325,183,83140,1,2,3:2:0:0:
325,183,83240,2,0,L|245:189,1,75,10|2,0:2|0:2,0:0:0:0:
158,106,83440,1,2,3:2:0:0:
158,106,83540,2,0,P|155:143|146:179,2,75,2|8|2,0:2|0:2|0:2,0:0:0:0:
238,37,83840,5,8,3:2:0:0:
274,29,83940,1,10,0:2:0:0:
311,30,84040,1,8,0:2:0:0:
345,45,84140,1,8,0:2:0:0:
372,70,84240,6,0,P|363:137|378:236,1,150,6|8,3:2|0:2,0:0:0:0:
440,371,84540,1,0,0:2:0:0:
485,296,84640,2,0,P|425:288|389:293,1,75,0|0,3:2|3:2,0:0:0:0:
280,213,84840,2,0,P|272:262|276:294,1,75,10|0,0:2|0:2,0:0:0:0:
175,365,85040,6,0,P|179:289|163:215,1,150,2|8,3:2|0:2,0:0:0:0:
64,284,85340,2,0,P|60:208|76:134,1,150,2|0,0:2|0:0,0:0:0:0:
111,42,85640,2,0,P|158:60|185:63,1,75,8|0,0:2|0:2,0:0:0:0:
217,159,85840,6,0,P|256:127|272:105,1,75,2|0,3:2|0:2,0:0:0:0:
347,28,86040,2,0,P|354:77|365:102,1,75,10|0,0:2|0:2,0:0:0:0:
406,204,86240,2,0,P|358:186|331:182,1,75,2|0,3:2|3:2,0:0:0:0:
232,293,86440,1,8,0:2:0:0:
232,293,86540,6,0,B|343:347|339:255|479:314,1,225,2|8,2:2|2:2,0:0:0:0:
505,227,86940,1,0,2:2:0:0:
505,227,87040,2,0,P|493:180|490:146,1,75,2|0,3:2|3:2,0:0:0:0:
407,42,87240,2,0,P|402:79|392:115,1,75,10|0,0:2|0:2,0:0:0:0:
306,204,87440,6,0,P|244:169|182:223,1,150,6|8,0:2|0:2,0:0:0:0:
116,348,87740,1,0,2:2:0:0:
116,348,87840,2,0,L|109:273,1,75,0|0,3:2|3:2,0:0:0:0:
185,209,88040,2,0,L|192:135,1,75,8|0,2:2|0:2,0:0:0:0:
32,130,88240,6,0,L|18:289,1,150,4|10,3:2|2:2,0:0:0:0:
192,135,88540,1,10,2:2:0:0:
192,135,88640,2,0,L|112:128,2,75,2|0|10,3:2|3:2|2:2,0:0:0:0:
260,72,88940,6,0,B|293:56|293:56|432:49,1,150,6|0,0:2|0:2,0:0:0:0:
489,250,89240,2,0,P|489:195|481:166,1,75,8|0,0:2|0:2,0:0:0:0:
387,135,89440,2,0,P|380:171|382:209,1,75,0|0,3:2|3:2,0:0:0:0:
282,267,89640,2,0,P|282:212|274:183,1,75,8|0,0:2|0:2,0:0:0:0:
109,232,89840,5,0,3:2:0:0:
109,232,89940,1,0,2:2:0:0:
109,232,90040,2,0,L|188:225,1,75,8|0,2:2|2:2,0:0:0:0:
207,349,90240,2,0,L|127:342,2,75,10|8|10,2:2|2:2|3:3,0:0:0:0:
207,349,90640,6,0,P|324:318|381:333,1,150,6|8,3:2|0:2,0:0:0:0:
512,330,90940,1,0,2:2:0:0:
439,379,91040,2,0,P|429:327|431:289,1,75,0|0,3:2|3:2,0:0:0:0:
395,142,91240,2,0,P|393:179|385:215,1,75,10|0,2:2|2:2,0:0:0:0:
301,278,91440,6,0,P|283:202|280:125,1,150,2|8,3:2|0:2,0:0:0:0:
138,54,91740,1,0,0:2:0:0:
138,54,91840,2,0,P|156:113|200:68,1,150,4|8,3:2|0:2,0:0:0:0:
42,38,92140,1,0,2:2:0:0:
42,38,92240,6,0,P|35:91|48:137,1,75,2|0,3:2|0:2,0:0:0:0:
14,50,92440,2,0,P|7:103|20:149,1,75,10|0,0:2|0:2,0:0:0:0:
150,196,92640,2,0,P|157:249|144:295,1,75,2|0,3:2|3:2,0:0:0:0:
178,208,92840,2,0,P|185:261|172:307,1,75,10|0,2:2|2:2,0:0:0:0:
0,227,93040,6,0,L|79:233,1,75,2|0,3:2|0:2,0:0:0:0:
196,109,93240,2,0,L|116:115,1,75,10|0,0:2|0:2,0:0:0:0:
272,268,93440,2,0,L|265:193,1,75,2|0,3:2|3:2,0:0:0:0:
332,33,93640,2,0,L|325:107,1,75,10|0,2:2|0:2,0:0:0:0:
487,190,93840,1,2,3:2:0:0:
487,190,94040,6,0,P|430:260|351:179,1,225,12|0,0:2|3:2,0:0:0:0:
236,38,94440,2,0,P|241:94|230:133,1,75,10|0,0:2|0:2,0:0:0:0:
144,236,94640,2,0,P|134:154|147:73,1,150,2|8,3:2|0:2,0:0:0:0:
281,136,94940,1,0,0:2:0:0:
239,207,95040,2,0,P|244:263|233:302,1,75,0|0,3:2|3:2,0:0:0:0:
30,315,95240,6,0,P|60:305|105:305,1,75,10|0,0:2|0:2,0:0:0:0:
178,372,95440,2,0,P|208:382|253:382,1,75,2|0,3:2|0:2,0:0:0:0:
51,286,95640,2,0,P|81:276|126:276,1,75,10|0,0:2|0:2,0:0:0:0:
199,343,95840,2,0,P|229:353|274:353,1,75,2|0,3:2|3:2,0:0:0:0:
403,330,96040,6,0,B|409:250|409:250|430:203|430:203|438:108,1,225,10|0,0:2|0:0,0:0:0:0:
246,157,96440,2,0,L|325:163,1,75,8|8,0:2|3:2,0:0:0:0:
299,41,96640,1,10,2:2:0:0:
261,44,96740,1,8,2:2:0:0:
224,47,96840,1,10,2:2:0:0:
186,50,96940,1,8,2:2:0:0:
149,54,97040,6,0,P|120:125|137:280,1,225,6|0,3:2|0:2,0:0:0:0:
232,321,97440,2,0,P|176:313|81:338,1,150,2|8,3:2|0:2,0:0:0:0:
205,220,97740,2,0,P|276:241|350:234,1,150,2|0,0:2|0:2,0:0:0:0:
355,58,98040,1,8,2:2:0:0:
355,58,98140,1,0,2:2:0:0:
355,58,98240,6,0,P|353:110|357:147,1,75,2|0,3:2|3:2,0:0:0:0:
447,246,98440,2,0,P|449:208|446:171,1,75,10|0,0:2|0:2,0:0:0:0:
236,302,98640,6,0,P|295:331|333:207,1,225,6|8,3:2|0:2,0:0:0:0:
241,190,99040,2,0,P|186:223|97:225,1,150,6|8,3:2|0:2,0:0:0:0:
0,88,99340,2,0,P|55:121|144:123,1,150,6|0,0:2|0:2,0:0:0:0:
282,41,99640,1,8,0:2:0:0:
282,41,99740,1,0,0:2:0:0:
282,41,99840,6,0,L|275:120,1,75,2|0,3:2|3:2,0:0:0:0:
389,39,100040,2,0,L|395:113,1,75,10|0,0:2|0:2,0:0:0:0:
434,248,100240,6,0,P|371:257|344:278,1,75,2|0,3:2|0:2,0:0:0:0:
338,173,100440,2,0,P|287:212|275:243,1,75,10|0,0:2|0:2,0:0:0:0:
211,278,100640,2,0,P|148:269|121:248,1,75,2|0,3:2|3:2,0:0:0:0:
115,353,100840,2,0,P|64:313|52:282,1,75,10|0,2:2|2:2,0:0:0:0:
152,117,101040,6,0,P|158:193|137:268,1,150,2|8,3:2|0:2,0:0:0:0:
25,36,101440,2,0,P|71:31|109:39,1,75,2|0,3:2|3:2,0:0:0:0:
227,69,101640,1,10,0:2:0:0:
227,69,101740,1,2,0:2:0:0:
227,69,101840,6,0,P|371:84|490:59,1,262.5,4|0,2:2|0:2,0:0:0:0:
442,157,102640,2,0,L|453:201,3,37.5,8|8|8|8,3:2|3:2|3:2|3:2,0:0:0:0:
452,194,103340,6,0,P|376:181|314:213,1,112.500004291535,2|0,3:2|0:2,0:0:0:0:
248,272,103640,1,10,0:2:0:0:
248,272,103840,2,0,L|243:131,1,112.500004291535,2|10,3:2|0:2,0:0:0:0:
124,341,104240,2,0,L|128:203,1,112.500004291535,2|10,3:2|0:2,0:0:0:0:
245,160,104640,1,2,3:2:0:0:
245,160,104740,2,0,P|198:142|155:143,1,56.2500021457673,2|8,3:2|0:2,0:0:0:0:
85,71,104940,6,0,P|155:59|219:29,1,112.500004291535,2|0,0:2|0:2,0:0:0:0:
337,76,105240,1,10,0:2:0:0:
337,76,105440,2,0,P|325:147|338:226,1,112.500004291535,2|10,3:2|0:2,0:0:0:0:
454,48,105840,2,0,P|466:119|453:198,1,112.500004291535,2|8,3:2|0:2,0:0:0:0:
369,282,106240,2,0,L|448:275,1,56.2500021457673,2|2,3:2|3:2,0:0:0:0:
344,365,106440,1,8,0:2:0:0:
344,365,106540,6,0,L|206:352,1,112.500004291535,6|0,0:2|0:2,0:0:0:0:
129,249,106840,1,10,0:2:0:0:
129,249,107040,2,0,L|115:408,1,112.500004291535,2|10,3:2|0:2,0:0:0:0:
12,157,107440,2,0,L|25:316,1,112.500004291535,2|10,3:2|0:2,0:0:0:0:
226,151,107840,1,2,3:2:0:0:
226,151,107940,1,2,3:2:0:0:
226,151,108040,1,8,0:2:0:0:
226,151,108140,6,0,P|171:161|87:147,1,112.500004291535,2|0,0:2|0:2,0:0:0:0:
40,54,108440,1,10,0:2:0:0:
40,54,108640,2,0,P|138:41|192:50,1,112.500004291535,2|10,3:2|0:2,0:0:0:0:
359,159,109040,2,0,P|261:146|207:155,1,112.500004291535,2|10,3:2|0:2,0:0:0:0:
139,265,109340,1,0,0:2:0:0:
139,265,109440,2,0,L|145:185,1,56.2500021457673,2|2,3:2|3:2,0:0:0:0:
243,237,109640,1,8,0:2:0:0:
243,237,109740,6,0,L|255:379,1,112.500004291535,2|0,2:2|0:2,0:0:0:0:
345,292,110040,1,10,0:2:0:0:
345,292,110240,2,0,L|488:304,1,112.500004291535,2|10,3:2|0:2,0:0:0:0:
493,147,110640,2,0,L|349:159,1,112.500004291535,2|10,3:2|0:2,0:0:0:0:
261,92,111040,1,2,3:2:0:0:
261,92,111140,2,0,P|257:42|261:14,1,56.2500021457673,2|8,3:2|0:2,0:0:0:0:
157,70,111340,6,0,P|161:145|152:221,1,112.500004291535,6|0,0:2|0:2,0:0:0:0:
75,280,111640,1,10,0:2:0:0:
75,280,111840,2,0,P|161:259|214:278,1,112.500004291535,2|10,3:2|0:2,0:0:0:0:
400,321,112240,2,0,P|334:334|271:312,1,112.500004291535,2|10,3:2|0:2,0:0:0:0:
332,173,112640,2,0,P|340:215|339:253,1,56.2500021457673,2|2,3:2|3:2,0:0:0:0:
242,181,112840,1,8,0:2:0:0:
242,181,112940,6,0,P|244:108|259:37,1,112.500004291535,2|0,0:2|0:0,0:0:0:0:
358,9,113240,1,8,0:2:0:0:
358,9,113440,2,0,P|358:90|409:32,1,202.499993820191,8|0,3:2|3:2,0:0:0:0:
496,16,113840,5,10,3:2:0:0:
496,16,113940,2,0,P|497:64|483:112,1,67.4999979400635,10|0,0:2|0:2,0:0:0:0:
482,178,114140,2,0,P|435:192|386:194,1,67.4999979400635,10|0,2:2|2:2,0:0:0:0:
337,247,114340,2,0,P|308:207|291:161,1,67.4999979400635,10|0,0:2|2:2,0:0:0:0:
235,119,114540,1,8,0:2:0:0:
235,119,114640,6,0,P|263:79|302:49,1,67.4999979400635,2|0,3:2|0:2,0:0:0:0:
208,234,114840,2,0,P|179:273|140:303,1,67.4999979400635,10|0,0:2|0:2,0:0:0:0:
125,114,115040,2,0,L|131:193,1,67.4999979400635,2|0,3:2|0:2,0:0:0:0:
52,328,115240,2,0,L|57:260,1,67.4999979400635,10|0,0:2|0:2,0:0:0:0:
140,92,115440,2,0,L|146:171,1,67.4999979400635,2|0,3:2|0:2,0:0:0:0:
128,357,115640,2,0,P|179:300|267:368,1,202.499993820191,10|0,0:2|0:2,0:0:0:0:
358,373,116040,6,0,P|353:324|338:284,1,60,8|6,0:2|0:2,0:0:0:0:
431,266,116240,1,0,0:0:0:0:
431,266,116340,1,0,0:2:0:0:
431,266,116440,2,0,P|436:217|451:177,1,60,10|0,0:2|0:2,0:0:0:0:
381,106,116640,2,0,P|437:113|472:108,2,60,2|0|10,3:2|0:2|0:2,0:0:0:0:
293,35,116940,6,0,P|222:34|152:48,1,120,0|0,0:2|0:2,0:0:0:0:
82,140,117240,1,10,0:2:0:0:
82,140,117440,2,0,P|82:92|78:60,1,60,2|2,3:2|3:2,0:0:0:0:
2,179,117640,2,0,P|0:212|0:246,1,60,8|2,0:2|0:2,0:0:0:0:
203,256,117840,2,0,P|160:218|131:314,1,180,0|0,0:2|0:0,0:0:0:0:
277,300,118240,5,2,3:2:0:0:
277,300,118340,1,0,0:2:0:0:
277,300,118440,2,0,P|285:257|284:225,1,60,10|0,0:2|0:2,0:0:0:0:
355,121,118640,1,2,3:2:0:0:
355,121,118740,1,0,0:2:0:0:
355,121,118840,2,0,P|363:164|362:196,1,60,10|0,0:2|0:2,0:0:0:0:
441,301,119040,1,2,3:2:0:0:
441,301,119140,1,2,3:2:0:0:
441,301,119240,2,0,P|449:258|448:226,1,60,8|2,0:2|0:2,0:0:0:0:
506,101,119440,6,0,L|410:92,3,60,0|0|10|0,0:2|0:2|0:2|0:2,0:0:0:0:
361,29,119840,2,0,L|265:37,3,60,2|0|10|0,3:2|0:2|0:2|0:2,0:0:0:0:
235,108,120240,2,0,P|177:156|103:124,1,120,2|10,3:2|0:2,0:0:0:0:
51,37,120540,1,0,0:2:0:0:
51,37,120640,6,0,P|51:84|40:123,1,60,2|2,3:2|3:2,0:0:0:0:
142,210,120840,2,0,P|136:176|137:143,1,60,8|2,0:2|0:2,0:0:0:0:
53,264,121040,2,0,P|54:297|48:330,1,60,0|0,0:0|0:2,0:0:0:0:
267,334,121240,2,0,P|212:278|143:353,1,180,10|0,0:2|0:2,0:0:0:0:
220,249,121640,2,0,P|227:209|216:163,1,60,10|0,0:2|0:2,0:0:0:0:
223,48,121840,6,0,L|318:56,1,60,2|0,3:2|0:2,0:0:0:0:
242,79,122040,2,0,L|337:90,1,60,10|0,0:2|0:2,0:0:0:0:
260,112,122240,2,0,L|355:123,1,60,2|2,3:2|3:2,0:0:0:0:
395,232,122440,6,0,L|401:152,1,60,8|2,0:2|0:2,0:0:0:0:
474,51,122640,2,0,L|487:204,1,120,4|10,0:2|0:2,0:0:0:0:
506,309,122940,1,0,0:2:0:0:
506,309,123040,2,0,P|465:300|436:302,1,60,2|0,3:2|0:2,0:0:0:0:
359,349,123240,2,0,P|318:358|289:356,1,60,10|0,0:2|0:2,0:0:0:0:
201,258,123440,6,0,P|153:312|73:236,1,180,2|0,3:2|0:2,0:0:0:0:
110,103,123840,1,2,3:2:0:0:
110,103,123940,1,2,3:2:0:0:
110,103,124040,6,0,P|118:145|120:177,1,60,8|2,0:2|0:2,0:0:0:0:
201,258,124240,2,0,P|204:224|210:191,1,60,0|0,0:2|0:2,0:0:0:0:
287,98,124440,2,0,P|233:106|213:108,1,60,10|0,0:2|0:2,0:0:0:0:
275,10,124640,2,0,P|308:13|341:19,1,60,2|0,3:2|0:2,0:0:0:0:
379,167,124840,2,0,P|372:115|375:92,1,60,10|0,0:2|0:2,0:0:0:0:
476,158,125040,6,0,P|477:191|470:224,1,60,2|0,3:2|0:2,0:0:0:0:
295,252,125240,2,0,P|343:246|365:252,1,60,10|0,0:2|0:2,0:0:0:0:
443,296,125440,2,0,P|472:334|478:356,1,60,2|2,3:2|3:2,0:0:0:0:
305,345,125640,2,0,P|244:333|104:364,1,180,8|0,0:2|0:2,0:0:0:0:
38,286,126040,2,0,P|43:238|35:195,1,60,10|0,0:2|0:2,0:0:0:0:
132,125,126240,6,0,P|127:193|138:260,1,120,2|10,3:2|0:2,0:0:0:0:
287,256,126640,2,0,P|296:189|292:122,1,120,2|10,3:2|0:2,0:0:0:0:
359,46,126940,1,0,0:2:0:0:
359,46,127040,2,0,P|386:47|433:34,1,60,0|0,3:2|3:2,0:0:0:0:
465,130,127240,1,8,0:2:0:0:
465,130,127340,1,8,0:2:0:0:
465,130,127440,6,0,P|454:185|463:269,1,134.999995880127,6|0,3:2|0:2,0:0:0:0:
353,190,127740,1,8,0:2:0:0:
353,190,127840,2,0,P|364:245|355:329,1,134.999995880127,6|8,0:2|0:2,0:0:0:0:
254,235,128140,1,8,0:2:0:0:
254,235,128240,6,0,P|246:272|252:330,1,67.4999979400635,0|8,3:2|0:2,0:0:0:0:
138,278,128440,2,0,P|145:315|139:373,1,67.4999979400635,8|8,0:2|0:2,0:0:0:0:
39,276,128640,2,0,P|41:241|46:209,1,67.4999979400635,0|0,3:2|0:0,0:0:0:0:
170,140,128840,1,8,0:2:0:0:
170,140,128940,1,8,0:2:0:0:
170,140,129040,6,0,L|26:127,1,134.999995880127,8|0,3:2|2:2,0:0:0:0:
151,38,129340,1,0,3:2:0:0:
151,38,129440,2,0,L|295:25,1,134.999995880127,12|0,0:2|3:2,0:0:0:0:
394,158,129740,5,8,3:2:0:0:
394,158,129840,2,0,L|400:78,1,67.4999979400635,0|8,3:2|2:2,0:0:0:0:
315,253,130040,1,0,3:2:0:0:
315,253,130140,1,0,2:2:0:0:
315,253,130240,2,0,L|309:173,1,67.4999979400635,8|0,2:2|3:2,0:0:0:0:
218,142,130440,6,0,B|192:102|192:102|207:274,1,202.499993820191,4|8,3:2|2:2,0:0:0:0:
31,259,130840,1,0,3:2:0:0:
31,259,130940,1,0,3:2:0:0:
31,259,131040,2,0,P|76:254|107:256,1,67.4999979400635,8|8,0:2|0:2,0:0:0:0:
251,356,131240,1,8,2:2:0:0:
251,356,131340,6,0,P|178:357|107:347,1,134.999995880127,4|0,2:2|3:2,0:0:0:0:
113,189,131640,2,0,P|98:244|97:270,1,67.4999979400635,10|0,2:2|3:2,0:0:0:0:
222,179,131840,2,0,P|217:145|206:113,1,67.4999979400635,10|0,2:2|3:2,0:0:0:0:
52,85,132040,2,0,L|131:78,1,67.4999979400635,10|8,0:2|0:2,0:0:0:0:
206,113,132240,6,0,L|349:125,1,134.999995880127,0|0,3:0|3:2,0:0:0:0:
441,50,132540,1,0,3:2:0:0:
441,50,132640,2,0,P|431:88|434:138,1,67.4999979400635,12|0,2:2|3:2,0:0:0:0:
480,203,132840,2,0,P|490:241|487:291,1,67.4999979400635,8|0,2:2|3:2,0:0:0:0:
339,254,133040,6,0,P|377:247|427:253,1,67.4999979400635,2|8,2:2|0:2,0:0:0:0:
314,339,133240,2,0,P|280:339|247:333,1,67.4999979400635,2|0,0:2|3:2,0:0:0:0:
198,213,133440,1,8,3:2:0:0:
198,213,133540,1,0,3:2:0:0:
198,213,133640,6,0,P|165:276|81:292,1,134.999995880127,4|0,2:2|0:2,0:0:0:0:
51,164,133940,1,0,3:2:0:0:
51,164,134040,2,0,L|57:84,1,67.4999979400635,0|0,3:2|2:2,0:0:0:0:
143,34,134240,2,0,L|148:101,3,67.4999979400635,8|8|8|8,0:2|0:2|0:2|0:2,0:0:0:0:
244,144,134640,2,0,L|249:76,3,67.4999979400635,2|4|0|0,3:2|3:3|0:0|3:2,0:0:0:0:
430,48,135040,6,0,P|377:35|339:39,1,67.4999979400635,8|0,3:2|3:2,0:0:0:0:
325,153,135240,2,0,P|358:150|390:140,1,67.4999979400635,8|8,3:2|3:2,0:0:0:0:
498,98,135440,6,0,P|486:158|487:232,1,134.999995880127,2|8,3:2|0:2,0:0:0:0:
398,360,135740,1,0,0:2:0:0:
398,360,135840,2,0,P|399:292|386:226,1,134.999995880127,2|8,3:2|0:2,0:0:0:0:
200,311,136140,1,0,0:2:0:0:
200,311,136240,2,0,P|268:345|306:305,1,134.999995880127,2|8,3:2|0:2,0:0:0:0:
140,156,136640,6,0,L|133:235,1,67.4999979400635,2|0,3:2|0:2,0:0:0:0:
45,323,136840,2,0,L|39:255,1,67.4999979400635,8|0,0:2|0:2,0:0:0:0:
66,95,137040,6,0,P|117:109|208:111,1,134.999995880127,2|8,3:2|0:2,0:0:0:0:
306,4,137340,1,0,0:2:0:0:
306,4,137440,2,0,P|238:4|173:21,1,134.999995880127,2|8,3:2|0:2,0:0:0:0:
295,103,137740,1,0,0:2:0:0:
295,103,137840,2,0,P|346:117|437:119,1,134.999995880127,2|8,3:2|0:2,0:0:0:0:
387,342,138240,5,2,3:2:0:0:
387,342,138340,1,0,2:2:0:0:
387,342,138440,1,8,0:2:0:0:
387,342,138540,1,0,3:2:0:0:
387,342,138640,6,0,L|374:198,1,120,4|0,0:2|0:2,0:0:0:0:
248,377,139040,2,0,L|260:233,1,120,8|8,0:2|0:2,0:0:0:0:
170,80,139340,1,0,0:2:0:0:
170,80,139440,2,0,P|155:149|162:215,1,120,0|0,3:2|0:0,0:0:0:0:
277,151,139840,1,4,0:2:0:0:
71,131,140040,1,4,0:2:0:0:
383,165,140240,5,8,0:2:0:0:
383,165,140340,1,8,0:2:0:0:
174,142,140540,1,8,0:2:0:0:
281,56,140740,1,8,0:2:0:0:
302,231,140940,6,0,L|289:365,1,120,10|0,0:2|0:2,0:0:0:0:
148,221,141240,1,8,0:2:0:0:
207,306,141440,1,10,0:2:0:0:
159,342,141540,1,8,0:2:0:0:
99,337,141640,1,10,0:2:0:0:
54,297,141740,1,8,0:2:0:0:
53,237,141840,6,0,P|71:162|61:80,1,150,6|8,3:2|0:2,0:0:0:0:
190,77,142140,1,0,0:2:0:0:
149,146,142240,2,0,P|144:197|156:248,1,75,2|0,3:2|3:2,0:0:0:0:
286,137,142440,2,0,P|289:99|284:62,1,75,8|0,0:2|0:2,0:0:0:0:
235,238,142640,6,0,P|288:228|396:246,1,150,2|8,3:2|0:2,0:0:0:0:
436,104,142940,1,0,0:2:0:0:
436,104,143040,2,0,P|394:155|378:96,1,150,4|8,3:2|0:2,0:0:0:0:
496,198,143340,1,0,0:2:0:0:
496,198,143440,6,0,P|479:251|481:293,1,75,2|0,3:2|0:2,0:0:0:0:
512,211,143640,2,0,P|495:264|497:306,1,75,10|0,0:2|0:2,0:0:0:0:
385,358,143840,2,0,P|371:323|367:286,1,75,2|0,3:2|3:2,0:0:0:0:
369,371,144040,2,0,P|355:336|351:299,1,75,10|0,0:2|0:2,0:0:0:0:
199,243,144240,6,0,L|294:234,1,75,2|0,3:2|0:2,0:0:0:0:
386,146,144440,2,0,L|290:137,1,75,10|0,0:2|0:2,0:0:0:0:
194,64,144640,2,0,L|187:143,1,75,2|0,3:2|3:2,0:0:0:0:
280,311,144840,2,0,L|273:236,1,75,10|0,0:2|0:2,0:0:0:0:
109,205,145040,1,2,3:2:0:0:
109,205,145240,6,0,P|32:267|118:332,1,225,12|0,0:2|3:2,0:0:0:0:
201,244,145640,2,0,P|203:204|198:162,1,75,10|0,0:2|0:2,0:0:0:0:
62,78,145840,2,0,P|117:85|228:70,1,150,2|8,3:2|0:2,0:0:0:0:
375,46,146140,1,0,0:2:0:0:
295,9,146240,2,0,P|291:60|302:109,1,75,0|0,3:2|3:2,0:0:0:0:
444,175,146440,6,0,L|369:180,1,75,10|0,0:2|0:2,0:0:0:0:
446,243,146640,2,0,L|378:211,1,75,2|0,3:2|0:2,0:0:0:0:
414,304,146840,2,0,L|371:242,1,75,10|0,0:2|0:2,0:0:0:0:
358,341,147040,5,2,3:2:0:0:
358,341,147140,1,2,3:2:0:0:
358,341,147240,2,0,L|351:266,1,75,10|2,0:2|0:2,0:0:0:0:
196,213,147440,1,2,3:2:0:0:
196,213,147540,2,0,L|291:221,2,75,2|8|2,0:2|0:2|0:2,0:0:0:0:
55,210,147840,5,8,3:2:0:0:
78,240,147940,1,10,3:2:0:0:
82,278,148040,1,8,3:2:0:0:
74,315,148140,1,8,3:2:0:0:
50,344,148240,6,0,P|94:301|193:347,1,150,6|8,3:2|0:2,0:0:0:0:
336,311,148540,1,0,0:2:0:0:
263,362,148640,2,0,P|253:320|252:286,1,75,0|0,3:2|3:2,0:0:0:0:
313,216,148840,2,0,P|323:174|324:140,1,75,10|0,0:2|0:2,0:0:0:0:
207,42,149040,6,0,L|57:55,1,150,2|8,3:2|0:2,0:0:0:0:
174,129,149340,2,0,L|323:142,1,150,2|0,0:2|0:0,0:0:0:0:
412,110,149640,2,0,P|428:64|428:36,1,75,8|0,0:2|0:2,0:0:0:0:
485,257,149840,6,0,P|471:223|469:186,1,75,2|0,3:2|0:2,0:0:0:0:
393,328,150040,2,0,P|430:333|464:350,1,75,10|0,0:2|0:2,0:0:0:0:
378,209,150240,2,0,P|353:240|321:262,1,75,2|0,3:2|3:2,0:0:0:0:
254,348,150440,1,8,0:2:0:0:
254,348,150540,6,0,B|143:402|147:310|7:369,1,225,2|8,0:2|0:2,0:0:0:0:
89,264,150940,1,0,0:2:0:0:
89,264,151040,2,0,P|103:197|100:165,1,75,2|0,3:2|3:2,0:0:0:0:
3,72,151240,2,0,P|5:109|16:145,1,75,10|0,0:2|0:2,0:0:0:0:
178,275,151440,6,0,P|200:201|206:123,1,150,6|8,3:2|0:2,0:0:0:0:
101,37,151740,1,0,0:2:0:0:
101,37,151840,2,0,L|180:41,1,75,0|0,3:2|3:2,0:0:0:0:
272,91,152040,2,0,L|346:86,1,75,8|0,0:2|0:2,0:0:0:0:
449,30,152240,6,0,B|459:64|459:64|449:206,1,150,4|10,3:2|0:2,0:0:0:0:
323,238,152540,1,2,0:2:0:0:
323,238,152640,2,0,P|363:248|412:248,1,75,2|0,3:2|3:2,0:0:0:0:
508,363,152840,1,10,0:2:0:0:
431,334,152940,6,0,P|339:338|251:361,1,150,6|0,0:2|0:2,0:0:0:0:
188,374,153240,2,0,P|201:323|197:277,1,75,8|0,0:2|0:2,0:0:0:0:
47,345,153440,2,0,P|97:330|135:304,1,75,0|0,3:2|3:2,0:0:0:0:
0,198,153640,2,0,P|37:234|79:254,1,75,8|0,0:2|0:2,0:0:0:0:
202,177,153840,5,0,3:2:0:0:
202,177,153940,1,0,0:2:0:0:
202,177,154040,2,0,L|106:168,1,75,8|0,0:2|0:2,0:0:0:0:
74,79,154240,2,0,L|0:85,2,75,10|8|10,3:2|3:2|3:3,0:0:0:0:
74,79,154640,6,0,B|112:61|112:61|224:71,1,150,6|8,3:2|0:2,0:0:0:0:
368,162,154940,1,0,0:2:0:0:
286,204,155040,2,0,L|279:124,1,75,0|0,3:2|3:2,0:0:0:0:
367,3,155240,2,0,L|360:77,1,75,10|0,0:2|0:2,0:0:0:0:
448,202,155440,6,0,B|485:186|485:186|372:172,1,150,2|8,3:2|0:2,0:0:0:0:
329,310,155740,1,0,0:2:0:0:
329,310,155840,2,0,P|376:350|376:287,1,150,4|8,3:2|0:2,0:0:0:0:
222,361,156140,1,0,0:2:0:0:
222,361,156240,6,0,P|232:302|229:264,1,75,2|0,3:2|0:2,0:0:0:0:
201,373,156440,2,0,P|211:314|208:276,1,75,10|0,0:2|0:2,0:0:0:0:
53,191,156640,2,0,P|54:228|62:264,1,75,2|0,3:2|3:2,0:0:0:0:
74,203,156840,2,0,P|75:240|83:276,1,75,10|0,0:2|0:2,0:0:0:0:
242,201,157040,6,0,L|167:194,1,75,2|0,3:2|0:2,0:0:0:0:
22,101,157240,2,0,L|96:94,1,75,10|0,0:2|0:2,0:0:0:0:
231,37,157440,2,0,L|224:111,1,75,2|0,3:2|3:2,0:0:0:0:
336,241,157640,2,0,L|329:166,1,75,10|0,0:2|0:2,0:0:0:0:
454,32,157840,1,2,3:2:0:0:
454,32,158040,6,0,P|413:91|323:9,1,225,12|0,0:2|3:2,0:0:0:0:
410,116,158440,2,0,P|423:179|418:216,1,75,10|0,0:2|0:2,0:0:0:0:
306,313,158640,2,0,P|309:233|332:156,1,150,2|8,3:2|0:2,0:0:0:0:
499,220,158940,1,0,0:2:0:0:
459,289,159040,2,0,P|404:300|371:291,1,75,0|0,3:2|3:2,0:0:0:0:
215,342,159240,6,0,P|225:306|225:268,1,75,10|0,0:2|0:2,0:0:0:0:
109,172,159440,2,0,P|98:136|98:98,1,75,2|0,3:2|0:2,0:0:0:0:
185,363,159641,2,0,P|195:327|195:289,1,75,10|0,0:2|0:2,0:0:0:0:
80,194,159841,2,0,P|69:158|69:120,1,75,2|0,3:2|3:2,0:0:0:0:
5,263,160040,6,0,B|116:309|118:229|242:273,1,225,10|0,0:2|0:0,0:0:0:0:
286,171,160440,2,0,P|242:175|196:164,1,75,8|0,0:2|0:2,0:0:0:0:
252,53,160640,1,10,2:2:0:0:
284,34,160740,1,8,2:2:0:0:
321,32,160840,1,10,2:2:0:0:
357,40,160940,1,8,2:2:0:0:
388,59,161040,6,0,P|398:105|398:142,1,75,6|0,3:2|0:2,0:0:0:0:
487,247,161240,2,0,P|488:209|497:173,1,75,10|0,0:2|0:2,0:0:0:0:
305,256,161440,2,0,P|359:304|408:243,1,150,2|8,3:2|0:2,0:0:0:0:
233,186,161740,2,0,P|219:241|246:345,1,150,2|0,0:2|0:2,0:0:0:0:
113,338,162040,5,8,0:2:0:0:
113,338,162140,1,0,0:2:0:0:
113,338,162240,2,0,P|132:274|134:239,1,75,2|0,3:2|3:2,0:0:0:0:
58,190,162440,2,0,P|39:126|37:91,1,75,10|0,0:2|0:2,0:0:0:0:
249,35,162640,6,0,L|99:48,1,150,6|8,3:2|0:2,0:0:0:0:
232,140,162940,1,10,0:2:0:0:
320,106,163040,2,0,L|306:255,1,150,6|8,3:2|0:2,0:0:0:0:
437,352,163340,2,0,L|423:202,1,150,6|0,0:2|0:2,0:0:0:0:
336,22,163640,5,8,0:2:0:0:
336,22,163740,1,8,0:2:0:0:
336,22,163840,2,0,L|415:15,1,75,2|0,3:2|3:2,0:0:0:0:
492,119,164040,2,0,L|412:112,1,75,10|0,0:2|0:2,0:0:0:0:
307,187,164240,6,0,P|322:126|322:93,1,75,2|0,3:2|0:2,0:0:0:0:
204,181,164440,2,0,P|208:218|219:253,1,75,10|0,0:2|0:2,0:0:0:0:
367,304,164640,2,0,P|309:297|275:305,1,75,2|0,3:2|3:2,0:0:0:0:
210,347,164840,2,0,P|152:354|118:346,1,75,10|0,0:2|0:2,0:0:0:0:
19,207,165040,6,0,L|12:286,1,75,2|0,3:2|0:2,0:0:0:0:
98,138,165240,2,0,L|33:92,1,75,10|0,0:2|0:2,0:0:0:0:
111,247,165440,2,0,L|182:213,1,75,2|0,3:2|3:2,0:0:0:0:
243,120,165640,1,10,0:2:0:0:
243,120,165740,1,2,0:2:0:0:
243,120,165840,6,0,P|272:166|309:52,1,262.5,4|0,2:2|0:2,0:0:0:0:
206,39,166640,2,0,P|172:65|168:71,3,37.5,8|8|8|8,3:2|3:2|3:2|3:2,0:0:0:0:
159,234,177040,5,0,3:2:0:0:
156,252,177440,1,0,3:2:0:0:
153,270,177840,1,0,3:2:0:0:
150,288,178240,1,0,3:2:0:0:
234,183,178640,5,0,3:2:0:0:
231,165,179040,1,0,3:2:0:0:
228,147,179440,5,8,3:2:0:0:
283,140,179540,1,10,3:2:0:0:
338,133,179640,1,10,3:2:0:0:
393,127,179740,1,10,2:2:0:0:
393,127,180140,6,0,P|344:227|256:186,1,225,6|8,3:2|0:2,0:0:0:0:
232,113,180540,1,0,0:2:0:0:
167,61,180640,2,0,P|124:48|64:51,1,75,2|0,3:2|0:2,0:0:0:0:
0,169,180840,2,0,P|37:166|72:154,1,75,10|0,0:2|0:2,0:0:0:0:
173,321,181040,6,0,P|162:247|170:172,1,150,2|8,3:2|0:2,0:0:0:0:
318,292,181340,1,0,0:2:0:0:
350,374,181440,2,0,L|254:382,1,75,2|0,3:2|3:2,0:0:0:0:
246,217,181640,6,0,B|326:201|326:201|374:217|374:217|470:201,1,225,10|0,0:2|0:2,0:0:0:0:
456,371,182040,1,10,0:2:0:0:
456,371,182140,1,2,0:2:0:0:
456,371,182240,2,0,L|464:275,1,75,2|0,3:2|0:2,0:0:0:0:
369,111,182440,2,0,L|375:185,1,75,10|0,0:2|0:2,0:0:0:0:
445,26,182640,6,0,P|408:18|370:19,2,75,2|2|10,3:2|0:2|0:2,0:0:0:0:
416,167,182940,2,0,P|395:135|368:110,1,75,2|0,2:2|3:2,0:0:0:0:
286,269,183140,2,0,P|293:232|292:194,1,75,2|8,3:2|0:2,0:0:0:0:
114,113,183340,2,0,P|140:190|182:259,1,150,2|2,3:2|0:2,0:0:0:0:
305,367,183640,2,0,L|209:375,1,75,10|0,0:2|0:2,0:0:0:0:
31,354,183840,5,2,3:2:0:0:
35,316,183940,1,2,0:2:0:0:
38,286,184040,1,10,0:2:0:0:
42,256,184140,1,2,0:2:0:0:
46,226,184240,2,0,L|39:146,1,75,2|0,3:2|0:2,0:0:0:0:
178,25,184440,6,0,B|163:183|163:183|178:275,1,225,14|0,0:2|3:2,0:0:0:0:
341,164,184840,1,10,0:2:0:0:
341,164,184940,1,2,3:2:0:0:
341,164,185040,2,0,L|261:170,1,75,2|0,0:2|0:2,0:0:0:0:
258,326,185240,6,0,L|490:345,1,225,10|0,0:2|0:2,0:0:0:0:
444,151,185640,2,0,L|437:225,1,75,8|0,0:2|0:2,0:0:0:0:
263,219,185840,5,2,3:2:0:0:
252,199,185940,1,2,0:2:0:0:
233,186,186040,1,10,0:2:0:0:
211,179,186140,1,2,0:2:0:0:
169,197,186240,1,2,3:2:0:0:
124,188,186340,1,0,3:2:0:0:
93,154,186440,1,10,0:2:0:0:
96,109,186540,1,0,3:2:0:0:
127,77,186640,6,0,P|200:88|229:82,1,75,2|0,0:2|0:2,0:0:0:0:
37,203,186840,1,8,0:2:0:0:
37,203,186940,1,0,0:2:0:0:
37,203,187040,2,0,P|92:154|106:128,2,75,2|0|8,3:2|0:2|0:2,0:0:0:0:
99,338,187340,2,0,P|97:264|86:236,2,75,2|0|0,0:2|3:2|0:2,0:0:0:0:
252,369,187640,2,0,P|194:322|166:313,1,75,10|0,0:2|0:2,0:0:0:0:
303,276,187840,6,0,P|370:234|426:178,1,150,6|8,3:2|0:2,0:0:0:0:
393,16,188140,1,0,3:2:0:0:
319,45,188240,2,0,L|325:124,1,75,2|0,0:2|0:2,0:0:0:0:
213,227,188440,2,0,L|219:152,1,75,10|0,0:2|0:2,0:0:0:0:
125,21,188640,2,0,L|131:95,1,75,2|0,3:2|0:2,0:0:0:0:
5,213,188840,2,0,P|72:201|101:208,1,75,10|0,0:2|0:2,0:0:0:0:
166,288,189040,6,0,P|270:306|315:295,1,150,2|10,3:2|0:2,0:0:0:0:
382,164,189340,1,0,0:2:0:0:
382,164,189440,2,0,P|375:227|376:253,1,75,2|2,3:2|3:2,0:0:0:0:
497,126,189640,2,0,P|495:88|490:51,1,75,10|2,0:2|3:2,0:0:0:0:
330,53,189840,6,0,P|288:116|213:92,1,150,6|10,0:2|0:2,0:0:0:0:
78,40,190140,1,0,0:2:0:0:
78,40,190240,2,0,L|69:135,1,75,2|2,3:2|0:2,0:0:0:0:
181,250,190440,2,0,L|172:154,1,75,10|2,0:2|0:2,0:0:0:0:
64,364,190640,6,0,B|175:354|175:354|226:326,1,150,6|10,3:2|0:2,0:0:0:0:
279,176,190940,1,0,0:2:0:0:
279,176,191040,2,0,P|274:235|279:265,1,75,2|2,3:2|3:2,0:0:0:0:
463,234,191240,2,0,P|414:200|385:189,1,75,10|2,0:2|3:2,0:0:0:0:
329,363,191440,6,0,P|382:337|406:318,2,75,6|0|10,0:2|0:2|0:2,0:0:0:0:
497,339,191740,2,0,P|494:247|515:174,1,150,2|2,0:2|0:2,0:0:0:0:
427,31,192040,2,0,L|418:126,1,75,10|0,0:2|0:2,0:0:0:0:
321,188,192240,2,0,L|314:113,1,75,2|0,3:2|0:2,0:0:0:0:
206,12,192440,2,0,L|191:183,1,150,10|0,0:2|3:2,0:0:0:0:
6,169,192740,2,0,P|68:178|112:177,1,75,0|8,3:2|0:2,0:0:0:0:
268,257,192940,2,0,P|188:262|110:276,1,150,4|0,3:2|0:2,0:0:0:0:
335,384,193240,6,0,P|336:319|330:278,1,75,10|0,0:2|0:2,0:0:0:0:
455,300,193440,2,0,P|454:235|460:194,3,75,2|2|10|2,3:2|0:2|0:2|0:2,0:0:0:0:
304,149,193840,2,0,P|369:150|410:144,3,75,2|2|10|2,3:2|0:2|0:2|0:2,0:0:0:0:
468,48,194240,2,0,P|430:45|393:48,3,75,2|2|10|2,3:2|3:2|0:2|3:2,0:0:0:0:
239,92,194640,6,0,L|247:-3,1,75,2|2,0:2|0:2,0:0:0:0:
138,120,194840,2,0,L|129:24,1,75,10|2,0:2|0:2,0:0:0:0:
33,84,195040,2,0,L|17:266,1,150,2|8,3:2|0:2,0:0:0:0:
235,299,195340,1,0,0:2:0:0:
226,216,195440,2,0,P|161:199|139:199,1,75,2|0,3:2|0:2,0:0:0:0:
11,356,195640,2,0,P|90:345|166:318,1,150,10|0,0:2|3:2,0:0:0:0:
318,186,195940,1,0,3:2:0:0:
318,186,196040,1,8,0:2:0:0:
318,186,196140,6,0,P|319:279|309:344,1,150,6|0,3:2|0:2,0:0:0:0:
418,351,196440,2,0,P|411:298|413:245,1,75,10|0,0:2|0:2,0:0:0:0:
411,183,196640,2,0,L|474:188,5,50,2|0|0|10|0|0,3:2|0:2|0:2|0:2|0:2|0:2,0:0:0:0:
488,97,197040,2,0,L|438:101,8,50,2|0|0|10|0|0|2|0|0,3:2|0:2|0:2|0:2|0:2|0:2|3:2|0:2|0:2,0:0:0:0:
351,102,197640,2,0,L|356:38,5,50,10|0|0|2|0|0,0:2|0:2|0:2|3:2|0:2|0:2,0:0:0:0:
266,83,198040,2,0,L|270:132,5,50,10|0|0|2|0|0,0:2|0:2|0:2|3:2|0:2|0:2,0:0:0:0:
238,212,198440,2,0,P|179:196|143:196,1,75,10|0,0:2|0:2,0:0:0:0:
16,122,198640,6,0,P|97:111|175:85,1,150,6|8,3:2|0:2,0:0:0:0:
59,200,198940,1,0,0:2:0:0:
59,200,199040,2,0,P|42:253|38:300,1,75,0|0,3:2|3:2,0:0:0:0:
183,357,199240,2,0,P|176:320|163:285,1,75,8|0,0:2|3:2,0:0:0:0:
309,199,199440,5,2,0:2:0:0:
309,199,199540,1,0,0:2:0:0:
309,199,199640,2,0,L|229:205,1,75,10|0,0:2|0:2,0:0:0:0:
409,314,199840,1,2,3:2:0:0:
409,314,199940,1,0,0:2:0:0:
409,314,200040,2,0,L|488:320,1,75,10|0,0:2|0:2,0:0:0:0:
464,82,200240,1,2,3:2:0:0:
464,82,200340,1,2,0:2:0:0:
464,82,200440,2,0,L|457:161,1,75,10|2,0:2|0:2,0:0:0:0:
327,120,200640,5,0,3:2:0:0:
325,108,200740,1,0,3:2:0:0:
323,96,200840,1,8,0:2:0:0:
322,84,200940,1,0,3:2:0:0:
321,72,201040,6,0,P|255:55|167:59,1,150,6|8,0:2|0:2,0:0:0:0:
32,175,201340,1,0,0:2:0:0:
32,175,201440,2,0,P|97:158|185:162,1,150,4|10,3:2|0:2,0:0:0:0:
372,258,201740,1,2,0:2:0:0:
372,258,201841,2,0,P|297:261|224:244,1,150,6|10,3:2|0:2,0:0:0:0:
48,344,202140,1,0,0:2:0:0:
48,344,202241,2,0,P|122:347|195:330,1,150,2|8,3:2|0:2,0:0:0:0:
286,66,202640,6,0,L|279:145,1,75,6|0,3:2|0:2,0:0:0:0:
306,81,202840,2,0,L|299:160,1,75,10|0,0:2|0:2,0:0:0:0:
429,237,203040,2,0,L|422:157,1,75,2|0,3:2|0:2,0:0:0:0:
449,222,203240,2,0,L|442:142,1,75,10|0,0:2|0:2,0:0:0:0:
386,357,203440,6,0,P|349:353|314:340,1,75,2|0,3:2|0:2,0:0:0:0:
368,375,203640,2,0,P|331:371|296:358,1,75,10|0,0:2|0:2,0:0:0:0:
151,260,203840,2,0,P|186:247|224:244,1,75,2|0,3:2|0:2,0:0:0:0:
133,241,204040,2,0,P|168:228|206:225,1,75,10|0,0:2|0:2,0:0:0:0:
46,344,204240,6,0,B|50:282|28:239|28:239|46:204|46:204|15:152|28:81,1,262.5,6|0,0:2|0:2,0:0:0:0:
98,41,205040,2,0,L|145:45,3,37.5,8|8|4|4,3:2|3:3|3:3|3:3,0:0:0:0:
195,122,205440,1,8,3:2:0:0:
304,44,205640,5,8,0:2:0:0:
304,44,205740,1,8,0:2:0:0:
304,44,205840,2,0,P|294:103|309:189,1,134.999995880127,8|0,3:2|0:2,0:0:0:0:
437,79,206140,1,0,3:2:0:0:
437,79,206240,2,0,P|447:145|436:211,1,134.999995880127,12|0,0:2|0:2,0:0:0:0:
351,301,206540,1,8,0:2:0:0:
351,301,206640,6,0,P|418:294|446:298,1,67.4999979400635,0|8,3:2|2:2,0:0:0:0:
286,374,206840,1,0,0:2:0:0:
286,374,206940,1,0,3:2:0:0:
286,374,207040,2,0,P|252:373|219:366,1,67.4999979400635,8|0,0:2|3:2,0:0:0:0:
120,265,207240,6,0,P|47:250|59:349,1,202.499993820191,4|8,3:2|0:2,0:0:0:0:
191,201,207640,1,0,3:2:0:0:
191,201,207740,1,0,0:2:0:0:
191,201,207840,2,0,L|184:121,1,67.4999979400635,8|8,0:2|0:2,0:0:0:0:
89,43,208040,1,8,0:2:0:0:
89,43,208140,6,0,L|76:186,1,134.999995880127,4|0,0:2|3:2,0:0:0:0:
257,31,208440,2,0,L|189:36,1,67.4999979400635,10|0,0:2|3:2,0:0:0:0:
343,64,208639,2,0,L|299:115,1,67.4999979400635,10|0,0:2|3:2,0:0:0:0:
427,39,208840,2,0,L|432:106,1,67.4999979400635,10|8,0:2|2:2,0:0:0:0:
485,234,209040,6,0,P|366:249|325:243,1,134.999995880127,0|0,3:0|3:2,0:0:0:0:
181,191,209340,1,0,3:2:0:0:
181,191,209440,2,0,P|189:247|186:270,1,67.4999979400635,8|0,0:2|3:2,0:0:0:0:
265,325,209640,2,0,P|264:291|272:258,1,67.4999979400635,8|0,0:2|3:2,0:0:0:0:
331,153,209840,6,0,P|275:153|255:155,1,67.4999979400635,0|8,0:2|0:2,0:0:0:0:
221,57,210040,2,0,P|181:96|168:112,1,67.4999979400635,0|0,3:2|3:2,0:0:0:0:
82,61,210240,1,8,0:2:0:0:
82,61,210340,1,0,3:2:0:0:
82,61,210440,6,0,P|82:164|85:201,1,134.999995880127,4|0,2:2|0:2,0:0:0:0:
101,357,210740,1,0,3:2:0:0:
101,357,210840,2,0,L|107:277,1,67.4999979400635,0|0,3:2|0:2,0:0:0:0:
193,227,211040,2,0,L|198:294,3,67.4999979400635,8|8|8|8,0:2|0:2|0:2|0:2,0:0:0:0:
294,337,211440,2,0,L|299:269,3,67.4999979400635,0|4|0|0,3:2|3:3|0:0|3:2,0:0:0:0:
419,194,211840,6,0,P|346:198|320:194,1,67.4999979400635,8|0,3:2|3:2,0:0:0:0:
230,121,212040,2,0,P|303:125|329:121,1,67.4999979400635,8|8,3:2|3:2,0:0:0:0:
410,28,212240,2,0,P|404:90|408:114,1,67.4999979400635,4|0,3:2|0:2,0:0:0:0:
291,58,212440,2,0,P|297:120|293:144,1,67.4999979400635,8|0,0:2|0:2,0:0:0:0:
142,44,212640,6,0,P|132:143|138:181,1,134.999995880127,2|8,3:2|0:2,0:0:0:0:
41,290,212940,1,0,0:2:0:0:
41,290,213040,2,0,P|47:222|36:156,1,134.999995880127,2|8,3:2|0:2,0:0:0:0:
132,265,213440,6,0,L|211:258,1,67.4999979400635,2|0,3:2|0:2,0:0:0:0:
317,355,213640,2,0,L|237:348,1,67.4999979400635,8|0,0:2|0:2,0:0:0:0:
278,131,213840,6,0,L|289:265,1,134.999995880127,6|8,3:2|0:2,0:0:0:0:
375,163,214140,1,0,0:2:0:0:
375,163,214240,2,0,L|386:28,1,134.999995880127,2|8,3:2|0:2,0:0:0:0:
476,132,214540,1,0,0:2:0:0:
476,132,214640,2,0,L|487:266,1,134.999995880127,2|8,3:2|0:2,0:0:0:0:
292,39,215040,5,2,3:2:0:0:
292,39,215140,1,0,2:2:0:0:
292,39,215240,1,8,0:2:0:0:
292,39,215340,1,0,3:2:0:0:
292,39,215440,6,0,P|230:45|150:30,1,120,4|0,0:2|0:2,0:0:0:0:
135,236,215740,1,0,3:2:0:0:
135,236,215840,2,0,P|158:195|170:151,1,60,8|0,0:2|0:2,0:0:0:0:
71,148,216040,2,0,P|79:102|75:56,1,60,8|0,0:2|0:2,0:0:0:0:
1,212,216240,2,0,P|2:282|17:350,1,120,0|0,3:2|0:0,0:0:0:0:
231,334,216640,1,4,0:2:0:0:
88,303,216840,1,4,0:2:0:0:
378,309,217040,5,8,0:2:0:0:
378,309,217140,1,8,0:2:0:0:
288,143,217340,1,8,0:2:0:0:
406,190,217540,1,8,0:2:0:0:
175,240,217740,6,0,L|162:97,1,120,10|2,0:2|0:2,0:0:0:0:
260,243,218040,1,8,0:2:0:0:
363,55,218240,5,0,0:2:0:0:
343,49,218440,1,0,0:2:0:0:
323,43,218640,1,0,0:2:0:0:
219,35,219040,5,2,3:2:0:0:
219,35,219140,2,0,P|136:53|54:44,1,150,2|2,3:2|3:2,0:0:0:0:
273,124,219440,2,0,P|356:142|438:133,1,150,2|8,0:2|0:2,0:0:0:0:
454,276,219740,1,0,3:2:0:0:
389,338,219840,6,0,B|361:365|361:365|374:255,1,150,4|8,0:2|0:2,0:0:0:0:
182,266,220140,1,0,3:2:0:0:
182,266,220240,2,0,L|261:272,2,75,2|0|10,3:2|0:2|0:2,0:0:0:0:
92,328,220540,1,2,3:2:0:0:
92,328,220640,2,0,L|12:334,1,75,2|0,3:2|3:2,0:0:0:0:
28,133,220840,1,8,0:2:0:0:
28,133,220940,6,0,P|18:200|21:226,1,75,2|0,3:2|3:2,0:0:0:0:
140,81,221140,2,0,P|139:43|130:7,1,75,2|8,0:2|2:2,0:0:0:0:
114,171,221340,1,2,3:2:0:0:
114,171,221440,2,0,P|176:176|218:170,1,75,2|0,3:2|0:2,0:0:0:0:
271,94,221640,2,0,P|333:89|375:95,1,75,10|0,0:2|0:2,0:0:0:0:
449,219,221840,1,2,3:2:0:0:
449,219,222040,6,0,P|352:183|344:285,1,225,12|0,0:2|3:2,0:0:0:0:
474,349,222440,2,0,P|420:336|379:333,1,75,10|0,2:2|0:2,0:0:0:0:
250,293,222640,2,0,P|163:313|98:318,1,150,2|8,3:2|0:2,0:0:0:0:
65,178,222940,1,0,0:2:0:0:
145,135,223040,2,0,P|152:195|151:223,1,75,0|0,3:2|3:2,0:0:0:0:
278,125,223240,6,0,L|283:50,1,75,10|0,0:2|0:2,0:0:0:0:
346,127,223440,2,0,L|314:59,1,75,2|0,3:2|0:2,0:0:0:0:
408,95,223640,2,0,L|346:52,1,75,10|0,0:2|0:2,0:0:0:0:
444,39,223840,5,2,3:2:0:0:
444,39,223940,1,2,3:2:0:0:
444,39,224040,2,0,L|369:32,1,75,10|2,0:2|0:2,0:0:0:0:
417,181,224240,1,2,3:2:0:0:
417,181,224340,2,0,L|423:260,2,75,2|8|2,0:2|0:2|0:2,0:0:0:0:
317,188,224640,5,8,3:2:0:0:
312,225,224740,1,10,3:2:0:0:
308,262,224840,1,8,3:2:0:0:
304,299,224940,1,8,3:2:0:0:
299,336,225040,6,0,P|231:265|164:287,1,150,6|8,3:2|0:2,0:0:0:0:
0,311,225340,1,0,0:2:0:0:
67,369,225440,2,0,P|83:300|79:282,1,75,0|0,3:2|3:2,0:0:0:0:
187,270,225640,2,0,P|149:209|133:199,1,75,10|0,0:2|0:2,0:0:0:0:
194,114,225840,6,0,P|71:85|39:92,1,150,2|8,3:2|0:2,0:0:0:0:
256,47,226140,2,0,P|378:18|410:25,1,150,2|0,0:2|0:0,0:0:0:0:
328,196,226440,2,0,P|309:116|308:93,1,75,8|0,0:2|0:2,0:0:0:0:
448,202,226640,6,0,P|441:238|429:274,1,75,2|0,3:2|0:2,0:0:0:0:
256,216,226840,2,0,P|291:203|327:195,1,75,10|0,0:2|0:2,0:0:0:0:
363,356,227040,2,0,P|334:331|309:303,1,75,2|0,3:2|3:2,0:0:0:0:
160,271,227240,1,8,0:2:0:0:
160,271,227340,6,0,B|106:160|198:164|139:24,1,225,2|8,0:2|0:2,0:0:0:0:
7,85,227740,1,0,0:2:0:0:
7,85,227840,2,0,P|60:108|87:111,1,75,2|0,3:2|3:2,0:0:0:0:
265,140,228040,2,0,P|228:148|195:165,1,75,10|0,0:2|0:2,0:0:0:0:
21,217,228240,6,0,P|92:254|171:271,1,150,6|8,3:2|0:2,0:0:0:0:
278,348,228540,1,0,0:2:0:0:
278,348,228640,2,0,L|269:252,1,75,0|0,3:2|3:2,0:0:0:0:
362,145,228840,2,0,L|355:219,1,75,8|0,0:2|0:2,0:0:0:0:
489,353,229040,6,0,B|470:319|470:319|460:208,1,150,4|10,3:2|0:2,0:0:0:0:
416,16,229340,1,10,0:2:0:0:
340,59,229440,2,0,P|248:86|174:76,1,150,2|10,3:2|0:2,0:0:0:0:
0,147,229740,6,0,P|92:174|166:164,1,150,6|0,0:2|0:2,0:0:0:0:
305,270,230040,2,0,P|285:218|276:171,1,75,8|0,0:2|0:2,0:0:0:0:
169,332,230240,2,0,P|191:281|218:241,1,75,0|0,3:2|3:2,0:0:0:0:
24,282,230440,2,0,P|75:262|123:253,1,75,8|0,0:2|0:2,0:0:0:0:
270,361,230640,5,0,3:2:0:0:
270,361,230740,1,0,0:2:0:0:
270,361,230840,2,0,L|365:352,1,75,8|0,0:2|0:2,0:0:0:0:
470,283,231040,2,0,L|395:276,2,75,10|8|10,3:2|3:2|3:3,0:0:0:0:
470,283,231440,6,0,P|455:215|457:102,1,150,6|8,3:2|0:2,0:0:0:0:
283,63,231740,1,0,0:2:0:0:
365,35,231840,2,0,P|364:87|353:138,1,75,2|0,3:2|3:2,0:0:0:0:
127,114,232040,2,0,P|172:88|222:72,1,75,8|0,0:2|0:2,0:0:0:0:
340,274,232240,6,0,P|265:229|201:171,1,150,2|8,3:2|0:2,0:0:0:0:
45,243,232540,1,0,0:2:0:0:
92,314,232640,2,0,B|106:345|106:345|128:221,1,150,4|8,3:2|0:2,0:0:0:0:
38,74,232940,1,0,0:2:0:0:
38,74,233040,6,0,L|44:153,1,75,2|0,3:2|0:2,0:0:0:0:
66,57,233240,2,0,L|72:136,1,75,10|0,0:2|0:2,0:0:0:0:
217,188,233440,2,0,L|223:108,1,75,2|0,3:2|3:2,0:0:0:0:
245,205,233640,2,0,L|251:125,1,75,10|0,0:2|0:2,0:0:0:0:
412,164,233840,6,0,P|344:175|313:174,1,75,2|0,3:2|0:2,0:0:0:0:
239,35,234040,2,0,P|276:37|312:46,1,75,10|0,0:2|0:2,0:0:0:0:
422,238,234240,2,0,P|412:167|413:136,1,75,2|0,3:2|3:2,0:0:0:0:
510,38,234440,2,0,P|507:75|499:112,1,75,10|0,0:2|0:2,0:0:0:0:
512,286,234640,1,2,3:2:0:0:
512,286,234840,6,0,P|467:345|341:272,1,225,12|0,0:2|3:2,0:0:0:0:
268,157,235240,2,0,P|257:212|260:246,1,75,10|0,0:2|0:2,0:0:0:0:
169,357,235440,2,0,P|150:262|155:204,1,150,2|8,3:2|0:2,0:0:0:0:
97,37,235740,1,0,0:2:0:0:
53,120,235840,2,0,P|119:124|158:121,1,75,0|0,3:2|3:2,0:0:0:0:
278,83,236040,6,0,P|268:119|268:157,1,75,10|0,0:2|0:2,0:0:0:0:
384,253,236240,2,0,P|395:289|395:327,1,75,2|0,3:2|0:2,0:0:0:0:
308,62,236440,2,0,P|298:98|298:136,1,75,10|0,0:2|0:2,0:0:0:0:
413,231,236640,2,0,P|424:267|424:305,1,75,2|0,3:2|3:2,0:0:0:0:
164,333,236840,6,0,P|223:249|306:308,1,225,10|0,0:2|0:0,0:0:0:0:
72,351,237240,2,0,P|70:286|87:245,1,75,8|8,0:2|3:2,0:0:0:0:
187,156,237440,1,10,0:2:0:0:
153,173,237540,1,8,0:2:0:0:
115,169,237640,1,10,0:2:0:0:
85,146,237740,1,8,0:2:0:0:
71,111,237840,6,0,P|108:85|160:74,1,75,6|0,3:2|0:2,0:0:0:0:
232,17,238040,2,0,P|273:36|308:75,1,75,10|0,0:2|0:2,0:0:0:0:
416,61,238240,2,0,P|422:130|396:208,1,150,2|8,3:2|0:2,0:0:0:0:
300,330,238540,2,0,P|276:259|282:184,1,150,2|0,0:2|0:2,0:0:0:0:
463,312,238840,1,8,0:2:0:0:
463,312,238940,1,0,0:2:0:0:
463,312,239040,6,0,P|411:331|391:335,1,75,2|0,3:2|3:2,0:0:0:0:
243,259,239240,2,0,P|191:240|171:236,1,75,10|0,0:2|0:2,0:0:0:0:
63,357,239440,2,0,L|47:181,1,150,4|8,3:2|0:2,0:0:0:0:
138,81,239740,1,0,0:2:0:0:
199,136,239840,2,0,L|49:122,1,150,6|8,3:2|0:2,0:0:0:0:
219,42,240140,2,0,L|368:28,1,150,6|0,0:2|0:2,0:0:0:0:
363,242,240440,1,8,0:2:0:0:
363,242,240540,1,0,0:2:0:0:
363,242,240640,6,0,P|355:187|359:145,1,75,2|0,3:2|3:2,0:0:0:0:
475,107,240840,2,0,P|474:144|467:181,1,75,10|0,0:2|0:2,0:0:0:0:
390,343,241040,2,0,L|294:351,1,75,2|0,3:2|0:2,0:0:0:0:
198,240,241240,2,0,L|293:248,1,75,10|0,0:2|0:2,0:0:0:0:
172,340,241440,2,0,L|76:348,1,75,2|0,3:2|3:2,0:0:0:0:
0,228,241640,2,0,L|95:236,1,75,10|0,0:2|0:2,0:0:0:0:
272,246,241840,6,0,P|251:194|234:173,1,75,2|0,3:2|0:2,0:0:0:0:
275,99,242040,2,0,P|219:91|192:95,1,75,10|0,0:2|0:2,0:0:0:0:
140,24,242240,2,0,P|105:68|95:93,1,75,2|0,3:2|3:2,0:0:0:0:
335,174,242440,1,10,0:2:0:0:
335,174,242540,1,0,0:2:0:0:
335,174,242640,6,0,P|388:120|413:245,1,262.5,4|0,0:2|0:2,0:0:0:0:
323,345,243440,2,0,L|329:265,3,60,8|8|8|8,3:2|3:2|3:2|3:2,0:0:0:0:
196,174,243840,2,0,L|202:248,3,67.4999979400635,10|8|10|8,2:2|2:2|2:2|2:2,0:0:0:0:
70,321,244240,6,0,P|90:207|76:145,1,150,2|8,3:2|0:2,0:0:0:0:
75,3,244540,1,0,0:2:0:0:
19,71,244640,2,0,P|107:84|178:66,1,150,6|8,3:2|0:2,0:0:0:0:
342,173,244940,2,0,P|254:186|183:168,1,150,2|0,0:2|0:2,0:0:0:0:
307,74,245240,1,8,0:2:0:0:
307,74,245340,1,0,0:2:0:0:
307,74,245440,6,0,L|300:-5,1,75,2|0,3:2|3:2,0:0:0:0:
445,105,245640,2,0,L|451:179,1,75,10|0,0:2|0:2,0:0:0:0:
202,331,245840,6,0,P|226:278|296:239,1,134.999995880127,6|0,3:2|3:2,0:0:0:0:
380,237,246240,2,0,P|305:244|216:191,1,180,6|0,3:2|3:2,0:0:0:0:
157,95,246640,2,0,P|211:170|209:299,1,225,6|0,3:2|3:2,0:0:0:0:
0,308,247040,6,0,P|49:285|93:277,1,75,2|0,3:2|3:2,0:0:0:0:
72,185,247240,2,0,P|122:203|159:228,1,75,10|0,0:2|0:2,0:0:0:0:
215,373,247440,2,0,L|206:277,1,75,2|0,3:2|0:2,0:0:0:0:
317,213,247640,2,0,L|310:287,1,75,10|0,0:2|0:2,0:0:0:0:
432,338,247840,2,0,L|425:263,1,75,2|0,3:2|3:2,0:0:0:0:
385,148,248040,2,0,P|443:157|482:155,1,75,10|0,0:2|0:2,0:0:0:0:
386,36,248240,6,0,P|305:39|226:55,1,150,2|8,3:2|0:2,0:0:0:0:
163,201,248540,1,0,0:2:0:0:
163,201,248640,2,0,P|160:161|147:105,1,75,2|0,3:2|3:2,0:0:0:0:
50,51,248840,2,0,P|43:88|41:126,1,75,10|0,0:2|0:2,0:0:0:0:
117,313,249040,6,0,P|235:332|267:217,1,262.5,4|0,0:2|0:2,0:0:0:0:
237,51,249840,2,0,P|249:65|263:76,3,37.5,8|8|8|8,3:2|3:2|3:2|3:2,0:0:0:0:
266,78,250540,6,0,P|333:64|421:79,1,150,4|0,2:2|0:2,0:0:0:0:
356,222,250840,2,0,P|348:184|346:138,1,75,10|0,0:2|0:2,0:0:0:0:
470,262,251040,2,0,P|467:299|459:336,1,75,2|0,3:2|0:2,0:0:0:0:
304,308,251240,2,0,L|224:314,1,75,10|0,0:2|0:2,0:0:0:0:
159,171,251440,5,2,3:2:0:0:
159,171,251540,2,0,L|238:177,1,75,2|8,0:2|0:2,0:0:0:0:
91,334,251740,2,0,P|97:271|111:231,1,75,2|0,2:2|3:2,0:0:0:0:
11,195,251940,2,0,P|59:154|97:136,1,75,2|8,3:2|0:2,0:0:0:0:
58,37,252140,6,0,P|148:45|206:65,1,150,6|0,0:2|0:2,0:0:0:0:
320,213,252440,2,8,L|326:133,1,75,10|0,0:2|0:2,0:0:0:0:
434,23,252640,5,2,3:2:0:0:
456,61,252740,1,2,0:2:0:0:
437,93,252840,1,10,2:2:0:0:
451,119,252940,1,2,0:2:0:0:
443,140,253040,6,0,L|456:299,1,150,2|10,3:2|0:2,0:0:0:0:
303,340,253340,2,0,P|357:329|408:333,1,75,2|0,0:2|3:2,0:0:0:0:
202,314,253540,2,0,P|232:268|271:234,1,75,2|8,3:2|0:2,0:0:0:0:
105,369,253740,6,0,P|88:287|94:211,1,150,6|0,0:2|0:2,0:0:0:0:
233,159,254040,2,0,P|175:162|141:152,1,75,8|0,0:2|0:2,0:0:0:0:
66,34,254240,2,0,L|59:113,1,75,2|0,3:2|0:2,0:0:0:0:
185,0,254440,2,0,L|191:74,1,75,10|0,0:2|0:2,0:0:0:0:
345,169,254640,5,2,3:2:0:0:
345,169,254740,2,0,L|351:94,1,75,2|8,0:2|0:2,0:0:0:0:
505,21,254940,2,0,P|443:31|409:29,1,75,2|0,0:2|3:2,0:0:0:0:
277,84,255140,2,0,P|314:85|350:93,1,75,2|8,3:2|0:2,0:0:0:0:
448,303,255340,6,0,P|434:217|448:147,1,150,6|0,0:2|0:2,0:0:0:0:
349,259,255640,2,0,L|269:252,1,75,10|0,0:2|0:2,0:0:0:0:
170,365,255840,2,0,L|249:358,1,75,2|0,3:2|0:2,0:0:0:0:
122,262,256040,2,0,L|42:255,1,75,10|0,0:2|0:2,0:0:0:0:
193,200,256240,5,2,3:2:0:0:
205,164,256340,1,2,0:2:0:0:
186,131,256440,1,10,0:2:0:0:
200,96,256540,1,2,0:2:0:0:
187,60,256640,2,0,P|257:48|277:47,2,75,2|2|8,3:2|3:2|0:2,0:0:0:0:
57,141,256940,6,0,P|179:161|214:163,1,150,6|0,0:2|0:2,0:0:0:0:
352,125,257240,2,0,L|345:45,1,75,10|0,0:2|0:2,0:0:0:0:
460,177,257440,2,0,L|453:251,1,75,2|0,3:2|0:2,0:0:0:0:
273,240,257640,2,0,P|339:233|369:237,1,75,10|0,0:2|0:2,0:0:0:0:
470,340,257840,6,0,P|432:340|395:333,1,75,2|0,3:2|0:2,0:0:0:0:
266,314,258040,2,0,L|274:218,1,75,10|0,0:2|0:2,0:0:0:0:
165,351,258240,2,0,L|158:276,1,75,2|0,3:2|3:2,0:0:0:0:
49,305,258440,2,0,L|55:230,1,75,10|0,0:2|0:2,0:0:0:0:
57,46,258640,6,0,B|110:40|110:40|206:48,1,150,2|8,3:2|0:2,0:0:0:0:
122,132,258940,2,0,B|175:137|175:137|271:129,1,150,2|0,0:2|0:2,0:0:0:0:
486,18,259240,2,0,B|480:71|480:71|488:167,1,150,10|0,0:2|3:2,0:0:0:0:
388,74,259540,2,0,B|393:127|393:127|385:223,1,150,2|0,0:2|0:2,0:0:0:0:
464,324,259840,5,2,3:2:0:0:
381,354,259940,2,0,P|317:350|282:357,1,75,2|8,3:2|0:2,0:0:0:0:
140,260,260140,2,0,P|220:265|300:254,1,150,6|0,0:2|0:2,0:0:0:0:
302,98,260440,2,0,P|290:156|280:177,1,75,8|0,0:2|0:2,0:0:0:0:
86,309,260640,6,0,P|128:265|161:253,1,75,2|2,3:2|0:2,0:0:0:0:
65,247,260840,2,0,P|123:229|157:236,1,75,10|2,0:2|0:2,0:0:0:0:
78,183,261040,2,0,P|137:197|163:219,1,75,2|2,3:2|0:2,0:0:0:0:
121,134,261240,2,0,P|164:176|177:209,1,75,10|2,0:2|0:2,0:0:0:0:
183,114,261440,2,0,P|200:172|193:206,1,75,10|10,2:2|2:2,0:0:0:0:
41,107,261640,2,0,P|42:69|57:35,1,75,0|0,3:2|3:2,0:0:0:0:
280,120,261840,5,10,0:2:0:0:
280,120,261940,1,10,0:2:0:0:
209,269,262140,5,10,0:2:0:0:
361,147,262340,5,10,0:2:0:0:
145,212,262540,5,10,0:2:0:0:
399,226,262740,5,10,0:2:0:0:
131,126,262940,5,10,0:2:0:0:
364,309,263140,5,10,0:2:0:0:
167,44,263340,6,0,P|242:33|321:46,1,150,4|0,0:2|0:2,0:0:0:0:
451,128,263640,2,0,P|381:137|356:137,1,75,10|0,0:2|0:2,0:0:0:0:
231,207,263840,2,0,P|301:216|326:216,1,75,2|0,3:2|0:2,0:0:0:0:
454,302,264040,2,0,L|460:227,1,75,10|0,0:2|0:2,0:0:0:0:
315,308,264240,5,2,3:2:0:0:
315,308,264340,2,0,L|321:382,1,75,2|8,0:2|0:2,0:0:0:0:
224,298,264540,2,0,P|172:297|144:302,1,75,2|0,0:2|3:2,0:0:0:0:
131,167,264740,2,0,P|104:211|94:238,1,75,2|8,3:2|0:2,0:0:0:0:
9,338,264940,6,0,P|18:256|7:177,1,150,6|0,0:2|0:2,0:0:0:0:
71,27,265240,2,0,P|67:91|75:127,1,75,10|0,0:2|0:2,0:0:0:0:
175,72,265440,5,2,3:2:0:0:
213,50,265540,1,2,0:2:0:0:
245,69,265640,1,10,0:2:0:0:
271,55,265740,1,2,0:2:0:0:
289,67,265840,6,0,B|384:58|384:58|447:66,1,150,2|10,3:2|0:2,0:0:0:0:
333,230,266140,2,0,L|341:134,1,75,2|0,0:2|3:2,0:0:0:0:
457,248,266340,2,0,L|463:322,1,75,2|8,3:2|0:2,0:0:0:0:
332,331,266540,6,0,P|240:305|185:335,1,150,6|0,0:2|0:2,0:0:0:0:
92,360,266840,2,0,P|97:306|93:253,1,75,8|0,0:2|0:2,0:0:0:0:
86,112,267040,2,0,P|32:110|-3:122,1,75,2|0,3:2|0:2,0:0:0:0:
157,196,267240,2,0,P|211:194|246:206,1,75,10|0,0:2|0:2,0:0:0:0:
265,43,267440,5,2,3:2:0:0:
265,43,267540,2,0,P|250:98|251:140,1,75,2|8,0:2|0:2,0:0:0:0:
407,62,267740,2,0,P|357:90|328:120,1,75,2|0,0:2|3:2,0:0:0:0:
502,165,267940,2,0,P|446:149|405:151,1,75,2|8,3:2|0:2,0:0:0:0:
332,334,268140,6,0,L|345:174,1,150,6|0,0:2|0:2,0:0:0:0:
241,340,268440,2,0,L|145:348,1,75,10|0,0:2|0:2,0:0:0:0:
35,242,268640,2,0,L|109:248,1,75,2|0,3:2|0:2,0:0:0:0:
242,249,268840,2,8,L|233:153,1,75,10|0,0:2|0:2,0:0:0:0:
228,34,269040,5,2,3:2:0:0:
192,46,269140,1,2,0:2:0:0:
159,27,269240,1,10,0:2:0:0:
124,41,269340,1,2,0:2:0:0:
88,28,269440,2,0,P|76:98|75:118,2,75,2|2|8,3:2|3:2|0:2,0:0:0:0:
0,149,269740,6,0,P|81:157|155:146,1,150,6|0,0:2|0:2,0:0:0:0:
255,105,270040,2,0,P|244:181|249:210,1,75,10|0,0:2|0:2,0:0:0:0:
298,281,270240,2,0,P|309:357|304:386,1,75,2|0,3:2|0:2,0:0:0:0:
318,295,270440,2,0,P|329:371|324:400,1,75,10|0,0:2|0:2,0:0:0:0:
127,285,270640,6,0,P|164:295|201:297,1,75,2|0,3:2|0:2,0:0:0:0:
113,265,270841,2,0,P|150:275|187:277,1,75,10|0,0:2|0:2,0:0:0:0:
353,197,271040,1,2,3:2:0:0:
353,197,271140,2,0,L|344:101,1,75,2|8,3:2|0:2,0:0:0:0:
470,34,271340,6,0,L|456:192,1,150,6|0,0:2|0:2,0:0:0:0:
408,271,271640,1,10,0:2:0:0:
266,158,271840,1,2,3:2:0:0:
266,158,271940,2,0,P|202:144|167:144,1,75,2|8,3:2|0:2,0:0:0:0:
57,182,272140,6,8,L|73:22,1,150,2|2,0:2|0:2,0:0:0:0:
155,223,272540,2,8,L|171:382,1,150,2|2,2:2|3:2,0:0:0:0:
407,270,272940,6,0,P|333:257|261:273,1,150,6|0,0:2|0:2,0:0:0:0:
384,177,273240,2,0,P|391:120|388:88,1,75,10|0,0:2|0:2,0:0:0:0:
250,35,273440,1,2,3:2:0:0:
250,35,273540,1,2,0:2:0:0:
250,35,273640,2,0,P|249:72|255:109,1,75,10|0,0:2|0:2,0:0:0:0:
155,204,273840,6,0,P|166:129|165:55,1,150,2|8,3:2|0:2,0:0:0:0:
0,162,274140,1,2,3:2:0:0:
0,162,274240,2,0,L|95:153,1,75,2|0,3:2|0:2,0:0:0:0:
178,294,274440,1,10,0:2:0:0:
178,294,274540,2,0,L|82:285,1,75,2|0,0:2|3:2,0:0:0:0:
255,199,274740,6,0,B|302:194|302:194|349:174|349:174|428:167,1,150,10|0,0:2|0:2,0:0:0:0:
416,325,275040,2,0,P|412:261|419:230,1,75,2|8,0:2|3:2,0:0:0:0:
281,370,275240,2,0,P|285:306|278:275,1,75,2|0,0:2|3:2,0:0:0:0:
227,67,275440,5,10,2:2:0:0:
277,82,275540,1,8,3:3:0:0:
327,67,275640,1,4,3:3:0:0:
377,80,275740,1,4,3:3:0:0:
424,58,275840,1,10,2:2:0:0:
141,156,276140,5,4,0:2:0:0:
256,192,276240,12,2,277840,0:2:0:0:
