osu file format v14

[General]
AudioFilename: hot jazz.mp3
AudioLeadIn: 0
PreviewTime: 13715
Countdown: 0
SampleSet: Soft
StackLeniency: 0.7
Mode: 0
LetterboxInBreaks: 0
WidescreenStoryboard: 1

[Editor]
Bookmarks: 13740,39340,52140,64940,77840,103340,116140,128940,141840,167440,180140,205840,218640,250540,276140
DistanceSpacing: 1.1
BeatDivisor: 4
GridSize: 16
TimelineZoom: 2.2

[Metadata]
Title:Meikaruza
TitleUnicode:メイカルーザ
Artist:Nanahoshi Kangengakudan
ArtistUnicode:ナナホシ管弦楽団
Creator:Snowin
Version:Dance
Source:
Tags:Iron Quality MONSTER BEERGARDEN jazz fusion fujun isei kouyuu p fujuniseikouyuup 不純異性交遊p illicit sexual relations monaka モナカ pkk alternate double-bpm
BeatmapID:2133726
BeatmapSetID:1019721

[Difficulty]
HPDrainRate:6
CircleSize:4
OverallDifficulty:8
ApproachRate:9.6
SliderMultiplier:1.7
SliderTickRate:1

[Events]
//Background and Video events
0,0,"BG.jpg",0,0
//Break Periods
2,167140,176531
//Storyboard Layer 0 (Background)
//Storyboard Layer 1 (Fail)
//Storyboard Layer 2 (Pass)
//Storyboard Layer 3 (Foreground)
//Storyboard Layer 4 (Overlay)
//Storyboard Sound Samples

[TimingPoints]
1040,200,4,2,1,25,1,0
1040,-133.333333333333,4,2,1,25,0,0
2640,-133.333333333333,4,2,1,45,0,0
3440,-133.333333333333,4,2,1,25,0,0
4040,-133.333333333333,4,2,1,45,0,0
4240,-133.333333333333,4,2,1,25,0,0
5840,-133.333333333333,4,2,1,45,0,0
7440,-133.333333333333,4,2,1,25,0,0
9040,-133.333333333333,4,2,1,45,0,0
9840,-133.333333333333,4,2,1,25,0,0
12440,-133.333333333333,4,2,1,45,0,0
13040,-133.333333333333,4,2,1,60,0,0
13740,-100,4,2,1,65,0,1
26340,-100,4,2,1,65,0,0
26540,-100,4,2,1,65,0,1
39040,-133.333333333333,4,2,1,65,0,0
49840,-111.111111111111,4,2,1,65,0,0
52140,-125,4,2,1,65,0,0
63440,-111.111111111111,4,2,1,65,0,0
74640,-125,4,2,1,65,0,0
77440,-133.333333333333,4,2,1,35,0,0
77840,-100,4,2,1,65,0,1
83840,-100,4,2,1,45,0,1
84240,-100,4,2,1,65,0,1
90240,-100,4,2,1,45,0,0
90640,-100,4,2,1,65,0,1
96540,-100,4,2,1,45,0,1
97040,-100,4,2,1,65,0,1
101840,-200,4,2,1,65,0,0
102540,-200,4,2,1,35,0,0
103340,-133.333333333333,4,2,1,65,0,0
113840,-111.111111111111,4,2,1,65,0,0
116140,-125,4,2,1,65,0,0
127440,-111.111111111111,4,2,1,65,0,0
138640,-125,4,2,1,65,0,0
141240,-100,4,2,1,65,0,0
141840,-100,4,2,1,65,0,1
147840,-100,4,2,1,45,0,1
148240,-100,4,2,1,65,0,1
154240,-100,4,2,1,45,0,0
154640,-100,4,2,1,65,0,1
160540,-100,4,2,1,45,0,1
161040,-100,4,2,1,65,0,1
165840,-200,4,2,1,65,0,0
166640,-200,4,2,1,35,0,0
177040,-200,4,2,1,45,0,0
179440,-200,4,2,1,35,0,0
180140,-100,4,2,1,65,0,0
204240,-200,4,2,1,65,0,0
205040,-200,4,2,1,45,0,0
205640,-111.111111111111,4,2,1,65,0,0
215440,-125,4,2,1,65,0,0
218640,-200,4,2,1,65,0,0
219040,-100,4,2,1,65,0,1
224640,-100,4,2,1,45,0,1
225040,-100,4,2,1,65,0,1
231040,-100,4,2,1,65,0,0
231440,-100,4,2,1,65,0,1
237340,-100,4,2,1,45,0,1
237840,-100,4,2,1,65,0,1
242640,-200,4,2,1,65,0,0
242990,-200,4,2,1,5,0,0
243040,-200,4,2,1,65,0,0
243440,-100,4,2,1,45,0,0
243840,-100,4,2,1,55,0,0
244240,-100,4,2,1,65,0,1
245840,-125,4,2,1,65,0,1
246240,-111.111111111111,4,2,1,65,0,1
246640,-100,4,2,1,65,0,1
249040,-200,4,2,1,65,0,0
249740,-200,4,2,1,35,0,0
250540,-100,4,2,1,65,0,1
261840,-100,4,2,1,65,0,0
261990,-100,4,2,1,5,0,0
262140,-100,4,2,1,65,0,0
262190,-100,4,2,1,5,0,0
262340,-100,4,2,1,65,0,0
262390,-100,4,2,1,5,0,0
262540,-100,4,2,1,65,0,0
262590,-100,4,2,1,5,0,0
262740,-100,4,2,1,65,0,0
262790,-100,4,2,1,5,0,0
262940,-100,4,2,1,65,0,0
262990,-100,4,2,1,5,0,0
263140,-111.111111111111,4,2,1,65,0,0
263340,-100,4,2,1,65,0,1
275840,-100,4,2,1,65,0,0

[Colours]
Combo1 : 243,90,73
Combo2 : 98,210,166
Combo3 : 238,133,83
Combo4 : 75,118,188

[HitObjects]
97,102,1040,5,0,3:2:0:0:
184,194,1240,1,0,0:2:0:0:
266,96,1440,1,0,3:2:0:0:
413,215,1640,1,8,0:2:0:0:
413,215,1740,1,8,0:2:0:0:
413,215,1840,6,0,L|278:210,1,127.500004863739,0|8,3:2|0:2,0:2:0:0:
189,306,2140,1,8,0:2:0:0:
189,306,2240,2,0,L|324:301,1,127.500004863739,0|8,3:2|0:2,0:2:0:0:
405,278,2540,1,8,0:2:0:0:
405,278,2640,6,0,L|413:210,1,63.7500024318696,0|0,3:2|0:2,0:2:0:0:
495,58,2840,1,8,0:2:0:0:
431,28,2940,1,8,0:2:0:0:
363,46,3040,2,0,L|370:109,1,63.7500024318696,0|0,3:2|0:2,0:2:0:0:
331,202,3240,1,8,0:2:0:0:
170,156,3440,5,0,3:2:0:0:
263,18,3640,1,8,0:2:0:0:
263,18,3740,1,8,0:2:0:0:
263,18,3840,2,0,L|259:154,1,127.500004863739,0|8,3:2|0:2,0:2:0:0:
94,214,4140,1,8,0:2:0:0:
94,214,4240,5,0,3:2:0:0:
265,270,4440,1,0,0:2:0:0:
23,273,4640,1,0,3:2:0:0:
170,156,4840,1,8,0:2:0:0:
170,156,4940,1,8,0:2:0:0:
170,156,5040,6,0,L|167:306,1,127.500004863739,0|8,3:2|0:2,0:2:0:0:
243,345,5340,1,8,0:2:0:0:
243,345,5440,2,0,L|312:338,1,63.7500024318696,0|0,3:2|0:2,0:2:0:0:
422,272,5640,2,0,L|353:265,1,63.7500024318696,8|8,0:2|0:2,0:2:0:0:
309,176,5840,5,0,3:2:0:0:
392,0,6040,1,8,0:2:0:0:
427,60,6140,1,8,0:2:0:0:
402,125,6240,2,0,L|398:200,2,63.7500024318696,0|0|8,3:2|0:2|0:2,0:2:0:0:
276,20,6640,5,0,3:2:0:0:
191,131,6840,1,8,0:2:0:0:
191,131,6940,1,8,3:2:0:0:
191,131,7040,2,0,L|111:128,1,63.7500024318696,8|0,0:2|3:2,0:2:0:0:
242,210,7240,2,0,L|305:207,1,63.7500024318696,10|0,0:2|0:2,0:2:0:0:
390,261,7440,5,0,3:2:0:0:
210,297,7640,1,0,0:2:0:0:
277,127,7840,1,0,3:2:0:0:
65,97,8040,1,8,0:2:0:0:
57,105,8140,1,8,0:2:0:0:
49,113,8240,6,0,P|33:179|61:246,1,127.500004863739,0|8,3:2|0:2,0:2:0:0:
121,296,8540,1,8,0:2:0:0:
121,296,8640,2,0,L|260:289,1,127.500004863739,0|8,3:2|0:2,0:2:0:0:
371,260,8940,1,8,0:2:0:0:
371,260,9040,6,0,L|367:187,1,63.7500024318696,0|0,3:2|0:2,0:2:0:0:
420,68,9240,1,8,0:0:0:0:
353,45,9340,1,8,0:0:0:0:
288,71,9440,2,0,L|292:135,1,63.7500024318696,0|0,3:2|0:2,0:2:0:0:
189,21,9640,1,8,2:2:0:0:
71,203,9840,6,0,P|126:173|194:180,1,127.500004863739,0|8,3:2|0:2,0:2:0:0:
275,238,10140,1,8,0:2:0:0:
368,197,10240,2,0,P|373:159|373:122,1,63.7500024318696,0|0,3:2|0:2,0:2:0:0:
275,238,10440,2,0,P|277:269|281:301,1,63.7500024318696,8|8,0:2|0:2,0:2:0:0:
357,353,10640,5,0,3:2:0:0:
156,313,10840,1,0,0:2:0:0:
291,158,11040,1,0,3:2:0:0:
144,86,11240,1,8,0:2:0:0:
144,86,11340,1,8,0:2:0:0:
144,86,11440,6,0,P|129:131|143:221,1,127.500004863739,0|8,3:2|0:2,0:2:0:0:
161,325,11740,1,8,0:0:0:0:
161,325,11840,2,0,P|129:318|99:307,1,63.7500024318696,0|0,3:2|0:2,0:2:0:0:
254,359,12040,2,0,P|285:352|315:341,1,63.7500024318696,8|8,0:2|0:2,0:2:0:0:
425,311,12240,6,0,L|430:241,1,63.7500024318696,0|0,3:2|0:2,0:2:0:0:
385,169,12440,1,8,0:2:0:0:
434,94,12540,1,8,0:2:0:0:
365,36,12640,2,0,L|297:30,1,63.7500024318696,0|0,3:2|0:2,0:2:0:0:
162,109,12840,2,0,L|230:103,1,63.7500024318696,8|0,0:2|0:2,0:2:0:0:
391,192,13040,5,10,0:2:0:0:
301,192,13140,1,8,0:2:0:0:
212,192,13240,1,10,0:2:0:0:
123,192,13340,1,8,0:2:0:0:
73,68,13740,6,0,P|137:100|219:59,1,170,4|0,3:2|0:2,0:2:0:0:
350,64,14040,2,0,P|382:106|389:144,1,85,10|0,0:2|0:2,0:2:0:0:
288,197,14240,2,0,P|262:244|257:286,1,85,2|0,3:2|0:2,0:2:0:0:
355,340,14440,2,0,P|396:324|444:319,1,85,10|0,0:2|0:2,0:2:0:0:
492,226,14640,5,2,3:2:0:0:
492,226,14740,2,0,L|391:213,1,85,2|8,0:2|0:2,0:2:0:0:
201,186,14940,2,0,L|303:173,1,85,2|0,2:2|3:2,0:2:0:0:
419,92,15140,2,0,L|323:73,1,85,2|8,3:2|0:2,0:2:0:0:
121,46,15340,6,0,B|77:98|77:98|99:203,1,170,4|0,0:2|0:2,0:2:0:0:
186,294,15640,2,0,L|84:281,1,85,10|0,0:2|0:2,0:2:0:0:
188,203,15840,1,2,3:2:0:0:
264,180,15940,1,2,0:2:0:0:
336,211,16040,1,10,0:2:0:0:
403,253,16140,1,2,0:2:0:0:
476,223,16240,6,0,L|484:125,1,85,2|0,3:2|0:2,0:2:0:0:
385,21,16440,1,10,0:2:0:0:
385,21,16540,2,0,L|377:115,1,85,2|0,2:2|3:2,0:2:0:0:
264,180,16740,2,0,P|219:157|170:152,1,85,2|8,3:2|0:2,0:2:0:0:
22,297,16940,6,0,P|118:277|198:284,1,170,4|0,0:2|0:2,0:2:0:0:
267,360,17240,2,0,P|308:371|351:374,1,85,8|0,2:2|0:2,0:2:0:0:
469,327,17440,2,0,L|465:243,1,85,2|0,3:2|0:2,0:2:0:0:
362,163,17640,2,0,L|358:248,1,85,10|0,2:2|0:2,0:2:0:0:
233,147,17840,5,2,3:2:0:0:
310,61,17940,2,0,P|356:52|399:50,1,85,2|8,0:2|2:2,0:2:0:0:
233,147,18140,2,0,P|190:144|148:135,1,85,2|0,2:2|3:2,0:2:0:0:
77,217,18340,2,0,P|96:264|106:307,1,85,2|8,3:2|0:2,0:2:0:0:
260,379,18540,6,0,P|270:311|324:209,1,170,4|0,0:2|0:2,0:2:0:0:
428,158,18840,2,0,P|418:106|404:73,1,85,10|0,0:2|0:2,0:2:0:0:
297,51,19040,2,0,P|256:85|235:114,1,85,2|0,3:2|0:2,0:2:0:0:
246,266,19240,2,0,P|210:236|167:217,1,85,10|0,0:2|0:2,0:2:0:0:
155,35,19440,5,2,3:2:0:0:
227,59,19540,1,2,0:2:0:0:
298,32,19640,1,10,0:2:0:0:
370,57,19740,1,2,2:2:0:0:
442,32,19840,2,0,L|448:126,2,85,2|2|8,3:2|3:2|0:2,0:2:0:0:
367,145,20140,6,0,B|336:215|336:215|381:320,1,170,4|0,0:2|0:2,0:2:0:0:
292,361,20440,2,0,L|199:355,1,85,10|0,0:2|0:2,0:2:0:0:
92,235,20640,2,0,P|130:253|164:277,1,85,2|0,3:2|0:2,0:2:0:0:
238,223,20840,2,0,P|252:183|266:137,1,85,10|0,0:2|0:2,0:2:0:0:
216,31,21040,6,0,L|113:37,1,85,2|0,3:2|0:2,0:2:0:0:
308,66,21240,2,0,L|411:72,1,85,10|0,0:2|0:2,0:2:0:0:
490,199,21440,2,0,P|434:170|394:158,1,85,2|0,3:2|3:2,0:2:0:0:
250,236,21640,2,0,P|306:207|346:195,1,85,10|0,0:2|0:2,0:2:0:0:
358,336,21840,6,0,B|302:373|302:373|179:361,1,170,2|8,3:2|0:2,0:2:0:0:
91,208,22140,2,0,B|147:245|147:245|270:233,1,170,2|0,0:2|0:2,0:2:0:0:
365,211,22440,6,0,B|334:114|334:114|362:41,1,170,10|0,0:2|3:2,0:2:0:0:
492,138,22740,2,0,B|516:201|516:201|485:298,1,170,2|0,0:2|0:2,0:2:0:0:
391,341,23040,1,2,3:2:0:0:
300,294,23140,2,0,L|205:286,1,85,2|8,0:2|0:2,0:2:0:0:
66,153,23340,6,0,P|110:198|233:173,1,170,4|0,0:2|0:2,0:2:0:0:
291,110,23640,2,0,P|313:145|323:186,1,85,10|0,0:2|0:2,0:2:0:0:
202,306,23840,6,0,L|117:298,1,85,2|2,3:2|0:2,0:2:0:0:
339,372,24040,2,0,L|423:364,1,85,10|2,0:2|0:2,0:2:0:0:
375,135,24240,2,0,P|377:177|390:217,1,85,2|2,3:2|0:2,0:2:0:0:
494,311,24440,2,0,P|504:270|508:227,1,85,10|2,2:2|0:2,0:2:0:0:
505,73,24640,5,2,3:2:0:0:
446,14,24740,1,2,3:2:0:0:
370,19,24840,1,8,2:2:0:0:
313,56,24940,1,0,2:0:0:0:
300,114,25040,5,2,3:2:0:0:
300,114,25140,2,0,L|305:199,1,85,2|8,2:2|0:2,0:2:0:0:
400,282,25340,2,0,L|404:197,1,85,2|0,0:2|3:2,0:2:0:0:
213,259,25540,2,0,P|254:268|294:281,1,85,2|8,0:2|0:2,0:2:0:0:
486,173,25740,6,0,P|445:186|404:196,1,85,2|0,0:2|3:2,0:2:0:0:
217,166,25940,2,0,P|202:126|195:84,1,85,2|8,0:2|0:2,0:2:0:0:
410,23,26140,2,0,L|417:108,1,85,2|0,2:2|3:2,0:2:0:0:
287,365,26340,2,0,L|294:281,1,85,2|8,3:2|2:2,0:2:0:0:
112,194,26540,6,0,P|126:251|145:370,1,170,4|0,0:2|0:2,0:2:0:0:
0,321,26840,2,0,L|16:221,1,85,10|0,0:2|0:2,0:2:0:0:
66,124,27040,2,0,L|50:24,1,85,2|0,3:2|0:2,0:2:0:0:
192,106,27240,2,0,P|234:124|287:133,1,85,10|0,2:2|0:2,0:2:0:0:
433,114,27440,5,2,3:2:0:0:
433,114,27540,2,0,L|428:219,1,85,2|8,0:2|2:2,0:2:0:0:
337,248,27740,2,0,P|290:235|250:230,1,85,2|0,0:2|3:2,0:2:0:0:
371,335,27940,2,0,P|417:322|458:317,1,85,2|8,3:2|0:2,0:2:0:0:
428,198,28140,6,0,P|391:125|426:42,1,170,6|0,0:2|0:2,0:2:0:0:
299,91,28440,2,0,P|249:113|201:127,1,85,10|0,0:2|0:2,0:2:0:0:
123,89,28640,1,2,3:2:0:0:
69,141,28740,1,2,0:2:0:0:
59,216,28840,1,10,0:2:0:0:
95,281,28940,1,2,0:2:0:0:
164,311,29040,6,0,L|261:304,1,85,2|0,3:2|0:2,0:2:0:0:
331,243,29240,1,10,2:2:0:0:
249,181,29340,2,0,P|233:132|227:94,1,85,2|0,0:2|3:2,0:2:0:0:
356,47,29540,2,0,P|348:88|334:128,1,85,2|8,3:2|0:2,0:2:0:0:
150,182,29740,6,0,B|114:122|114:122|156:14,1,170,4|0,0:2|0:2,0:2:0:0:
15,66,30040,2,0,P|21:112|26:155,1,85,10|0,0:2|0:2,0:2:0:0:
102,287,30240,2,0,P|149:276|189:272,1,85,2|0,3:2|0:2,0:2:0:0:
327,214,30440,2,0,P|280:203|240:199,1,85,10|0,0:2|0:2,0:2:0:0:
373,128,30640,5,2,3:2:0:0:
440,209,30740,2,0,L|433:313,1,85,2|8,0:2|0:2,0:2:0:0:
328,349,30940,2,0,L|323:265,1,85,2|0,0:2|3:2,0:2:0:0:
225,177,31140,2,0,L|218:281,1,85,2|8,3:2|0:2,0:2:0:0:
81,194,31340,6,0,P|128:159|173:45,1,170,4|0,0:2|0:2,0:2:0:0:
354,73,31640,2,0,P|311:77|270:84,1,85,10|0,0:2|0:2,0:2:0:0:
390,246,31840,2,0,P|392:203|396:161,1,85,2|0,3:2|0:2,0:2:0:0:
489,72,32040,2,0,P|491:114|496:157,1,85,10|0,0:2|0:2,0:2:0:0:
460,317,32240,5,2,3:2:0:0:
389,345,32340,1,2,0:2:0:0:
316,321,32440,1,10,0:2:0:0:
243,344,32540,1,2,0:2:0:0:
172,315,32640,2,0,L|85:323,2,85,2|2|8,3:2|3:2|0:2,0:2:0:0:
149,158,32940,6,0,B|255:187|255:187|325:158,1,170,4|0,0:2|0:2,0:2:0:0:
419,143,33240,2,0,P|409:184|393:224,1,85,10|0,0:2|0:2,0:2:0:0:
512,127,33440,2,0,P|500:77|481:34,1,85,2|0,3:2|0:2,0:2:0:0:
384,39,33640,2,0,L|299:48,1,85,10|0,0:2|0:2,0:2:0:0:
139,81,33840,6,0,P|177:100|217:117,1,85,2|0,3:2|0:2,0:2:0:0:
360,161,34040,2,0,P|323:180|284:197,1,85,10|0,0:2|0:2,0:2:0:0:
455,291,34240,1,2,3:2:0:0:
455,291,34340,2,0,L|448:191,1,85,2|8,3:2|0:2,0:2:0:0:
349,336,34540,6,0,P|272:311|162:297,1,170,4|0,0:2|0:2,0:2:0:0:
47,236,34840,2,0,P|97:223|146:215,1,85,10|0,0:2|0:2,0:2:0:0:
217,165,35040,1,2,3:2:0:0:
217,165,35140,2,0,P|201:116|194:72,1,85,2|8,3:2|0:2,0:2:0:0:
297,40,35340,6,0,L|386:46,1,85,2|0,0:2|3:2,0:2:0:0:
489,125,35540,2,0,L|400:131,1,85,2|8,0:2|0:2,0:2:0:0:
217,165,35740,2,0,P|258:173|299:184,1,85,2|0,0:2|3:2,0:2:0:0:
443,241,35940,2,0,P|402:249|361:261,1,85,2|8,3:2|0:2,0:2:0:0:
194,330,36140,1,4,0:2:0:0:
256,192,36240,12,0,37740,0:2:0:0:
408,323,38040,6,0,L|408:131,1,170,8|0,0:2|3:2,0:2:0:0:
331,85,38340,1,0,3:2:0:0:
255,153,38440,2,0,L|256:256,1,85,8|0,2:2|0:2,0:2:0:0:
149,271,38640,5,8,3:3:0:0:
93,209,38740,1,8,3:3:0:0:
85,126,38840,1,4,3:3:0:0:
128,54,38940,1,4,3:3:0:0:
206,23,39040,1,8,3:2:0:0:
206,23,39340,6,0,P|266:53|364:36,1,127.500004863739,2|0,3:2|0:2,0:2:0:0:
452,28,39640,2,0,L|460:120,1,63.7500024318696,10|0,0:2|0:2,0:2:0:0:
392,177,39840,2,0,P|357:161|320:152,1,63.7500024318696,2|0,3:2|0:2,0:2:0:0:
246,218,40040,2,0,P|211:233|174:242,1,63.7500024318696,10|0,0:2|0:2,0:2:0:0:
76,200,40240,6,0,B|65:160|65:160|71:125,1,63.7500024318696,2|0,3:2|0:2,0:2:0:0:
169,63,40440,2,0,B|172:84|172:84|161:124,1,63.7500024318696,10|0,2:2|0:2,0:2:0:0:
246,218,40640,1,2,3:2:0:0:
246,218,40740,2,0,L|328:211,1,63.7500024318696,2|8,3:2|3:2,0:2:0:0:
425,312,40940,6,0,L|330:308,2,63.7500024318696,2|0|0,3:2|0:2|0:2,0:2:0:0:
266,365,41240,2,0,P|203:348|170:343,1,63.7500024318696,10|0,0:2|0:2,0:2:0:0:
91,349,41440,2,0,P|72:305|66:266,1,63.7500024318696,2|0,3:2|0:2,0:2:0:0:
173,242,41640,2,0,P|185:194|190:156,1,63.7500024318696,10|0,0:2|0:2,0:2:0:0:
109,54,41840,6,0,B|82:94|82:94|101:215,1,127.500004863739,2|10,3:2|0:2,0:2:0:0:
173,242,42140,1,0,2:2:0:0:
269,217,42240,2,0,L|356:197,2,63.7500024318696,2|2|8,3:2|3:2|3:2,0:2:0:0:
341,298,42540,6,0,B|395:298|395:298|413:321|452:338|486:323,1,127.500004863739,6|0,3:2|0:2,0:2:0:0:
463,226,42840,2,0,P|451:172|453:139,1,63.7500024318696,10|0,0:2|0:2,0:2:0:0:
383,70,43040,2,0,P|338:66|295:64,1,63.7500024318696,2|0,3:2|0:2,0:2:0:0:
177,155,43240,2,0,P|222:151|265:149,1,63.7500024318696,10|0,0:2|0:2,0:2:0:0:
314,232,43440,6,0,P|302:269|296:307,1,63.7500024318696,2|0,3:2|0:2,0:2:0:0:
210,371,43640,2,0,P|203:333|192:296,1,63.7500024318696,10|0,0:2|2:2,0:2:0:0:
102,255,43840,2,0,P|64:281|27:293,2,63.7500024318696,2|0|8,3:2|3:2|0:2,0:2:0:0:
77,154,44140,6,0,L|254:164,1,127.500004863739,2|0,3:2|0:2,0:2:0:0:
311,150,44440,2,0,P|334:96|338:72,1,63.7500024318696,10|0,0:2|0:2,0:2:0:0:
436,65,44640,2,0,P|471:111|490:127,1,63.7500024318696,2|0,3:2|0:2,0:2:0:0:
452,220,44840,2,0,P|393:227|370:235,1,63.7500024318696,10|0,0:2|0:2,0:2:0:0:
246,257,45040,6,0,P|180:226|90:249,1,127.500004863739,2|10,3:2|0:2,0:2:0:0:
36,191,45340,1,0,2:2:0:0:
112,128,45440,2,0,L|110:51,2,63.7500024318696,2|2|8,3:2|3:2|3:2,0:2:0:0:
218,322,45740,6,0,B|248:256|248:256|211:160,1,127.500004863739,6|0,3:2|0:2,0:2:0:0:
313,121,46040,2,0,L|389:118,1,63.7500024318696,10|0,0:2|0:2,0:2:0:0:
257,49,46240,2,0,P|211:36|164:17,1,63.7500024318696,2|0,3:2|0:2,0:2:0:0:
91,63,46440,2,0,P|97:126|98:167,1,63.7500024318696,10|0,0:2|0:2,0:2:0:0:
146,251,46640,6,0,P|105:245|70:238,1,63.7500024318696,2|0,3:2|0:2,0:2:0:0:
227,324,46840,2,0,P|267:318|302:311,1,63.7500024318696,10|0,0:2|0:2,0:2:0:0:
345,216,47040,1,2,3:2:0:0:
426,277,47140,2,0,L|437:368,1,63.7500024318696,2|8,3:2|3:2,0:2:0:0:
345,216,47340,6,0,P|361:151|417:72,1,127.500004863739,6|0,3:2|0:2,0:2:0:0:
304,51,47640,2,0,P|259:64|211:74,1,63.7500024318696,10|0,0:2|0:2,0:2:0:0:
130,113,47840,2,0,P|97:93|61:78,1,63.7500024318696,2|0,3:2|0:2,0:2:0:0:
47,192,48040,2,0,B|60:262|60:267,1,63.7500024318696,10|0,0:2|0:2,0:2:0:0:
156,329,48240,6,0,B|204:315|204:315|234:332|234:332|296:317,1,127.500004863739,2|10,3:2|2:2,0:2:0:0:
293,216,48540,1,0,2:2:0:0:
390,258,48640,1,2,3:2:0:0:
390,258,48740,2,0,L|388:343,1,63.7500024318696,2|8,3:2|3:2,0:2:0:0:
493,293,48940,6,0,B|512:228|512:228|479:150,1,127.500004863739,6|0,3:2|0:2,0:2:0:0:
399,76,49240,2,0,B|502:64,1,63.7500024318696,10|0,2:2|0:2,0:2:0:0:
321,26,49440,2,0,B|218:38,1,63.7500024318696,10|0,2:2|2:2,0:2:0:0:
181,102,49640,2,0,P|200:155|204:179,1,63.7500024318696,10|0,3:2|3:2,0:2:0:0:
118,257,49840,5,10,3:2:0:0:
199,319,49940,2,0,L|286:314,1,76.4999976654053,2|0,3:2|0:2,0:2:0:0:
392,235,50140,2,0,L|305:230,1,76.4999976654053,10|0,2:2|0:2,0:2:0:0:
203,174,50340,2,0,P|248:155|274:138,1,76.4999976654053,10|0,2:2|0:2,0:2:0:0:
417,82,50540,1,8,0:2:0:0:
417,82,50640,6,0,L|424:170,1,76.4999976654053,2|0,3:2|0:2,0:2:0:0:
309,306,50840,2,0,L|315:229,1,76.4999976654053,10|0,0:2|0:2,0:2:0:0:
182,119,51040,2,0,L|190:208,1,76.4999976654053,2|0,3:2|0:2,0:2:0:0:
66,309,51240,2,0,L|74:233,1,76.4999976654053,10|0,0:2|0:2,0:2:0:0:
174,356,51440,6,0,B|270:346,1,76.4999976654053,2|0,3:2|0:2,0:2:0:0:
372,190,51640,2,0,P|338:245|367:336,1,152.999995330811,14|0,0:2|3:2,0:2:0:0:
447,361,51940,1,0,3:2:0:0:
511,296,52040,1,8,3:2:0:0:
472,212,52140,6,0,B|448:148|448:148|480:46,1,136,6|0,3:2|0:2,0:2:0:0:
392,19,52440,2,0,P|354:16|316:14,1,68,10|0,0:2|0:2,0:2:0:0:
245,74,52640,2,0,P|255:114|261:154,1,68,2|0,3:2|0:2,0:2:0:0:
212,235,52840,2,0,P|148:231|117:224,1,68,10|0,0:2|0:2,0:2:0:0:
250,338,53040,6,0,B|335:315|335:315|409:338,1,136,2|10,3:2|0:2,0:2:0:0:
496,318,53340,1,0,0:2:0:0:
457,226,53440,2,0,L|463:148,2,68,2|2|8,3:2|3:2|3:2,0:2:0:0:
357,216,53740,6,0,L|346:58,1,136,2|0,3:2|0:2,0:2:0:0:
252,30,54040,2,0,P|200:49|172:66,1,68,10|0,0:2|0:2,0:2:0:0:
119,138,54240,2,0,P|165:155|197:157,1,68,2|0,3:2|0:2,0:2:0:0:
269,220,54440,2,0,P|249:278|243:308,1,68,10|0,0:2|0:2,0:2:0:0:
391,351,54640,6,0,L|380:261,1,68,2|0,3:2|0:2,0:2:0:0:
477,210,54840,2,0,L|488:120,1,68,10|0,0:2|0:2,0:2:0:0:
383,51,55040,1,2,3:2:0:0:
383,51,55140,2,0,L|384:154,1,68,2|8,3:2|3:2,0:2:0:0:
319,215,55340,6,0,P|255:195|157:211,1,136,2|0,3:2|0:2,0:2:0:0:
68,171,55640,2,0,P|98:142|126:99,1,68,10|0,0:2|0:2,0:2:0:0:
195,40,55840,2,0,P|237:56|268:64,1,68,2|0,3:2|0:2,0:2:0:0:
358,120,56040,2,0,P|392:102|421:77,1,68,10|0,0:2|0:2,0:2:0:0:
265,164,56240,6,0,P|237:225|236:336,1,136,2|10,3:2|0:2,0:2:0:0:
148,367,56540,1,0,0:2:0:0:
73,300,56640,1,2,3:2:0:0:
73,300,56740,2,0,P|37:287|-10:276,1,68,2|8,3:2|3:2,0:2:0:0:
56,163,56940,6,0,L|219:152,1,136,2|0,3:2|0:2,0:2:0:0:
314,105,57240,2,0,P|285:67|271:24,1,68,10|0,0:2|0:2,0:2:0:0:
418,97,57440,2,0,L|413:185,1,68,2|0,3:2|0:2,0:2:0:0:
325,272,57640,2,0,L|330:195,1,68,10|0,0:2|0:2,0:2:0:0:
220,160,57840,6,0,P|179:175|137:180,1,68,2|0,3:2|0:2,0:2:0:0:
75,259,58040,2,0,P|20:241|-22:222,1,68,10|0,0:2|0:2,0:2:0:0:
133,342,58240,2,0,P|179:329|227:326,1,68,2|2,3:2|3:2,0:2:0:0:
286,254,58440,2,0,P|331:268|363:283,1,68,8|2,3:2|3:2,0:2:0:0:
446,340,58640,6,0,P|465:305|470:249,1,68,0|0,2:2|0:2,0:2:0:0:
398,189,58840,2,0,P|384:129|407:35,1,136,10|2,0:2|3:2,0:2:0:0:
290,59,59140,1,0,0:2:0:0:
290,59,59240,2,0,L|196:50,1,68,10|0,0:2|0:2,0:2:0:0:
63,53,59440,6,0,B|85:111|85:111|51:213,1,136,2|10,3:2|0:2,0:2:0:0:
130,265,59740,1,0,0:2:0:0:
221,230,59840,2,0,L|316:220,1,68,2|2,3:2|3:2,0:2:0:0:
398,309,60040,2,0,L|317:310,1,68,8|2,3:2|3:2,0:2:0:0:
192,351,60240,6,0,P|229:293|189:194,1,136,0|10,0:2|0:2,0:2:0:0:
138,175,60540,1,0,0:2:0:0:
201,98,60640,2,0,P|252:87|287:83,1,68,2|0,3:2|0:2,0:2:0:0:
375,177,60840,2,0,P|337:171|299:162,1,68,10|0,0:2|0:2,0:2:0:0:
138,175,61040,6,0,P|119:219|113:258,1,68,2|0,3:2|0:2,0:2:0:0:
15,269,61240,2,0,P|32:313|56:345,1,68,10|0,0:2|0:2,0:2:0:0:
185,340,61440,2,0,P|227:324|273:320,1,68,2|2,3:2|3:2,0:2:0:0:
275,220,61640,2,0,P|316:238|351:268,1,68,8|2,0:2|3:2,0:2:0:0:
467,349,61840,6,0,P|455:274|464:199,1,136,0|10,2:2|0:2,0:2:0:0:
422,106,62140,1,0,2:2:0:0:
314,101,62240,2,0,P|292:59|279:16,1,68,2|0,3:2|0:2,0:2:0:0:
195,79,62440,2,0,P|181:130|171:156,1,68,10|0,0:2|0:2,0:2:0:0:
74,144,62640,6,0,P|43:204|89:291,1,136,2|8,3:2|3:2,0:2:0:0:
161,324,62940,1,0,3:2:0:0:
238,226,63040,2,0,P|306:212|391:209,1,136,2|8,3:2|0:2,0:2:0:0:
359,309,63340,1,8,0:2:0:0:
476,318,63440,6,0,P|489:265|474:159,1,152.999995330811,4|8,3:2|0:2,0:2:0:0:
396,85,63740,1,8,0:2:0:0:
298,128,63840,2,0,L|197:135,1,76.4999976654053,6|0,3:2|0:2,0:2:0:0:
156,47,64040,2,0,L|257:40,1,76.4999976654053,8|0,0:2|0:2,0:2:0:0:
330,27,64240,5,6,3:2:0:0:
323,103,64340,1,8,0:2:0:0:
317,179,64440,1,8,0:2:0:0:
311,255,64540,1,8,0:2:0:0:
304,331,64640,1,6,3:2:0:0:
102,238,64840,1,8,0:2:0:0:
102,238,64940,1,8,0:2:0:0:
102,238,65040,6,0,P|165:212|254:256,1,152.999995330811,8|0,3:2|2:2,0:2:0:0:
306,316,65340,1,0,3:2:0:0:
448,186,65440,2,0,P|385:212|296:168,1,152.999995330811,12|0,0:2|3:2,0:2:0:0:
234,115,65740,1,8,3:2:0:0:
150,60,65840,6,0,P|137:105|134:141,1,76.4999976654053,0|8,3:2|0:2,0:2:0:0:
34,138,66040,2,0,P|49:182|67:213,1,76.4999976654053,0|0,3:2|3:2,0:2:0:0:
141,272,66240,1,8,0:2:0:0:
239,261,66340,1,0,3:2:0:0:
314,196,66440,6,0,P|368:173|461:212,1,152.999995330811,4|0,3:2|0:2,0:2:0:0:
338,304,66740,2,0,L|248:295,2,76.4999976654053,8|0|0,0:2|3:2|0:2,0:2:0:0:
209,364,67040,1,8,0:2:0:0:
157,309,67140,1,8,0:2:0:0:
152,235,67240,1,8,3:2:0:0:
197,175,67340,6,0,P|216:134|219:14,1,152.999995330811,4|0,2:2|3:2,0:2:0:0:
83,61,67640,2,0,P|83:107|93:160,1,76.4999976654053,10|0,2:2|3:2,0:2:0:0:
288,235,67840,2,0,P|292:197|292:158,1,76.4999976654053,10|0,2:2|3:2,0:2:0:0:
130,242,68040,2,8,P|134:296|145:337,1,76.4999976654053,10|8,0:2|0:2,0:2:0:0:
292,347,68240,5,0,3:0:0:0:
292,347,68440,2,0,P|328:334|365:326,1,76.4999976654053,0|0,3:2|3:2,0:2:0:0:
404,122,68640,2,0,P|385:189|381:215,1,76.4999976654053,12|0,0:2|3:2,0:2:0:0:
287,147,68840,2,0,P|278:109|266:73,1,76.4999976654053,8|0,0:2|3:2,0:2:0:0:
163,41,69040,6,0,P|122:54|68:62,1,76.4999976654053,0|8,2:2|0:2,0:2:0:0:
2,126,69240,2,0,P|33:147|68:165,1,76.4999976654053,0|0,0:2|3:2,0:2:0:0:
135,238,69440,1,8,0:2:0:0:
231,214,69540,1,0,3:2:0:0:
300,143,69640,6,0,P|370:133|432:203,1,152.999995330811,4|0,2:2|2:2,0:2:0:0:
354,295,69940,1,0,3:2:0:0:
354,295,70040,2,0,L|347:201,1,76.4999976654053,0|0,3:2|2:2,0:2:0:0:
225,137,70240,2,0,L|230:213,1,76.4999976654053,8|8,0:2|0:2,0:2:0:0:
118,314,70440,2,0,L|112:237,1,76.4999976654053,8|8,0:2|0:2,0:2:0:0:
29,106,70640,5,2,3:2:0:0:
29,106,70740,2,0,P|92:127|174:79,1,152.999995330811,4|0,3:3|3:2,0:2:0:0:
235,42,71040,2,0,P|275:38|335:63,1,76.4999976654053,8|0,0:0|3:0,0:0:0:0:
381,107,71240,1,8,3:2:0:0:
395,189,71340,1,8,3:2:0:0:
359,265,71440,6,0,P|320:284|277:290,1,76.4999976654053,2|0,3:2|0:2,0:2:0:0:
218,232,71640,2,0,P|171:214|133:209,1,76.4999976654053,8|0,0:2|0:2,0:2:0:0:
74,346,71840,2,0,P|111:337|145:320,1,76.4999976654053,2|0,3:2|0:2,0:2:0:0:
241,348,72040,2,0,P|278:356|312:373,1,76.4999976654053,8|0,0:2|0:2,0:2:0:0:
442,339,72240,6,0,P|465:300|471:260,1,76.4999976654053,2|0,3:2|0:2,0:2:0:0:
471,170,72440,2,0,P|439:142|401:119,1,76.4999976654053,8|0,0:2|0:2,0:2:0:0:
305,190,72640,2,0,P|263:223|235:233,1,76.4999976654053,2|0,3:2|0:2,0:2:0:0:
148,266,72840,2,0,P|91:250|66:239,1,76.4999976654053,8|0,0:2|0:2,0:2:0:0:
26,114,73040,5,6,3:2:0:0:
63,76,73140,1,0,0:2:0:0:
114,64,73240,1,8,0:2:0:0:
164,82,73340,1,0,0:2:0:0:
197,123,73440,1,2,3:2:0:0:
243,148,73540,1,0,0:2:0:0:
295,147,73640,1,8,0:2:0:0:
339,116,73740,1,0,0:2:0:0:
385,89,73840,6,0,P|424:100|465:125,1,76.4999976654053,2|0,3:2|0:2,0:2:0:0:
503,221,74040,2,0,P|492:260|467:301,1,76.4999976654053,8|0,0:2|0:2,0:2:0:0:
368,337,74240,2,0,P|329:326|288:301,1,76.4999976654053,2|0,3:2|0:2,0:2:0:0:
251,202,74440,2,0,P|262:163|287:122,1,76.4999976654053,8|0,0:2|0:2,0:2:0:0:
146,67,74640,6,0,B|167:127|167:127|142:241,1,136,4|0,0:2|0:2,0:2:0:0:
81,288,74940,1,0,3:2:0:0:
164,342,75040,2,0,P|216:332|247:330,1,68,8|0,0:2|0:2,0:2:0:0:
282,239,75240,2,0,P|333:251|362:263,1,68,8|0,0:2|0:2,0:2:0:0:
434,185,75440,5,0,3:2:0:0:
434,185,75540,2,0,L|501:192,1,68,8|0,2:2|3:2,0:2:0:0:
425,151,75840,6,0,L|333:141,1,68,4|0,0:2|0:2,0:2:0:0:
288,64,76040,2,0,L|196:54,1,68,4|0,0:2|0:2,0:2:0:0:
96,192,76240,5,8,0:2:0:0:
256,192,76340,1,8,0:2:0:0:
96,192,76540,5,8,0:2:0:0:
416,192,76740,1,8,0:2:0:0:
256,56,76940,6,0,L|256:216,1,136,10|0,0:2|0:2,0:2:0:0:
256,192,77240,1,10,0:2:0:0:
177,321,77440,6,0,P|195:273|222:318,1,127.500004863739,6|2,0:2|0:2,0:2:0:0:
223,317,77840,6,0,P|298:280|380:294,1,170,4|8,3:2|2:2,0:2:0:0:
465,237,78140,1,0,2:2:0:0:
383,176,78240,2,0,P|369:129|364:80,1,85,2|0,3:2|3:2,0:2:0:0:
267,127,78440,2,0,P|232:168|199:195,1,85,8|0,2:2|2:2,0:2:0:0:
1,118,78640,6,0,P|45:76|148:118,1,170,2|8,3:2|2:2,0:2:0:0:
208,188,78940,1,0,2:2:0:0:
289,277,79040,2,0,B|328:255|365:268|365:268|398:244|398:244|465:258,1,170,4|8,3:2|2:2,0:2:0:0:
487,168,79340,1,0,2:2:0:0:
486,168,79440,6,0,P|446:155|407:137,1,85,2|0,3:2|0:2,0:2:0:0:
290,174,79640,2,0,P|249:186|210:204,1,85,10|0,2:2|0:2,0:2:0:0:
36,130,79840,2,0,P|75:146|110:169,1,85,2|0,3:2|3:2,0:2:0:0:
124,269,80040,1,10,3:2:0:0:
124,269,80140,1,0,2:2:0:0:
124,269,80240,6,0,L|108:362,1,85,2|0,3:2|2:2,0:2:0:0:
221,323,80440,2,0,P|261:311|303:305,1,85,10|0,2:2|2:2,0:2:0:0:
385,215,80640,2,0,P|344:206|304:190,1,85,2|0,3:2|3:2,0:2:0:0:
183,154,80840,2,0,P|214:125|240:91,1,85,10|0,0:2|0:2,0:2:0:0:
350,16,81040,6,0,L|356:105,1,85,2|0,3:2|0:2,0:2:0:0:
183,154,81240,2,0,B|144:130|144:130|156:253,1,170,12|0,0:2|3:2,0:2:0:0:
229,334,81540,1,0,3:2:0:0:
329,288,81640,2,0,P|368:273|412:271,1,85,10|0,0:2|0:2,0:2:0:0:
247,227,81840,6,0,P|215:145|244:66,1,170,2|8,3:2|0:2,0:2:0:0:
328,18,82140,1,0,2:2:0:0:
405,83,82240,2,0,L|389:187,1,85,0|0,3:2|3:2,0:2:0:0:
393,341,82440,2,0,L|495:324,1,85,10|0,2:2|0:2,0:2:0:0:
330,240,82640,6,0,L|228:223,1,85,2|0,3:2|0:2,0:2:0:0:
139,301,82840,2,0,L|55:314,1,85,10|0,2:2|0:2,0:2:0:0:
47,147,83040,1,2,3:2:0:0:
86,114,83140,1,2,3:2:0:0:
137,114,83240,1,10,0:2:0:0:
182,136,83340,1,2,0:2:0:0:
206,181,83440,6,0,L|290:168,1,85,2|2,3:2|0:2,0:2:0:0:
468,118,83640,2,0,L|384:105,1,85,8|2,0:2|0:2,0:2:0:0:
275,16,83840,5,8,3:2:0:0:
282,92,83940,1,10,0:2:0:0:
290,168,84040,1,8,0:2:0:0:
298,244,84140,1,8,0:2:0:0:
270,324,84240,6,0,B|237:300|237:300|378:285,1,170,6|8,3:2|0:2,0:2:0:0:
441,355,84540,1,0,0:2:0:0:
485,210,84640,2,0,L|390:192,1,85,0|0,3:2|3:2,0:2:0:0:
318,134,84840,2,0,L|234:149,1,85,10|0,0:2|0:2,0:2:0:0:
107,92,85040,6,0,B|157:63|157:63|135:190,1,170,2|8,3:2|0:2,0:2:0:0:
195,257,85340,1,0,0:2:0:0:
367,201,85440,2,0,P|309:155|298:232,1,170,2|8,3:2|0:2,0:2:0:0:
340,309,85740,1,0,0:2:0:0:
435,276,85840,6,0,P|455:228|459:194,1,85,2|0,3:2|0:2,0:2:0:0:
405,68,86040,2,0,P|357:48|323:44,1,85,10|0,0:2|0:2,0:2:0:0:
197,98,86240,2,0,P|177:146|173:180,1,85,2|0,3:2|3:2,0:2:0:0:
230,311,86440,1,8,0:2:0:0:
230,311,86540,6,0,B|341:254|354:378|485:307,1,255,2|8,2:2|2:2,0:2:0:0:
503,214,86940,1,0,2:2:0:0:
420,154,87040,2,0,L|410:55,1,85,2|0,3:2|3:2,0:2:0:0:
313,41,87240,2,0,L|304:125,1,85,10|0,0:2|0:2,0:2:0:0:
157,269,87440,6,0,B|122:230|122:230|268:215|268:215,1,170,6|8,0:2|0:2,0:2:0:0:
372,271,87740,1,0,2:2:0:0:
306,349,87840,2,0,L|203:343,1,85,0|0,3:2|3:2,0:2:0:0:
372,271,88040,2,0,L|456:266,1,85,8|0,2:2|0:2,0:2:0:0:
238,217,88240,6,0,P|197:143|200:59,1,170,4|10,3:2|2:2,0:2:0:0:
305,20,88540,1,10,2:2:0:0:
401,90,88640,2,0,L|389:182,1,85,2|0,3:2|3:2,0:2:0:0:
372,271,88840,1,10,2:2:0:0:
238,217,88940,6,0,P|161:190|57:175,1,170,6|0,0:2|0:2,0:2:0:0:
187,323,89240,2,0,L|271:313,1,85,8|0,0:2|0:2,0:2:0:0:
450,348,89440,2,0,P|415:326|371:272,1,85,0|0,3:2|3:2,0:2:0:0:
307,132,89640,2,0,L|313:217,1,85,8|0,0:2|0:2,0:2:0:0:
257,333,89840,1,0,3:2:0:0:
223,329,89940,1,0,2:2:0:0:
187,323,90040,2,0,L|87:309,1,85,8|0,2:2|2:2,0:2:0:0:
58,236,90240,5,10,3:2:0:0:
68,152,90340,1,8,3:2:0:0:
133,98,90440,1,8,3:3:0:0:
217,95,90540,1,4,3:3:0:0:
276,155,90640,6,0,P|351:165|412:102,1,170,6|8,3:2|0:2,0:2:0:0:
487,47,90940,1,0,2:2:0:0:
487,47,91040,2,0,L|498:145,1,85,0|0,3:2|3:2,0:2:0:0:
503,237,91240,2,0,P|453:227|407:223,1,85,10|0,2:2|2:2,0:2:0:0:
250,326,91440,6,0,L|424:308,1,170,2|8,3:2|0:2,0:2:0:0:
503,237,91740,1,0,0:2:0:0:
357,170,91840,2,0,P|405:217|408:149,1,170,4|8,3:2|0:2,0:2:0:0:
356,67,92140,1,0,2:2:0:0:
340,67,92240,6,0,L|234:59,1,85,2|0,3:2|0:2,0:2:0:0:
133,156,92440,2,0,L|218:163,1,85,10|0,0:2|0:2,0:2:0:0:
364,97,92640,2,0,L|258:89,1,85,2|0,3:2|3:2,0:2:0:0:
326,261,92840,1,10,2:2:0:0:
326,261,92940,1,0,2:2:0:0:
326,261,93040,6,0,P|346:223|369:188,2,85,2|0|10,3:2|0:2|0:2,0:2:0:0:
220,291,93340,1,0,0:2:0:0:
220,291,93440,2,0,P|166:274|139:269,1,85,2|0,3:2|3:2,0:2:0:0:
294,361,93640,2,0,P|335:352|375:338,1,85,10|0,2:2|0:2,0:2:0:0:
465,266,93840,6,0,P|479:323|485:370,1,85,2|0,3:2|0:2,0:2:0:0:
370,188,94040,2,0,P|385:107|423:14,1,170,12|0,0:2|3:2,0:2:0:0:
315,5,94340,1,0,3:2:0:0:
244,79,94440,2,0,P|196:94|143:104,1,85,10|0,0:2|0:2,0:2:0:0:
78,178,94640,6,0,P|161:198|236:238,1,170,2|8,3:2|0:2,0:2:0:0:
213,337,94940,1,0,0:2:0:0:
114,363,95040,2,0,P|99:316|97:267,1,85,0|0,3:2|3:2,0:2:0:0:
235,237,95240,2,0,P|248:197|254:155,1,85,10|0,0:2|0:2,0:2:0:0:
174,59,95440,6,0,L|89:50,1,85,2|0,3:2|0:2,0:2:0:0:
264,131,95640,2,0,L|348:122,1,85,10|0,0:2|0:2,0:2:0:0:
164,82,95840,2,0,L|79:73,1,85,2|0,3:2|3:2,0:2:0:0:
254,154,96040,2,0,L|338:145,1,85,10|0,0:2|0:2,0:2:0:0:
437,75,96240,6,0,P|476:142|488:240,1,170,0|8,3:2|0:2,0:2:0:0:
428,315,96540,1,8,3:2:0:0:
322,250,96640,5,10,2:2:0:0:
237,245,96740,1,8,2:2:0:0:
152,241,96840,1,10,2:2:0:0:
67,236,96940,1,8,2:2:0:0:
13,168,97040,6,0,P|72:116|154:144,1,170,6|8,3:2|0:2,0:2:0:0:
228,227,97340,1,0,0:2:0:0:
324,174,97440,2,0,B|445:159|445:159|396:204,1,170,2|8,3:2|0:2,0:2:0:0:
237,126,97740,6,0,P|261:73|364:23,1,170,2|0,0:2|0:2,0:2:0:0:
449,36,98040,1,8,2:2:0:0:
510,106,98140,1,0,2:2:0:0:
512,199,98240,2,0,L|505:299,1,85,2|0,3:2|3:2,0:2:0:0:
396,341,98440,2,0,L|390:256,1,85,10|0,0:2|0:2,0:2:0:0:
292,187,98640,6,0,B|240:203|240:203|184:187|184:187|121:206,1,170,6|8,3:2|0:2,0:2:0:0:
201,321,98940,1,8,0:2:0:0:
308,273,99040,2,0,P|292:189|251:115,1,170,6|8,3:2|0:2,0:2:0:0:
440,34,99340,6,0,P|398:107|383:191,1,170,6|0,0:2|0:2,0:2:0:0:
402,291,99640,1,8,0:2:0:0:
320,352,99740,1,0,0:2:0:0:
232,298,99840,2,0,P|183:281|141:278,1,85,2|0,3:2|3:2,0:2:0:0:
78,194,100040,2,0,P|120:188|159:173,1,85,10|0,0:2|0:2,0:2:0:0:
236,27,100240,6,0,L|245:112,1,85,2|0,3:2|0:2,0:2:0:0:
327,159,100440,2,0,L|411:150,1,85,10|0,0:2|0:2,0:2:0:0:
251,19,100640,2,0,L|166:28,1,85,2|0,3:2|3:2,0:2:0:0:
346,131,100840,2,0,L|431:122,1,85,10|0,2:2|2:2,0:2:0:0:
405,254,101040,6,0,B|341:287|303:215|225:257,1,170,2|8,3:2|0:2,0:2:0:0:
131,277,101340,1,0,0:2:0:0:
38,216,101440,2,0,L|27:131,1,85,2|0,3:2|3:2,0:2:0:0:
58,19,101640,1,10,0:2:0:0:
91,21,101740,1,2,0:2:0:0:
113,46,101840,6,0,B|231:126|291:-22|405:56,1,297.5,4|0,2:2|0:2,0:2:0:0:
344,126,102640,5,8,3:2:0:0:
296,190,102740,1,8,3:2:0:0:
344,255,102840,1,8,3:2:0:0:
420,230,102940,1,8,3:2:0:0:
420,148,103240,5,8,2:2:0:0:
420,148,103340,2,0,P|360:133|244:132,1,127.500004863739,2|0,3:2|0:2,0:2:0:0:
170,119,103640,2,0,P|199:70|212:39,1,63.7500024318696,10|0,0:2|0:2,0:2:0:0:
78,95,103840,2,0,L|88:182,1,63.7500024318696,2|0,3:2|0:2,0:2:0:0:
39,240,104040,2,0,L|49:327,1,63.7500024318696,10|0,0:2|0:2,0:2:0:0:
135,269,104240,6,0,L|221:259,1,63.7500024318696,2|0,3:2|0:2,0:2:0:0:
343,330,104440,2,0,L|262:342,1,63.7500024318696,10|0,0:2|0:2,0:2:0:0:
147,285,104640,2,0,L|233:275,1,63.7500024318696,2|2,3:2|3:2,0:2:0:0:
355,346,104840,2,0,L|274:358,1,63.7500024318696,8|2,0:2|0:2,0:2:0:0:
307,254,105040,6,0,P|318:207|324:163,1,63.7500024318696,0|0,2:2|0:2,0:2:0:0:
188,106,105240,2,0,P|194:143|204:181,1,63.7500024318696,10|0,0:2|0:2,0:2:0:0:
327,241,105440,2,0,P|336:203|342:166,1,63.7500024318696,2|0,3:2|0:2,0:2:0:0:
171,97,105640,2,0,P|177:134|186:171,1,63.7500024318696,10|0,0:2|0:2,0:2:0:0:
340,178,105840,6,0,P|412:154|488:145,1,127.500004863739,2|8,3:2|0:2,0:2:0:0:
436,42,106140,1,0,0:2:0:0:
329,27,106240,2,0,L|291:110,2,63.7500024318696,2|2|8,3:2|3:2|0:2,0:2:0:0:
195,51,106540,1,2,0:0:0:0:
195,51,106640,6,0,P|160:68|110:80,1,63.7500024318696,0|0,0:2|0:2,0:2:0:0:
36,187,106840,2,0,P|73:193|111:201,1,63.7500024318696,10|0,0:2|0:2,0:2:0:0:
194,268,107040,2,0,P|221:242|246:213,1,63.7500024318696,2|0,3:2|0:2,0:2:0:0:
345,158,107240,2,0,L|336:245,1,63.7500024318696,10|0,0:2|0:2,0:2:0:0:
410,312,107440,6,0,L|496:308,1,63.7500024318696,2|0,3:2|0:2,0:2:0:0:
325,366,107640,2,0,L|239:362,1,63.7500024318696,10|0,0:2|0:2,0:2:0:0:
117,264,107840,1,2,3:2:0:0:
117,264,107940,2,0,L|203:268,2,63.7500024318696,2|8|2,3:2|0:2|0:2,0:2:0:0:
178,175,108240,6,0,P|216:147|242:113,1,63.7500024318696,0|0,2:2|0:2,0:2:0:0:
334,68,108440,2,0,L|344:164,1,63.7500024318696,10|0,0:2|0:2,0:2:0:0:
334,282,108640,2,0,P|296:254|270:220,1,63.7500024318696,2|0,3:2|0:2,0:2:0:0:
178,175,108840,2,0,L|168:271,1,63.7500024318696,10|0,0:2|0:2,0:2:0:0:
63,147,109040,6,0,P|101:119|127:85,1,63.7500024318696,2|0,3:2|0:2,0:2:0:0:
220,61,109240,2,0,P|245:89|276:111,1,63.7500024318696,10|0,0:2|0:2,0:2:0:0:
396,166,109440,1,2,3:2:0:0:
396,166,109540,2,0,P|359:178|325:195,1,63.7500024318696,2|8,3:2|0:2,0:2:0:0:
248,258,109740,6,0,P|292:285|346:292,2,63.7500024318696,2|0|0,2:2|2:2|0:2,0:2:0:0:
152,227,110040,2,0,P|120:248|84:260,1,63.7500024318696,10|0,0:2|0:2,0:2:0:0:
13,188,110240,2,0,L|19:101,1,63.7500024318696,2|0,3:2|0:2,0:2:0:0:
98,53,110440,1,10,0:2:0:0:
177,112,110540,1,0,0:2:0:0:
271,82,110640,6,0,L|357:73,2,63.7500024318696,2|0|10,3:2|0:2|0:2,0:2:0:0:
182,126,110940,1,0,0:2:0:0:
85,151,111040,2,0,L|-1:142,2,63.7500024318696,2|2|8,3:2|3:2|0:2,0:2:0:0:
181,225,111340,6,0,P|260:200|346:207,1,127.500004863739,6|0,0:2|0:2,0:2:0:0:
448,151,111640,2,0,P|401:123|376:101,1,63.7500024318696,10|0,0:2|0:2,0:2:0:0:
300,31,111840,2,0,P|290:68|278:105,1,63.7500024318696,2|0,3:2|0:2,0:2:0:0:
171,128,112040,2,0,P|158:91|148:54,1,63.7500024318696,10|0,0:2|0:2,0:2:0:0:
58,135,112240,6,0,L|32:291,1,127.500004863739,2|10,3:2|0:2,0:2:0:0:
106,352,112540,1,2,0:2:0:0:
179,284,112640,1,2,3:2:0:0:
179,284,112740,2,0,L|268:275,1,63.7500024318696,2|8,3:2|0:2,0:2:0:0:
340,210,112940,1,2,0:2:0:0:
410,307,113040,6,0,P|455:248|446:174,1,127.500004863739,2|8,0:2|0:2,0:2:0:0:
371,105,113340,1,0,0:2:0:0:
434,28,113440,2,0,L|521:25,1,63.7500024318696,8|0,3:2|2:2,0:2:0:0:
371,105,113640,2,0,L|294:102,1,63.7500024318696,8|0,0:2|3:2,0:2:0:0:
104,141,113840,5,10,0:2:0:0:
203,166,113940,2,0,P|210:203|216:241,1,76.4999976654053,10|0,0:2|0:2,0:2:0:0:
46,191,114140,2,0,P|74:165|104:141,1,76.4999976654053,10|0,2:2|2:2,0:2:0:0:
137,311,114340,2,0,P|100:298|65:285,1,76.4999976654053,10|0,0:2|2:2,0:2:0:0:
224,351,114540,1,8,0:2:0:0:
299,285,114640,6,0,P|336:275|374:269,1,76.4999976654053,2|0,3:2|0:2,0:2:0:0:
437,172,114840,2,0,P|399:166|362:156,1,76.4999976654053,10|0,0:2|0:2,0:2:0:0:
186,182,115040,2,0,P|223:172|261:166,1,76.4999976654053,2|0,3:2|0:2,0:2:0:0:
324,67,115240,2,0,P|286:61|249:51,1,76.4999976654053,10|0,0:2|0:2,0:2:0:0:
88,51,115440,6,0,L|105:150,1,76.4999976654053,2|0,3:2|0:2,0:2:0:0:
0,283,115640,2,0,P|53:232|126:245,1,152.999995330811,10|0,0:2|3:2,0:2:0:0:
197,314,115940,1,0,0:2:0:0:
285,269,116040,1,8,0:2:0:0:
381,294,116140,6,0,B|428:317|428:317|435:232|488:234,1,136,6|0,0:2|0:2,0:2:0:0:
474,143,116440,1,10,0:2:0:0:
384,164,116540,1,0,0:2:0:0:
318,99,116640,2,0,L|312:15,2,68,2|0|10,3:2|0:2|0:2,0:2:0:0:
216,164,116940,1,0,0:2:0:0:
216,164,117040,6,0,P|179:152|141:147,2,68,2|0|10,3:2|0:2|0:2,0:2:0:0:
288,231,117340,1,0,0:2:0:0:
377,274,117440,2,0,P|414:269|451:257,2,68,2|2|8,3:2|3:2|0:2,0:2:0:0:
288,231,117740,1,2,0:2:0:0:
208,290,117840,2,0,B|168:300|168:300|134:285|134:285|101:297|101:297|63:289,1,136,0|10,0:2|0:2,0:2:0:0:
96,89,118240,5,2,3:2:0:0:
168,46,118340,1,0,0:2:0:0:
241,86,118440,2,0,L|250:163,1,68,10|0,0:2|0:2,0:2:0:0:
338,209,118640,2,0,P|395:196|429:192,2,68,2|0|10,3:2|0:2|0:2,0:2:0:0:
252,260,118940,1,0,0:2:0:0:
158,225,119040,1,2,3:2:0:0:
155,210,119140,1,2,3:2:0:0:
153,195,119240,1,8,0:2:0:0:
150,180,119340,1,2,0:2:0:0:
148,165,119440,6,0,P|111:154|73:148,1,68,0|0,0:2|0:2,0:2:0:0:
198,66,119640,2,0,P|234:55|272:49,1,68,10|0,0:2|0:2,0:2:0:0:
376,115,119840,2,0,L|371:208,1,68,2|0,3:2|0:2,0:2:0:0:
268,277,120040,2,0,L|272:200,1,68,10|0,0:2|0:2,0:2:0:0:
190,304,120240,6,0,P|267:312|357:341,1,136,2|10,3:2|0:2,0:2:0:0:
425,376,120540,1,0,0:2:0:0:
500,311,120640,1,2,3:2:0:0:
500,311,120740,2,0,L|510:217,1,68,2|8,3:2|0:2,0:2:0:0:
441,94,120940,6,0,P|390:149|326:191,1,136,2|0,0:2|0:2,0:2:0:0:
224,259,121240,2,0,P|217:221|212:183,1,68,10|0,0:2|0:2,0:2:0:0:
337,115,121440,2,0,P|331:152|325:190,1,68,2|0,3:2|0:2,0:2:0:0:
374,293,121640,2,0,P|439:277|485:273,1,68,10|0,0:2|0:2,0:2:0:0:
277,365,121840,5,2,3:2:0:0:
185,354,121940,1,0,0:2:0:0:
93,343,122040,2,0,P|81:290|80:251,1,68,10|0,0:2|0:2,0:2:0:0:
240,214,122240,2,0,P|212:240|181:263,1,68,2|2,3:2|3:2,0:2:0:0:
53,157,122440,2,0,P|89:168|124:183,1,68,8|2,0:2|0:2,0:2:0:0:
321,276,122640,6,0,P|349:230|366:122,1,136,4|10,0:2|0:2,0:2:0:0:
298,49,122940,1,0,0:2:0:0:
429,46,123040,2,0,P|450:89|461:123,1,68,2|0,3:2|0:2,0:2:0:0:
267,119,123240,2,0,P|279:82|297:48,1,68,10|0,0:2|0:2,0:2:0:0:
182,182,123440,6,0,P|126:168|47:104,1,136,2|10,3:2|0:2,0:2:0:0:
125,31,123740,1,0,0:2:0:0:
125,31,123840,2,0,L|206:21,2,68,2|2|8,3:2|3:2|0:2,0:2:0:0:
51,110,124140,1,2,0:2:0:0:
51,110,124240,6,0,P|38:168|29:195,1,68,0|0,0:2|0:2,0:2:0:0:
136,323,124440,2,0,P|125:286|118:249,1,68,10|0,0:2|0:2,0:2:0:0:
184,164,124640,1,2,3:2:0:0:
269,214,124740,1,0,0:2:0:0:
354,161,124840,2,0,L|457:149,1,68,10|0,0:2|0:2,0:2:0:0:
359,266,125040,6,0,L|256:254,1,68,2|0,3:2|0:2,0:2:0:0:
184,164,125240,2,0,P|198:128|201:90,1,68,10|0,0:2|0:2,0:2:0:0:
74,198,125440,1,2,3:2:0:0:
74,197,125540,2,0,P|77:235|91:271,1,68,2|8,3:2|0:2,0:2:0:0:
218,352,125740,6,0,P|278:336|382:342,1,136,2|0,0:2|0:2,0:2:0:0:
314,237,126040,1,10,0:2:0:0:
314,237,126140,1,0,0:2:0:0:
314,237,126240,2,0,P|298:179|296:149,1,68,2|0,3:2|0:2,0:2:0:0:
430,99,126440,2,0,P|424:136|412:173,1,68,10|0,0:2|0:2,0:2:0:0:
301,247,126640,2,0,P|250:231|210:226,1,68,2|0,3:2|0:2,0:2:0:0:
148,299,126840,2,0,P|97:315|57:320,1,68,10|0,0:2|0:2,0:2:0:0:
13,226,127040,5,0,3:2:0:0:
1,144,127140,1,0,3:2:0:0:
51,79,127240,1,8,0:2:0:0:
135,70,127340,1,8,0:2:0:0:
205,115,127440,6,0,B|252:129|252:129|308:118|308:118|367:137,1,152.999995330811,6|0,3:2|0:2,0:2:0:0:
267,245,127740,1,8,0:2:0:0:
129,176,127840,2,0,P|109:105|145:39,1,152.999995330811,6|8,0:2|0:2,0:2:0:0:
261,48,128140,1,8,0:2:0:0:
340,167,128240,5,0,3:2:0:0:
415,181,128340,1,8,0:2:0:0:
472,122,128440,1,8,0:2:0:0:
452,42,128540,1,8,0:2:0:0:
378,16,128640,1,0,3:2:0:0:
347,174,128840,5,8,0:2:0:0:
347,174,128940,1,8,0:2:0:0:
347,174,129040,2,0,B|368:222|368:222|345:341,1,152.999995330811,8|0,3:2|2:2,0:2:0:0:
292,377,129340,1,0,3:2:0:0:
498,345,129440,2,0,B|477:297|477:297|496:198,1,152.999995330811,12|0,0:2|3:2,0:2:0:0:
392,102,129740,1,8,3:2:0:0:
318,182,129840,6,0,P|282:196|245:204,1,76.4999976654053,0|8,3:2|2:2,0:2:0:0:
176,91,130040,2,0,P|213:99|248:113,1,76.4999976654053,0|0,3:2|2:2,0:2:0:0:
237,207,130240,1,8,2:2:0:0:
153,215,130340,1,0,3:2:0:0:
93,155,130440,2,0,P|72:84|118:5,1,152.999995330811,4|0,3:2|0:2,0:2:0:0:
272,36,130740,5,8,2:2:0:0:
272,36,130840,2,0,P|261:98|257:131,1,76.4999976654053,0|0,3:2|3:2,0:2:0:0:
324,205,131040,2,8,P|364:180|396:163,1,76.4999976654053,8|8,0:2|0:2,0:2:0:0:
411,284,131240,1,8,2:2:0:0:
299,330,131340,6,0,P|229:302|153:291,1,152.999995330811,4|0,2:2|3:2,0:2:0:0:
65,191,131640,2,0,L|157:174,1,76.4999976654053,10|0,2:2|3:2,0:2:0:0:
299,134,131840,2,0,L|208:110,1,76.4999976654053,10|0,2:2|3:2,0:2:0:0:
32,82,132040,2,8,L|123:58,1,76.4999976654053,10|8,0:2|0:2,0:2:0:0:
228,229,132240,5,0,3:0:0:0:
228,229,132440,2,0,P|273:210|327:216,1,76.4999976654053,0|0,3:2|3:2,0:2:0:0:
151,289,132640,2,0,P|138:252|131:215,1,76.4999976654053,12|0,2:2|3:2,0:2:0:0:
248,155,132840,2,0,P|240:192|228:228,1,76.4999976654053,8|0,2:2|3:2,0:2:0:0:
60,140,133040,6,0,L|149:128,1,76.4999976654053,2|8,2:2|0:2,0:2:0:0:
303,238,133240,2,0,L|214:226,1,76.4999976654053,2|0,0:2|3:2,0:2:0:0:
83,325,133440,2,0,L|172:313,1,76.4999976654053,10|0,0:2|3:2,0:2:0:0:
416,200,133640,6,0,P|397:147|323:65,1,152.999995330811,4|0,2:2|0:2,0:2:0:0:
160,118,133940,1,0,3:2:0:0:
160,118,134040,2,0,L|268:109,1,76.4999976654053,0|0,3:2|2:2,0:2:0:0:
91,201,134240,2,8,P|60:162|42:123,1,76.4999976654053,8|8,0:2|0:2,0:2:0:0:
199,233,134440,2,8,P|180:266|155:295,1,76.4999976654053,8|8,0:2|0:2,0:2:0:0:
75,355,134640,5,2,3:2:0:0:
75,355,134740,2,0,P|146:332|231:345,1,152.999995330811,4|0,3:3|3:2,0:2:0:0:
304,381,135040,2,0,P|343:379|393:345,1,76.4999976654053,8|0,2:2|3:0,0:0:0:0:
418,276,135240,1,8,3:2:0:0:
403,193,135340,1,8,3:2:0:0:
340,139,135440,6,0,P|305:125|268:119,1,76.4999976654053,2|0,3:2|0:2,0:2:0:0:
183,187,135640,2,0,P|147:201|110:207,1,76.4999976654053,8|0,0:2|0:2,0:2:0:0:
36,80,135840,2,0,P|73:86|109:100,1,76.4999976654053,2|0,3:2|0:2,0:2:0:0:
183,187,136040,2,0,P|188:223|187:261,1,76.4999976654053,8|0,0:2|0:2,0:2:0:0:
321,316,136240,6,0,P|356:293|381:261,1,76.4999976654053,2|0,3:2|0:2,0:2:0:0:
388,159,136440,2,0,P|374:119|350:86,1,76.4999976654053,8|0,0:2|0:2,0:2:0:0:
174,77,136640,2,0,P|209:93|246:102,1,76.4999976654053,2|0,3:2|0:2,0:2:0:0:
354,55,136840,2,0,P|388:39|425:30,1,76.4999976654053,8|0,0:2|0:2,0:2:0:0:
472,168,137040,5,2,3:2:0:0:
443,220,137140,1,0,0:2:0:0:
387,243,137240,1,8,0:2:0:0:
330,226,137340,1,0,0:2:0:0:
288,182,137440,1,2,3:2:0:0:
231,166,137540,1,0,0:2:0:0:
175,189,137640,1,8,0:2:0:0:
146,241,137740,1,0,0:2:0:0:
152,301,137840,6,0,P|187:323|240:333,1,76.4999976654053,2|0,3:2|0:2,0:2:0:0:
329,290,138040,2,0,P|351:255|361:202,1,76.4999976654053,8|0,0:2|0:2,0:2:0:0:
325,111,138240,2,0,P|290:89|237:79,1,76.4999976654053,2|0,3:2|2:2,0:2:0:0:
148,122,138440,2,0,P|126:157|116:210,1,76.4999976654053,8|0,0:2|3:2,0:2:0:0:
248,253,138640,6,0,P|303:233|403:217,1,136,4|0,0:2|0:2,0:2:0:0:
358,332,138940,1,0,3:2:0:0:
233,360,139040,2,0,L|157:352,1,68,8|0,0:2|0:2,0:2:0:0:
56,246,139240,2,0,L|133:238,1,68,8|0,0:2|0:2,0:2:0:0:
281,154,139440,5,0,3:2:0:0:
281,154,139540,2,0,L|295:56,1,68,8|0,2:2|3:2,0:2:0:0:
259,113,139840,6,0,L|245:211,1,68,4|0,0:2|0:2,0:2:0:0:
147,272,140040,2,0,L|157:196,1,68,4|0,0:2|0:2,0:2:0:0:
350,70,140240,5,8,0:2:0:0:
350,70,140340,1,8,0:2:0:0:
142,116,140540,1,8,0:2:0:0:
367,88,140740,1,8,0:2:0:0:
132,138,140940,6,0,P|111:192|163:283,1,136,10|0,0:2|0:2,0:2:0:0:
263,219,141240,2,0,P|250:183|223:212,1,85,8|0,0:2|0:2,0:2:0:0:
279,325,141440,5,10,0:2:0:0:
350,283,141540,1,8,0:2:0:0:
378,205,141640,1,10,0:2:0:0:
359,122,141740,1,8,0:2:0:0:
290,71,141840,6,0,B|236:58|236:58|177:76|177:76|116:60,1,170,6|8,3:2|0:2,0:2:0:0:
38,137,142140,1,0,0:2:0:0:
29,154,142240,2,0,B|71:169|71:169|109:158,1,85,2|0,3:2|3:2,0:2:0:0:
290,186,142440,2,0,B|251:174|251:174|204:192,1,85,8|0,0:2|0:2,0:2:0:0:
365,247,142640,6,0,P|322:184|301:84,1,170,2|8,3:2|0:2,0:2:0:0:
421,71,142940,1,0,0:2:0:0:
467,227,143040,2,0,P|376:264|298:334,1,170,4|8,3:2|0:2,0:2:0:0:
161,356,143340,1,0,0:2:0:0:
161,356,143440,6,0,P|184:291|177:246,1,85,2|0,3:2|0:2,0:2:0:0:
224,132,143640,2,0,P|179:79|136:63,1,85,10|0,0:2|0:2,0:2:0:0:
30,195,143840,2,0,P|97:182|133:153,1,85,2|0,3:2|3:2,0:2:0:0:
338,198,144040,1,10,0:2:0:0:
338,198,144140,1,0,0:2:0:0:
338,198,144240,2,0,P|271:211|235:240,1,85,2|0,3:2|0:2,0:2:0:0:
409,368,144440,2,0,L|417:272,1,85,10|0,0:2|0:2,0:2:0:0:
465,161,144640,2,0,L|456:65,1,85,2|0,3:2|3:2,0:2:0:0:
328,20,144840,2,0,P|321:83|328:121,1,85,10|0,0:2|0:2,0:2:0:0:
193,168,145040,6,0,P|196:125|188:83,1,85,2|0,3:2|0:2,0:2:0:0:
59,196,145240,2,0,B|17:233|17:233|135:225,1,170,12|0,0:2|3:2,0:2:0:0:
216,286,145540,1,0,3:2:0:0:
134,384,145640,2,0,P|130:325|143:289,1,85,10|0,0:2|0:2,0:2:0:0:
230,194,145840,6,0,P|277:223|393:206,1,170,2|8,3:2|0:2,0:2:0:0:
470,138,146140,1,0,0:2:0:0:
437,41,146240,2,0,P|380:52|342:41,1,85,0|0,3:2|3:2,0:2:0:0:
272,120,146440,2,0,P|215:109|177:120,1,85,10|0,0:2|0:2,0:2:0:0:
150,271,146640,6,0,L|143:187,1,85,2|0,3:2|0:2,0:2:0:0:
63,41,146840,2,0,L|55:125,1,85,10|0,0:2|0:2,0:2:0:0:
272,241,147040,1,2,3:2:0:0:
320,225,147140,1,2,3:2:0:0:
369,236,147240,1,10,0:2:0:0:
401,274,147340,1,2,0:2:0:0:
417,322,147440,6,0,P|407:251|419:208,1,85,2|2,3:2|0:2,0:2:0:0:
437,61,147640,2,0,P|447:132|435:175,1,85,8|2,0:2|0:2,0:2:0:0:
330,308,147840,5,8,3:2:0:0:
271,258,147940,1,10,3:2:0:0:
255,183,148040,1,8,3:2:0:0:
280,110,148140,1,8,3:2:0:0:
363,126,148240,6,0,P|246:155|197:121,1,170,6|8,3:2|0:2,0:2:0:0:
110,66,148540,1,0,0:2:0:0:
32,152,148640,2,0,P|39:218|27:263,1,85,0|0,3:2|3:2,0:2:0:0:
127,341,148840,2,0,P|123:298|130:257,1,85,10|0,0:2|0:2,0:2:0:0:
264,171,149040,6,0,P|278:237|204:223,1,170,2|8,3:2|0:2,0:2:0:0:
187,116,149340,1,0,0:2:0:0:
278,57,149440,2,0,B|342:57|342:57|374:73|374:73|454:73,1,170,2|8,3:2|0:2,0:2:0:0:
488,168,149740,1,0,0:2:0:0:
429,247,149840,6,0,P|375:239|314:260,1,85,2|0,3:2|0:2,0:2:0:0:
250,362,150040,2,0,P|258:308|237:247,1,85,10|0,0:2|0:2,0:2:0:0:
110,195,150240,2,0,P|164:203|225:182,1,85,2|0,3:2|3:2,0:2:0:0:
338,93,150440,1,8,0:2:0:0:
338,93,150540,6,0,B|227:150|214:26|83:97,1,255,2|8,0:2|0:2,0:2:0:0:
18,185,150940,1,0,0:2:0:0:
81,265,151040,2,0,L|89:360,1,85,2|0,3:2|3:2,0:2:0:0:
205,384,151240,2,0,L|212:299,1,85,10|0,0:2|0:2,0:2:0:0:
363,154,151440,6,0,B|405:187|405:187|280:195,1,170,6|8,3:2|0:2,0:2:0:0:
206,126,151740,1,0,0:2:0:0:
251,39,151840,2,0,P|314:32|367:48,1,85,0|0,3:2|3:2,0:2:0:0:
505,93,152040,2,0,P|442:86|389:102,1,85,8|0,0:2|0:2,0:2:0:0:
356,270,152240,6,0,P|395:325|477:282,1,170,4|10,3:2|0:2,0:2:0:0:
442,194,152540,1,2,0:2:0:0:
342,163,152640,2,0,L|246:171,1,85,2|0,3:2|3:2,0:2:0:0:
187,263,152840,1,10,0:2:0:0:
92,152,152940,6,0,P|107:236|83:338,1,170,6|0,0:2|0:2,0:2:0:0:
7,175,153240,2,0,L|15:79,1,85,8|0,0:2|0:2,0:2:0:0:
172,41,153440,2,0,P|174:101|164:153,1,85,0|0,3:2|3:2,0:2:0:0:
324,187,153640,2,0,L|332:91,1,85,8|0,0:2|0:2,0:2:0:0:
462,18,153840,1,0,3:2:0:0:
468,51,153940,1,0,0:2:0:0:
473,87,154040,2,0,L|487:187,1,85,8|0,0:2|0:2,0:2:0:0:
414,273,154240,5,10,3:2:0:0:
337,308,154340,1,8,3:2:0:0:
256,286,154440,1,10,3:3:0:0:
205,218,154540,1,4,3:3:0:0:
213,133,154640,6,0,P|161:78|66:109,1,170,6|8,3:2|0:2,0:2:0:0:
127,262,154940,1,0,0:2:0:0:
127,262,155040,2,0,L|118:166,1,85,0|0,3:2|3:2,0:2:0:0:
286,196,155240,2,0,P|224:216|186:218,1,85,10|0,0:2|0:2,0:2:0:0:
290,67,155440,6,0,P|376:80|457:112,1,170,2|8,3:2|0:2,0:2:0:0:
504,209,155740,1,0,0:2:0:0:
362,265,155840,2,0,P|404:210|413:277,1,170,4|8,3:2|0:2,0:2:0:0:
252,259,156140,1,0,0:2:0:0:
252,259,156240,6,0,P|251:202|270:140,1,85,2|0,3:2|0:2,0:2:0:0:
157,31,156440,2,0,P|163:72|161:115,1,85,10|0,0:2|0:2,0:2:0:0:
281,280,156640,2,0,P|280:223|299:161,1,85,2|0,3:2|3:2,0:2:0:0:
428,97,156840,1,10,0:2:0:0:
428,97,156940,1,0,0:2:0:0:
428,97,157040,6,0,L|539:87,2,85,2|0|10,3:2|0:2|0:2,0:2:0:0:
272,35,157340,1,0,0:2:0:0:
272,35,157440,2,0,P|209:24|160:29,1,85,2|0,3:2|3:2,0:2:0:0:
83,131,157640,2,0,P|20:142|-29:137,1,85,10|0,0:2|0:2,0:2:0:0:
97,305,157840,6,0,L|104:220,1,85,2|0,3:2|0:2,0:2:0:0:
215,113,158040,2,0,L|232:314,1,170,12|0,0:2|3:2,0:2:0:0:
320,349,158340,1,0,3:2:0:0:
389,270,158440,2,0,P|394:213|386:175,1,85,10|0,0:2|0:2,0:2:0:0:
290,76,158640,6,0,B|311:73|327:63|327:63|352:79|352:79|401:50|458:76,1,170,2|8,3:2|0:2,0:2:0:0:
511,159,158940,1,0,0:2:0:0:
498,263,159040,2,0,L|489:358,1,85,0|0,3:2|3:2,0:2:0:0:
400,151,159240,2,0,L|407:235,1,85,10|0,0:2|0:2,0:2:0:0:
301,328,159440,6,0,P|347:320|403:323,1,85,2|0,3:2|0:2,0:2:0:0:
170,262,159640,2,0,P|127:262|85:254,1,85,10|0,0:2|0:2,0:2:0:0:
334,359,159840,2,0,P|380:351|436:354,1,85,2|0,3:2|3:2,0:2:0:0:
203,293,160040,2,0,P|160:293|118:285,1,85,10|0,0:2|0:2,0:2:0:0:
6,272,160240,6,0,P|47:198|57:114,1,170,0|8,3:2|0:2,0:2:0:0:
116,21,160540,1,0,0:2:0:0:
205,82,160640,5,10,2:2:0:0:
290,87,160740,1,8,2:2:0:0:
375,91,160840,1,10,2:2:0:0:
460,96,160940,1,8,2:2:0:0:
512,180,161040,6,0,P|452:203|402:202,1,85,6|0,3:2|0:2,0:2:0:0:
337,271,161240,2,0,P|277:248|227:249,1,85,10|0,0:2|0:2,0:2:0:0:
119,162,161440,2,0,P|96:237|112:328,1,170,2|8,3:2|0:2,0:2:0:0:
264,330,161740,6,0,B|218:342|218:342|344:365,1,170,2|0,0:2|0:2,0:2:0:0:
428,334,162040,1,8,0:2:0:0:
469,250,162140,1,0,0:2:0:0:
444,159,162240,2,0,L|348:150,1,85,2|0,3:2|3:2,0:2:0:0:
198,248,162440,2,0,L|282:240,1,85,10|0,0:2|0:2,0:2:0:0:
272,113,162640,6,0,P|223:73|107:124,1,170,6|8,3:2|0:2,0:2:0:0:
50,175,162940,1,10,0:2:0:0:
126,261,163040,2,0,P|142:184|123:90,1,170,6|8,3:2|0:2,0:2:0:0:
250,15,163340,6,0,P|233:97|249:180,1,170,6|0,0:2|0:2,0:2:0:0:
326,233,163640,1,8,0:2:0:0:
414,202,163740,1,8,0:2:0:0:
441,112,163840,2,0,P|442:59|428:20,1,85,2|0,3:2|3:2,0:2:0:0:
316,62,164040,2,0,P|311:114|323:154,1,85,10|0,0:2|0:2,0:2:0:0:
498,209,164240,6,0,L|386:199,1,85,2|0,3:2|0:2,0:2:0:0:
329,311,164440,2,0,L|217:320,1,85,10|0,0:2|0:2,0:2:0:0:
143,214,164640,2,0,L|31:204,1,85,2|0,3:2|3:2,0:2:0:0:
164,96,164840,2,0,P|225:85|271:93,1,85,10|0,0:2|0:2,0:2:0:0:
346,178,165040,6,0,P|407:189|453:181,1,85,2|0,3:2|0:2,0:2:0:0:
509,60,165240,2,0,P|466:58|425:68,1,85,10|0,0:2|0:2,0:2:0:0:
353,262,165440,2,0,L|344:166,1,85,2|0,3:2|3:2,0:2:0:0:
166,149,165640,1,10,0:2:0:0:
132,156,165740,1,2,0:2:0:0:
109,181,165840,6,0,P|147:236|232:108,1,297.5,4|0,2:2|0:2,0:2:0:0:
154,110,166640,5,8,3:2:0:0:
114,185,166740,1,8,3:2:0:0:
174,245,166840,1,8,3:2:0:0:
252,211,166940,1,8,3:2:0:0:
406,218,177040,5,2,3:2:0:0:
417,236,177440,1,0,3:2:0:0:
428,254,177840,1,0,3:2:0:0:
439,272,178240,1,0,3:2:0:0:
273,211,178640,5,2,3:2:0:0:
262,193,179040,1,0,3:2:0:0:
251,175,179440,5,10,3:2:0:0:
148,145,179540,1,8,3:2:0:0:
74,222,179640,1,8,3:2:0:0:
93,326,179740,1,8,0:0:0:0:
93,326,180140,6,0,P|168:300|271:328,1,170,6|0,3:2|0:2,0:2:0:0:
326,362,180440,1,8,0:2:0:0:
408,340,180540,1,0,0:2:0:0:
451,266,180640,2,0,P|443:206|421:166,1,85,2|0,3:2|0:2,0:2:0:0:
331,52,180840,2,0,P|315:91|313:133,1,85,10|0,0:2|0:2,0:2:0:0:
365,239,181040,6,0,L|157:220,1,170,2|8,3:2|0:2,0:2:0:0:
104,261,181340,1,0,0:2:0:0:
47,173,181440,2,0,P|44:105|60:68,1,85,2|0,3:2|3:2,0:2:0:0:
141,34,181640,1,10,0:2:0:0:
231,112,181740,6,0,B|295:112|295:112|327:128|327:128|423:128,1,170,0|0,3:2|0:2,0:2:0:0:
470,172,182040,1,10,0:2:0:0:
484,255,182140,1,2,0:2:0:0:
438,327,182240,2,0,P|373:325|339:301,1,85,2|0,3:2|0:2,0:2:0:0:
255,249,182440,2,0,P|190:251|156:275,1,85,10|0,0:2|0:2,0:2:0:0:
77,362,182640,5,2,3:2:0:0:
89,277,182740,1,2,0:2:0:0:
101,192,182840,1,10,0:2:0:0:
78,109,182940,2,0,P|28:85|-3:83,1,85,2|0,2:2|3:2,0:2:0:0:
200,118,183140,2,0,P|250:94|281:92,1,85,2|8,3:2|0:2,0:2:0:0:
367,244,183340,6,0,L|376:132,1,85,2|0,3:2|0:2,0:2:0:0:
444,83,183540,1,2,0:2:0:0:
468,219,183640,2,0,L|460:303,1,85,10|0,0:2|0:2,0:2:0:0:
356,345,183840,5,2,3:2:0:0:
315,270,183940,1,2,0:2:0:0:
234,242,184040,1,10,0:2:0:0:
151,264,184140,1,2,0:2:0:0:
99,331,184240,2,0,P|99:282|85:224,1,85,2|0,3:2|0:2,0:2:0:0:
2,139,184440,6,0,P|76:172|158:119,1,170,14|0,0:2|3:2,0:2:0:0:
189,58,184740,1,0,3:2:0:0:
273,18,184840,2,0,P|321:13|368:18,1,85,10|2,0:2|3:2,0:2:0:0:
501,121,185040,2,0,P|458:123|416:119,1,85,2|0,0:2|0:2,0:2:0:0:
233,217,185240,6,0,P|307:184|389:237,1,170,10|0,0:2|3:2,0:2:0:0:
468,282,185540,1,0,0:2:0:0:
346,331,185640,2,0,L|234:321,1,85,8|0,0:2|0:2,0:2:0:0:
179,347,185840,5,2,3:2:0:0:
98,319,185940,1,2,0:2:0:0:
55,245,186040,1,10,0:2:0:0:
67,160,186140,1,2,0:2:0:0:
130,103,186240,2,0,P|197:93|240:101,1,85,2|0,3:2|3:2,0:2:0:0:
300,183,186440,2,0,P|367:193|410:185,1,85,10|0,0:2|3:2,0:2:0:0:
357,29,186640,6,0,L|348:124,1,85,2|0,0:2|0:2,0:2:0:0:
226,266,186840,2,0,L|217:170,1,85,8|0,0:2|0:2,0:2:0:0:
368,278,187040,2,0,P|377:345|370:381,2,85,2|0|8,3:2|0:2|0:2,0:2:0:0:
484,121,187340,2,0,P|475:188|482:224,2,85,2|0|0,0:2|3:2|0:2,0:2:0:0:
379,40,187640,2,0,P|311:53|266:40,1,85,10|0,0:2|0:2,0:2:0:0:
148,15,187840,6,0,B|142:78|142:78|155:112|155:112|147:207,1,170,6|8,3:2|0:2,0:2:0:0:
78,249,188140,1,0,3:2:0:0:
233,212,188240,2,0,L|328:220,1,85,2|0,0:2|0:2,0:2:0:0:
459,329,188440,2,0,L|363:337,1,85,10|0,0:2|0:2,0:2:0:0:
399,150,188640,2,0,P|413:220|414:264,1,85,2|0,3:2|0:2,0:2:0:0:
258,384,188840,2,0,P|262:341|272:300,1,85,10|0,0:2|0:2,0:2:0:0:
318,148,189040,6,0,P|313:105|303:64,1,85,2|0,3:2|0:2,0:2:0:0:
225,30,189240,1,10,0:2:0:0:
174,35,189340,1,0,0:2:0:0:
133,65,189440,1,2,3:2:0:0:
117,113,189540,1,2,3:2:0:0:
129,162,189640,1,10,0:2:0:0:
165,198,189740,1,2,3:2:0:0:
215,206,189840,6,0,P|257:203|297:190,1,85,6|0,0:2|0:2,0:2:0:0:
420,140,190040,1,10,0:2:0:0:
478,175,190140,1,0,0:2:0:0:
496,240,190240,1,2,3:2:0:0:
473,304,190340,1,2,0:2:0:0:
410,330,190440,1,10,0:2:0:0:
344,310,190540,1,2,0:2:0:0:
313,249,190640,6,0,P|272:237|215:241,1,85,6|0,3:2|0:2,0:2:0:0:
45,232,190840,1,10,0:2:0:0:
24,149,190940,1,0,0:2:0:0:
61,72,191040,1,2,3:2:0:0:
140,40,191140,1,2,3:2:0:0:
219,71,191240,1,10,0:2:0:0:
262,144,191340,1,2,3:2:0:0:
186,234,191440,6,0,P|155:194|142:155,1,85,6|0,0:2|0:2,0:2:0:0:
335,57,191640,1,10,0:2:0:0:
335,57,191740,2,0,P|366:97|379:136,1,85,2|0,0:2|3:2,0:2:0:0:
346,344,191940,1,2,0:2:0:0:
346,344,192040,6,0,P|361:304|388:272,1,85,10|0,0:2|0:2,0:2:0:0:
512,202,192240,2,0,L|400:192,1,85,2|0,3:2|0:2,0:2:0:0:
297,263,192440,2,0,L|103:279,1,170,10|0,0:2|3:2,0:2:0:0:
57,230,192740,1,0,3:2:0:0:
58,145,192840,1,8,0:2:0:0:
124,92,192940,6,0,B|174:110|174:110|306:75,1,170,4|0,3:2|0:2,0:2:0:0:
442,31,193240,2,0,P|437:91|447:133,1,85,10|0,0:2|0:2,0:2:0:0:
436,232,193440,1,2,3:2:0:0:
360,218,193540,1,2,0:2:0:0:
298,263,193640,1,10,0:2:0:0:
222,249,193740,1,2,0:2:0:0:
154,294,193840,5,2,3:2:0:0:
123,223,193940,1,2,0:2:0:0:
150,161,194040,1,10,0:2:0:0:
204,137,194140,1,2,0:2:0:0:
253,149,194240,1,2,3:2:0:0:
277,183,194340,1,2,3:2:0:0:
276,216,194440,2,0,L|180:207,1,85,10|2,0:2|3:2,0:2:0:0:
49,98,194640,6,0,P|119:86|155:86,1,85,2|2,0:2|0:2,0:2:0:0:
278,40,194840,2,0,P|323:94|341:125,1,85,10|2,0:2|0:2,0:2:0:0:
482,144,195040,2,0,P|442:250|413:300,1,170,2|8,3:2|0:2,0:2:0:0:
315,338,195340,1,0,0:2:0:0:
259,254,195440,2,0,P|260:198|275:145,1,85,2|0,3:2|0:2,0:2:0:0:
161,53,195640,6,0,P|177:139|175:227,1,170,10|0,0:2|3:2,0:2:0:0:
137,298,195940,1,0,3:2:0:0:
52,298,196040,1,8,0:2:0:0:
7,222,196140,2,0,B|64:209|64:209|213:225,1,170,6|0,3:2|0:2,0:2:0:0:
333,275,196440,2,0,P|378:280|434:266,2,56.6666666666667,10|0|0,0:2|0:2|0:2,0:2:0:0:
440,202,196640,5,2,3:2:0:0:
447,187,196706,1,0,0:2:0:0:
451,170,196773,1,0,0:2:0:0:
451,152,196840,1,10,0:2:0:0:
448,135,196906,1,0,0:2:0:0:
443,118,196973,1,0,0:2:0:0:
435,102,197040,6,0,P|400:107|371:96,2,56.6666666666667,2|0|0,3:2|0:2|0:2,0:2:0:0:
343,182,197240,2,0,P|310:169|290:144,2,56.6666666666667,10|0|0,2:2|2:2|2:2,2:2:0:0:
235,227,197440,2,0,P|212:199|208:168,2,56.6666666666667,2|0|0,3:2|2:2|2:2,2:2:0:0:
219,78,197640,5,10,0:2:0:0:
204,70,197706,1,0,0:2:0:0:
187,65,197773,1,0,0:2:0:0:
169,63,197840,1,2,3:2:0:0:
152,64,197906,1,0,0:2:0:0:
135,68,197973,1,0,0:2:0:0:
119,75,198040,6,0,L|124:138,2,56.6666666666667,10|0|0,0:2|0:2|0:2,0:2:0:0:
32,153,198240,2,0,L|27:216,2,56.6666666666667,2|0|0,3:2|0:2|0:2,0:2:0:0:
114,251,198440,2,0,P|173:236|214:244,1,85,10|0,0:2|0:2,0:2:0:0:
273,301,198640,6,0,P|373:326|443:312,1,170,6|8,3:2|0:2,0:2:0:0:
477,240,198940,1,0,0:2:0:0:
433,166,199040,2,0,L|441:70,1,85,0|0,3:2|3:2,0:2:0:0:
314,21,199240,2,0,L|321:105,1,85,8|0,0:2|3:2,0:2:0:0:
265,249,199440,5,2,0:2:0:0:
266,198,199540,1,0,0:2:0:0:
242,152,199640,1,10,0:2:0:0:
194,134,199740,1,0,0:2:0:0:
143,139,199840,2,0,P|113:171|94:220,1,85,2|0,3:2|0:2,0:2:0:0:
154,334,200040,2,0,P|196:343|248:335,1,85,10|0,0:2|0:2,0:2:0:0:
388,344,200240,5,2,3:2:0:0:
335,277,200340,1,2,0:2:0:0:
334,192,200440,1,10,0:2:0:0:
377,118,200540,1,2,0:2:0:0:
458,94,200640,5,0,3:2:0:0:
457,136,200740,1,0,3:2:0:0:
433,171,200840,1,8,0:2:0:0:
393,187,200940,1,0,3:2:0:0:
350,181,201040,6,0,B|304:154|304:154|175:151,1,170,6|8,0:2|0:2,0:2:0:0:
122,214,201340,1,0,0:2:0:0:
275,313,201440,6,0,P|277:249|206:282,1,170,4|10,3:2|0:2,0:2:0:0:
211,367,201740,1,2,0:2:0:0:
364,335,201840,6,0,P|376:285|368:233,1,85,6|0,3:2|0:2,0:2:0:0:
431,100,202040,2,0,P|429:142|440:183,1,85,10|0,0:2|0:2,0:2:0:0:
349,76,202240,2,0,P|289:48|161:76,1,170,2|8,3:2|0:2,0:2:0:0:
91,42,202540,1,0,3:2:0:0:
142,138,202640,6,0,P|152:186|145:236,1,85,6|0,3:2|0:2,0:2:0:0:
240,272,202840,2,0,P|230:320|237:370,1,85,10|0,0:2|0:2,0:2:0:0:
423,313,203040,2,0,L|327:304,1,85,2|0,3:2|0:2,0:2:0:0:
238,186,203240,2,0,L|333:177,1,85,10|0,0:2|0:2,0:2:0:0:
413,63,203440,6,0,P|362:46|302:44,1,85,2|0,3:2|0:2,0:2:0:0:
161,133,203640,2,0,P|201:97|232:46,1,85,10|0,0:2|0:2,0:2:0:0:
59,55,203840,2,0,L|68:166,1,85,2|0,3:2|0:2,0:2:0:0:
127,261,204040,2,0,L|117:372,1,85,10|0,0:2|0:2,0:2:0:0:
213,201,204240,6,0,B|265:237|340:202|340:202|323:234|323:234|388:197|451:235,1,297.5,6|0,0:2|0:2,0:2:0:0:
488,314,205040,5,8,3:2:0:0:
425,383,205140,1,8,3:3:0:0:
339,345,205240,1,4,3:3:0:0:
351,252,205340,1,4,3:3:0:0:
444,231,205440,1,8,3:2:0:0:
465,114,205640,5,8,0:2:0:0:
465,114,205740,1,8,0:2:0:0:
465,114,205840,2,0,B|390:126|390:126|282:109,1,152.999995330811,8|0,3:2|0:2,0:2:0:0:
211,67,206140,1,0,3:2:0:0:
131,197,206240,2,0,B|206:209|206:209|314:192,1,152.999995330811,12|0,0:2|0:2,0:2:0:0:
369,246,206540,5,8,0:2:0:0:
287,355,206640,2,0,P|288:312|279:269,1,76.4999976654053,0|8,3:2|2:2,0:2:0:0:
380,79,206840,2,0,P|373:116|375:154,1,76.4999976654053,0|0,0:2|3:2,0:2:0:0:
363,333,207040,1,8,0:2:0:0:
288,371,207140,1,0,3:2:0:0:
207,347,207240,6,0,B|99:328|99:328|74:280,1,152.999995330811,4|0,3:2|0:2,0:2:0:0:
138,111,207540,1,8,0:2:0:0:
138,111,207640,2,0,L|131:190,1,76.4999976654053,0|0,3:2|0:2,0:2:0:0:
262,42,207840,2,8,L|268:121,1,76.4999976654053,8|8,0:2|0:2,0:2:0:0:
262,209,208040,1,8,0:2:0:0:
365,148,208140,6,0,P|351:223|367:318,1,152.999995330811,4|0,0:2|3:2,0:2:0:0:
508,229,208440,2,0,P|467:208|429:200,1,76.4999976654053,10|0,0:2|3:2,0:2:0:0:
347,60,208640,2,0,P|308:85|282:113,1,76.4999976654053,10|0,0:2|3:2,0:2:0:0:
124,106,208840,2,8,P|126:152|138:188,1,76.4999976654053,10|8,0:2|2:2,0:2:0:0:
259,285,209040,5,0,3:0:0:0:
259,285,209240,2,0,B|266:230|259:193,1,76.4999976654053,0|0,3:2|3:2,0:2:0:0:
48,107,209440,2,0,P|107:109|145:99,1,76.4999976654053,8|0,0:2|3:2,0:2:0:0:
353,122,209640,2,0,P|294:124|256:114,1,76.4999976654053,8|0,0:2|3:2,0:2:0:0:
134,180,209840,6,0,L|142:275,1,76.4999976654053,0|8,0:2|0:2,0:2:0:0:
253,361,210040,2,0,L|259:284,1,76.4999976654053,0|0,3:2|3:2,0:2:0:0:
154,335,210240,1,8,0:2:0:0:
72,315,210340,1,0,3:2:0:0:
39,237,210440,6,0,P|26:169|54:69,1,152.999995330811,4|0,2:2|0:2,0:2:0:0:
237,89,210740,1,0,3:2:0:0:
237,89,210840,2,0,P|179:105|141:101,1,76.4999976654053,0|0,3:2|0:2,0:2:0:0:
300,5,211040,2,8,P|338:7|373:20,1,76.4999976654053,8|8,0:2|0:2,0:2:0:0:
340,201,211240,6,8,L|331:105,1,76.4999976654053,8|8,0:2|0:2,0:2:0:0:
472,212,211440,1,0,3:2:0:0:
472,212,211540,2,0,L|457:376,1,152.999995330811,4|0,3:3|3:2,0:2:0:0:
368,293,211840,6,0,P|339:248|305:231,1,76.4999976654053,8|0,3:2|3:0,0:0:0:0:
207,221,212040,1,8,3:2:0:0:
137,268,212140,1,8,3:2:0:0:
138,352,212240,6,0,P|189:340|220:319,1,76.4999976654053,4|0,3:2|0:2,0:2:0:0:
368,293,212440,2,0,P|383:242|380:205,1,76.4999976654053,8|0,0:2|0:2,0:2:0:0:
268,63,212640,2,0,L|274:142,1,76.4999976654053,2|0,3:2|0:2,0:2:0:0:
151,271,212840,2,0,L|157:194,1,76.4999976654053,8|0,0:2|0:2,0:2:0:0:
124,35,213040,6,0,P|140:104|138:139,1,76.4999976654053,2|0,3:2|0:2,0:2:0:0:
62,220,213240,2,0,P|46:289|48:324,1,76.4999976654053,8|0,0:2|0:2,0:2:0:0:
225,286,213440,2,0,P|169:272|137:271,1,76.4999976654053,2|0,3:2|0:2,0:2:0:0:
324,362,213640,2,0,P|361:357|398:346,1,76.4999976654053,8|0,0:2|0:2,0:2:0:0:
459,200,213840,5,6,3:2:0:0:
424,149,213940,1,0,0:2:0:0:
364,133,214040,1,8,0:2:0:0:
306,152,214140,1,0,0:2:0:0:
282,208,214240,1,2,3:2:0:0:
225,231,214340,1,0,0:2:0:0:
168,208,214440,1,8,0:2:0:0:
144,151,214540,1,0,0:2:0:0:
162,92,214640,6,0,P|209:74|250:72,1,76.4999976654053,2|0,3:2|0:2,0:2:0:0:
332,131,214840,2,0,P|350:178|352:219,1,76.4999976654053,8|0,0:2|0:2,0:2:0:0:
297,304,215040,2,0,P|250:322|209:324,1,76.4999976654053,2|0,3:2|2:2,2:2:0:0:
123,268,215240,2,0,P|105:221|103:179,1,76.4999976654053,8|0,0:2|3:2,0:2:0:0:
251,160,215440,6,0,B|288:180|288:180|403:155,1,136,4|0,0:2|0:2,0:2:0:0:
458,79,215740,1,0,3:2:0:0:
474,209,215840,2,0,L|465:304,1,68,8|0,0:2|0:2,0:2:0:0:
353,358,216040,2,8,L|346:281,1,68,8|0,0:2|0:2,0:2:0:0:
240,159,216240,5,0,3:2:0:0:
240,159,216340,2,0,L|254:257,1,68,8|0,2:2|3:2,0:2:0:0:
218,200,216640,6,0,L|204:102,1,68,4|0,0:2|0:2,0:2:0:0:
106,250,216840,2,0,L|95:325,1,68,4|0,0:2|0:2,0:2:0:0:
106,155,217040,5,8,0:2:0:0:
106,155,217140,1,8,0:2:0:0:
330,156,217340,1,8,0:2:0:0:
83,131,217540,1,8,0:2:0:0:
349,184,217740,6,0,P|330:256|353:345,1,136,10|2,0:2|0:2,0:2:0:0:
453,156,218040,1,8,0:2:0:0:
334,61,218240,5,0,0:2:0:0:
311,62,218440,1,0,0:2:0:0:
288,63,218640,2,0,P|272:20|244:72,1,127.5,0|0,0:2|0:2,0:2:0:0:
243,82,219040,5,2,3:2:0:0:
292,242,219140,1,2,3:2:0:0:
309,278,219340,5,2,3:2:0:0:
309,278,219440,2,0,P|215:250|116:276,1,170,2|8,0:2|0:2,0:2:0:0:
85,199,219740,1,0,3:2:0:0:
39,327,219840,2,0,B|9:367|9:367|21:224,1,170,4|8,0:2|0:2,0:2:0:0:
49,98,220140,1,0,3:2:0:0:
49,98,220240,6,0,P|108:109|142:105,1,85,2|0,3:2|0:2,0:2:0:0:
313,175,220440,1,10,0:2:0:0:
313,175,220540,1,2,3:2:0:0:
313,175,220640,2,0,P|254:186|220:182,1,85,2|0,3:2|3:2,0:2:0:0:
390,327,220840,6,0,L|382:242,1,85,8|2,0:2|3:2,0:2:0:0:
487,116,221040,1,0,3:2:0:0:
487,116,221140,2,0,L|477:227,1,85,2|8,0:2|2:2,0:2:0:0:
373,29,221340,5,2,3:2:0:0:
373,29,221440,2,0,P|384:77|382:140,1,85,2|0,3:2|0:2,0:2:0:0:
300,258,221640,2,0,P|302:215|312:174,1,85,10|0,0:2|0:2,0:2:0:0:
269,66,221840,6,0,P|201:79|160:74,1,85,2|0,3:2|0:2,0:2:0:0:
58,190,222040,2,0,P|117:237|194:185,1,170,12|0,0:2|3:2,0:2:0:0:
110,130,222340,1,0,3:2:0:0:
49,289,222440,2,0,P|62:344|58:383,1,85,10|0,2:2|0:2,0:2:0:0:
219,281,222640,6,0,P|217:185|244:93,1,170,2|8,3:2|0:2,0:2:0:0:
331,59,222940,1,0,0:2:0:0:
382,186,223040,2,0,P|329:206|262:205,1,85,0|0,3:2|3:2,0:2:0:0:
418,90,223240,2,0,P|459:96|498:112,1,85,10|0,0:2|0:2,0:2:0:0:
455,268,223440,6,0,L|446:363,1,85,2|0,3:2|0:2,0:2:0:0:
301,208,223640,2,0,L|309:303,1,85,10|0,0:2|0:2,0:2:0:0:
124,331,223840,1,2,3:2:0:0:
155,290,223940,1,2,3:2:0:0:
163,239,224040,1,10,0:2:0:0:
145,191,224140,1,2,0:2:0:0:
98,171,224240,6,0,P|77:227|86:268,1,85,2|2,3:2|0:2,0:2:0:0:
229,80,224440,2,0,B|186:69|186:69|123:84,1,85,8|2,0:2|0:2,0:2:0:0:
240,213,224640,1,8,3:2:0:0:
315,226,224740,1,10,3:2:0:0:
378,184,224840,1,8,3:2:0:0:
390,108,224940,1,8,3:2:0:0:
308,133,225040,6,0,L|323:308,1,170,6|8,3:2|0:2,0:2:0:0:
401,365,225340,1,0,0:2:0:0:
256,335,225440,2,0,B|213:324|213:324|162:329,1,85,0|0,3:2|3:2,0:2:0:0:
18,252,225640,2,0,B|61:263|61:263|101:259,1,85,10|0,0:2|0:2,0:2:0:0:
236,144,225840,6,0,P|154:189|87:127,1,170,2|8,3:2|0:2,0:2:0:0:
162,77,226140,1,0,0:2:0:0:
331,68,226240,2,0,P|319:154|334:251,1,170,2|8,3:2|0:2,0:2:0:0:
397,308,226540,1,0,0:2:0:0:
485,165,226640,6,0,P|438:160|387:171,1,85,2|0,3:2|0:2,0:2:0:0:
289,310,226840,2,0,P|316:271|332:222,1,85,10|0,0:2|0:2,0:2:0:0:
257,60,227040,2,0,P|276:103|311:141,1,85,2|0,3:2|3:2,0:2:0:0:
421,260,227240,1,8,0:2:0:0:
421,260,227340,6,0,B|310:316|297:193|166:264,1,255,2|8,0:2|0:2,0:2:0:0:
115,340,227740,1,0,0:2:0:0:
71,222,227840,2,0,L|80:110,1,85,2|0,3:2|3:2,0:2:0:0:
193,53,228040,2,0,L|200:137,1,85,10|0,0:2|0:2,0:2:0:0:
279,306,228240,6,0,B|284:242|284:242|303:211|303:211|311:116,1,170,6|8,3:2|0:2,0:2:0:0:
378,71,228540,1,0,0:2:0:0:
403,187,228640,2,0,P|398:241|416:290,1,85,0|0,3:2|3:2,0:2:0:0:
485,114,228840,2,0,P|493:72|487:30,1,85,8|0,0:2|0:2,0:2:0:0:
309,141,229040,6,0,B|275:182|275:182|264:50,1,170,4|10,3:2|0:2,0:2:0:0:
165,30,229340,1,10,0:2:0:0:
103,133,229440,2,0,P|155:146|211:149,1,85,2|0,3:2|3:2,0:2:0:0:
226,247,229640,1,10,0:2:0:0:
353,123,229740,6,0,P|268:127|185:148,1,170,6|0,0:2|0:2,0:2:0:0:
54,311,230040,2,0,P|108:301|151:281,1,85,8|0,0:2|0:2,0:2:0:0:
282,372,230240,2,0,P|300:320|305:272,1,85,0|0,3:2|3:2,0:2:0:0:
468,252,230440,2,0,P|432:210|393:182,1,85,8|0,0:2|0:2,0:2:0:0:
185,148,230640,5,0,3:2:0:0:
223,143,230740,1,0,0:2:0:0:
259,137,230840,2,0,L|359:123,1,85,8|0,0:2|0:2,0:2:0:0:
484,100,231040,5,10,3:2:0:0:
437,28,231140,1,8,3:2:0:0:
353,14,231240,1,10,3:3:0:0:
278,55,231340,1,4,3:3:0:0:
259,137,231440,6,0,P|211:192|115:154,1,170,6|8,3:2|0:2,0:2:0:0:
37,44,231740,1,0,0:2:0:0:
37,44,231840,2,0,P|40:103|28:156,1,85,2|0,3:2|3:2,0:2:0:0:
0,281,232040,2,0,P|49:248|101:232,1,85,8|0,0:2|0:2,0:2:0:0:
298,194,232240,6,0,P|207:147|139:84,1,170,2|8,3:2|0:2,0:2:0:0:
108,170,232540,1,0,0:2:0:0:
220,293,232640,2,0,P|187:230|151:290,1,170,4|8,3:2|0:2,0:2:0:0:
342,293,232940,1,0,0:2:0:0:
342,293,233040,6,0,P|339:230|348:199,1,85,2|0,3:2|0:2,0:2:0:0:
431,67,233240,2,0,P|438:108|433:150,1,85,10|0,0:2|0:2,0:2:0:0:
326,319,233440,2,0,P|323:256|332:225,1,85,2|0,3:2|3:2,0:2:0:0:
499,348,233640,1,10,0:2:0:0:
499,348,233740,1,0,0:2:0:0:
499,348,233840,6,0,L|403:339,2,85,2|0|10,3:2|0:2|0:2,0:2:0:0:
485,216,234140,1,0,0:2:0:0:
485,216,234240,2,0,P|448:163|400:133,1,85,2|0,3:2|3:2,0:2:0:0:
288,148,234440,2,0,P|257:177|235:213,1,85,10|0,0:2|0:2,0:2:0:0:
161,344,234640,6,0,B|165:302|165:302|160:240,1,85,2|0,3:2|0:2,0:2:0:0:
0,155,234840,2,0,B|97:162|97:162|192:153,1,170,12|0,0:2|3:2,0:2:0:0:
228,72,235140,1,0,3:2:0:0:
325,87,235240,2,0,P|321:156|302:209,1,85,10|0,0:2|0:2,0:2:0:0:
431,324,235440,6,0,P|414:236|414:147,1,170,2|8,3:2|0:2,0:2:0:0:
461,61,235740,1,0,0:2:0:0:
369,11,235840,2,0,P|308:6|257:19,1,85,0|0,3:2|3:2,0:2:0:0:
174,100,236040,2,0,P|113:105|62:92,1,85,10|0,0:2|0:2,0:2:0:0:
310,111,236240,6,0,L|301:206,1,85,2|0,3:2|0:2,0:2:0:0:
180,317,236440,2,0,L|187:232,1,85,10|0,0:2|0:2,0:2:0:0:
286,132,236640,2,0,L|293:216,1,85,2|0,3:2|3:2,0:2:0:0:
156,338,236840,2,0,L|148:253,1,85,10|0,0:2|0:2,0:2:0:0:
266,348,237040,6,0,P|358:354|407:300,1,170,0|8,3:2|0:2,0:2:0:0:
440,190,237340,1,8,3:2:0:0:
333,238,237440,5,10,0:2:0:0:
248,233,237540,1,8,0:2:0:0:
163,229,237640,1,10,0:2:0:0:
78,224,237740,1,8,0:2:0:0:
7,306,237840,6,0,P|64:309|106:298,1,85,6|0,3:2|0:2,0:2:0:0:
293,312,238040,2,0,P|324:264|335:222,1,85,10|0,0:2|0:2,0:2:0:0:
250,114,238240,2,0,B|280:153|280:153|292:31,1,170,2|8,3:2|0:2,0:2:0:0:
0,151,238540,2,0,P|76:140|185:161,1,170,2|0,0:2|0:2,0:2:0:0:
213,236,238840,5,8,0:2:0:0:
178,323,238940,1,0,0:2:0:0:
85,338,239040,2,0,P|71:283|75:234,1,85,2|0,3:2|3:2,0:2:0:0:
296,208,239240,2,0,P|294:250|282:290,1,85,10|0,0:2|0:2,0:2:0:0:
250,114,239440,6,0,B|365:91|365:91|448:121,1,170,4|8,3:2|0:2,0:2:0:0:
467,189,239740,1,0,0:2:0:0:
282,290,239840,2,0,P|332:250|441:280,1,170,6|8,3:2|0:2,0:2:0:0:
197,352,240140,6,0,L|212:176,1,170,6|0,0:2|0:2,0:2:0:0:
169,98,240440,1,8,0:2:0:0:
76,88,240540,1,0,0:2:0:0:
2,146,240640,2,0,P|-12:187|-10:235,1,85,2|0,3:2|3:2,0:2:0:0:
112,298,240840,2,0,P|112:255|98:215,1,85,10|0,0:2|0:2,0:2:0:0:
6,365,241040,6,0,L|117:374,1,85,2|0,3:2|0:2,0:2:0:0:
201,312,241240,2,0,L|312:302,1,85,10|0,0:2|0:2,0:2:0:0:
412,348,241440,2,0,P|394:292|391:259,1,85,2|0,3:2|3:2,0:2:0:0:
232,175,241640,2,0,P|274:183|314:198,1,85,10|0,0:2|0:2,0:2:0:0:
478,119,241840,6,0,P|450:152|417:178,1,85,2|0,3:2|0:2,0:2:0:0:
286,101,242040,2,0,L|293:16,1,85,10|0,0:2|0:2,0:2:0:0:
153,190,242240,2,0,L|145:105,1,85,2|0,3:2|3:2,0:2:0:0:
16,276,242440,2,0,L|23:191,1,85,10|0,0:2|0:2,0:2:0:0:
287,275,242640,6,2,P|199:330|158:307,1,148.75,6|2,0:2|0:2,0:2:0:0:
150,303,243040,2,0,P|130:244|165:181,1,127.5,4|0,3:3|0:2,0:2:0:0:
227,172,243440,5,8,3:2:0:0:
298,199,243540,1,8,3:2:0:0:
369,171,243640,1,8,3:2:0:0:
394,98,243740,1,8,3:2:0:0:
363,27,243840,5,10,2:2:0:0:
289,69,243940,1,8,2:2:0:0:
271,152,244040,1,10,2:2:0:0:
304,230,244140,1,8,2:2:0:0:
384,256,244240,6,0,P|344:222|279:221,1,85,2|0,3:2|2:2,0:2:0:0:
190,264,244440,2,0,P|150:298|85:299,1,85,12|0,2:2|2:2,0:2:0:0:
109,122,244640,2,0,B|141:88|141:88|110:215,1,170,2|8,3:2|0:2,0:2:0:0:
37,357,244940,2,0,B|117:325|117:389|213:357,1,170,2|0,0:2|0:2,0:2:0:0:
265,302,245240,5,8,0:2:0:0:
349,299,245340,1,0,0:2:0:0:
410,357,245440,2,0,P|435:303|433:265,1,85,2|0,3:2|3:2,0:2:0:0:
270,150,245640,2,0,P|275:191|295:228,1,85,10|0,0:2|0:2,0:2:0:0:
398,34,245840,6,0,L|385:177,1,136,6|8,3:2|2:2,0:2:0:0:
435,278,246140,1,0,3:2:0:0:
283,302,246240,6,0,L|269:149,1,152.999995330811,6|8,3:2|2:2,0:2:0:0:
318,67,246540,1,0,3:2:0:0:
169,18,246640,6,0,L|153:194,1,170,6|8,3:2|0:2,0:2:0:0:
204,278,246940,1,0,3:2:0:0:
99,329,247040,2,0,P|42:336|8:331,1,85,2|0,3:2|3:2,0:2:0:0:
70,183,247240,2,0,P|112:179|154:186,1,85,10|0,0:2|0:2,0:2:0:0:
277,335,247440,6,0,B|288:278|288:278|276:235,1,85,2|0,3:2|0:2,0:2:0:0:
228,138,247640,2,0,B|217:81|217:81|224:55,1,85,10|0,0:2|0:2,0:2:0:0:
400,138,247840,2,0,P|343:155|312:157,1,85,2|0,3:2|3:2,0:2:0:0:
414,44,248040,2,0,P|456:49|496:62,1,85,10|0,0:2|0:2,0:2:0:0:
444,355,248240,6,0,P|474:281|468:191,1,170,2|8,3:2|0:2,0:2:0:0:
384,226,248540,1,0,0:2:0:0:
307,165,248640,2,0,L|316:53,1,85,2|0,3:2|3:2,0:2:0:0:
206,244,248840,2,0,L|196:132,1,85,10|0,0:2|0:2,0:2:0:0:
135,70,249040,6,0,P|34:45|105:147,1,297.5,4|0,0:2|0:2,0:2:0:0:
144,83,249840,5,8,3:2:0:0:
203,160,249940,1,8,3:2:0:0:
208,257,250040,1,8,3:2:0:0:
151,336,250140,1,8,3:2:0:0:
151,336,250540,6,0,P|256:306|298:351,1,170,4|0,2:2|0:2,0:2:0:0:
456,312,250840,2,0,P|381:304|349:289,1,85,10|0,0:2|0:2,0:2:0:0:
244,215,251040,2,0,P|169:223|137:238,1,85,2|0,3:2|0:2,0:2:0:0:
60,356,251240,2,0,L|68:260,1,85,10|0,0:2|0:2,0:2:0:0:
6,104,251440,5,2,3:2:0:0:
6,104,251540,2,0,L|13:188,1,85,2|8,0:2|0:2,0:2:0:0:
186,73,251740,2,0,P|118:71|81:91,1,85,2|0,2:2|3:2,0:2:0:0:
251,153,251940,2,0,P|286:95|287:53,1,85,2|8,3:2|0:2,0:2:0:0:
145,181,252140,6,0,P|195:275|252:310,1,170,6|0,0:2|0:2,0:2:0:0:
448,219,252440,2,0,L|352:227,1,85,10|0,0:2|0:2,0:2:0:0:
297,185,252640,1,2,3:2:0:0:
222,203,252740,1,2,0:2:0:0:
195,274,252840,1,10,2:2:0:0:
233,340,252940,1,2,0:2:0:0:
308,354,253040,6,0,P|350:348|415:312,1,85,2|0,3:2|0:2,0:2:0:0:
222,203,253240,1,10,0:2:0:0:
222,203,253340,2,0,P|183:186|141:180,1,85,2|0,0:2|3:2,0:2:0:0:
108,342,253540,2,0,L|98:230,1,85,2|8,3:2|0:2,0:2:0:0:
32,56,253740,6,0,L|17:225,1,170,6|0,0:2|0:2,0:2:0:0:
106,99,254040,2,0,P|164:87|215:97,1,85,8|0,0:2|0:2,0:2:0:0:
259,250,254240,2,0,P|257:207|268:166,1,85,2|0,3:2|0:2,0:2:0:0:
358,40,254440,2,0,P|369:80|367:123,1,85,10|0,0:2|0:2,0:2:0:0:
457,212,254640,5,2,3:2:0:0:
343,257,254740,2,0,L|247:248,1,85,2|8,0:2|0:2,0:2:0:0:
161,173,254940,2,0,L|113:243,1,85,2|0,0:2|3:2,0:2:0:0:
0,274,255140,2,0,L|35:351,1,85,2|8,3:2|0:2,0:2:0:0:
163,345,255340,6,0,B|217:328|217:328|348:351,1,170,6|0,0:2|0:2,0:2:0:0:
446,358,255640,2,0,P|437:305|444:257,1,85,10|0,0:2|0:2,0:2:0:0:
326,209,255840,2,0,P|367:174|412:156,1,85,2|0,3:2|0:2,0:2:0:0:
512,120,256040,2,0,P|474:100|442:72,1,85,10|0,0:2|0:2,0:2:0:0:
330,31,256240,5,2,3:2:0:0:
257,55,256340,1,2,0:2:0:0:
184,29,256440,1,10,0:2:0:0:
112,56,256540,1,2,0:2:0:0:
42,24,256640,2,0,L|32:135,2,85,2|2|8,3:2|3:2|0:2,0:2:0:0:
148,167,256940,6,0,B|142:230|142:230|154:279|154:279|148:343,1,170,6|0,0:2|0:2,0:2:0:0:
19,246,257240,2,0,P|62:233|112:234,1,85,10|0,0:2|0:2,0:2:0:0:
231,308,257440,2,0,P|274:321|324:320,1,85,2|0,3:2|0:2,0:2:0:0:
418,192,257640,2,0,L|409:287,1,85,10|0,0:2|0:2,0:2:0:0:
290,194,257840,6,0,L|282:109,1,85,2|0,3:2|0:2,0:2:0:0:
471,90,258040,2,0,B|416:101|416:101|369:93,1,85,10|0,0:2|0:2,0:2:0:0:
272,31,258240,2,0,B|217:20|217:20|170:28,1,85,2|0,3:2|3:2,0:2:0:0:
14,125,258440,2,0,P|70:131|102:127,1,85,10|0,0:2|0:2,0:2:0:0:
208,106,258640,6,0,P|189:180|202:285,1,170,2|8,3:2|0:2,0:2:0:0:
308,42,258940,2,0,P|327:116|314:221,1,170,2|0,0:2|0:2,0:2:0:0:
265,325,259240,6,0,B|388:308|388:308|456:330,1,170,10|0,0:2|3:2,0:2:0:0:
508,131,259540,2,0,B|385:148|385:148|317:126,1,170,2|0,0:2|0:2,0:2:0:0:
261,56,259840,1,2,3:2:0:0:
198,152,259940,2,0,P|188:216|197:258,1,85,2|8,3:2|0:2,0:2:0:0:
297,300,260140,6,0,P|219:270|139:295,1,170,6|0,0:2|0:2,0:2:0:0:
29,363,260440,2,0,L|37:267,1,85,8|0,0:2|0:2,0:2:0:0:
47,120,260640,6,0,P|106:99|155:105,1,85,2|2,3:2|0:2,0:2:0:0:
205,17,260840,2,0,P|252:57|271:103,1,85,10|2,0:2|0:2,0:2:0:0:
237,244,261040,2,0,P|202:219|178:184,1,85,2|2,3:2|0:2,0:2:0:0:
395,140,261240,2,0,P|356:157|314:160,1,85,10|2,0:2|0:2,0:2:0:0:
91,197,261440,5,10,2:2:0:0:
76,280,261540,1,10,2:2:0:0:
123,339,261640,1,0,3:0:0:0:
190,335,261740,1,0,3:0:0:0:
278,246,261840,1,10,0:2:0:0:
278,246,261940,6,0,P|278:224|273:203,1,42.5,10|0,0:2|0:2,0:2:0:0:
204,59,262140,6,0,P|199:79|199:101,1,42.5,10|0,0:2|0:2,0:2:0:0:
361,172,262340,6,0,P|350:153|336:137,1,42.5,10|0,0:2|0:2,0:2:0:0:
112,138,262541,6,0,P|122:156|136:172,1,42.5,10|0,0:2|0:2,0:2:0:0:
394,65,262740,6,0,P|375:54|355:47,1,42.5,10|0,0:2|0:2,0:2:0:0:
80,251,262939,6,0,P|98:261|118:268,1,42.5,10|0,0:2|0:2,0:2:0:0:
367,249,263140,2,0,P|404:251|440:266,1,76.4999976654053,10|0,0:2|0:2,0:2:0:0:
329,334,263340,6,0,P|274:297|179:332,1,170,4|0,0:2|0:2,0:2:0:0:
287,221,263640,2,0,P|304:167|304:133,1,85,10|0,0:2|0:2,0:2:0:0:
187,42,263840,2,0,P|189:84|204:124,1,85,2|0,3:2|0:2,0:2:0:0:
376,59,264040,2,0,L|264:49,1,85,10|0,0:2|0:2,0:2:0:0:
424,164,264240,5,2,3:2:0:0:
424,164,264340,2,0,L|508:156,1,85,2|8,0:2|0:2,0:2:0:0:
387,244,264540,2,0,P|373:298|372:342,1,85,2|0,0:2|3:2,0:2:0:0:
250,194,264740,2,0,P|264:248|265:292,1,85,2|8,3:2|0:2,0:2:0:0:
141,367,264940,6,0,P|118:273|128:182,1,170,6|0,0:2|0:2,0:2:0:0:
252,98,265240,2,0,P|178:119|130:116,1,85,10|0,0:2|0:2,0:2:0:0:
288,24,265440,1,2,3:2:0:0:
363,36,265540,1,2,0:2:0:0:
405,99,265640,1,10,0:2:0:0:
400,175,265740,1,2,0:2:0:0:
345,229,265840,6,0,L|249:220,1,85,2|0,3:2|0:2,0:2:0:0:
145,334,266040,1,10,0:2:0:0:
145,334,266140,2,0,P|145:282|153:240,1,85,2|0,0:2|3:2,0:2:0:0:
76,133,266340,2,0,P|76:81|68:39,1,85,2|8,3:2|0:2,0:2:0:0:
352,96,266540,6,0,B|272:128|272:64|176:96,1,170,6|0,0:2|0:2,0:2:0:0:
261,253,266840,2,0,P|329:229|366:201,1,85,8|0,0:2|0:2,0:2:0:0:
464,154,267040,2,0,P|450:224|456:270,1,85,2|0,3:2|0:2,0:2:0:0:
449,374,267240,2,0,P|394:327|351:309,1,85,10|0,0:2|0:2,0:2:0:0:
265,347,267440,5,2,3:2:0:0:
182,233,267540,2,0,L|191:121,1,85,2|8,0:2|0:2,0:2:0:0:
97,296,267740,2,0,L|104:380,1,85,2|0,0:2|3:2,0:2:0:0:
7,223,267940,2,0,L|0:138,1,85,2|8,3:2|0:2,0:2:0:0:
131,35,268140,6,0,B|245:27|245:27|322:51,1,170,6|0,0:2|0:2,0:2:0:0:
375,178,268440,2,0,P|383:130|383:77,1,85,10|0,0:2|0:2,0:2:0:0:
365,281,268640,2,0,P|410:263|456:237,1,85,2|0,3:2|0:2,0:2:0:0:
273,331,268840,2,0,P|310:361|356:388,1,85,10|0,0:2|0:2,0:2:0:0:
297,225,269040,5,2,3:2:0:0:
230,262,269140,1,2,0:2:0:0:
160,230,269240,1,10,0:2:0:0:
88,257,269340,1,2,0:2:0:0:
18,225,269440,2,0,L|26:129,2,85,2|2|8,3:2|3:2|0:2,0:2:0:0:
103,96,269740,6,0,P|180:134|267:93,1,170,6|0,0:2|0:2,0:2:0:0:
353,34,270040,2,0,P|332:93|336:130,1,85,10|0,0:2|0:2,0:2:0:0:
446,283,270240,2,0,P|443:240|425:202,1,85,2|0,3:2|0:2,0:2:0:0:
321,316,270440,2,0,L|209:306,1,85,10|0,0:2|0:2,0:2:0:0:
153,191,270640,6,0,L|41:200,1,85,2|0,3:2|0:2,0:2:0:0:
8,362,270840,2,0,P|24:309|24:274,1,85,10|0,0:2|0:2,0:2:0:0:
51,116,271040,1,2,3:2:0:0:
51,116,271140,2,0,P|53:158|67:198,1,85,2|8,3:2|0:2,0:2:0:0:
290,89,271340,6,0,P|206:68|126:114,1,170,6|0,0:2|0:2,0:2:0:0:
332,222,271640,2,0,P|351:169|355:130,1,85,10|0,0:2|0:2,0:2:0:0:
423,41,271840,1,2,3:2:0:0:
423,41,271940,2,0,P|429:82|445:122,1,85,2|8,3:2|0:2,0:2:0:0:
512,221,272140,6,0,L|416:212,1,85,2|0,0:2|3:2,0:2:0:0:
172,262,272340,2,0,L|267:253,1,85,2|8,0:2|2:2,0:2:0:0:
472,307,272540,2,0,L|376:298,1,85,2|0,2:2|3:2,2:2:0:0:
132,348,272740,2,0,L|227:339,1,85,2|8,3:2|0:2,0:2:0:0:
330,182,272940,6,0,P|261:135|149:168,1,170,6|0,0:2|0:2,0:2:0:0:
87,271,273240,2,0,P|94:204|88:148,1,85,10|0,0:2|0:2,0:2:0:0:
67,72,273440,1,2,3:2:0:0:
133,33,273540,1,2,0:2:0:0:
208,43,273640,2,0,P|284:53|321:45,1,85,10|0,0:2|0:2,0:2:0:0:
432,39,273840,6,0,P|419:120|448:225,1,170,2|8,3:2|0:2,0:2:0:0:
504,265,274140,1,2,3:2:0:0:
368,320,274240,2,0,B|317:327|317:327|256:320,1,85,2|0,3:2|0:2,0:2:0:0:
122,244,274440,1,10,0:2:0:0:
193,359,274540,2,0,P|201:306|184:241,1,85,2|0,0:2|3:2,0:2:0:0:
274,71,274740,6,0,P|265:163|282:254,1,170,10|0,0:2|0:2,0:2:0:0:
432,191,275040,2,0,P|369:173|321:173,1,85,2|8,0:2|3:2,0:2:0:0:
183,96,275240,2,0,P|135:141|111:183,1,85,2|0,0:2|3:2,0:2:0:0:
41,315,275440,5,10,2:2:0:0:
127,350,275540,1,8,3:3:0:0:
214,316,275640,1,4,3:3:0:0:
300,350,275740,1,4,3:3:0:0:
387,313,275840,1,10,2:2:0:0:
59,214,276140,5,4,0:2:0:0:
256,192,276240,12,2,277840,0:2:0:0:
