osu file format v14

[General]
AudioFilename: audio.mp3
AudioLeadIn: 0
PreviewTime: 76950
Countdown: 0
SampleSet: Normal
StackLeniency: 0.7
Mode: 1
LetterboxInBreaks: 0
WidescreenStoryboard: 0

[Editor]
Bookmarks: 13550,26350,38350,38400,38450,38500,38550,38600,38650,38700,38750,38800,38850,38900,38950,64550,77350,101350,102950,109350,114950,115050,115150,115250,115350,115450,115550,115650,141350,157350,184550
DistanceSpacing: 0.8
BeatDivisor: 4
GridSize: 16
TimelineZoom: 2.6

[Metadata]
Title:MAKE A LOSER (inst)
TitleUnicode:メイカルーザ(inst)
Artist:Nanahoshi Kangengakudan
ArtistUnicode:ナナホシ管弦楽団
Creator:Nifty
Version:Muzukashii
Source:
Tags:Iwami Takashi 岩見陸 monaka モナカ instrumental jazz monster beergarden meikaruza iron quality HujuniseikouyuuP 不純異性交遊P
BeatmapID:2140951
BeatmapSetID:946414

[Difficulty]
HPDrainRate:6
CircleSize:2
OverallDifficulty:4
ApproachRate:10
SliderMultiplier:1
SliderTickRate:2

[Events]
//Background and Video events
0,0,"yalikejazz.png",0,40
//Break Periods
2,211550,215900
//Storyboard Layer 0 (Background)
//Storyboard Layer 1 (Fail)
//Storyboard Layer 2 (Pass)
//Storyboard Layer 3 (Foreground)
//Storyboard Layer 4 (Overlay)
//Storyboard Sound Samples

[TimingPoints]
550,200,4,1,0,50,1,0
550,-100,4,1,0,50,0,0
12650,-100,4,1,0,50,0,0
12750,-100,4,1,0,50,0,0
12850,-100,4,1,0,50,0,0
12950,-100,4,1,0,50,0,0
13250,-100,4,1,0,70,0,0
77350,-100,4,1,0,70,0,1
101350,-100,4,1,0,70,0,0
102150,-100,4,1,0,70,0,0
102250,-100,4,1,0,70,0,0
102350,-100,4,1,0,70,0,0
102450,-100,4,1,0,70,0,0
102850,-100,4,1,0,50,0,0
102900,-100,4,1,0,50,0,0
102950,-100,4,1,0,50,0,0
115050,-100,4,1,0,50,0,0
115150,-100,4,1,0,50,0,0
115250,-100,4,1,0,50,0,0
115650,-100,4,1,0,70,0,0
140550,-100,4,1,0,70,0,0
141350,-100,4,1,0,70,0,0
157550,-100,4,1,0,70,0,1
176550,-100,4,1,0,70,0,0
179950,-100,4,1,0,70,0,1
184550,-100,4,1,0,70,0,0
185350,-100,4,1,0,70,0,0
186050,-100,4,1,0,70,0,0
211450,-100,4,1,0,70,0,0
217200,-100,4,1,0,70,0,0

[Colours]
Combo1 : 55,55,255
Combo2 : 255,52,47

[HitObjects]
271,157,550,5,8,0:0:0:0:
276,139,950,1,0,0:0:0:0:
277,140,1150,1,8,0:0:0:0:
290,129,1350,1,0,0:0:0:0:
275,115,1550,1,8,0:0:0:0:
275,116,1750,1,0,0:0:0:0:
286,100,2150,1,0,0:0:0:0:
277,90,2350,1,8,0:0:0:0:
319,47,2450,1,8,0:0:0:0:
319,47,2650,1,8,0:0:0:0:
280,93,2750,1,8,0:0:0:0:
286,91,2950,1,0,0:0:0:0:
279,91,3150,1,0,0:0:0:0:
288,90,3350,1,0,0:0:0:0:
276,81,3750,1,0,0:0:0:0:
285,79,4150,1,0,0:0:0:0:
285,79,4350,1,8,0:0:0:0:
288,68,4550,1,0,0:0:0:0:
280,57,4750,1,8,0:0:0:0:
279,58,4950,1,0,0:0:0:0:
293,60,5350,1,0,0:0:0:0:
294,60,5550,1,8,0:0:0:0:
327,51,5650,1,8,0:0:0:0:
326,51,5850,1,8,0:0:0:0:
292,57,5950,1,8,0:0:0:0:
293,60,6150,1,0,0:0:0:0:
293,60,6350,1,8,0:0:0:0:
294,60,6550,1,0,0:0:0:0:
294,60,6750,1,8,0:0:0:0:
285,47,6950,1,0,0:0:0:0:
285,47,7350,1,0,0:0:0:0:
285,47,7550,1,8,0:0:0:0:
285,47,7750,1,0,0:0:0:0:
285,47,7950,1,8,0:0:0:0:
285,48,8150,1,0,0:0:0:0:
285,47,8550,1,0,0:0:0:0:
285,47,8750,1,8,0:0:0:0:
285,47,8850,1,8,0:0:0:0:
271,48,9050,1,8,0:0:0:0:
285,48,9150,1,8,0:0:0:0:
285,47,9350,1,0,0:0:0:0:
285,47,9550,1,8,0:0:0:0:
285,47,9750,1,0,0:0:0:0:
280,40,9950,1,8,0:0:0:0:
286,40,10150,1,0,0:0:0:0:
288,66,10550,1,0,0:0:0:0:
288,66,10750,1,8,0:0:0:0:
288,66,10950,1,0,0:0:0:0:
288,65,11150,1,8,0:0:0:0:
280,65,11350,1,0,0:0:0:0:
280,65,11750,1,0,0:0:0:0:
288,66,11950,1,8,0:0:0:0:
288,66,12050,1,8,0:0:0:0:
280,53,12250,1,8,0:0:0:0:
280,53,12350,1,8,0:0:0:0:
281,53,12550,1,8,0:0:0:0:
280,54,12750,1,8,0:0:0:0:
280,54,12850,1,8,0:0:0:0:
280,54,12950,1,8,0:0:0:0:
256,88,13250,1,12,0:0:0:0:
260,98,13550,1,8,0:0:0:0:
258,78,13750,1,8,0:0:0:0:
256,88,13950,1,0,0:0:0:0:
256,88,14150,1,8,0:0:0:0:
256,85,14450,1,0,0:0:0:0:
256,85,14650,1,8,0:0:0:0:
271,63,14850,1,0,0:0:0:0:
281,52,15150,1,8,0:0:0:0:
281,52,15350,1,8,0:0:0:0:
281,52,15550,1,0,0:0:0:0:
281,52,15750,1,8,0:0:0:0:
284,42,16050,1,0,0:0:0:0:
281,52,16250,1,0,0:0:0:0:
311,78,16450,1,12,0:0:0:0:
306,60,16950,1,8,0:0:0:0:
311,62,17150,1,0,0:0:0:0:
311,62,17350,1,8,0:0:0:0:
302,74,17650,1,0,0:0:0:0:
306,47,17850,1,8,0:0:0:0:
321,68,18050,1,0,0:0:0:0:
317,52,18350,1,8,0:0:0:0:
317,52,18550,1,0,0:0:0:0:
317,52,18750,1,8,0:0:0:0:
317,53,18950,1,0,0:0:0:0:
321,57,19150,1,8,0:0:0:0:
316,39,19350,1,0,0:0:0:0:
316,39,19450,1,0,0:0:0:0:
322,88,19950,1,8,0:0:0:0:
301,93,20150,1,0,0:0:0:0:
302,93,20350,1,8,0:0:0:0:
303,85,20550,1,8,0:0:0:0:
309,82,20750,1,0,0:0:0:0:
309,82,20950,1,8,0:0:0:0:
309,82,21150,1,8,0:0:0:0:
310,78,21350,1,8,0:0:0:0:
309,82,21650,1,0,0:0:0:0:
309,82,21950,1,8,0:0:0:0:
315,84,22250,1,0,0:0:0:0:
317,73,22550,1,8,0:0:0:0:
317,73,22850,1,12,0:0:0:0:
306,78,23350,1,0,0:0:0:0:
319,84,23550,1,8,0:0:0:0:
319,84,23750,1,0,0:0:0:0:
319,84,23950,1,8,0:0:0:0:
317,73,24150,1,0,0:0:0:0:
306,78,24350,1,0,0:0:0:0:
320,62,24550,1,0,0:0:0:0:
326,63,24850,1,8,0:0:0:0:
309,69,25050,1,8,0:0:0:0:
315,56,25250,1,0,0:0:0:0:
315,56,25450,1,0,0:0:0:0:
325,56,25650,1,8,0:0:0:0:
326,63,25850,1,8,0:0:0:0:
326,57,26050,1,12,0:0:0:0:
325,56,26550,1,8,0:0:0:0:
326,63,26750,1,0,0:0:0:0:
326,57,26950,1,8,0:0:0:0:
334,50,27250,1,0,0:0:0:0:
330,40,27450,1,8,0:0:0:0:
331,42,27650,1,0,0:0:0:0:
330,45,27950,1,8,0:0:0:0:
334,50,28150,1,8,0:0:0:0:
334,51,28350,1,0,0:0:0:0:
334,50,28550,1,8,0:0:0:0:
335,50,28850,1,0,0:0:0:0:
334,50,29050,1,0,0:0:0:0:
334,50,29250,1,12,0:0:0:0:
321,48,29750,1,8,0:0:0:0:
321,47,29950,1,0,0:0:0:0:
326,47,30150,1,8,0:0:0:0:
326,47,30450,1,0,0:0:0:0:
316,24,30650,1,8,0:0:0:0:
331,42,30850,1,0,0:0:0:0:
332,43,31150,1,8,0:0:0:0:
332,43,31350,1,0,0:0:0:0:
332,43,31550,1,8,0:0:0:0:
321,32,31750,1,0,0:0:0:0:
336,47,31950,1,8,0:0:0:0:
332,43,32150,1,0,0:0:0:0:
332,43,32250,1,0,0:0:0:0:
288,99,32750,1,8,0:0:0:0:
250,62,32950,1,0,0:0:0:0:
285,78,33150,1,8,0:0:0:0:
278,69,33350,1,8,0:0:0:0:
278,69,33550,1,0,0:0:0:0:
278,70,33750,1,8,0:0:0:0:
285,62,34050,1,0,0:0:0:0:
268,57,34350,1,8,0:0:0:0:
268,57,34550,1,0,0:0:0:0:
277,41,34850,1,0,0:0:0:0:
277,41,35050,1,0,0:0:0:0:
277,41,35250,1,8,0:0:0:0:
277,41,35450,1,8,0:0:0:0:
176,207,35650,2,0,L|234:177,13,50
354,89,37150,1,8,0:0:0:0:
354,89,37250,1,0,0:0:0:0:
314,88,37550,1,8,0:0:0:0:
310,96,37750,1,0,0:0:0:0:
330,117,37850,1,0,0:0:0:0:
324,98,37950,1,0,0:0:0:0:
307,83,38150,1,8,0:0:0:0:
297,81,38350,1,0,0:0:0:0:
298,82,38550,1,8,0:0:0:0:
309,78,38950,1,8,0:0:0:0:
307,83,39150,1,8,0:0:0:0:
303,82,39350,1,0,0:0:0:0:
306,80,39450,1,0,0:0:0:0:
306,80,39550,1,0,0:0:0:0:
309,78,39750,1,0,0:0:0:0:
311,62,40050,1,8,0:0:0:0:
301,64,40350,1,0,0:0:0:0:
301,63,40450,1,8,0:0:0:0:
301,63,40750,1,8,0:0:0:0:
296,64,40950,1,0,0:0:0:0:
301,57,41150,1,8,0:0:0:0:
299,53,41350,1,0,0:0:0:0:
295,53,41550,1,0,0:0:0:0:
299,53,41650,1,0,0:0:0:0:
301,63,41750,1,0,0:0:0:0:
302,58,41950,1,8,0:0:0:0:
305,45,42050,1,0,0:0:0:0:
298,45,42350,1,8,0:0:0:0:
290,38,42750,1,8,0:0:0:0:
294,38,42950,1,0,0:0:0:0:
296,37,43150,1,8,0:0:0:0:
292,31,43350,1,0,0:0:0:0:
294,31,43550,1,8,0:0:0:0:
294,31,43650,1,0,0:0:0:0:
261,121,43950,1,8,0:0:0:0:
270,121,44150,1,8,0:0:0:0:
285,123,44350,1,0,0:0:0:0:
302,93,44750,1,8,0:0:0:0:
293,76,44950,1,0,0:0:0:0:
174,222,45150,2,0,L|231:180,17,50
324,74,47350,1,8,0:0:0:0:
324,73,47650,1,0,0:0:0:0:
324,73,47950,1,8,0:0:0:0:
330,86,48250,1,0,0:0:0:0:
308,56,48550,1,0,0:0:0:0:
329,58,48750,1,8,0:0:0:0:
321,55,48950,1,8,0:0:0:0:
321,57,49150,1,0,0:0:0:0:
321,46,49350,1,8,0:0:0:0:
332,53,49450,1,8,0:0:0:0:
297,85,49650,1,0,0:0:0:0:
297,85,49850,1,0,0:0:0:0:
322,45,50050,1,8,0:0:0:0:
348,61,50150,1,0,0:0:0:0:
344,56,50350,1,8,0:0:0:0:
319,53,50950,1,8,0:0:0:0:
322,53,51150,1,8,0:0:0:0:
358,78,51350,1,0,0:0:0:0:
349,74,51450,1,0,0:0:0:0:
341,71,51550,1,0,0:0:0:0:
327,62,51750,1,8,0:0:0:0:
334,57,52150,1,0,0:0:0:0:
351,42,52250,1,0,0:0:0:0:
334,57,52450,1,8,0:0:0:0:
342,54,52750,1,8,0:0:0:0:
349,51,52950,1,0,0:0:0:0:
341,48,53050,1,0,0:0:0:0:
341,48,53250,1,8,0:0:0:0:
342,54,53550,1,8,0:0:0:0:
342,54,53750,1,0,0:0:0:0:
349,51,53850,1,0,0:0:0:0:
341,48,54050,1,0,0:0:0:0:
343,49,54350,1,8,0:0:0:0:
302,124,54550,1,8,0:0:0:0:
326,80,54750,1,0,0:0:0:0:
325,79,54950,1,8,0:0:0:0:
311,49,55150,1,0,0:0:0:0:
306,70,55250,1,0,0:0:0:0:
306,86,55350,1,0,0:0:0:0:
311,78,55550,1,8,0:0:0:0:
312,80,55750,1,0,0:0:0:0:
310,65,55950,1,8,0:0:0:0:
309,67,56150,1,8,0:0:0:0:
306,57,56450,1,8,0:0:0:0:
307,58,56950,1,0,0:0:0:0:
309,67,57150,1,8,0:0:0:0:
309,62,57250,1,8,0:0:0:0:
307,49,57350,1,8,0:0:0:0:
307,58,57550,1,0,0:0:0:0:
307,58,57750,1,8,0:0:0:0:
324,45,57850,1,8,0:0:0:0:
195,190,58050,2,0,L|263:164,16,50
281,93,60150,1,0,0:0:0:0:
287,93,60350,1,8,0:0:0:0:
296,95,60550,1,8,0:0:0:0:
296,95,60750,1,0,0:0:0:0:
298,70,60850,1,0,0:0:0:0:
300,81,60950,1,0,0:0:0:0:
300,81,61150,1,8,0:0:0:0:
318,83,61350,1,0,0:0:0:0:
314,79,61550,1,8,0:0:0:0:
307,61,62350,1,8,0:0:0:0:
307,61,62550,1,0,0:0:0:0:
307,57,62750,1,0,0:0:0:0:
316,72,62950,1,12,0:0:0:0:
316,54,63350,1,8,0:0:0:0:
310,49,63550,1,0,0:0:0:0:
310,50,63650,1,0,0:0:0:0:
310,50,63750,1,0,0:0:0:0:
310,50,63950,1,0,0:0:0:0:
310,49,64150,1,8,0:0:0:0:
302,51,64350,1,0,0:0:0:0:
310,49,64550,1,8,0:0:0:0:
310,50,64950,1,12,0:0:0:0:
330,55,65150,1,8,0:0:0:0:
330,54,65350,1,0,0:0:0:0:
315,56,65450,1,0,0:0:0:0:
323,47,65750,1,8,0:0:0:0:
323,47,65950,1,4,0:0:0:0:
316,56,66550,1,0,0:0:0:0:
311,60,66750,1,8,0:0:0:0:
311,60,66850,1,8,0:0:0:0:
331,49,67150,1,8,0:0:0:0:
330,49,67350,1,8,0:0:0:0:
327,52,67550,1,0,0:0:0:0:
312,68,67750,1,0,0:0:0:0:
325,51,67850,1,0,0:0:0:0:
322,50,67950,1,0,0:0:0:0:
313,45,68150,1,12,0:0:0:0:
315,56,68550,1,0,0:0:0:0:
312,68,68750,1,8,0:0:0:0:
306,61,68950,1,0,0:0:0:0:
307,57,69150,1,12,0:0:0:0:
312,68,69750,1,8,0:0:0:0:
312,72,69850,1,8,0:0:0:0:
312,72,69950,1,8,0:0:0:0:
312,72,70150,1,0,0:0:0:0:
295,103,70450,1,8,0:0:0:0:
316,78,70550,1,8,0:0:0:0:
320,79,70750,1,0,0:0:0:0:
325,72,70950,1,8,0:0:0:0:
328,80,71350,1,0,0:0:0:0:
328,80,71450,1,0,0:0:0:0:
328,80,71550,1,0,0:0:0:0:
334,81,71750,1,8,0:0:0:0:
331,79,72150,1,0,0:0:0:0:
325,93,72250,1,0,0:0:0:0:
336,74,72350,1,0,0:0:0:0:
340,64,72550,1,8,0:0:0:0:
348,77,72750,1,8,0:0:0:0:
359,83,72950,1,8,0:0:0:0:
345,71,73150,1,0,0:0:0:0:
344,74,73250,1,0,0:0:0:0:
349,79,73350,1,0,0:0:0:0:
342,88,73550,1,8,0:0:0:0:
341,85,73750,1,8,0:0:0:0:
336,79,73950,1,0,0:0:0:0:
336,79,74150,1,8,0:0:0:0:
343,75,74550,1,12,0:0:0:0:
341,73,74850,1,0,0:0:0:0:
341,69,75350,1,12,0:0:0:0:
341,67,75750,1,0,0:0:0:0:
341,61,75850,1,0,0:0:0:0:
341,62,76050,1,0,0:0:0:0:
339,61,76250,1,0,0:0:0:0:
335,71,76450,1,12,0:0:0:0:
311,103,76950,1,0,0:0:0:0:
304,135,77150,1,0,0:0:0:0:
311,103,77350,1,12,0:0:0:0:
336,98,77950,1,8,0:0:0:0:
332,97,78150,1,0,0:0:0:0:
333,97,78250,1,0,0:0:0:0:
331,98,78350,1,0,0:0:0:0:
325,101,78550,1,12,0:0:0:0:
336,98,78950,1,0,0:0:0:0:
330,87,79150,1,8,0:0:0:0:
325,88,79250,1,8,0:0:0:0:
295,101,79350,1,8,0:0:0:0:
336,94,79550,1,0,0:0:0:0:
334,104,79750,1,8,0:0:0:0:
330,87,80050,1,0,0:0:0:0:
324,75,80250,1,8,0:0:0:0:
331,85,80450,1,0,0:0:0:0:
326,76,80550,1,0,0:0:0:0:
316,73,80750,1,12,0:0:0:0:
329,71,81150,1,0,0:0:0:0:
312,71,81350,1,0,0:0:0:0:
331,71,81450,1,0,0:0:0:0:
312,72,81550,1,0,0:0:0:0:
329,60,81750,1,0,0:0:0:0:
330,61,81950,1,8,0:0:0:0:
327,55,82150,1,8,0:0:0:0:
327,55,82350,1,0,0:0:0:0:
319,54,82550,1,8,0:0:0:0:
312,69,82650,1,8,0:0:0:0:
311,69,82750,1,8,0:0:0:0:
330,61,82950,1,0,0:0:0:0:
311,69,83350,1,8,0:0:0:0:
319,54,83550,1,0,0:0:0:0:
331,58,83750,1,12,0:0:0:0:
316,43,84350,1,8,0:0:0:0:
324,41,84550,1,8,0:0:0:0:
316,44,84750,1,0,0:0:0:0:
317,44,84950,1,8,0:0:0:0:
313,46,85150,1,0,0:0:0:0:
316,43,85350,1,0,0:0:0:0:
316,44,85750,1,8,0:0:0:0:
314,37,85950,1,8,0:0:0:0:
325,40,86150,1,0,0:0:0:0:
326,40,86350,1,8,0:0:0:0:
328,32,86450,1,8,0:0:0:0:
334,67,86650,1,0,0:0:0:0:
328,32,86750,1,0,0:0:0:0:
251,126,86950,1,4,0:0:0:0:
262,114,87350,1,0,0:0:0:0:
306,76,87450,1,0,0:0:0:0:
306,76,87650,1,8,0:0:0:0:
309,48,88150,1,8,0:0:0:0:
309,48,88250,1,8,0:0:0:0:
315,48,88450,1,4,0:0:0:0:
304,49,88950,1,8,0:0:0:0:
309,48,89050,1,0,0:0:0:0:
309,48,89250,1,0,0:0:0:0:
329,42,89450,1,8,0:0:0:0:
312,50,89650,1,8,0:0:0:0:
312,50,89750,1,8,0:0:0:0:
311,47,89950,1,0,0:0:0:0:
309,48,90150,1,12,0:0:0:0:
309,89,90550,1,0,0:0:0:0:
309,89,90650,1,0,0:0:0:0:
295,83,90850,1,8,0:0:0:0:
286,98,91150,1,0,0:0:0:0:
308,90,91350,1,0,0:0:0:0:
309,89,91450,1,0,0:0:0:0:
295,83,91650,1,8,0:0:0:0:
309,74,91950,1,8,0:0:0:0:
309,74,92150,1,0,0:0:0:0:
295,77,92250,1,0,0:0:0:0:
308,74,92450,1,8,0:0:0:0:
309,74,92750,1,0,0:0:0:0:
309,74,92950,1,8,0:0:0:0:
309,74,93150,1,8,0:0:0:0:
308,74,93350,1,0,0:0:0:0:
308,74,93550,1,12,0:0:0:0:
309,74,93950,1,0,0:0:0:0:
308,85,94150,1,0,0:0:0:0:
290,86,94250,1,0,0:0:0:0:
308,74,94350,1,0,0:0:0:0:
307,66,94550,1,0,0:0:0:0:
315,64,94750,1,8,0:0:0:0:
291,63,94950,1,8,0:0:0:0:
330,64,95150,1,0,0:0:0:0:
329,64,95350,1,8,0:0:0:0:
319,71,95550,1,0,0:0:0:0:
310,57,96150,1,8,0:0:0:0:
310,57,96350,1,8,0:0:0:0:
311,47,96550,1,8,0:0:0:0:
324,44,96750,1,0,0:0:0:0:
342,35,96850,1,0,0:0:0:0:
325,44,96950,1,0,0:0:0:0:
321,42,97150,1,0,0:0:0:0:
307,43,97350,1,8,0:0:0:0:
311,47,97550,1,8,0:0:0:0:
308,43,97650,1,8,0:0:0:0:
308,43,97750,1,8,0:0:0:0:
316,45,97950,1,0,0:0:0:0:
321,42,98150,1,8,0:0:0:0:
339,41,98350,1,8,0:0:0:0:
337,51,98550,1,0,0:0:0:0:
337,51,98750,1,0,0:0:0:0:
333,49,98950,1,8,0:0:0:0:
327,64,99350,1,0,0:0:0:0:
352,47,99550,1,0,0:0:0:0:
329,103,99750,1,8,0:0:0:0:
341,62,99950,1,8,0:0:0:0:
343,52,100150,1,0,0:0:0:0:
346,61,100350,1,8,0:0:0:0:
348,55,100450,1,8,0:0:0:0:
354,62,100550,1,8,0:0:0:0:
341,55,100750,1,8,0:0:0:0:
341,62,100950,1,0,0:0:0:0:
343,52,101150,1,8,0:0:0:0:
346,50,101350,1,4,0:0:0:0:
343,52,102150,1,0,0:0:0:0:
346,50,102350,1,0,0:0:0:0:
343,52,102450,1,8,0:0:0:0:
343,52,102950,1,0,0:0:0:0:
286,102,103350,1,0,0:0:0:0:
282,81,103550,1,8,0:0:0:0:
262,81,103750,1,0,0:0:0:0:
286,86,103950,1,8,0:0:0:0:
286,86,104150,1,0,0:0:0:0:
286,86,104550,1,0,0:0:0:0:
281,87,104750,1,8,0:0:0:0:
286,86,104850,1,8,0:0:0:0:
286,86,105050,1,8,0:0:0:0:
286,86,105150,1,8,0:0:0:0:
286,86,105350,1,0,0:0:0:0:
286,86,105550,1,8,0:0:0:0:
281,87,105750,1,0,0:0:0:0:
279,85,105950,1,8,0:0:0:0:
286,86,106150,1,0,0:0:0:0:
287,73,106550,1,0,0:0:0:0:
287,73,106750,1,8,0:0:0:0:
287,73,106950,1,0,0:0:0:0:
300,73,107350,1,0,0:0:0:0:
308,71,107650,1,0,0:0:0:0:
294,72,107750,1,0,0:0:0:0:
296,75,107950,1,8,0:0:0:0:
300,73,108150,1,0,0:0:0:0:
300,73,108250,1,0,0:0:0:0:
300,73,108350,1,0,0:0:0:0:
302,62,108550,1,0,0:0:0:0:
302,62,108750,1,8,0:0:0:0:
302,62,108850,1,8,0:0:0:0:
269,86,109050,1,8,0:0:0:0:
303,53,109150,1,8,0:0:0:0:
304,53,109350,1,4,0:0:0:0:
291,56,109850,1,0,0:0:0:0:
302,62,109950,1,8,0:0:0:0:
301,82,111000,1,0,0:0:0:0:
249,160,112550,1,0,0:0:0:0:
249,160,112950,1,0,0:0:0:0:
249,160,113350,1,0,0:0:0:0:
249,160,113750,1,0,0:0:0:0:
266,141,113950,1,8,0:0:0:0:
249,160,114150,1,0,0:0:0:0:
266,141,114350,1,8,0:0:0:0:
266,141,114550,1,0,0:0:0:0:
266,141,114750,1,8,0:0:0:0:
266,141,114950,1,8,0:0:0:0:
286,154,115150,1,8,0:0:0:0:
286,154,115250,1,8,0:0:0:0:
287,154,115650,1,4,0:0:0:0:
297,135,115950,1,8,0:0:0:0:
142,212,116150,2,0,L|200:181,12,50
327,118,117550,1,8,0:0:0:0:
331,119,117650,1,8,0:0:0:0:
331,119,117750,1,8,0:0:0:0:
330,120,117950,1,0,0:0:0:0:
330,120,118050,1,0,0:0:0:0:
330,120,118150,1,0,0:0:0:0:
355,101,118350,1,8,0:0:0:0:
349,99,118550,1,0,0:0:0:0:
346,103,118650,1,0,0:0:0:0:
351,100,118850,1,0,0:0:0:0:
358,93,119350,1,8,0:0:0:0:
360,93,119750,1,0,0:0:0:0:
358,97,119950,1,0,0:0:0:0:
364,96,120150,1,8,0:0:0:0:
360,106,120250,1,8,0:0:0:0:
364,87,120450,1,8,0:0:0:0:
376,93,120750,1,0,0:0:0:0:
381,92,120950,1,8,0:0:0:0:
381,81,121150,1,0,0:0:0:0:
393,84,121350,1,0,0:0:0:0:
385,82,121850,1,0,0:0:0:0:
366,84,122050,1,12,0:0:0:0:
393,84,122350,1,8,0:0:0:0:
404,88,122550,1,8,0:0:0:0:
371,77,122750,1,0,0:0:0:0:
401,83,122950,1,8,0:0:0:0:
398,82,123150,1,0,0:0:0:0:
399,68,123350,1,8,0:0:0:0:
399,68,123650,1,0,0:0:0:0:
385,62,123850,1,0,0:0:0:0:
386,62,124050,1,8,0:0:0:0:
385,61,124250,1,0,0:0:0:0:
385,61,124450,1,0,0:0:0:0:
411,59,124550,1,0,0:0:0:0:
412,59,124750,1,8,0:0:0:0:
407,56,124950,1,8,0:0:0:0:
410,58,125250,1,0,0:0:0:0:
411,59,125550,1,0,0:0:0:0:
262,215,125750,2,0,L|305:188,9,50
342,102,126850,1,0,0:0:0:0:
341,94,127150,1,8,0:0:0:0:
339,98,127550,1,0,0:0:0:0:
339,98,127650,1,0,0:0:0:0:
341,94,127950,1,8,0:0:0:0:
341,94,128150,1,0,0:0:0:0:
339,98,128450,1,12,0:0:0:0:
334,107,128750,1,8,0:0:0:0:
334,107,128950,1,8,0:0:0:0:
332,106,129050,1,8,0:0:0:0:
332,106,129150,1,8,0:0:0:0:
332,107,129350,1,0,0:0:0:0:
340,110,129550,1,0,0:0:0:0:
340,110,129650,1,0,0:0:0:0:
334,107,129750,1,0,0:0:0:0:
192,184,130050,2,0,L|237:161,16,50
177,88,131950,1,8,0:0:0:0:
221,88,132150,1,0,0:0:0:0:
219,88,132350,1,8,0:0:0:0:
243,55,132550,1,0,0:0:0:0:
242,90,132650,1,0,0:0:0:0:
239,72,132750,1,0,0:0:0:0:
256,78,132950,1,8,0:0:0:0:
256,79,133050,1,8,0:0:0:0:
227,75,133150,1,8,0:0:0:0:
265,87,133350,1,0,0:0:0:0:
265,73,133550,1,8,0:0:0:0:
257,83,133750,1,8,0:0:0:0:
256,78,133950,1,0,0:0:0:0:
256,80,134050,1,0,0:0:0:0:
265,99,134150,1,0,0:0:0:0:
257,89,134350,1,8,0:0:0:0:
253,94,134550,1,8,0:0:0:0:
270,82,134950,1,0,0:0:0:0:
271,82,135150,1,8,0:0:0:0:
264,93,135350,1,8,0:0:0:0:
263,91,135550,1,0,0:0:0:0:
263,91,135650,1,0,0:0:0:0:
263,91,135750,1,0,0:0:0:0:
263,91,135950,1,0,0:0:0:0:
263,91,136150,1,8,0:0:0:0:
270,76,136350,1,8,0:0:0:0:
269,67,136550,1,0,0:0:0:0:
288,69,136950,1,0,0:0:0:0:
275,70,137150,1,8,0:0:0:0:
275,70,137250,1,8,0:0:0:0:
284,68,137350,1,8,0:0:0:0:
286,68,137550,1,8,0:0:0:0:
293,57,137750,1,8,0:0:0:0:
292,52,137950,1,0,0:0:0:0:
303,55,138250,1,8,0:0:0:0:
303,55,138550,1,8,0:0:0:0:
303,55,138750,1,0,0:0:0:0:
303,55,138850,1,0,0:0:0:0:
303,55,139050,1,0,0:0:0:0:
303,55,139350,1,8,0:0:0:0:
303,55,139550,1,8,0:0:0:0:
303,55,139750,1,4,0:0:0:0:
281,72,140550,1,8,0:0:0:0:
281,72,140750,1,0,0:0:0:0:
281,72,140950,1,8,0:0:0:0:
310,49,141350,1,0,0:0:0:0:
310,50,141750,1,12,0:0:0:0:
330,55,141950,1,8,0:0:0:0:
330,54,142150,1,0,0:0:0:0:
315,56,142250,1,0,0:0:0:0:
323,47,142550,1,8,0:0:0:0:
323,47,142750,1,4,0:0:0:0:
316,56,143350,1,0,0:0:0:0:
311,60,143550,1,8,0:0:0:0:
311,60,143650,1,8,0:0:0:0:
331,49,143950,1,8,0:0:0:0:
330,49,144150,1,8,0:0:0:0:
327,52,144350,1,0,0:0:0:0:
312,68,144550,1,0,0:0:0:0:
325,51,144650,1,0,0:0:0:0:
322,50,144750,1,0,0:0:0:0:
313,45,144950,1,12,0:0:0:0:
315,56,145350,1,0,0:0:0:0:
312,68,145550,1,8,0:0:0:0:
306,61,145750,1,0,0:0:0:0:
307,57,145950,1,12,0:0:0:0:
312,68,146550,1,8,0:0:0:0:
312,72,146650,1,8,0:0:0:0:
312,72,146750,1,8,0:0:0:0:
312,72,146950,1,0,0:0:0:0:
295,103,147250,1,8,0:0:0:0:
316,78,147350,1,8,0:0:0:0:
320,79,147550,1,0,0:0:0:0:
325,72,147750,1,8,0:0:0:0:
328,80,148150,1,0,0:0:0:0:
328,80,148250,1,0,0:0:0:0:
328,80,148350,1,0,0:0:0:0:
334,81,148550,1,8,0:0:0:0:
331,79,148950,1,0,0:0:0:0:
325,93,149050,1,0,0:0:0:0:
336,74,149150,1,0,0:0:0:0:
340,64,149350,1,8,0:0:0:0:
348,77,149550,1,8,0:0:0:0:
359,83,149750,1,8,0:0:0:0:
345,71,149950,1,0,0:0:0:0:
344,74,150050,1,0,0:0:0:0:
349,79,150150,1,0,0:0:0:0:
342,88,150350,1,8,0:0:0:0:
341,85,150550,1,8,0:0:0:0:
336,79,150750,1,0,0:0:0:0:
336,79,150950,1,8,0:0:0:0:
343,75,151350,1,12,0:0:0:0:
341,73,151650,1,0,0:0:0:0:
341,69,152150,1,12,0:0:0:0:
341,67,152550,1,0,0:0:0:0:
341,61,152650,1,0,0:0:0:0:
341,62,152850,1,0,0:0:0:0:
339,61,153050,1,0,0:0:0:0:
335,71,153250,1,12,0:0:0:0:
341,61,153550,1,8,0:0:0:0:
311,103,153750,1,8,0:0:0:0:
312,69,154550,1,0,0:0:0:0:
298,72,154650,1,0,0:0:0:0:
299,69,154850,1,8,0:0:0:0:
299,69,155050,1,0,0:0:0:0:
312,69,155150,1,0,0:0:0:0:
319,90,155350,1,12,0:0:0:0:
336,98,155750,1,0,0:0:0:0:
330,87,155950,1,8,0:0:0:0:
325,88,156050,1,8,0:0:0:0:
295,101,156150,1,8,0:0:0:0:
336,94,156350,1,0,0:0:0:0:
334,104,156450,1,0,0:0:0:0:
336,98,156650,1,8,0:0:0:0:
330,87,156850,1,0,0:0:0:0:
324,75,156950,1,0,0:0:0:0:
295,83,157150,1,8,0:0:0:0:
331,85,157250,1,8,0:0:0:0:
326,76,157350,1,8,0:0:0:0:
316,73,157550,1,12,0:0:0:0:
329,71,157950,1,0,0:0:0:0:
312,71,158150,1,0,0:0:0:0:
331,71,158250,1,0,0:0:0:0:
312,72,158350,1,0,0:0:0:0:
329,60,158550,1,0,0:0:0:0:
330,61,158750,1,8,0:0:0:0:
327,55,158950,1,8,0:0:0:0:
327,55,159150,1,0,0:0:0:0:
319,54,159350,1,8,0:0:0:0:
312,69,159450,1,8,0:0:0:0:
311,69,159550,1,8,0:0:0:0:
330,61,159750,1,0,0:0:0:0:
311,69,160150,1,8,0:0:0:0:
319,54,160350,1,0,0:0:0:0:
331,58,160550,1,12,0:0:0:0:
316,43,161150,1,8,0:0:0:0:
324,41,161350,1,8,0:0:0:0:
316,44,161550,1,0,0:0:0:0:
317,44,161750,1,8,0:0:0:0:
313,46,161950,1,0,0:0:0:0:
316,43,162150,1,0,0:0:0:0:
316,44,162550,1,8,0:0:0:0:
314,37,162750,1,8,0:0:0:0:
325,40,162950,1,0,0:0:0:0:
326,40,163150,1,8,0:0:0:0:
328,32,163250,1,8,0:0:0:0:
334,67,163450,1,0,0:0:0:0:
328,32,163550,1,0,0:0:0:0:
251,126,163750,1,4,0:0:0:0:
262,114,164150,1,0,0:0:0:0:
306,76,164250,1,0,0:0:0:0:
306,76,164450,1,8,0:0:0:0:
317,67,164550,1,8,0:0:0:0:
309,48,164950,1,8,0:0:0:0:
309,48,165050,1,8,0:0:0:0:
315,48,165250,1,4,0:0:0:0:
304,49,165750,1,8,0:0:0:0:
309,48,165850,1,0,0:0:0:0:
309,48,166050,1,0,0:0:0:0:
329,42,166250,1,8,0:0:0:0:
312,50,166450,1,8,0:0:0:0:
312,50,166550,1,8,0:0:0:0:
311,47,166750,1,0,0:0:0:0:
309,48,166950,1,12,0:0:0:0:
309,89,167350,1,0,0:0:0:0:
309,89,167450,1,0,0:0:0:0:
295,83,167650,1,8,0:0:0:0:
286,98,167950,1,0,0:0:0:0:
308,90,168150,1,0,0:0:0:0:
309,89,168250,1,0,0:0:0:0:
295,83,168450,1,8,0:0:0:0:
309,74,168750,1,8,0:0:0:0:
309,74,168950,1,0,0:0:0:0:
295,77,169050,1,0,0:0:0:0:
308,74,169250,1,8,0:0:0:0:
309,74,169550,1,0,0:0:0:0:
309,74,169750,1,8,0:0:0:0:
309,74,169950,1,8,0:0:0:0:
308,74,170150,1,0,0:0:0:0:
308,74,170350,1,12,0:0:0:0:
309,74,170750,1,0,0:0:0:0:
308,85,170950,1,0,0:0:0:0:
290,86,171050,1,0,0:0:0:0:
308,74,171150,1,0,0:0:0:0:
307,66,171350,1,0,0:0:0:0:
315,64,171550,1,8,0:0:0:0:
291,63,171750,1,8,0:0:0:0:
330,64,171950,1,0,0:0:0:0:
329,64,172150,1,8,0:0:0:0:
319,71,172350,1,0,0:0:0:0:
310,57,172950,1,8,0:0:0:0:
310,57,173150,1,8,0:0:0:0:
311,47,173350,1,8,0:0:0:0:
324,44,173550,1,0,0:0:0:0:
342,35,173650,1,0,0:0:0:0:
325,44,173750,1,0,0:0:0:0:
321,42,173950,1,0,0:0:0:0:
307,43,174150,1,8,0:0:0:0:
311,47,174350,1,8,0:0:0:0:
308,43,174450,1,8,0:0:0:0:
308,43,174550,1,8,0:0:0:0:
316,45,174750,1,0,0:0:0:0:
321,42,174950,1,8,0:0:0:0:
339,41,175150,1,8,0:0:0:0:
337,51,175350,1,0,0:0:0:0:
337,51,175550,1,0,0:0:0:0:
333,49,175750,1,8,0:0:0:0:
327,64,176150,1,0,0:0:0:0:
352,47,176350,1,0,0:0:0:0:
329,103,176550,1,8,0:0:0:0:
341,62,176750,1,8,0:0:0:0:
343,52,176950,1,0,0:0:0:0:
346,61,177150,1,8,0:0:0:0:
348,55,177250,1,8,0:0:0:0:
354,62,177350,1,8,0:0:0:0:
341,55,177550,1,8,0:0:0:0:
341,62,177750,1,0,0:0:0:0:
343,52,177950,5,8,0:0:0:0:
346,50,178150,1,4,0:0:0:0:
287,48,178550,1,8,0:0:0:0:
296,61,178750,1,0,0:0:0:0:
281,62,178850,1,0,0:0:0:0:
281,56,178950,1,0,0:0:0:0:
298,59,179150,1,8,0:0:0:0:
298,59,179350,1,8,0:0:0:0:
301,40,179550,1,8,0:0:0:0:
300,46,179650,1,8,0:0:0:0:
314,101,179950,1,12,0:0:0:0:
330,92,180150,1,0,0:0:0:0:
323,69,180350,1,8,0:0:0:0:
318,68,180450,1,8,0:0:0:0:
318,68,180550,1,8,0:0:0:0:
306,45,180750,1,0,0:0:0:0:
318,68,180850,1,0,0:0:0:0:
312,62,180950,1,0,0:0:0:0:
306,45,181150,1,8,0:0:0:0:
306,63,181350,1,4,0:0:0:0:
305,62,181750,1,12,0:0:0:0:
305,62,182150,1,12,0:0:0:0:
317,52,182550,1,4,0:0:0:0:
316,48,182950,1,0,0:0:0:0:
316,48,183150,1,8,0:0:0:0:
316,48,183350,1,0,0:0:0:0:
317,52,183550,1,8,0:0:0:0:
315,48,183650,1,8,0:0:0:0:
308,49,183750,1,8,0:0:0:0:
316,48,183950,1,8,0:0:0:0:
316,48,184150,1,0,0:0:0:0:
316,48,184350,1,0,0:0:0:0:
307,48,184550,1,12,0:0:0:0:
313,41,185350,1,0,0:0:0:0:
313,42,185550,1,8,0:0:0:0:
313,41,185650,1,8,0:0:0:0:
313,41,185750,1,8,0:0:0:0:
313,41,186050,1,12,0:0:0:0:
260,98,186350,1,8,0:0:0:0:
258,78,186550,1,8,0:0:0:0:
256,88,186750,1,0,0:0:0:0:
256,88,186950,1,8,0:0:0:0:
256,85,187250,1,0,0:0:0:0:
256,85,187450,1,8,0:0:0:0:
271,63,187650,1,0,0:0:0:0:
281,52,187950,1,8,0:0:0:0:
281,52,188150,1,8,0:0:0:0:
281,52,188350,1,0,0:0:0:0:
281,52,188550,1,8,0:0:0:0:
284,42,188850,1,0,0:0:0:0:
281,52,189050,1,0,0:0:0:0:
311,78,189250,1,12,0:0:0:0:
306,60,189750,1,8,0:0:0:0:
311,62,189950,1,0,0:0:0:0:
311,62,190150,1,8,0:0:0:0:
302,74,190450,1,0,0:0:0:0:
306,47,190650,1,8,0:0:0:0:
321,68,190850,1,0,0:0:0:0:
317,52,191150,1,8,0:0:0:0:
317,52,191350,1,0,0:0:0:0:
317,52,191550,1,8,0:0:0:0:
317,53,191750,1,0,0:0:0:0:
321,57,191950,1,8,0:0:0:0:
316,39,192150,1,0,0:0:0:0:
316,39,192250,1,0,0:0:0:0:
322,88,192750,1,8,0:0:0:0:
301,93,192950,1,0,0:0:0:0:
302,93,193150,1,8,0:0:0:0:
303,85,193350,1,8,0:0:0:0:
309,82,193550,1,0,0:0:0:0:
309,82,193750,1,8,0:0:0:0:
309,82,193950,1,8,0:0:0:0:
310,78,194150,1,8,0:0:0:0:
309,82,194450,1,0,0:0:0:0:
309,82,194750,1,8,0:0:0:0:
315,84,195050,1,0,0:0:0:0:
317,73,195350,1,8,0:0:0:0:
317,73,195650,1,12,0:0:0:0:
306,78,196150,1,0,0:0:0:0:
319,84,196350,1,8,0:0:0:0:
319,84,196550,1,0,0:0:0:0:
319,84,196750,1,8,0:0:0:0:
317,73,196950,1,0,0:0:0:0:
306,78,197150,1,0,0:0:0:0:
320,62,197350,1,0,0:0:0:0:
326,63,197650,1,8,0:0:0:0:
309,69,197850,1,8,0:0:0:0:
315,56,198050,1,0,0:0:0:0:
315,56,198250,1,0,0:0:0:0:
325,56,198450,1,8,0:0:0:0:
326,63,198650,1,8,0:0:0:0:
326,57,198850,1,12,0:0:0:0:
325,56,199350,1,8,0:0:0:0:
326,63,199550,1,0,0:0:0:0:
326,57,199750,1,8,0:0:0:0:
334,50,200050,1,0,0:0:0:0:
330,40,200250,1,8,0:0:0:0:
331,42,200450,1,0,0:0:0:0:
330,45,200750,1,8,0:0:0:0:
334,50,200950,1,8,0:0:0:0:
334,51,201150,1,0,0:0:0:0:
334,50,201350,1,8,0:0:0:0:
335,50,201650,1,0,0:0:0:0:
334,50,201850,1,0,0:0:0:0:
334,50,202050,1,12,0:0:0:0:
321,48,202550,1,8,0:0:0:0:
321,47,202750,1,0,0:0:0:0:
326,47,202950,1,8,0:0:0:0:
326,47,203250,1,0,0:0:0:0:
316,24,203450,1,8,0:0:0:0:
331,42,203650,1,0,0:0:0:0:
332,43,203950,1,8,0:0:0:0:
332,43,204150,1,0,0:0:0:0:
332,43,204350,1,8,0:0:0:0:
321,32,204550,1,0,0:0:0:0:
336,47,204750,1,8,0:0:0:0:
332,43,204950,1,0,0:0:0:0:
332,43,205050,1,0,0:0:0:0:
288,99,205550,1,8,0:0:0:0:
250,62,205750,1,0,0:0:0:0:
285,78,205950,1,8,0:0:0:0:
278,69,206150,1,8,0:0:0:0:
278,69,206350,1,0,0:0:0:0:
278,70,206550,1,8,0:0:0:0:
285,62,206850,1,0,0:0:0:0:
268,57,207150,1,8,0:0:0:0:
268,57,207350,1,0,0:0:0:0:
277,41,207650,1,0,0:0:0:0:
277,41,207850,1,0,0:0:0:0:
277,41,208050,1,8,0:0:0:0:
277,41,208250,1,8,0:0:0:0:
245,72,208450,5,12,0:0:0:0:
310,59,208750,5,8,0:0:0:0:
310,59,209150,1,8,0:0:0:0:
310,59,209550,1,8,0:0:0:0:
325,56,209750,1,0,0:0:0:0:
321,65,209950,1,8,0:0:0:0:
325,55,210050,1,8,0:0:0:0:
323,55,210350,1,8,0:0:0:0:
323,55,210550,1,0,0:0:0:0:
325,56,210650,1,8,0:0:0:0:
325,56,210850,1,0,0:0:0:0:
340,58,210950,1,0,0:0:0:0:
340,58,211050,1,0,0:0:0:0:
299,41,211250,1,8,0:0:0:0:
329,38,211350,1,8,0:0:0:0:
287,102,216350,5,8,0:0:0:0:
286,106,217250,5,12,0:0:0:0:
