osu file format v14

[General]
AudioFilename: audio.mp3
AudioLeadIn: 0
PreviewTime: 76386
Countdown: 0
SampleSet: None
StackLeniency: 0.5
Mode: 0
LetterboxInBreaks: 0
WidescreenStoryboard: 1

[Editor]
Bookmarks: 11034,21139,31244,46402,56507,76718,86823,96929,112086,122176,142402,157560,167665,187876,197981,210613
DistanceSpacing: 1.1
BeatDivisor: 4
GridSize: 32
TimelineZoom: 1.3

[Metadata]
Title:ITYNITED IDENTITY
TitleUnicode:ITYNITED IDENTITY
Artist:Nanahoshi Kangengakudan
ArtistUnicode:Nanahoshi Kangengakudan
Creator:sammish
Version:Another
Source:
Tags:
BeatmapID:1570572
BeatmapSetID:744955

[Difficulty]
HPDrainRate:5.5
CircleSize:4
OverallDifficulty:7
ApproachRate:9
SliderMultiplier:1.6
SliderTickRate:1

[Events]
//Background and Video events
0,0,"286e678d-478c-4cf8-beca-6988c59d3554.jpg",0,0
//Break Periods
//Storyboard Layer 0 (Background)
//Storyboard Layer 1 (Fail)
//Storyboard Layer 2 (Pass)
//Storyboard Layer 3 (Foreground)
//Storyboard Sound Samples

[TimingPoints]
913,315.789473684211,4,3,0,50,1,0
913,-133.333333333333,4,3,0,50,0,0
10702,-200,4,3,0,50,0,0
11018,-100,4,3,0,50,0,0
20334,-200,4,3,0,50,0,0
21123,-117.647058823529,4,3,0,50,0,0
51281,-200,4,3,0,50,0,0
56491,-100,4,3,0,50,0,0
66597,-83.3333333333333,4,3,0,70,0,1
76702,-100,4,3,0,50,0,0
86018,-200,4,3,0,50,0,0
86807,-117.647058823529,4,3,0,50,0,0
116965,-200,4,3,0,50,0,0
120913,-100,4,3,0,50,0,0
132281,-83.3333333333333,4,3,0,70,0,1
141755,-100,4,3,0,50,0,0
142386,-200,4,2,0,30,0,0
157544,-200,4,3,0,30,0,0
158807,-175.438596491228,4,3,0,35,0,0
160070,-156.25,4,3,0,40,0,0
161334,-140.845070422535,4,3,0,45,0,0
162597,-128.205128205128,4,3,0,50,0,0
163860,-117.647058823529,4,3,0,50,0,0
165123,-107.52688172043,4,3,0,50,0,0
167649,-100,4,3,0,50,0,0
177755,-83.3333333333333,4,3,0,70,0,1
187228,-90.9090909090909,4,3,0,50,0,0
187860,-100,4,3,0,50,0,0
197965,-71.4285714285714,4,3,0,80,0,1
209965,-200,4,3,0,50,0,0
210597,-100,4,3,0,50,0,0
220070,-100,4,3,0,5,0,0

[Colours]
Combo1 : 221,238,255
Combo2 : 255,153,204
Combo3 : 255,221,238
Combo4 : 249,204,176
Combo5 : 253,241,172
Combo6 : 102,238,187
Combo7 : 204,255,153
Combo8 : 185,220,255

[HitObjects]
434,60,913,6,0,L|423:110,1,30.0000011444092
353,128,1070,2,0,L|364:178,1,30.0000011444092
452,175,1228,2,0,L|447:305,1,120.000004577637
366,236,1702,6,0,L|377:286,1,30.0000011444092
447,304,1859,2,0,L|436:354,1,30.0000011444092
348,351,2018,1,0,0:0:0:0:
253,285,2176,101,0,0:0:0:0:
230,281,2254,1,0,0:0:0:0:
208,277,2333,1,0,0:0:0:0:
186,273,2412,1,0,0:0:0:0:
164,269,2491,1,0,0:0:0:0:
68,335,2649,6,0,L|60:204,1,120.000004577637
188,119,3123,2,0,L|172:179,1,60.0000022888184
92,60,3439,102,0,L|103:110,1,30.0000011444092
173,128,3596,2,0,L|162:178,1,30.0000011444092
74,175,3754,2,0,L|79:305,1,120.000004577637
160,236,4228,6,0,L|149:286,1,30.0000011444092
79,304,4385,2,0,L|90:354,1,30.0000011444092
178,351,4544,1,0,0:0:0:0:
273,285,4702,101,0,0:0:0:0:
295,281,4780,1,0,0:0:0:0:
317,277,4859,1,0,0:0:0:0:
339,273,4938,1,0,0:0:0:0:
361,269,5017,1,0,0:0:0:0:
458,335,5175,6,0,L|466:204,1,120.000004577637
370,86,5649,2,0,L|378:148,1,60.0000022888184
488,123,5965,102,0,L|451:121,1,30.0000011444092
365,74,6123,2,0,L|328:72,1,30.0000011444092
234,115,6281,1,0,0:0:0:0:
234,115,6439,2,0,L|249:201,1,60.0000022888184
126,247,6755,6,0,L|163:245,1,30.0000011444092
249,198,6913,2,0,L|286:196,1,30.0000011444092
239,312,7071,1,0,0:0:0:0:
113,248,7228,101,0,0:0:0:0:
110,218,7306,1,0,0:0:0:0:
107,188,7385,1,0,0:0:0:0:
105,158,7464,1,0,0:0:0:0:
102,128,7543,1,0,0:0:0:0:
198,42,7702,6,0,B|214:62|214:62|208:134,1,90.0000034332277
206,148,8018,1,0,0:0:0:0:
43,78,8176,2,0,L|116:72,1,60.0000022888184
214,157,8491,101,0,0:0:0:0:
242,166,8569,1,0,0:0:0:0:
272,167,8648,1,0,0:0:0:0:
301,159,8727,1,0,0:0:0:0:
327,148,8807,2,0,L|338:228,1,60.0000022888184
432,80,9123,2,0,L|421:160,1,60.0000022888184
419,169,9360,5,0,0:0:0:0:
417,198,9438,1,0,0:0:0:0:
428,226,9517,1,0,0:0:0:0:
449,246,9596,1,0,0:0:0:0:
512,345,9755,101,0,0:0:0:0:
482,338,9833,1,0,0:0:0:0:
453,332,9913,2,0,L|428:327,1,15.0000005722046
344,190,10228,86,0,L|339:249,1,60
334,333,10465,2,0,L|376:324,2,30.0000011444092
305,339,10702,6,0,L|311:263,1,60
221,185,11018,70,0,B|233:224|233:224|223:276,1,80
64,268,11334,2,0,B|56:229|56:229|68:190,1,80
145,126,11570,1,0,0:0:0:0:
145,126,11649,2,0,L|140:39,1,80
253,101,11965,1,0,0:0:0:0:
151,216,12123,6,0,B|145:152|145:152|126:124|126:124|121:57,1,160
257,83,12597,1,0,0:0:0:0:
361,216,12755,2,0,B|367:152|367:152|386:124|386:124|391:57,1,160
450,191,13228,2,0,L|439:289,1,80
362,351,13465,1,0,0:0:0:0:
358,344,13544,102,0,P|313:315|283:315,1,80
269,229,13860,2,0,P|221:253|206:279,1,80
202,361,14176,1,0,0:0:0:0:
287,314,14334,1,0,0:0:0:0:
143,228,14491,1,0,0:0:0:0:
179,351,14649,6,0,B|116:328|116:328|42:353,1,120
49,352,14965,2,0,L|39:258,1,80
137,162,15202,1,0,0:0:0:0:
146,161,15281,2,0,L|137:240,1,80
54,110,15597,1,0,0:0:0:0:
156,83,15755,1,0,0:0:0:0:
258,56,15913,1,0,0:0:0:0:
343,190,16070,102,0,P|286:184|251:156,1,80
388,47,16386,2,0,P|411:99|404:143,1,80
242,80,16702,2,0,P|275:33|317:17,1,80
458,81,17018,1,0,0:0:0:0:
341,223,17176,6,0,P|322:167|325:108,1,120
489,162,17491,2,0,P|421:168|394:155,1,80
264,226,17807,2,0,P|332:220|359:233,1,80
424,292,18123,1,0,0:0:0:0:
423,311,18201,1,0,0:0:0:0:
422,331,18280,1,0,0:0:0:0:
302,353,18439,1,0,0:0:0:0:
305,287,18597,101,0,0:0:0:0:
305,287,18755,2,0,L|304:338,1,40
214,235,18913,1,0,0:0:0:0:
214,235,19071,2,0,L|215:286,1,40
123,183,19228,1,0,0:0:0:0:
219,310,19386,1,0,0:0:0:0:
281,164,19544,1,0,0:0:0:0:
119,162,19702,6,0,L|32:167,1,80
297,249,20018,2,0,L|384:254,1,80
206,128,20334,102,0,B|192:162|192:162|225:243|225:243|201:292,1,160
280,154,21123,22,0,P|271:80|216:49,1,136.000002593994
133,82,21597,1,0,0:0:0:0:
280,154,21755,2,0,L|348:159,1,68.0000012969971
465,79,22070,2,0,L|397:84,1,68.0000012969971
404,229,22386,2,0,P|431:183|431:160,1,68.0000012969971
433,162,22623,1,0,0:0:0:0:
433,162,22702,1,0,0:0:0:0:
325,237,22860,1,0,0:0:0:0:
422,324,23018,1,0,0:0:0:0:
422,324,23176,2,0,B|371:347|371:347|273:328,1,136.000002593994
205,230,23649,6,0,P|216:270|211:310,1,68.0000012969971
222,160,23965,2,0,P|258:180|282:212,1,68.0000012969971
109,148,24281,2,0,P|98:188|103:228,1,68.0000012969971
92,78,24597,1,0,0:0:0:0:
31,162,24755,2,0,P|106:186|173:137,1,136.000002593994
227,81,25149,1,0,0:0:0:0:
227,81,25228,2,0,L|232:149,1,68.0000012969971
331,60,25544,2,0,L|326:128,1,68.0000012969971
428,80,25860,2,0,L|433:148,1,68.0000012969971
452,266,26176,102,0,P|398:237|395:309,1,136.000002593994
446,361,26649,1,0,0:0:0:0:
367,302,26807,2,0,L|282:308,1,68.0000012969971
196,249,27123,1,0,0:0:0:0:
259,341,27281,2,0,B|292:302|292:302|292:198,1,136.000002593994
170,186,27676,1,0,0:0:0:0:
170,186,27755,2,0,L|196:250,1,68.0000012969971
300,149,28070,2,0,L|291:217,1,68.0000012969971
159,93,28386,2,0,P|231:91|268:55,1,102.000001945496
264,57,28702,5,0,0:0:0:0:
183,7,28860,1,0,0:0:0:0:
150,91,29018,1,0,0:0:0:0:
69,41,29176,1,0,0:0:0:0:
2,118,29334,2,0,L|12:189,1,68.0000012969971
16,270,29649,1,0,0:0:0:0:
116,179,29807,2,0,L|95:323,1,136.000002593994
97,313,30202,1,0,0:0:0:0:
97,313,30281,1,0,0:0:0:0:
278,362,30439,2,0,L|314:339,1,34.0000006484985
324,334,30597,2,0,P|363:342|401:334,1,68.0000012969971
512,245,30913,2,0,P|473:253|435:245,1,68.0000012969971
354,134,31228,102,0,B|374:202|374:202|354:284,1,136.000002593994
271,346,31702,2,0,B|255:282|255:282|275:214,1,136.000002593994
354,134,32176,2,0,L|272:124,1,68.0000012969971
179,27,32491,6,0,P|189:91|160:159,1,136.000002593994
55,156,32965,2,0,P|45:220|74:288,1,136.000002593994
218,256,33439,2,0,P|168:241|132:250,1,68.0000012969971
169,339,33755,102,0,B|264:347|264:347|309:310,1,136.000002593994
224,189,34228,2,0,B|128:180|128:180|83:217,1,136.000002593994
161,262,34702,2,0,L|234:269,1,68.0000012969971
332,139,35018,6,0,P|319:212|358:273,1,136.000002593994
448,267,35491,2,0,P|477:207|463:142,1,136.000002593994
399,38,35965,2,0,L|399:117,1,68.0000012969971
391,197,36281,101,0,0:0:0:0:
267,123,36439,2,0,P|231:102|185:102,1,68.0000012969971
122,162,36755,2,0,P|121:203|144:243,2,68.0000012969971
280,227,37228,2,0,P|258:252|228:268,1,68.0000012969971
30,326,37544,6,0,P|104:318|147:333,1,102.000001945496
158,340,37860,2,0,P|207:348|257:338,1,102.000001945496
283,329,38176,2,0,P|357:321|400:336,1,102.000001945496
411,343,38492,2,0,P|460:351|510:341,1,102.000001945496
460,254,38807,101,0,0:0:0:0:
376,158,38965,2,0,L|383:232,1,68.0000012969971
509,100,39281,2,0,L|502:174,1,68.0000012969971
374,71,39597,1,0,0:0:0:0:
502,167,39755,1,0,0:0:0:0:
443,21,39913,1,0,0:0:0:0:
346,144,40070,6,0,L|347:213,2,68.0000012969971
361,58,40544,2,0,B|319:46|272:89|212:54,1,136.000002593994
124,18,41018,2,0,P|152:68|158:102,1,68.0000012969971
40,178,41334,102,0,L|177:156,1,136.000002593994
258,255,41807,1,0,0:0:0:0:
258,255,41965,2,0,L|121:233,1,136.000002593994
40,332,42439,1,0,0:0:0:0:
40,332,42597,2,0,L|177:310,1,136.000002593994
271,359,43070,1,0,0:0:0:0:
271,359,43228,2,0,L|275:287,1,68.0000012969971
342,129,43544,2,0,L|346:201,1,68.0000012969971
436,310,43860,6,0,P|458:238|450:175,1,136.000002593994
257,163,44334,1,0,0:0:0:0:
257,163,44491,2,0,P|308:218|366:242,1,136.000002593994
473,81,44965,1,0,0:0:0:0:
473,81,45123,2,0,P|399:97|349:136,1,136.000002593994
363,241,45597,1,0,0:0:0:0:
351,133,45755,2,0,P|306:83|285:174,1,204.000003890991
131,222,46386,101,0,0:0:0:0:
127,205,46464,1,0,0:0:0:0:
124,188,46543,5,0,0:0:0:0:
255,147,46860,1,0,0:0:0:0:
386,106,47176,1,0,0:0:0:0:
281,39,47491,102,0,B|237:23|237:23|254:140,1,136.000002593994
255,126,47886,1,0,0:0:0:0:
255,126,47965,1,0,0:0:0:0:
338,107,48123,1,0,0:0:0:0:
163,116,48281,2,0,L|193:199,1,68.0000012969971
297,217,48597,2,0,L|267:300,1,68.0000012969971
118,315,48913,6,0,B|175:285|229:303|209:320|275:343|325:317,1,204.000003890991
365,242,49544,2,0,P|348:207|346:170,2,68.0000012969971
435,356,50018,102,0,P|461:289|459:212,1,136.000002593994
455,206,50413,1,0,0:0:0:0:
443,189,50491,1,0,0:0:0:0:
386,106,50649,5,0,0:0:0:0:
255,147,50965,1,0,0:0:0:0:
124,188,51281,2,0,B|141:232|141:232|126:289,1,100
121,295,51755,102,0,L|186:290,1,60
279,297,52070,2,0,L|242:243,1,60
202,160,52386,2,0,L|173:218,1,60
286,175,52702,6,0,L|351:169,1,60
432,140,53018,2,0,L|497:134,1,60
369,83,53334,2,0,L|304:77,1,60
223,48,53650,2,0,L|158:42,1,60
80,70,53965,101,0,0:0:0:0:
79,158,54281,1,0,0:0:0:0:
163,185,54597,1,0,0:0:0:0:
215,114,54913,1,0,0:0:0:0:
163,42,55228,22,0,L|150:78,1,20
62,182,55386,1,0,0:0:0:0:
81,177,55464,1,0,0:0:0:0:
101,176,55543,1,0,0:0:0:0:
120,180,55622,1,0,0:0:0:0:
139,188,55701,1,0,0:0:0:0:
155,200,55780,1,0,0:0:0:0:
168,215,55859,1,0,0:0:0:0:
91,273,56176,5,0,0:0:0:0:
81,283,56491,6,0,B|145:319|145:319|248:303,1,160
238,161,56965,2,0,B|207:197|207:197|212:229,1,80
322,313,57281,2,0,B|327:281|327:281|296:245,1,80
368,102,57597,2,0,L|352:192,1,80
447,189,57913,2,0,L|408:271,1,80
353,180,58228,5,0,0:0:0:0:
466,93,58386,1,0,0:0:0:0:
447,189,58544,1,0,0:0:0:0:
313,88,58702,1,0,0:0:0:0:
295,244,58860,1,0,0:0:0:0:
313,88,59018,102,0,P|264:65|162:102,1,160
196,233,59491,2,0,P|235:188|241:164,1,80
72,97,59807,2,0,P|91:153|109:170,1,80
202,240,60123,2,0,L|285:244,1,80
182,343,60439,1,0,0:0:0:0:
182,343,60597,2,0,L|99:347,1,80
123,178,60913,5,0,0:0:0:0:
202,240,61070,1,0,0:0:0:0:
112,263,61228,1,0,0:0:0:0:
215,150,61386,1,0,0:0:0:0:
288,273,61544,102,0,B|286:314|286:314|258:353,1,80
399,225,61860,1,0,0:0:0:0:
399,225,62018,2,0,B|401:266|401:266|429:305,1,80
315,192,62334,2,0,L|301:108,1,80
417,56,62649,2,0,P|344:86|241:47,1,160
169,4,63123,1,0,0:0:0:0:
88,83,63281,6,0,L|103:178,1,80
100,162,63518,1,0,0:0:0:0:
100,162,63597,1,0,0:0:0:0:
202,211,63755,2,0,L|214:131,1,80
64,268,64070,102,0,B|131:248|131:248|160:301|240:293,1,160
293,101,64544,2,0,B|276:169|276:169|216:167|183:240,1,160
325,384,65018,1,0,0:0:0:0:
325,384,65176,2,0,B|274:335|274:335|305:284|258:219,1,160
411,126,65649,5,0,0:0:0:0:
371,267,65807,1,0,0:0:0:0:
333,178,65965,1,0,0:0:0:0:
497,214,66123,1,0,0:0:0:0:
405,374,66281,2,0,L|393:277,1,80
484,155,66597,70,0,B|492:204|492:204|462:258,1,95.9999970703126
393,279,66834,1,0,0:0:0:0:
338,220,66913,2,0,B|330:171|330:171|360:117,1,95.9999970703126
439,12,67228,2,0,L|420:136,1,95.9999970703126
393,279,67544,1,0,0:0:0:0:
322,166,67702,2,0,L|213:144,1,95.9999970703126
120,243,68018,2,0,L|229:221,1,95.9999970703126
162,83,68334,5,0,0:0:0:0:
123,155,68491,1,0,0:0:0:0:
322,166,68649,1,0,0:0:0:0:
283,94,68806,1,0,0:0:0:0:
137,62,68965,2,0,B|132:116|132:116|104:149,1,95.9999970703126
23,256,69281,102,0,P|79:268|146:252,1,95.9999970703126
198,336,69518,1,0,0:0:0:0:
198,336,69597,2,0,P|254:324|321:340,1,95.9999970703126
416,352,69913,1,0,0:0:0:0:
292,323,70070,1,0,0:0:0:0:
416,352,70228,2,0,B|427:303|427:303|417:246,1,95.9999970703126
295,228,70544,1,0,0:0:0:0:
419,257,70701,1,0,0:0:0:0:
295,228,70859,2,0,B|284:179|284:179|294:122,1,95.9999970703126
406,68,71176,5,0,0:0:0:0:
404,115,71254,1,0,0:0:0:0:
383,157,71333,1,0,0:0:0:0:
345,186,71412,1,0,0:0:0:0:
298,195,71491,1,0,0:0:0:0:
252,183,71570,1,0,0:0:0:0:
216,153,71649,102,0,P|158:129|108:147,1,95.9999970703126
98,293,71965,2,0,P|147:254|157:202,1,95.9999970703126
35,120,72281,2,0,P|43:182|83:216,1,95.9999970703126
217,142,72597,1,0,0:0:0:0:
128,38,72755,2,0,L|122:147,1,95.9999970703126
222,237,73070,2,0,L|216:141,1,95.9999970703126
123,233,73386,5,0,0:0:0:0:
234,330,73544,1,0,0:0:0:0:
306,187,73702,1,0,0:0:0:0:
138,235,73860,1,0,0:0:0:0:
303,271,74018,2,0,B|439:289|439:289|384:243,1,191.999994140625
224,172,74491,1,0,0:0:0:0:
224,172,74649,2,0,B|88:190|88:190|143:144,1,191.999994140625
303,73,75123,1,0,0:0:0:0:
303,73,75281,2,0,B|439:91|439:91|384:45,1,191.999994140625
181,0,75755,102,0,L|192:102,1,95.9999970703126
303,271,76070,1,0,0:0:0:0:
303,271,76702,54,0,B|345:257|345:257|400:275,1,80
487,365,77018,2,0,B|445:379|445:379|390:361,1,80
303,271,77255,1,0,0:0:0:0:
303,271,77334,2,0,L|297:191,1,80
418,92,77649,1,0,0:0:0:0:
512,172,77807,6,0,B|444:222|444:222|369:201,1,160
332,55,78281,1,0,0:0:0:0:
426,135,78439,2,0,B|358:185|358:185|283:164,1,160
206,35,78913,2,0,L|212:115,1,80
97,190,79149,1,0,0:0:0:0:
97,190,79228,102,0,B|137:176|137:176|186:206,1,80
166,342,79544,2,0,B|133:314|133:314|135:256,1,80
264,207,79860,1,0,0:0:0:0:
215,274,80018,1,0,0:0:0:0:
230,130,80176,1,0,0:0:0:0:
347,214,80334,6,0,P|397:228|464:177,1,120
453,196,80649,2,0,L|451:291,1,80
386,136,80886,1,0,0:0:0:0:
386,136,80965,2,0,L|383:41,1,80
490,112,81281,1,0,0:0:0:0:
386,136,81439,1,0,0:0:0:0:
282,160,81597,1,0,0:0:0:0:
206,78,81755,102,0,P|198:126|146:161,1,80
329,219,82070,2,0,P|291:187|286:126,1,80
144,254,82386,2,0,P|189:236|245:263,1,80
53,183,82702,1,0,0:0:0:0:
79,321,82860,6,0,B|122:348|122:348|219:326,1,120
160,175,83176,2,0,L|142:260,1,80
36,104,83491,2,0,L|54:189,1,80
137,43,83807,1,0,0:0:0:0:
135,62,83885,1,0,0:0:0:0:
134,82,83964,1,0,0:0:0:0:
240,186,84123,1,0,0:0:0:0:
277,44,84281,101,0,0:0:0:0:
277,44,84439,2,0,L|231:84,1,40
362,105,84597,1,0,0:0:0:0:
362,105,84755,2,0,L|342:162,1,40
466,115,84913,1,0,0:0:0:0:
419,25,85070,1,0,0:0:0:0:
407,191,85228,1,0,0:0:0:0:
411,112,85386,6,0,L|407:191,1,80
289,335,85702,2,0,L|285:256,1,80
439,273,86018,102,0,B|390:290|354:267|364:257|312:240|277:258,1,160
171,206,86807,22,0,B|204:267|204:267|184:342,1,136.000002593994
52,284,87281,2,0,L|149:278,1,68.0000012969971
238,210,87597,2,0,L|141:204,1,68.0000012969971
65,61,87913,2,0,B|92:90|92:90|88:200,1,136.000002593994
88,186,88307,1,0,0:0:0:0:
88,186,88386,1,0,0:0:0:0:
0,135,88544,1,0,0:0:0:0:
76,57,88702,2,0,P|122:38|154:45,2,68.0000012969971
292,12,89334,6,0,P|312:64|295:149,1,136.000002593994
225,103,89807,1,0,0:0:0:0:
266,208,89965,1,0,0:0:0:0:
380,154,90123,2,0,P|374:214|389:245,1,68.0000012969971
440,95,90439,2,0,B|480:76|480:76|470:188,1,136.000002593994
471,167,90834,1,0,0:0:0:0:
471,167,90913,1,0,0:0:0:0:
512,278,91070,1,0,0:0:0:0:
512,278,91228,2,0,L|435:268,1,68.0000012969971
355,327,91544,2,0,L|278:337,1,68.0000012969971
169,215,91860,102,0,P|211:254|206:321,1,102.000001945496
211,311,92176,2,0,L|134:327,1,68.0000012969971
50,240,92491,1,0,0:0:0:0:
132,328,92649,1,0,0:0:0:0:
50,240,92965,2,0,B|93:210|93:210|88:100,1,136.000002593994
89,126,93597,1,0,0:0:0:0:
169,71,93755,2,0,P|198:83|245:77,1,68.0000012969971
357,10,94070,2,0,P|328:-2|281:4,1,68.0000012969971
262,157,94386,6,0,B|313:137|314:78|314:78|337:119,1,136.000002593994
401,199,94860,2,0,L|469:193,1,68.0000012969971
331,108,95176,1,0,0:0:0:0:
331,108,95334,1,0,0:0:0:0:
324,237,95491,2,0,B|375:232|375:232|402:208|402:208|459:204,1,136.000002593994
450,204,95886,1,0,0:0:0:0:
450,204,95965,1,0,0:0:0:0:
336,118,96123,1,0,0:0:0:0:
324,237,96281,2,0,L|329:325,1,68.0000012969971
441,381,96597,2,0,L|444:313,1,68.0000012969971
