osu file format v14

[General]
AudioFilename: Justice.mp3
AudioLeadIn: 0
PreviewTime: 76597
Countdown: 0
SampleSet: Soft
StackLeniency: 0.4
Mode: 0
LetterboxInBreaks: 0
WidescreenStoryboard: 1

[Editor]
DistanceSpacing: 0.4
BeatDivisor: 1
GridSize: 32
TimelineZoom: 2.199999

[Metadata]
Title:IMAGINARY LIKE THE JUSTICE
TitleUnicode:IMAGINARY LIKE THE JUSTICE
Artist:Nanahoshi Kangengakudan
ArtistUnicode:ナナホシ管弦楽団
Creator:Nevo
Version:Battle's Extra
Source:
Tags:gumi EXIT TUNES PRESENTS Storytellers RPG vocaloid megpoid vocarock orchestra illicit sexual relations Monaka モナカ FujuniseikouyuuP 不純異性交遊P Iwami Takashi 岩見陸 japanese rock battle mir kuki1537 petal jrock j-rock - matha -_matha_- メグッポイド
BeatmapID:2919883
BeatmapSetID:1386585

[Difficulty]
HPDrainRate:5.8
CircleSize:4
OverallDifficulty:8
ApproachRate:9
SliderMultiplier:1.6
SliderTickRate:1

[Events]
//Background and Video events
0,0,"BG-art-scale-4_00x.jpg",0,0
//Break Periods
2,99410,105715
//Storyboard Layer 0 (Background)
//Storyboard Layer 1 (Fail)
//Storyboard Layer 2 (Pass)
//Storyboard Layer 3 (Foreground)
//Storyboard Layer 4 (Overlay)
//Storyboard Sound Samples

[TimingPoints]
-421,315.789473684211,4,2,1,55,1,8
526,-105.263157894737,4,2,1,55,0,8
1157,-133.333333333333,4,2,1,55,0,8
3210,-105.263157894737,4,2,1,55,0,8
3684,-133.333333333333,4,2,1,55,0,8
5736,-105.263157894737,4,2,1,55,0,8
6210,-133.333333333333,4,2,1,55,0,8
7000,-105.263157894737,4,2,1,55,0,8
7473,-133.333333333333,4,2,1,55,0,8
8263,-105.263157894737,4,2,1,55,0,8
10000,-105.263157894737,4,2,1,35,0,8
10315,-105.263157894737,4,2,1,65,0,8
10789,-100,4,2,2,75,0,8
10947,-100,4,2,1,75,0,8
20736,-83.3333333333333,4,2,1,75,0,8
29894,-76.9230769230769,4,2,1,75,0,8
31000,-100,4,2,1,70,0,8
58789,-83.3333333333333,4,2,1,70,0,8
59421,-76.9230769230769,4,2,1,70,0,8
60052,-71.4285714285714,4,2,1,70,0,8
60526,-100,4,2,1,70,0,8
61315,-90.9090909090909,4,2,1,70,0,8
66368,-83.3333333333333,4,2,1,70,0,8
75368,-83.3333333333333,4,2,2,70,0,8
76315,-133.333333333333,4,2,1,55,0,8
76631,-74.0740740740741,4,2,2,80,0,9
76710,-74.0740740740741,4,2,1,80,0,9
83579,-86.9565217391304,4,2,1,80,0,9
84210,-83.3333333333333,4,2,1,80,0,9
86736,-83.3333333333333,4,2,2,80,0,9
86894,-83.3333333333333,4,2,1,80,0,9
92421,-86.9565217391304,4,2,1,80,0,9
96684,-100,4,2,2,70,0,8
96841,-100,4,2,1,70,0,8
106789,-100,4,2,1,65,0,8
107263,-111.111111111111,4,2,1,65,0,8
111842,-100,4,2,1,70,0,8
124473,-83.3333333333333,4,2,1,70,0,8
125736,-76.9230769230769,4,2,1,70,0,8
127000,-90.9090909090909,4,2,1,70,0,8
141052,-90.9090909090909,4,2,2,70,0,8
141210,-90.9090909090909,4,2,1,70,0,8
142315,-74.0740740740741,4,2,2,80,0,9
142552,-74.0740740740741,4,2,1,80,0,9
152421,-74.0740740740741,4,2,2,80,0,9
152578,-74.0740740740741,4,2,1,80,0,9
158736,-86.9565217391304,4,2,1,80,0,9
160000,-74.0740740740741,4,2,1,80,0,9
162368,-74.0740740740741,4,2,2,80,0,8
162446,-74.0740740740741,4,2,1,80,0,8
167420,-74.0740740740741,4,2,2,80,0,8
167499,-74.0740740740741,4,2,1,80,0,8
172473,-74.0740740740741,4,2,2,80,0,8
172552,-74.0740740740741,4,2,1,80,0,8
177525,-74.0740740740741,4,2,2,80,0,8
177604,-74.0740740740741,4,2,1,80,0,8
182578,-74.0740740740741,4,2,2,80,0,8
182657,-74.0740740740741,4,2,1,80,0,8
187789,-74.0740740740741,4,2,1,70,0,8
191579,-133.333333333333,4,2,1,70,0,8
192052,-166.666666666667,4,2,1,65,0,8
192841,-166.666666666667,4,2,1,60,0,8
195368,-125,4,2,1,65,0,8
197894,-100,4,2,1,70,0,8
202947,-400,4,2,1,70,0,8
204842,-71.4285714285714,4,2,1,70,0,8
205473,-71.4285714285714,4,2,2,80,0,9
205631,-71.4285714285714,4,2,1,80,0,9
213052,-71.4285714285714,4,2,2,80,0,9
213210,-71.4285714285714,4,2,1,80,0,9
217789,-83.3333333333333,4,2,1,80,0,9
218105,-76.9230769230769,4,2,1,80,0,9
218736,-83.3333333333333,4,2,1,80,0,9
220631,-76.9230769230769,4,2,1,80,0,8
223157,-76.9230769230769,4,2,2,85,0,9
223236,-76.9230769230769,4,2,1,85,0,9
233263,-76.9230769230769,4,2,2,85,0,9
233341,-76.9230769230769,4,2,1,85,0,9
235789,-76.9230769230769,4,2,2,85,0,9
235946,-76.9230769230769,4,2,1,85,0,9
238315,-76.9230769230769,4,2,2,85,0,9
238473,-76.9230769230769,4,2,1,85,0,9
243210,-76.9230769230769,4,2,2,85,0,9
243289,-76.9230769230769,4,2,1,85,0,9
243526,-76.9230769230769,4,2,1,85,0,8

[Colours]
Combo1 : 252,221,44
Combo2 : 70,166,0
Combo3 : 77,116,221
Combo4 : 10,241,166

[HitObjects]
20,89,526,5,8,0:0:0:0:
20,89,684,2,0,B|118:81|52:35|169:31,1,151.999995941162,6|2,0:0|0:0,0:0:0:0:
242,95,1157,2,0,P|232:127|229:163,3,60.0000022888184,2|2|2|2,0:0|0:0|0:0|0:0,0:0:0:0:
110,203,1947,6,0,P|159:262|157:331,1,120.000004577637,2|2,0:0|0:0,0:0:0:0:
13,310,2421,2,0,P|47:295|75:285,3,60.0000022888184,2|2|2|2,0:0|0:0|0:0|0:0,0:0:0:0:
155,384,3210,6,0,P|205:330|285:342,1,151.999995941162,2|2,0:0|0:0,0:0:0:0:
422,270,3684,2,0,P|384:270|355:246,3,60.0000022888184,2|2|2|2,0:0|0:0|0:0|0:0,0:0:0:0:
208,209,4473,6,0,P|264:190|300:121,1,120.000004577637,2|2,0:0|0:0,0:0:0:0:
387,52,4947,2,0,P|343:30|330:2,2,60.0000022888184,2|2|2,0:0|0:0|0:0,0:0:0:0:
481,116,5421,1,2,0:0:0:0:
396,196,5579,1,2,0:0:0:0:
472,339,5736,6,0,P|418:293|330:307,1,151.999995941162,2|2,0:0|0:0,0:0:0:0:
225,372,6210,2,0,L|239:305,3,60.0000022888184,2|2|2|2,0:0|0:0|0:0|0:0,0:0:0:0:
94,241,7000,6,0,P|165:225|227:149,1,151.999995941162,2|2,0:0|0:0,0:0:0:0:
136,55,7473,2,0,P|134:105|120:125,3,60.0000022888184,2|2|2|2,0:0|0:0|0:0|0:0,0:0:0:0:
4,157,8263,6,0,P|73:169|93:241,1,151.999995941162,2|2,0:0|0:0,0:0:0:0:
77,384,8736,2,0,P|113:351|155:350,3,75.9999979705811,2|2|2|2,0:0|0:0|0:0|0:0,0:0:0:0:
231,251,9526,6,0,P|326:299|393:276,1,151.999995941162,2|2,0:0|0:0,0:0:0:0:
455,221,10000,1,2,0:0:0:0:
371,149,10157,1,2,0:0:0:0:
488,40,10315,1,8,0:0:0:0:
458,64,10393,1,0,0:0:0:0:
423,76,10472,1,8,3:0:0:0:
385,75,10551,1,8,3:0:0:0:
350,60,10630,1,4,3:0:0:0:
322,35,10709,1,4,3:0:0:0:
306,1,10789,6,0,B|266:100|326:53|275:186,1,160,14|0,3:2|3:0,0:0:0:0:
251,291,11263,2,0,P|208:264|173:259,1,80,8|0,0:0|0:0,0:0:0:0:
422,196,11579,2,0,P|379:223|344:228,1,80,0|0,3:0|3:0,0:0:0:0:
180,368,11894,1,8,0:0:0:0:
378,344,12052,6,0,P|328:286|237:300,1,160,0|0,3:0|3:0,0:0:0:0:
74,356,12526,2,0,P|104:323|130:288,1,80,8|0,0:0|0:0,0:0:0:0:
188,201,12842,1,0,3:0:0:0:
99,141,13000,1,0,3:0:0:0:
190,55,13157,1,8,0:0:0:0:
39,209,13315,6,0,P|4:141|43:61,1,160,0|0,3:0|3:0,0:0:0:0:
78,372,13789,2,0,P|59:326|3:320,1,80,12|0,0:0|0:0,0:0:0:0:
174,76,14105,1,0,3:0:0:0:
99,141,14263,1,0,3:0:0:0:
290,296,14421,1,8,0:0:0:0:
141,265,14579,6,0,B|183:249|183:249|216:205|216:205|279:183,1,160,6|0,3:2|3:0,0:0:0:0:
457,21,15052,1,8,0:0:0:0:
422,114,15210,2,0,P|378:96|362:35,1,80,2|0,0:0|3:0,0:0:0:0:
457,21,15526,1,0,3:0:0:0:
391,211,15684,1,8,0:0:0:0:
227,34,15842,6,0,P|271:172|273:205,1,160,6|0,3:2|3:0,0:0:0:0:
331,363,16315,2,0,P|357:318|397:309,1,80,8|0,0:0|0:0,0:0:0:0:
147,330,16631,1,0,3:0:0:0:
161,229,16789,1,0,3:0:0:0:
240,290,16947,1,8,0:0:0:0:
484,237,17105,6,0,B|395:246|429:179|317:189,1,160,0|0,3:0|3:0,0:0:0:0:
209,102,17579,1,8,0:0:0:0:
294,65,17736,1,0,3:0:0:0:
408,254,17894,1,0,3:0:0:0:
337,187,18052,1,0,3:0:0:0:
310,282,18210,1,8,0:0:0:0:
98,173,18368,6,0,P|204:165|227:96,1,160,0|0,3:0|3:0,0:0:0:0:
85,27,18842,2,0,P|135:58|137:92,1,80,8|0,0:0|0:0,0:0:0:0:
20,291,19157,1,0,3:0:0:0:
85,225,19315,1,0,3:0:0:0:
261,373,19473,5,8,0:0:0:0:
261,373,19552,1,8,0:0:0:0:
261,373,19631,2,0,P|187:372|128:290,1,160,6|0,3:2|3:0,0:0:0:0:
236,273,20105,1,8,0:0:0:0:
58,373,20263,1,0,3:0:0:0:
264,267,20421,1,8,0:0:0:0:
106,225,20579,1,0,3:0:0:0:
245,25,20736,5,8,0:0:0:0:
245,25,20815,1,8,0:0:0:0:
245,25,20894,2,0,B|228:74|228:74|238:119|238:119|214:183,1,143.999995605469,6|0,3:2|0:0,0:0:0:0:
221,162,21210,1,2,3:2:0:0:
50,117,21368,1,10,0:0:0:0:
136,60,21526,1,2,0:0:0:0:
99,313,21684,5,2,3:2:0:0:
107,209,21842,1,2,0:0:0:0:
195,269,22000,1,10,0:0:0:0:
363,93,22157,6,0,B|324:85|324:85|310:91|310:91|265:83,1,95.9999970703126,2|0,0:0|3:0,0:0:0:0:
356,0,22473,1,2,0:0:0:0:
496,193,22631,2,0,B|458:202|458:202|444:196|444:196|399:204,1,95.9999970703126,10|2,0:0|0:0,0:0:0:0:
278,382,22947,1,2,3:2:0:0:
278,276,23105,1,2,0:0:0:0:
373,330,23263,1,10,0:0:0:0:
171,255,23421,6,0,B|180:162|273:162|273:162|239:197,1,191.999994140625,2|2,0:0|0:0,0:0:0:0:
134,371,23894,2,0,P|98:326|58:322,1,95.9999970703126,10|2,0:0|0:0,0:0:0:0:
318,346,24210,1,2,3:2:0:0:
326,244,24368,2,0,P|263:259|243:292,1,95.9999970703126,2|10,0:0|0:0,0:0:0:0:
6,231,24684,6,0,P|86:215|122:162,1,143.999995605469,2|0,0:0|0:0,0:0:0:0:
31,146,25000,1,2,0:0:0:0:
234,83,25157,2,0,P|167:74|147:41,1,95.9999970703126,10|2,0:0|0:0,0:0:0:0:
60,19,25394,1,0,0:0:0:0:
60,19,25473,1,2,3:2:0:0:
161,248,25631,1,2,3:2:0:0:
31,146,25789,1,10,0:0:0:0:
324,139,25947,5,6,3:2:0:0:
340,151,26263,1,2,3:2:0:0:
227,38,26421,1,10,0:0:0:0:
269,232,26579,1,2,0:0:0:0:
314,43,26736,5,2,3:2:0:0:
181,143,26894,1,2,0:0:0:0:
401,88,27052,1,10,0:0:0:0:
182,0,27210,6,0,P|227:36|227:74,1,95.9999970703126,2|0,0:0|3:0,0:0:0:0:
170,255,27526,1,2,0:0:0:0:
87,208,27684,2,0,P|139:159|179:164,1,95.9999970703126,10|2,0:0|0:0,0:0:0:0:
313,287,28000,5,2,3:2:0:0:
270,187,28157,1,2,0:0:0:0:
416,215,28315,1,10,0:0:0:0:
512,127,28473,2,0,P|385:107|368:104,1,143.999995605469,2|0,0:0|0:0,0:0:0:0:
369,104,28789,1,2,0:0:0:0:
236,0,28947,2,0,P|255:48|266:87,1,95.9999970703126,10|2,0:0|0:0,0:0:0:0:
184,267,29263,1,2,3:2:0:0:
281,195,29421,1,2,3:2:0:0:
139,155,29579,1,14,0:0:0:0:
139,155,29736,5,2,3:2:0:0:
139,155,29815,1,2,3:2:0:0:
139,155,29894,2,0,P|79:173|38:180,1,103.999995239258,8|2,0:0|3:2,0:0:0:0:
194,14,30210,2,0,P|261:30|313:42,1,103.999995239258,10|10,0:0|0:0,0:0:0:0:
426,80,30447,1,10,0:0:0:0:
426,80,30526,2,0,L|417:140,1,51.999997619629,6|0,3:2|0:0,0:0:0:0:
323,218,30684,2,0,L|315:166,1,51.999997619629,2|0,3:2|0:0,0:0:0:0:
505,287,30842,5,8,0:0:0:0:
505,287,30921,1,8,0:0:0:0:
505,287,31000,2,0,P|438:323|415:380,1,120,6|0,3:2|0:0,0:0:0:0:
418,359,31315,1,2,3:2:0:0:
233,239,31473,2,0,P|314:224|411:207,2,160,10|2|8,0:0|3:2|0:0,0:0:0:0:
477,148,32263,5,2,0:0:0:0:
365,99,32421,2,0,P|405:48|438:48,2,80,2|0|10,3:2|0:0|0:0,0:0:0:0:
390,210,32894,2,0,P|314:199|291:196,1,80,2|0,0:0|3:0,0:0:0:0:
242,125,33210,1,2,0:0:0:0:
152,166,33368,1,10,0:0:0:0:
253,305,33526,1,2,0:0:0:0:
253,305,33684,6,0,P|240:259|225:215,1,80,2|2,3:2|0:0,0:0:0:0:
339,384,34000,2,0,P|351:345|362:307,1,80,10|0,0:0|0:0,0:0:0:0:
327,200,34315,1,2,3:2:0:0:
138,370,34473,2,0,P|189:298|258:308,1,160,2|2,0:0|0:0,0:0:0:0:
464,289,34947,6,0,P|433:234|424:191,1,80,2|0,3:2|0:0,0:0:0:0:
339,54,35263,2,0,P|323:137|294:199,1,120,8|0,0:0|0:0,0:0:0:0:
309,169,35579,1,2,3:2:0:0:
211,140,35736,1,2,0:0:0:0:
124,219,35894,5,10,0:0:0:0:
124,219,35973,1,10,0:0:0:0:
124,219,36052,2,0,P|42:232|8:324,1,160,2|2,3:2|3:2,0:0:0:0:
106,309,36526,1,10,0:0:0:0:
36,183,36684,2,0,P|66:127|104:118,1,80,2|0,0:0|3:0,0:0:0:0:
211,140,37000,1,2,3:2:0:0:
135,33,37157,1,10,0:0:0:0:
342,3,37315,6,0,P|319:58|313:85,1,80,2|0,0:0|3:0,0:0:0:0:
120,224,37631,1,2,0:0:0:0:
211,140,37789,1,10,0:0:0:0:
211,140,37947,2,0,P|227:176|238:214,1,80,2|0,0:0|3:0,0:0:0:0:
204,325,38263,1,2,3:2:0:0:
296,384,38421,1,10,0:0:0:0:
384,305,38579,6,0,P|454:262|521:323,1,160,2|0,3:2|3:0,0:0:0:0:
250,218,39052,1,10,0:0:0:0:
250,218,39210,2,0,P|323:195|346:183,1,80,2|0,0:0|3:0,0:0:0:0:
454,168,39526,1,2,3:2:0:0:
375,87,39684,1,10,0:0:0:0:
476,0,39842,5,2,0:0:0:0:
476,0,39921,1,2,0:0:0:0:
476,0,40000,2,0,P|507:43|497:80,2,80,0|2|8,3:0|0:0|0:0,0:0:0:0:
375,87,40473,1,2,0:0:0:0:
454,168,40631,1,0,3:0:0:0:
297,261,40789,2,0,P|321:206|359:194,1,80,0|8,3:0|0:0,0:0:0:0:
477,347,41105,5,6,3:2:0:0:
486,355,41421,1,2,3:2:0:0:
420,294,41579,1,10,0:0:0:0:
354,348,41736,1,2,0:0:0:0:
125,154,41894,5,2,3:2:0:0:
157,240,42052,1,2,3:2:0:0:
217,169,42210,1,10,0:0:0:0:
54,277,42368,6,0,L|97:363,1,80,2|0,3:2|0:0,0:0:0:0:
340,264,42684,2,0,P|247:255|175:248,1,160,2|2,3:2|0:0,0:0:0:0:
54,277,43157,1,2,3:2:0:0:
106,182,43315,1,2,3:2:0:0:
252,384,43473,2,0,P|200:343|167:347,1,80,10|2,0:0|3:2,0:0:0:0:
13,181,43789,6,0,P|87:132|99:88,1,120,2|0,0:0|0:0,0:0:0:0:
3,88,44105,1,10,0:2:0:0:
55,317,44263,2,2,P|120:249|204:261,1,160,2|2,0:2|3:2,0:2:0:0:
274,319,44736,1,10,0:0:0:0:
266,106,44894,6,0,P|210:122|190:174,1,80,6|0,3:2|0:0,0:0:0:0:
307,209,45210,1,0,3:0:0:0:
340,0,45368,2,0,P|389:48|457:55,1,120,8|0,0:0|0:0,0:0:0:0:
437,57,45684,1,2,3:2:0:0:
510,131,45842,1,2,3:2:0:0:
477,220,46000,1,10,0:0:0:0:
409,384,46157,6,0,P|392:303|347:246,1,120,6|0,3:2|0:0,0:0:0:0:
353,251,46473,1,2,3:2:0:0:
289,341,46631,1,10,0:0:0:0:
174,212,46789,2,0,P|211:216|242:273,1,80,2|0,0:0|3:0,0:0:0:0:
162,305,47105,5,2,3:2:0:0:
321,163,47263,1,10,0:0:0:0:
151,53,47421,2,0,P|166:143|176:236,1,160,6|2,3:2|3:2,0:0:0:0:
137,374,47894,2,0,P|112:325|78:310,1,80,10|0,0:0|0:0,0:0:0:0:
0,279,48131,1,2,0:0:0:0:
0,279,48210,1,2,3:2:0:0:
79,212,48368,1,0,3:0:0:0:
28,384,48526,1,10,0:0:0:0:
216,303,48684,6,0,B|311:293|233:240|366:228,1,160,6|2,3:2|3:2,0:0:0:0:
488,73,49157,1,10,0:0:0:0:
506,159,49315,2,0,P|459:149|412:144,1,80,2|0,0:0|3:0,0:0:0:0:
242,74,49631,1,2,3:2:0:0:
293,144,49789,1,10,0:0:0:0:
359,26,49947,6,0,P|421:64|416:162,1,160,6|0,3:2|3:0,0:0:0:0:
435,275,50421,2,0,P|495:258|532:255,1,80,8|0,0:0|0:0,0:0:0:0:
356,358,50736,1,2,3:2:0:0:
277,251,50894,1,2,3:2:0:0:
464,370,51052,1,10,0:0:0:0:
173,384,51210,6,0,P|211:354|256:350,1,80,6|0,3:2|0:0,0:0:0:0:
377,180,51526,1,2,3:2:0:0:
395,273,51684,2,0,P|329:267|305:244,1,80,10|10,0:0|0:0,0:0:0:0:
216,249,51921,1,8,0:0:0:0:
216,249,52000,2,0,L|243:152,1,80,2|2,3:2|3:2,0:0:0:0:
27,135,52315,1,12,0:0:0:0:
58,22,52473,2,0,P|113:99|131:175,1,160,2|2,3:2|3:2,0:0:0:0:
304,88,52947,2,0,P|247:67|218:60,1,80,10|8,0:0|0:0,0:0:0:0:
174,253,53263,5,2,3:2:0:0:
129,161,53421,1,2,3:2:0:0:
235,174,53579,1,10,0:0:0:0:
6,342,53736,6,0,P|32:270|97:253,1,120,6|0,3:2|0:0,0:0:0:0:
67,253,54052,1,2,3:2:0:0:
196,375,54210,2,0,P|185:327|173:284,1,80,12|8,0:0|0:0,0:0:0:0:
282,259,54447,1,10,0:0:0:0:
282,259,54526,2,0,P|292:220|301:181,1,80,2|0,3:2|3:0,0:0:0:0:
128,53,54842,1,10,0:0:0:0:
103,154,55000,6,0,P|194:150|217:85,1,160,6|2,3:2|3:2,0:0:0:0:
372,201,55473,2,0,P|310:191|292:167,1,80,8|8,0:0|3:0,0:0:0:0:
208,254,55710,1,8,3:0:0:0:
208,254,55789,1,2,3:2:0:0:
292,324,55947,1,14,0:0:0:0:
145,364,56105,1,10,0:0:0:0:
418,373,56263,6,0,P|400:300|391:271,1,80,6|0,3:2|0:0,0:0:0:0:
310,224,56579,1,2,3:2:0:0:
499,68,56736,1,10,0:0:0:0:
494,196,56894,1,8,3:0:0:0:
494,196,56973,1,8,3:0:0:0:
494,196,57052,2,0,P|440:186|408:150,1,80,2|2,3:2|3:2,0:0:0:0:
205,95,57368,1,10,0:0:0:0:
278,10,57526,6,0,B|320:-3|320:-3|369:44|321:124,1,160,6|2,3:2|3:2,0:0:0:0:
205,95,58000,1,12,0:0:0:0:
199,269,58157,2,0,P|210:207|292:193,1,120,10|0,0:0|0:0,0:0:0:0:
291,187,58473,1,2,3:2:0:0:
355,258,58631,1,10,0:0:0:0:
274,366,58789,6,0,P|220:271|167:277,1,143.999995605469,6|0,3:2|0:0,0:0:0:0:
184,366,59105,1,2,3:2:0:0:
355,258,59263,1,10,0:0:0:0:
97,258,59421,6,0,P|178:236|209:152,1,155.999992858887,6|0,3:2|0:0,0:0:0:0:
111,165,59736,1,2,3:2:0:0:
184,366,59894,1,10,0:0:0:0:
258,57,60052,6,0,P|317:121|309:214,1,167.999994873047,6|0,3:2|0:0,0:0:0:0:
209,176,60368,1,2,3:2:0:0:
358,79,60526,1,10,0:0:0:0:
358,79,60605,1,8,0:0:0:0:
358,79,60684,1,10,3:0:0:0:
316,197,60842,1,0,3:0:0:0:
196,17,61000,1,14,0:0:0:0:
196,17,61157,5,8,0:0:0:0:
196,17,61236,1,8,0:0:0:0:
196,17,61315,2,0,B|66:29|161:77|38:100,1,176.000005371094,6|0,3:2|3:0,0:0:0:0:
15,272,61789,2,0,P|19:240|80:219,1,88.000002685547,8|2,0:0|0:0,0:0:0:0:
182,148,62105,1,2,3:2:0:0:
91,99,62263,1,2,0:0:0:0:
205,155,62421,1,10,0:0:0:0:
179,324,62579,6,0,P|168:269|148:232,1,88.000002685547,2|0,0:0|3:0,0:0:0:0:
344,316,62894,2,0,P|296:262|261:260,1,88.000002685547,2|8,0:0|0:0,0:0:0:0:
65,213,63210,2,0,P|99:164|151:160,1,88.000002685547,2|0,0:0|3:0,0:0:0:0:
286,89,63526,1,2,0:0:0:0:
226,189,63684,1,8,0:0:0:0:
99,27,63842,6,0,P|115:95|126:193,1,132.00000402832,2|0,0:0|0:0,0:0:0:0:
123,156,64157,1,2,0:0:0:0:
0,178,64315,2,0,P|0:127|35:125,1,88.000002685547,14|2,0:0|0:0,0:0:0:0:
220,25,64631,1,2,3:2:0:0:
244,124,64789,1,2,0:0:0:0:
308,48,64947,1,14,0:0:0:0:
69,284,65105,6,0,P|154:233|242:232,1,176.000005371094,2|2,0:0|0:0,0:0:0:0:
175,327,65579,1,14,0:0:0:0:
414,184,65736,2,0,P|371:165|355:124,1,88.000002685547,2|0,0:0|3:0,0:0:0:0:
348,344,66052,1,14,0:0:0:0:
315,240,66210,1,10,0:0:0:0:
470,369,66368,6,0,P|486:271|518:169,1,191.999994140625,6|2,3:2|3:2,0:0:0:0:
504,62,66763,1,2,0:0:0:0:
504,62,66842,2,0,P|444:91|436:106,3,47.9999985351563,10|2|2|2,0:0|0:0|0:0|0:0,0:0:0:0:
378,142,67157,2,0,P|363:82|372:57,3,47.9999985351563,2|2|2|2,3:2|0:0|0:0|0:0,0:0:0:0:
292,18,67473,1,10,0:0:0:0:
300,205,67631,6,0,P|267:146|268:107,1,95.9999970703126,2|0,0:0|3:0,0:0:0:0:
199,245,67947,1,2,0:0:0:0:
402,265,68105,2,0,P|376:322|366:371,1,95.9999970703126,10|2,0:0|0:0,0:0:0:0:
466,99,68421,1,2,3:2:0:0:
366,129,68579,1,2,0:0:0:0:
461,194,68736,1,10,0:0:0:0:
343,43,68894,6,0,P|291:25|255:-5,1,95.9999970703126,2|0,0:0|3:0,0:0:0:0:
205,191,69210,1,2,0:0:0:0:
276,139,69368,2,0,P|272:33|238:-34,1,143.999995605469,10|0,0:0|0:0,0:0:0:0:
181,62,69684,1,2,3:2:0:0:
425,207,69842,2,0,P|356:220|338:254,1,95.9999970703126,2|8,0:0|0:0,0:0:0:0:
338,377,70157,6,0,B|226:383|294:298|142:325,1,191.999994140625,2|2,0:0|0:0,0:0:0:0:
6,264,70631,1,10,0:0:0:0:
102,228,70789,1,2,0:0:0:0:
363,150,70947,5,2,3:2:0:0:
275,206,71105,1,2,3:2:0:0:
214,113,71263,1,10,0:0:0:0:
0,56,71421,6,0,B|41:40|87:80|87:80|94:11|169:1,1,191.999994140625,6|0,3:2|3:0,0:0:0:0:
284,67,71894,2,0,P|235:115|195:101,1,95.9999970703126,10|2,0:0|0:0,0:0:0:0:
109,193,72131,1,2,0:0:0:0:
109,193,72210,2,0,P|168:219|183:272,1,95.9999970703126,2|2,3:2|0:0,0:0:0:0:
171,350,72526,1,10,0:0:0:0:
0,371,72684,2,0,P|32:301|112:290,1,143.999995605469,2|0,0:0|0:0,0:0:0:0:
171,350,73000,5,2,0:0:0:0:
253,264,73157,1,10,0:0:0:0:
396,319,73315,2,0,P|343:358|336:395,1,95.9999970703126,2|0,0:0|3:0,0:0:0:0:
164,181,73631,1,2,3:2:0:0:
205,88,73789,2,0,P|258:127|265:164,1,95.9999970703126,10|2,0:0|3:2,0:0:0:0:
352,223,74026,1,2,0:0:0:0:
352,223,74105,6,0,L|420:209,3,47.9999985351563,8|8|8|8,3:2|0:0|0:0|0:0,0:0:0:0:
482,130,74421,1,8,3:2:0:0:
482,130,74500,1,8,0:0:0:0:
482,130,74579,2,0,L|410:112,1,47.9999985351563,8|8,0:0|0:0,0:0:0:0:
313,27,74736,2,0,L|331:88,1,47.9999985351563,8|8,0:0|0:0,0:0:0:0:
233,216,74894,2,0,L|246:169,1,47.9999985351563,8|8,0:0|0:0,0:0:0:0:
199,22,75052,2,0,L|217:83,1,47.9999985351563,8|8,3:2|0:0,0:0:0:0:
119,211,75210,2,0,L|132:164,1,47.9999985351563,8|8,0:0|0:0,0:0:0:0:
43,84,75368,5,12,3:2:0:0:
43,84,76315,6,0,P|90:70|111:33,1,90.0000034332277,14|0,3:0|0:0,0:0:0:0:
111,11,76631,5,14,3:2:0:0:
200,72,76789,1,2,0:0:0:0:
91,163,76947,1,10,0:0:0:0:
184,236,77105,1,2,0:0:0:0:
346,208,77263,6,0,P|299:161|253:165,1,108.000000411987,2|2,3:2|0:0,0:0:0:0:
171,331,77579,1,10,0:0:0:0:
271,268,77736,1,2,0:0:0:0:
261,366,77894,5,2,3:2:0:0:
184,236,78052,1,2,0:0:0:0:
90,378,78210,2,0,P|124:331|184:338,1,108.000000411987,10|2,0:0|0:0,0:0:0:0:
356,311,78526,5,2,3:2:0:0:
263,179,78684,1,2,0:0:0:0:
408,54,78842,2,0,P|376:148|364:220,1,162.000000617981,10|0,0:0|0:0,0:0:0:0:
365,209,79157,5,6,3:2:0:0:
471,186,79315,1,2,0:0:0:0:
238,75,79473,1,10,0:0:0:0:
342,98,79631,1,2,0:0:0:0:
330,317,79789,6,0,P|306:256|253:246,1,108.000000411987,2|2,3:2|0:0,0:0:0:0:
127,171,80105,2,0,P|170:165|218:85,1,108.000000411987,10|2,0:0|0:0,0:0:0:0:
116,50,80421,5,2,3:2:0:0:
116,50,80579,1,2,0:0:0:0:
304,55,80736,1,10,0:0:0:0:
304,55,80894,1,2,0:0:0:0:
223,228,81052,2,0,B|126:241|196:298|66:309,1,162.000000617981,2|0,3:2|0:0,0:0:0:0:
72,284,81368,2,0,P|165:312|183:378,1,162.000000617981,8|0,0:0|0:0,0:0:0:0:
94,372,81684,5,6,3:2:0:0:
249,228,81842,1,2,0:0:0:0:
0,232,82000,2,0,P|33:192|86:190,1,108.000000411987,10|2,0:0|0:0,0:0:0:0:
186,288,82315,5,2,3:2:0:0:
182,86,82473,1,2,0:0:0:0:
346,190,82631,1,10,0:0:0:0:
228,183,82789,1,2,0:0:0:0:
410,85,82947,6,0,P|458:135|450:176,1,108.000000411987,2|2,3:2|0:0,0:0:0:0:
299,374,83263,2,0,P|288:301|338:263,1,108.000000411987,10|2,0:0|0:0,0:0:0:0:
474,260,83579,1,2,3:2:0:0:
474,260,83894,2,0,P|395:235|376:166,1,138.000002632141,10|0,0:0|0:0,0:0:0:0:
334,87,84210,6,0,P|253:150|155:144,1,191.999994140625,6|8,3:2|0:0,0:0:0:0:
229,46,84684,1,2,0:0:0:0:
265,273,84842,2,0,P|306:295|322:340,1,95.9999970703126,2|0,3:2|0:0,0:0:0:0:
88,194,85157,2,0,P|162:156|175:125,1,95.9999970703126,8|2,0:0|0:0,0:0:0:0:
402,125,85473,5,2,3:2:0:0:
286,173,85631,1,2,0:0:0:0:
290,49,85789,1,10,0:0:0:0:
408,235,85947,1,2,0:0:0:0:
401,19,86105,5,2,3:2:0:0:
402,125,86263,1,8,0:0:0:0:
286,173,86421,1,8,0:0:0:0:
290,49,86579,1,8,0:0:0:0:
408,235,86736,5,14,3:2:0:0:
480,105,86894,1,0,0:0:0:0:
293,256,87052,1,10,0:0:0:0:
373,141,87210,1,2,0:0:0:0:
506,377,87368,6,0,P|462:336|416:341,1,95.9999970703126,2|2,3:2|0:0,0:0:0:0:
282,142,87684,1,10,0:0:0:0:
408,235,87842,1,2,0:0:0:0:
282,273,88000,5,2,3:2:0:0:
392,128,88157,1,2,0:0:0:0:
199,198,88315,1,10,0:0:0:0:
375,334,88473,1,2,0:0:0:0:
193,372,88631,6,0,P|214:320|263:306,1,95.9999970703126,2|2,3:2|0:0,0:0:0:0:
501,214,88947,2,0,P|394:205|327:198,1,143.999995605469,10|0,0:0|0:0,0:0:0:0:
357,201,89263,5,6,3:2:0:0:
405,106,89421,1,2,0:0:0:0:
238,15,89579,1,10,0:0:0:0:
285,110,89737,1,2,0:0:0:0:
490,67,89894,6,0,P|453:23|396:15,1,95.9999970703126,2|2,3:2|0:0,0:0:0:0:
269,203,90210,1,10,0:0:0:0:
405,106,90368,1,2,0:0:0:0:
260,70,90526,5,2,3:2:0:0:
260,70,90684,1,2,0:0:0:0:
400,230,90842,1,10,0:0:0:0:
400,230,91000,1,2,0:0:0:0:
214,347,91157,2,0,P|211:249|246:218,1,143.999995605469,2|0,3:2|0:0,0:0:0:0:
269,203,91473,2,0,P|202:230|134:204,1,143.999995605469,10|0,0:0|0:0,0:0:0:0:
45,143,91789,6,0,P|83:97|146:105,2,95.9999970703126,6|0|8,3:2|0:0|0:0,0:0:0:0:
137,206,92263,1,2,0:0:0:0:
186,0,92421,2,0,P|234:47|229:97,1,92.0000017547608,0|0,3:2|0:0,0:0:0:0:
231,255,92736,1,8,0:0:0:0:
116,92,92894,1,2,0:0:0:0:
396,179,93052,6,0,P|330:164|288:153,1,92.0000017547608,2|2,3:2|0:0,0:0:0:0:
129,370,93368,2,0,P|173:358|218:348,1,92.0000017547608,10|0,0:0|0:0,0:0:0:0:
410,284,93684,2,0,P|354:269|287:260,1,92.0000017547608,2|2,3:2|0:0,0:0:0:0:
182,229,94000,1,10,0:0:0:0:
256,97,94157,5,2,0:0:0:0:
256,97,94236,1,2,0:0:0:0:
256,97,94315,2,0,P|236:30|228:-7,1,92.0000017547608,4|2,3:2|0:0,0:0:0:0:
423,93,94631,2,0,P|398:156|383:196,1,92.0000017547608,10|0,0:0|0:0,0:0:0:0:
217,300,94947,5,4,3:2:0:0:
298,186,95105,1,2,0:0:0:0:
333,363,95263,1,12,0:0:0:0:
96,219,95421,5,8,0:0:0:0:
96,219,95500,1,8,0:0:0:0:
96,219,95579,2,0,P|156:203|187:191,1,92.0000017547608,6|0,3:2|3:0,0:0:0:0:
284,90,95815,1,0,3:0:0:0:
284,90,95894,2,0,L|215:73,3,46.0000008773804,8|8|8|8,0:0|0:0|3:2|0:0,0:0:0:0:
143,6,96210,2,0,P|133:75|124:127,1,92.0000017547608,14|0,3:2|3:0,0:0:0:0:
293,257,96526,1,8,0:0:0:0:
0,142,96684,5,4,3:2:0:0:
256,192,96763,12,2,99210,3:2:0:0:
215,334,106315,5,0,3:0:0:0:
302,281,106473,1,2,3:2:0:0:
129,173,106631,1,10,0:0:0:0:
129,173,106710,1,8,0:0:0:0:
129,173,106789,2,0,P|146:241|225:206,1,160,6|2,3:2|3:2,0:0:0:0:
322,374,107263,6,0,P|402:354|463:343,2,143.999995605469,10|2|8,0:0|3:2|0:0,0:0:0:0:
322,374,108052,1,2,0:0:0:0:
392,269,108210,2,0,P|340:261|311:239,1,71.9999978027344,2|0,3:2|0:0,0:0:0:0:
381,176,108526,1,10,0:0:0:0:
237,310,108684,2,0,P|185:318|156:340,1,71.9999978027344,2|0,0:0|3:0,0:0:0:0:
62,369,109000,1,2,0:0:0:0:
105,267,109157,1,10,0:0:0:0:
24,203,109315,1,2,0:0:0:0:
24,203,109473,6,0,P|3:113|0:44,1,143.999995605469,6|10,3:2|0:0,0:0:0:0:
95,43,109947,1,2,0:0:0:0:
176,109,110105,2,0,P|247:63|237:-5,1,143.999995605469,2|8,3:2|0:0,0:0:0:0:
68,265,110579,1,2,0:0:0:0:
57,168,110736,2,0,P|111:183|129:220,1,71.9999978027344,2|0,3:2|0:0,0:0:0:0:
158,354,111052,2,0,P|174:302|202:287,1,71.9999978027344,8|8,0:0|0:0,0:0:0:0:
339,231,111368,5,10,0:0:0:0:
228,125,111526,2,0,P|245:185|253:216,1,71.9999978027344,10|2,0:0|0:0,0:0:0:0:
329,381,111842,6,0,B|420:362|347:309|499:300,1,160,6|2,3:2|3:2,0:0:0:0:
339,231,112315,1,10,0:0:0:0:
475,118,112473,2,0,P|462:170|452:211,1,80,2|0,0:0|3:0,0:0:0:0:
343,33,112789,1,2,3:2:0:0:
435,16,112947,1,10,0:0:0:0:
350,133,113105,6,0,P|263:114|184:104,1,160,2|2,3:2|3:2,0:0:0:0:
29,42,113579,2,0,P|75:20|62:-12,1,80,10|2,0:0|0:0,0:0:0:0:
194,199,113894,1,2,3:2:0:0:
89,119,114052,1,2,3:2:0:0:
196,27,114210,1,10,0:0:0:0:
0,279,114368,6,0,P|57:213|108:226,1,120,2|0,3:2|0:0,0:0:0:0:
81,213,114684,1,2,3:2:0:0:
86,320,114842,1,10,0:0:0:0:
275,134,115000,2,0,P|155:107|140:80,1,160,2|2,0:0|3:2,0:0:0:0:
235,46,115473,1,8,0:0:0:0:
237,264,115631,5,6,3:2:0:0:
6,37,115947,1,10,0:0:0:0:
6,37,116026,1,10,0:0:0:0:
10,41,116105,2,0,L|57:29,1,40,10|10,0:0|0:0,0:0:0:0:
221,5,116263,1,2,3:2:0:0:
241,37,116341,1,2,3:2:0:0:
224,72,116421,1,10,0:0:0:0:
177,82,116499,1,2,3:2:0:0:
143,115,116578,1,4,3:0:0:0:
131,161,116657,1,4,3:0:0:0:
144,207,116736,2,0,L|158:255,1,40,8|8,3:0|3:0,0:0:0:0:
315,384,116894,6,0,P|332:321|262:249,1,160,6|2,3:2|3:2,0:0:0:0:
135,367,117368,2,0,P|177:341|222:331,1,80,14|2,0:0|0:0,0:0:0:0:
290,144,117684,1,2,3:2:0:0:
276,252,117842,1,2,3:2:0:0:
186,189,118000,1,10,0:0:0:0:
372,215,118157,6,0,P|423:190|463:195,1,80,2|0,3:2|0:0,0:0:0:0:
213,77,118473,2,0,P|264:102|304:97,1,80,2|8,3:2|0:0,0:0:0:0:
367,33,118789,1,2,0:0:0:0:
273,275,118947,2,0,P|264:209|242:186,2,80,2|2|10,3:2|3:2|0:0,0:0:0:0:
476,38,119421,2,0,P|448:92|445:190,1,160,2|2,3:2|3:2,0:0:0:0:
411,339,119894,1,10,0:0:0:0:
371,239,120052,1,2,0:0:0:0:
499,371,120210,2,0,P|504:313|482:285,2,80,2|0|10,3:2|3:0|0:0,0:0:0:0:
234,339,120684,6,0,B|330:327|249:264|383:260,1,160,6|0,3:2|3:0,0:0:0:0:
204,236,121157,2,0,P|175:192|172:152,1,80,8|0,0:0|0:0,0:0:0:0:
374,349,121473,1,2,3:2:0:0:
288,191,121631,1,2,3:2:0:0:
485,192,121789,1,10,0:0:0:0:
485,192,121868,1,8,0:0:0:0:
485,192,121947,6,0,P|414:176|362:84,1,160,6|2,3:2|3:2,0:0:0:0:
512,28,122421,2,0,P|468:73|470:109,1,80,10|2,0:0|3:2,0:0:0:0:
365,108,122736,1,2,3:2:0:0:
288,32,122894,1,2,3:2:0:0:
392,4,123052,1,10,0:0:0:0:
257,130,123210,6,0,P|195:191|191:212,1,80,2|0,3:2|0:0,0:0:0:0:
316,295,123526,2,0,P|306:221|323:207,1,80,2|8,3:2|0:0,0:0:0:0:
186,41,123842,2,0,P|162:129|214:189,1,160,2|2,0:0|3:2,0:0:0:0:
286,97,124315,1,10,0:0:0:0:
168,282,124473,6,0,P|69:320|55:368,1,143.999995605469,6|0,3:2|0:0,0:0:0:0:
147,382,124789,1,2,3:2:0:0:
45,215,124947,1,10,0:0:0:0:
295,254,125105,5,2,3:2:0:0:
295,254,125184,1,8,0:0:0:0:
299,258,125263,1,0,3:0:0:0:
201,169,125421,1,2,3:2:0:0:
168,282,125579,1,10,0:0:0:0:
449,138,125736,6,0,P|382:152|329:88,1,155.999992858887,6|0,3:2|0:0,0:0:0:0:
417,43,126052,1,2,3:2:0:0:
295,254,126210,1,10,0:0:0:0:
207,36,126368,1,2,3:2:0:0:
207,36,126447,1,0,3:0:0:0:
207,36,126526,2,0,L|270:21,1,51.999997619629,0|0,3:0|0:0,0:0:0:0:
123,109,126684,2,0,L|60:94,1,51.999997619629,14|0,0:0|0:0,0:0:0:0:
222,190,126842,1,10,0:0:0:0:
146,382,127000,6,0,P|119:257|89:199,1,176.000005371094,6|0,3:2|3:0,0:0:0:0:
64,356,127473,2,0,P|111:307|152:299,1,88.000002685547,8|2,0:0|0:0,0:0:0:0:
262,346,127789,1,2,3:2:0:0:
222,249,127947,1,2,0:0:0:0:
338,279,128105,1,10,0:0:0:0:
404,195,128263,6,0,P|463:179|492:165,1,88.000002685547,2|0,0:0|3:0,0:0:0:0:
281,82,128579,2,0,P|222:98|193:112,1,88.000002685547,2|8,0:0|0:0,0:0:0:0:
421,95,128894,2,0,P|440:45|444:9,1,88.000002685547,2|0,0:0|3:0,0:0:0:0:
291,182,129210,1,2,0:0:0:0:
291,182,129368,1,8,0:0:0:0:
464,327,129526,6,0,P|361:287|286:299,1,176.000005371094,2|2,0:0|0:0,0:0:0:0:
137,248,130000,1,14,0:0:0:0:
230,144,130157,1,2,0:0:0:0:
83,54,130315,2,0,P|125:113|138:145,2,88.000002685547,2|2|10,3:2|0:0|0:0,0:0:0:0:
189,384,130789,6,0,P|216:300|241:287,1,88.000002685547,2|0,0:0|3:0,0:0:0:0:
357,110,131105,1,2,0:0:0:0:
379,241,131263,1,10,0:0:0:0:
379,241,131421,2,0,P|296:218|276:194,1,88.000002685547,2|0,0:0|0:0,0:0:0:0:
114,224,131736,1,14,0:0:0:0:
241,105,131894,1,10,0:0:0:0:
88,2,132052,6,0,P|137:78|133:140,1,132.00000402832,6|0,3:2|0:0,0:0:0:0:
138,117,132368,1,0,3:0:0:0:
83,221,132526,2,0,L|28:208,3,44.0000013427735,10|2|2|2,0:0|0:0|0:0|0:0,0:0:0:0:
150,333,132842,1,2,3:2:0:0:
150,333,132921,1,2,0:0:0:0:
150,333,133000,2,0,L|204:312,1,44.0000013427735,2|2,0:0|0:0,0:0:0:0:
283,220,133157,1,10,0:0:0:0:
379,382,133315,6,0,P|378:322|344:291,1,88.000002685547,2|0,0:0|3:0,0:0:0:0:
212,123,133631,1,2,0:0:0:0:
330,151,133789,2,0,P|290:188|284:236,1,88.000002685547,10|2,0:0|0:0,0:0:0:0:
392,217,134105,1,2,3:2:0:0:
273,315,134263,1,2,0:0:0:0:
511,199,134421,1,10,0:0:0:0:
297,69,134579,6,0,P|325:132|333:167,1,88.000002685547,2|0,0:0|3:0,0:0:0:0:
501,344,134894,1,2,0:0:0:0:
393,357,135052,2,0,P|415:270|447:215,1,132.00000402832,10|0,0:0|0:0,0:0:0:0:
511,199,135368,1,2,3:2:0:0:
247,340,135526,2,0,P|280:282|320:281,1,88.000002685547,2|8,0:0|0:0,0:0:0:0:
472,64,135842,6,0,B|358:77|445:147|302:152,1,176.000005371094,2|2,0:0|0:0,0:0:0:0:
209,182,136315,1,10,0:0:0:0:
255,78,136473,1,2,0:0:0:0:
125,105,136631,1,2,3:2:0:0:
91,12,136789,1,2,3:2:0:0:
255,78,136947,1,10,0:0:0:0:
11,257,137105,6,0,P|56:214|104:215,1,88.000002685547,6|0,3:2|0:0,0:0:0:0:
300,170,137421,1,2,3:2:0:0:
300,170,137500,1,2,0:0:0:0:
300,170,137579,1,10,0:0:0:0:
173,90,137736,1,2,0:0:0:0:
212,272,137894,2,0,L|195:217,3,44.0000013427735,2|2|2|2,3:2|0:0|0:0|0:0,0:0:0:0:
310,375,138210,1,10,0:0:0:0:
310,375,138289,1,2,0:0:0:0:
310,375,138368,2,0,L|327:320,1,44.0000013427735,2|2,0:0|0:0,0:0:0:0:
342,214,138526,5,2,3:2:0:0:
181,365,138684,1,2,0:0:0:0:
331,312,138842,1,8,0:0:0:0:
158,154,139000,2,0,P|115:193|110:234,1,88.000002685547,2|0,0:0|3:0,0:0:0:0:
214,263,139315,1,2,3:2:0:0:
266,20,139473,1,14,0:0:0:0:
363,164,139631,1,2,3:2:0:0:
488,59,139789,5,14,3:2:0:0:
488,59,139868,1,8,0:0:0:0:
488,59,139947,2,0,L|406:38,1,44.0000013427735,8|8,0:0|0:0,0:0:0:0:
326,151,140105,5,8,3:2:0:0:
326,151,140184,1,8,0:0:0:0:
326,151,140263,2,0,L|244:172,1,44.0000013427735,8|4,0:0|3:0,0:0:0:0:
150,24,140421,5,4,3:0:0:0:
110,41,140500,1,8,3:0:0:0:
83,75,140578,1,8,0:0:0:0:
77,119,140657,1,8,0:0:0:0:
84,151,140736,1,8,3:2:0:0:
132,165,140814,1,8,0:0:0:0:
166,200,140893,1,8,0:0:0:0:
176,249,140972,1,8,0:0:0:0:
160,295,141051,5,12,3:2:0:0:
81,246,141210,1,2,0:0:0:0:
81,246,141289,1,2,0:0:0:0:
81,246,141368,1,2,0:0:0:0:
242,295,141526,1,2,0:0:0:0:
166,200,141684,1,2,0:0:0:0:
130,349,141842,1,2,0:0:0:0:
270,274,142000,1,2,0:0:0:0:
181,282,142157,1,2,0:0:0:0:
241,364,142315,5,14,3:2:0:0:
351,202,142473,1,0,0:0:0:0:
487,358,142631,2,0,P|409:345|388:311,1,108.000000411987,10|2,0:0|0:0,0:0:0:0:
262,230,142947,5,2,3:2:0:0:
361,89,143105,1,2,0:0:0:0:
351,202,143263,1,10,0:0:0:0:
256,52,143421,1,2,0:0:0:0:
480,61,143579,6,0,P|473:138|437:159,1,108.000000411987,2|2,3:2|0:0,0:0:0:0:
312,291,143894,2,0,P|337:209|393:197,1,108.000000411987,10|2,0:0|0:0,0:0:0:0:
458,247,144210,1,2,3:2:0:0:
407,343,144368,1,2,0:0:0:0:
335,116,144526,2,0,B|236:129|295:188|194:194,1,162.000000617981,10|0,0:0|0:0,0:0:0:0:
167,194,144842,5,6,3:2:0:0:
216,95,145000,1,2,0:0:0:0:
128,299,145157,1,10,0:0:0:0:
66,175,145315,1,2,0:0:0:0:
270,321,145473,6,0,P|206:352|203:392,1,108.000000411987,2|2,3:2|0:0,0:0:0:0:
0,285,145789,2,0,P|72:271|119:263,1,108.000000411987,10|2,0:0|0:0,0:0:0:0:
273,172,146105,5,2,3:2:0:0:
133,133,146263,1,2,0:0:0:0:
280,46,146421,1,10,0:0:0:0:
201,241,146579,1,2,0:0:0:0:
20,131,146736,6,0,P|120:114|189:99,1,162.000000617981,2|0,3:2|0:0,0:0:0:0:
77,33,147052,2,0,P|95:97|115:198,1,162.000000617981,8|0,0:0|0:0,0:0:0:0:
78,293,147368,5,6,3:2:0:0:
201,241,147526,1,2,0:0:0:0:
308,384,147684,1,10,0:0:0:0:
187,345,147842,1,2,0:0:0:0:
297,200,148000,6,0,P|270:147|213:134,1,108.000000411987,2|2,3:2|0:0,0:0:0:0:
356,88,148315,1,10,0:0:0:0:
201,241,148473,1,2,0:0:0:0:
374,376,148631,6,0,P|380:328|437:296,1,108.000000411987,2|2,3:2|0:0,0:0:0:0:
356,88,148947,1,10,0:0:0:0:
462,160,149105,1,2,0:0:0:0:
212,259,149263,2,0,P|277:236|324:226,1,108.000000411987,2|0,3:2|0:0,0:0:0:0:
472,59,149579,2,0,P|404:66|309:0,1,162.000000617981,10|0,0:0|0:0,0:0:0:0:
204,15,149894,6,0,P|242:88|245:124,2,108.000000411987,6|0|8,3:2|0:0|0:0,0:0:0:0:
409,258,150368,1,2,0:0:0:0:
292,343,150526,2,0,P|295:236|363:145,1,216.000000823975,2|8,3:2|0:0,0:0:0:0:
459,169,151000,1,2,0:0:0:0:
250,260,151157,6,0,P|221:223|228:158,1,108.000000411987,6|2,3:2|0:0,0:0:0:0:
416,36,151473,1,10,0:0:0:0:
356,149,151631,1,2,0:0:0:0:
237,14,151789,2,0,P|171:41|127:46,1,108.000000411987,2|0,3:2|0:0,0:0:0:0:
0,11,152105,2,0,P|32:98|32:142,1,108.000000411987,8|0,0:0|0:0,0:0:0:0:
132,234,152421,5,14,3:2:0:0:
173,127,152579,1,2,0:0:0:0:
57,320,152736,1,10,0:0:0:0:
11,211,152894,1,2,0:0:0:0:
330,168,153052,6,0,P|271:208|233:200,1,108.000000411987,2|2,3:2|0:0,0:0:0:0:
85,384,153368,2,0,P|120:339|175:332,1,108.000000411987,10|2,0:0|0:0,0:0:0:0:
329,384,153684,5,2,3:2:0:0:
288,272,153842,1,2,0:0:0:0:
448,312,154000,1,10,0:0:0:0:
490,185,154157,1,2,0:0:0:0:
235,161,154315,2,0,P|308:147|393:136,1,108.000000411987,2|2,3:2|0:0,0:0:0:0:
512,60,154631,2,0,P|437:60|378:-9,1,162.000000617981,10|0,0:0|0:0,0:0:0:0:
279,58,154947,5,6,3:2:0:0:
374,157,155105,1,2,0:0:0:0:
249,269,155263,1,10,0:0:0:0:
370,361,155421,1,2,0:0:0:0:
468,118,155579,6,0,P|428:67|368:62,1,108.000000411987,2|2,3:2|0:0,0:0:0:0:
361,273,155894,1,10,0:0:0:0:
478,235,156052,1,2,0:0:0:0:
307,165,156210,5,2,3:2:0:0:
464,359,156368,1,2,0:0:0:0:
190,379,156526,2,0,P|219:325|275:321,1,108.000000411987,10|2,0:0|0:0,0:0:0:0:
503,242,156842,2,0,P|421:232|336:222,1,162.000000617981,2|0,3:2|0:0,0:0:0:0:
223,203,157157,2,0,P|248:150|275:96,1,108.000000411987,10|0,0:0|0:0,0:0:0:0:
0,9,157473,6,0,P|128:37|153:119,1,216.000000823975,6|8,3:2|0:0,0:0:0:0:
284,81,157947,1,2,0:0:0:0:
81,66,158105,2,0,P|132:21|182:25,1,108.000000411987,2|0,3:2|0:0,0:0:0:0:
239,202,158421,1,8,0:0:0:0:
153,106,158579,1,2,0:0:0:0:
373,190,158736,6,0,P|336:247|343:285,1,92.0000017547608,2|2,3:2|0:0,0:0:0:0:
487,104,159052,2,0,P|393:93|356:26,1,138.000002632141,10|0,0:0|0:0,0:0:0:0:
352,26,159368,1,2,3:2:0:0:
459,212,159526,1,2,0:0:0:0:
269,136,159684,1,10,0:0:0:0:
269,136,159842,5,2,0:0:0:0:
269,136,159921,1,0,0:0:0:0:
269,136,160000,2,0,P|196:151|156:158,1,108.000000411987,6|2,3:2|0:0,0:0:0:0:
13,27,160315,2,0,P|86:42|126:49,1,108.000000411987,14|0,0:0|0:0,0:0:0:0:
181,249,160631,1,6,3:2:0:0:
54,163,160789,1,0,0:0:0:0:
223,25,160947,2,0,P|311:37|313:80,1,108.000000411987,12|0,0:0|0:0,0:0:0:0:
310,158,161184,1,8,0:0:0:0:
310,158,161263,5,6,3:2:0:0:
75,289,161421,1,0,3:0:0:0:
196,162,161579,1,10,0:0:0:0:
196,162,161657,1,8,0:0:0:0:
196,162,161736,2,0,L|218:224,1,54.0000002059937,0|0,3:0|0:0,0:0:0:0:
189,377,161894,2,0,P|254:355|341:332,1,108.000000411987,14|8,0:0|0:0,0:0:0:0:
469,239,162210,2,0,L|387:220,1,54.0000002059937,8|8,0:0|0:0,0:0:0:0:
157,64,162368,5,12,3:2:0:0:
256,192,162447,12,0,164736,0:0:0:0:
123,172,166000,5,8,0:0:0:0:
303,140,166157,2,0,P|242:130|199:19,1,162.000000617981,12|0,0:0|0:0,0:0:0:0:
276,63,166473,2,0,P|232:108|214:103,1,54.0000002059937,0|0,3:0|3:0,0:0:0:0:
33,174,166631,1,8,0:0:0:0:
86,174,166709,1,8,3:0:0:0:
130,204,166788,1,4,3:0:0:0:
149,253,166867,1,4,3:0:0:0:
137,305,166947,2,0,P|108:268|103:244,3,54.0000002059937,8|8|8|8,0:0|0:0|0:0|3:2,0:0:0:0:
219,384,167263,2,0,P|245:344|267:332,3,54.0000002059937,8|8|14|2,0:0|0:0|3:2|0:0,0:0:0:0:
381,291,167579,5,2,0:0:0:0:
381,291,167657,1,2,0:0:0:0:
381,291,167736,2,0,L|313:242,1,54.0000002059937,2|2,3:2|0:0,0:0:0:0:
372,116,167894,1,10,0:0:0:0:
372,116,167973,1,2,0:0:0:0:
372,116,168052,2,0,L|388:184,1,54.0000002059937,2|2,0:0|0:0,0:0:0:0:
215,219,168210,5,2,3:2:0:0:
215,219,168289,1,2,0:0:0:0:
215,219,168368,2,0,L|266:167,1,54.0000002059937,2|2,0:0|0:0,0:0:0:0:
378,0,168526,1,8,0:0:0:0:
378,0,168605,1,2,0:0:0:0:
378,0,168684,2,0,L|289:27,1,54.0000002059937,2|2,0:0|0:0,0:0:0:0:
183,85,168842,5,2,3:2:0:0:
183,85,168921,1,2,0:0:0:0:
183,85,169000,2,0,L|165:32,1,54.0000002059937,2|2,0:0|0:0,0:0:0:0:
359,234,169157,1,10,0:0:0:0:
359,234,169236,1,2,0:0:0:0:
359,234,169315,2,0,L|377:181,1,54.0000002059937,2|2,0:0|0:0,0:0:0:0:
166,222,169473,5,2,3:2:0:0:
166,222,169552,1,2,0:0:0:0:
166,222,169631,2,0,L|223:202,1,54.0000002059937,2|2,0:0|0:0,0:0:0:0:
357,368,169789,1,10,0:0:0:0:
357,368,169868,1,2,0:0:0:0:
357,368,169947,2,0,L|300:348,1,54.0000002059937,2|2,0:0|0:0,0:0:0:0:
167,382,170105,5,2,3:2:0:0:
153,330,170183,1,2,0:0:0:0:
114,294,170262,1,2,0:0:0:0:
62,285,170341,1,2,0:0:0:0:
13,305,170421,2,0,P|63:341|88:333,3,54.0000002059937,10|2|2|2,0:0|0:0|0:0|0:0,0:0:0:0:
117,161,170736,2,0,P|98:217|108:243,3,54.0000002059937,2|2|2|2,3:2|0:0|0:0|0:0,0:0:0:0:
290,193,171052,2,0,P|220:220|207:243,3,54.0000002059937,10|2|2|2,0:0|0:0|0:0|0:0,0:0:0:0:
392,270,171368,5,2,3:2:0:0:
392,270,171447,1,2,0:0:0:0:
392,270,171526,2,0,L|419:336,1,54.0000002059937,2|2,0:0|0:0,0:0:0:0:
492,185,171684,1,10,0:0:0:0:
492,185,171763,1,2,0:0:0:0:
492,185,171842,2,0,L|519:119,1,54.0000002059937,2|2,0:0|0:0,0:0:0:0:
413,7,172000,1,2,3:2:0:0:
337,153,172157,1,2,3:2:0:0:
512,10,172314,1,10,0:0:0:0:
303,46,172473,5,12,3:2:0:0:
303,46,172552,1,2,0:0:0:0:
303,46,172631,2,0,B|260:65|260:65|248:82|248:82|197:98,1,108.000000411987,2|0,0:0|3:0,0:0:0:0:
81,47,172868,1,2,0:0:0:0:
81,47,172947,2,0,L|112:110,3,54.0000002059937,10|2|2|2,0:0|0:0|0:0|0:0,0:0:0:0:
170,189,173263,1,2,3:2:0:0:
170,189,173342,1,2,0:0:0:0:
170,189,173421,2,0,L|148:252,1,54.0000002059937,2|2,0:0|0:0,0:0:0:0:
5,384,173579,1,10,0:0:0:0:
25,335,173657,1,2,0:0:0:0:
71,309,173736,1,2,0:0:0:0:
124,318,173815,1,2,0:0:0:0:
159,358,173894,6,0,L|224:335,1,54.0000002059937,2|2,3:2|0:0,0:0:0:0:
300,378,174052,2,0,L|321:309,1,54.0000002059937,2|2,0:0|0:0,0:0:0:0:
210,168,174210,6,0,L|274:191,1,54.0000002059937,10|2,0:0|0:0,0:0:0:0:
350,148,174368,2,0,L|371:217,1,54.0000002059937,2|2,0:0|0:0,0:0:0:0:
453,334,174526,5,2,3:2:0:0:
318,291,174684,1,2,0:0:0:0:
480,174,174842,1,10,0:0:0:0:
328,30,175000,1,2,0:0:0:0:
328,30,175157,6,0,B|357:-15|294:-17|250:28|298:93|387:54|342:172,1,216.000000823975,6|8,3:2|0:0,0:0:0:0:
273,237,175631,1,2,0:0:0:0:
129,174,175789,2,0,B|172:160|172:160|186:146|186:146|234:132,1,108.000000411987,2|2,3:2|0:0,0:0:0:0:
371,277,176026,1,2,0:0:0:0:
371,277,176105,2,0,B|328:263|328:263|314:249|314:249|266:235,1,108.000000411987,10|2,0:0|0:0,0:0:0:0:
62,382,176421,6,0,B|75:298|154:304|154:304|167:333|117:333,1,162.000000617981,2|0,3:2|0:0,0:0:0:0:
155,333,176736,2,0,L|135:256,1,54.0000002059937,10|0,0:0|0:0,0:0:0:0:
42,223,176894,1,2,0:0:0:0:
260,257,177052,5,0,3:0:0:0:
11,318,177210,1,0,3:0:0:0:
201,122,177368,1,10,0:0:0:0:
30,17,177526,5,6,3:2:0:0:
30,17,177605,1,2,0:0:0:0:
30,17,177684,2,0,P|92:78|95:164,1,162.000000617981,2|2,0:0|0:0,0:0:0:0:
19,271,178000,2,0,P|7:216|29:200,3,54.0000002059937,10|2|2|2,0:0|0:0|0:0|0:0,0:0:0:0:
244,153,178315,1,2,3:2:0:0:
244,153,178394,1,2,0:0:0:0:
244,153,178473,2,0,L|195:118,1,54.0000002059937,2|2,0:0|0:0,0:0:0:0:
147,294,178631,1,10,0:0:0:0:
147,294,178710,1,2,0:0:0:0:
147,294,178789,2,0,L|173:231,1,54.0000002059937,2|2,0:0|0:0,0:0:0:0:
271,308,178947,6,0,L|279:369,1,54.0000002059937,2|2,3:2|0:0,0:0:0:0:
371,238,179105,2,0,L|363:291,1,54.0000002059937,2|2,0:0|0:0,0:0:0:0:
268,269,179263,2,0,L|272:330,1,54.0000002059937,10|2,0:0|0:0,0:0:0:0:
377,208,179421,2,0,L|367:261,1,54.0000002059937,2|2,0:0|0:0,0:0:0:0:
465,184,179579,5,2,3:2:0:0:
480,133,179657,1,2,0:0:0:0:
456,86,179736,1,2,0:0:0:0:
407,68,179815,1,2,0:0:0:0:
358,89,179894,1,10,0:0:0:0:
311,113,179972,1,2,0:0:0:0:
261,97,180051,1,2,0:0:0:0:
237,50,180130,1,2,0:0:0:0:
258,6,180210,6,0,L|295:54,1,54.0000002059937,2|2,3:2|0:0,0:0:0:0:
211,174,180368,2,0,L|230:124,1,54.0000002059937,2|2,0:0|0:0,0:0:0:0:
377,38,180526,2,0,L|352:104,1,54.0000002059937,10|2,0:0|0:0,0:0:0:0:
115,88,180684,2,0,L|181:52,1,54.0000002059937,2|2,0:0|0:0,0:0:0:0:
499,259,180842,2,0,B|464:242|454:207|454:207|399:245|399:245|374:205|328:205,1,216.000000823975,2|10,3:2|0:0,0:0:0:0:
242,349,181315,5,2,0:0:0:0:
242,349,181394,1,2,0:0:0:0:
242,349,181473,2,0,L|301:329,1,54.0000002059937,2|2,3:2|0:0,0:0:0:0:
126,223,181631,2,0,L|185:243,1,54.0000002059937,2|2,0:0|0:0,0:0:0:0:
393,384,181789,6,0,L|414:309,1,54.0000002059937,10|2,0:0|0:0,0:0:0:0:
285,185,181947,2,0,L|340:207,1,54.0000002059937,2|2,0:0|0:0,0:0:0:0:
478,21,182105,1,2,3:2:0:0:
488,72,182183,1,0,3:0:0:0:
458,115,182262,1,0,3:0:0:0:
406,121,182341,1,0,3:0:0:0:
366,87,182420,1,8,0:0:0:0:
160,0,182579,6,0,P|187:47|185:193,1,162.000000617981,6|0,3:2|0:0,0:0:0:0:
71,125,182894,1,2,3:2:0:0:
71,125,182973,1,2,3:2:0:0:
71,125,183052,2,0,P|114:96|121:62,3,54.0000002059937,14|2|2|2,0:0|0:0|3:2|3:2,0:0:0:0:
163,277,183368,1,14,0:0:0:0:
163,277,183447,1,2,0:0:0:0:
163,277,183526,2,0,P|126:221|124:202,1,54.0000002059937,2|2,3:2|3:2,0:0:0:0:
256,186,183684,1,14,0:0:0:0:
256,186,183763,1,2,0:0:0:0:
256,186,183842,2,0,P|297:133|315:125,1,54.0000002059937,2|2,3:2|3:2,0:0:0:0:
433,17,184000,5,14,0:0:0:0:
464,45,184078,1,2,0:0:0:0:
476,86,184157,1,2,3:2:0:0:
466,127,184236,1,2,3:2:0:0:
439,123,184315,5,14,0:0:0:0:
408,151,184393,1,2,0:0:0:0:
396,192,184472,1,2,3:2:0:0:
406,233,184551,1,2,3:2:0:0:
456,249,184631,5,14,0:0:0:0:
403,248,184709,1,2,0:0:0:0:
363,283,184788,1,2,3:2:0:0:
356,335,184867,1,2,3:2:0:0:
390,323,184947,5,14,0:0:0:0:
345,293,185025,1,2,0:0:0:0:
292,291,185104,1,2,3:2:0:0:
246,318,185183,1,2,3:2:0:0:
220,365,185263,6,0,L|156:377,1,54.0000002059937,14|2,0:0|0:0,0:0:0:0:
88,295,185421,2,0,L|23:283,1,54.0000002059937,2|2,3:2|3:2,0:0:0:0:
218,231,185579,5,10,0:0:0:0:
218,231,185657,1,10,0:0:0:0:
218,231,185736,2,0,L|147:199,1,54.0000002059937,2|2,3:2|3:2,0:0:0:0:
56,123,185894,1,8,3:2:0:0:
56,123,185972,1,2,0:0:0:0:
56,123,186052,2,0,L|-15:155,1,54.0000002059937,4|4,3:0|3:0,0:0:0:0:
181,38,186210,5,14,3:2:0:0:
34,285,186368,1,0,3:0:0:0:
283,220,186526,5,14,3:2:0:0:
54,19,186684,2,0,P|92:85|98:172,1,162.000000617981,14|0,3:2|0:0,0:0:0:0:
6,145,187000,5,14,3:2:0:0:
196,218,187158,2,0,P|158:284|156:331,1,108.000000411987,14|0,3:2|0:0,0:0:0:0:
210,66,187473,1,14,3:2:0:0:
40,243,187631,1,2,0:0:0:0:
266,298,187789,6,0,P|321:334|304:386,1,108.000000411987,0|0,3:0|3:0,0:0:0:0:
310,369,188026,1,8,0:0:0:0:
310,369,188105,2,0,L|335:285,2,54.0000002059937,0|0|8,3:0|0:0|0:0,0:0:0:0:
488,200,188421,1,0,3:0:0:0:
386,232,188579,1,0,3:0:0:0:
386,232,188657,1,0,3:0:0:0:
386,232,188736,2,0,P|358:188|350:165,1,54.0000002059937,8|0,0:0|0:0,0:0:0:0:
261,139,188894,2,0,P|273:115|289:93,1,54.0000002059937
379,22,189052,5,0,3:0:0:0:
456,115,189210,1,8,0:0:0:0:
456,115,189289,1,8,0:0:0:0:
456,115,189368,1,8,0:0:0:0:
357,186,189526,1,0,0:0:0:0:
254,20,189684,1,0,3:0:0:0:
217,28,189762,1,8,0:0:0:0:
179,35,189841,1,0,3:0:0:0:
142,41,189920,1,0,0:0:0:0:
105,45,189999,1,8,0:0:0:0:
13,200,190157,5,2,3:0:0:0:
13,200,190236,1,2,3:0:0:0:
13,200,190315,2,0,P|76:220|112:257,1,108.000000411987,0|0,3:0|3:0,0:0:0:0:
154,380,190552,1,0,0:0:0:0:
154,380,190631,2,0,P|208:341|273:343,1,108.000000411987,8|8,0:0|0:0,0:0:0:0:
357,357,190868,1,8,0:0:0:0:
357,357,190947,2,0,L|374:297,1,54.0000002059937,0|8,3:0|0:0,0:0:0:0:
259,175,191105,2,0,L|276:235,1,54.0000002059937,8|0,0:0|3:0,0:0:0:0:
512,248,191263,2,0,P|426:177|400:211,1,162.000000617981,8|0,0:0|0:0,0:0:0:0:
428,205,191579,6,0,P|441:142|395:37,1,180.000006866455,6|0,3:2|3:0,0:0:0:0:
303,73,192210,6,0,P|290:28|309:8,2,71.9999978027344,8|8|8,0:0|0:0|3:0,0:0:0:0:
334,164,192842,5,2,3:2:0:0:
329,168,193000,1,2,0:0:0:0:
290,250,193157,5,2,3:2:0:0:
284,246,193315,1,2,0:0:0:0:
180,212,193473,5,2,3:2:0:0:
181,205,193631,1,2,0:0:0:0:
187,106,193789,5,2,3:2:0:0:
193,104,193947,1,2,0:0:0:0:
283,75,194105,5,2,3:2:0:0:
206,306,194421,1,2,3:2:0:0:
350,152,194736,1,2,3:2:0:0:
113,210,195052,1,2,3:2:0:0:
241,181,195210,1,2,0:0:0:0:
156,118,195368,5,2,3:2:0:0:
161,122,195526,1,2,0:0:0:0:
198,269,195684,5,2,3:2:0:0:
193,273,195842,1,2,0:0:0:0:
107,209,196000,5,2,3:2:0:0:
113,210,196158,1,2,0:0:0:0:
247,183,196316,5,2,3:2:0:0:
240,186,196474,1,2,0:0:0:0:
99,315,196631,6,0,P|77:338|84:388,2,64,2|2|2,3:2|0:0|3:2,0:0:0:0:
193,273,197105,1,2,0:0:0:0:
108,150,197263,2,0,P|119:196|123:222,1,64,2|2,3:2|0:0,0:0:0:0:
261,384,197579,2,0,P|272:338|276:312,1,64,2|2,3:2|0:0,0:0:0:0:
215,142,197894,6,0,B|309:166|236:222|351:242,1,160,2|2,3:2|3:2,0:0:0:0:
332,238,198368,1,2,0:0:0:0:
465,16,198526,2,0,B|371:40|444:96|329:116,1,160,2|0,3:2|3:0,0:0:0:0:
347,112,199000,1,2,0:0:0:0:
512,176,199157,6,0,P|483:106|462:105,1,80,2|0,3:2|0:0,0:0:0:0:
362,259,199473,1,2,3:2:0:0:
409,186,199631,1,2,0:0:0:0:
466,281,199789,2,0,L|410:339,1,80,2|2,3:2|0:0,0:0:0:0:
321,137,200105,2,0,P|358:97|402:93,1,80,2|2,3:2|0:0,0:0:0:0:
271,226,200421,5,10,0:0:0:0:
271,226,200579,1,8,0:0:0:0:
409,186,200736,1,8,0:0:0:0:
228,102,200894,1,10,0:0:0:0:
299,7,201052,2,0,P|339:45|338:82,1,80,10|8,0:0|0:0,0:0:0:0:
105,238,201368,2,0,P|115:200|147:177,1,80,8|8,0:0|0:0,0:0:0:0:
320,333,201684,6,0,L|298:399,1,40,8|8,0:0|0:0,0:0:0:0:
207,290,201842,2,0,L|194:252,1,40,8|8,0:0|0:0,0:0:0:0:
426,286,202000,6,0,L|404:352,1,40,8|8,0:0|0:0,0:0:0:0:
291,195,202158,2,0,L|278:157,1,40,8|8,0:0|0:0,0:0:0:0:
477,102,202315,5,6,3:2:0:0:
477,102,202947,2,0,B|344:78|412:180|277:156,1,220,2|0,0:0|0:0,0:0:0:0:
72,16,204842,5,8,0:0:0:0:
94,49,204920,1,8,0:0:0:0:
110,85,204999,1,4,3:0:0:0:
120,124,205078,1,4,3:0:0:0:
94,163,205157,2,0,P|100:127|168:98,1,111.999996582031,8|4,0:0|3:0,0:0:0:0:
189,213,205473,5,14,3:2:0:0:
251,73,205631,1,2,0:0:0:0:
47,297,205789,1,10,0:0:0:0:
94,163,205947,1,2,0:0:0:0:
257,376,206105,6,0,P|221:325|162:321,1,111.999996582031,2|2,3:2|0:0,0:0:0:0:
7,135,206421,1,10,0:0:0:0:
189,213,206579,1,2,0:0:0:0:
0,295,206736,5,2,3:2:0:0:
94,163,206894,1,2,0:0:0:0:
175,317,207052,1,10,0:0:0:0:
296,211,207210,1,2,0:0:0:0:
101,77,207368,6,0,P|28:98|17:198,1,167.999994873047,2|0,3:2|0:0,0:0:0:0:
191,98,207684,2,0,P|147:49|161:-4,1,111.999996582031,8|0,0:0|0:0,0:0:0:0:
303,42,208000,5,6,3:2:0:0:
160,224,208157,1,2,0:0:0:0:
378,160,208315,1,10,0:0:0:0:
191,98,208473,1,2,0:0:0:0:
304,258,208631,5,2,3:2:0:0:
296,51,208789,1,2,0:0:0:0:
396,179,208947,1,10,0:0:0:0:
167,100,209105,1,2,0:0:0:0:
487,12,209263,6,0,P|439:74|388:76,1,111.999996582031,2|2,3:2|0:0,0:0:0:0:
197,258,209579,1,10,0:0:0:0:
297,145,209736,1,2,0:0:0:0:
151,34,209894,2,0,P|190:116|192:155,1,111.999996582031,2|0,3:2|0:0,0:0:0:0:
289,384,210210,2,0,P|291:317|352:224,1,167.999994873047,10|0,0:0|0:0,0:0:0:0:
472,262,210526,6,0,P|433:322|388:310,2,111.999996582031,6|0|8,3:2|0:0|0:0,0:0:0:0:
300,119,211000,1,2,0:0:0:0:
200,300,211157,2,0,B|298:299|220:225|358:232,1,167.999994873047,2|0,3:2|0:0,0:0:0:0:
478,149,211473,2,0,P|411:126|395:67,1,111.999996582031,8|2,0:0|0:0,0:0:0:0:
224,34,211789,5,6,3:2:0:0:
306,134,211947,1,2,0:0:0:0:
116,187,212105,1,10,0:0:0:0:
206,122,212263,1,2,0:0:0:0:
208,331,212421,6,0,P|205:249|245:229,1,111.999996582031,2|8,3:2|0:0,0:0:0:0:
314,31,212736,2,0,P|386:67|392:120,1,111.999996582031,8|8,0:0|0:0,0:0:0:0:
324,266,213052,5,14,3:2:0:0:
206,122,213210,1,2,0:0:0:0:
446,242,213368,2,0,P|425:301|412:358,1,111.999996582031,10|2,0:0|0:0,0:0:0:0:
221,235,213684,5,2,3:2:0:0:
391,124,213842,1,2,0:0:0:0:
202,26,214000,2,0,P|128:61|115:116,1,111.999996582031,10|2,0:0|0:0,0:0:0:0:
338,263,214315,5,2,3:2:0:0:
212,127,214473,1,2,0:0:0:0:
449,191,214631,1,10,0:0:0:0:
313,49,214789,1,2,0:0:0:0:
148,304,214947,2,0,P|176:245|225:235,1,111.999996582031,2|2,3:2|0:0,0:0:0:0:
456,346,215263,2,0,P|369:328|338:247,1,167.999994873047,10|0,0:0|0:0,0:0:0:0:
433,252,215579,5,2,3:2:0:0:
283,371,215736,1,2,0:0:0:0:
209,120,215894,2,0,P|294:154|302:197,1,111.999996582031,10|2,0:0|0:0,0:0:0:0:
160,354,216210,5,2,3:2:0:0:
44,295,216368,1,2,0:0:0:0:
97,186,216526,1,10,0:0:0:0:
217,238,216684,1,2,0:0:0:0:
0,160,216842,5,2,3:2:0:0:
136,271,217000,1,2,0:0:0:0:
108,80,217157,1,10,0:0:0:0:
44,295,217315,1,2,0:0:0:0:
204,143,217473,6,0,B|307:134|225:65|365:74,1,167.999994873047,2|0,3:2|0:0,0:0:0:0:
463,61,217789,2,0,P|412:63|352:-15,1,143.999995605469,10|0,0:0|0:0,0:0:0:0:
325,245,218105,6,0,P|343:170|370:168,2,103.999995239258,6|0|8,3:2|0:0|0:0,0:0:0:0:
376,357,218579,1,2,0:0:0:0:
512,287,218736,2,0,P|439:257|401:290,1,95.9999970703126,2|0,3:2|0:0,0:0:0:0:
243,265,219052,2,0,P|318:255|329:220,1,95.9999970703126,8|2,0:0|0:0,0:0:0:0:
425,146,219368,5,2,3:2:0:0:
317,90,219526,1,2,0:0:0:0:
411,29,219684,1,10,0:0:0:0:
411,29,219842,1,0,0:0:0:0:
327,227,220000,5,2,3:2:0:0:
322,0,220157,1,2,0:0:0:0:
506,164,220315,2,0,P|443:136|409:166,1,95.9999970703126,12|2,0:0|0:0,0:0:0:0:
225,152,220631,5,6,3:2:0:0:
311,101,220789,1,2,0:0:0:0:
114,122,220947,2,0,P|140:70|204:55,1,103.999995239258,12|0,0:0|0:0,0:0:0:0:
306,209,221263,5,12,0:0:0:0:
266,12,221421,1,0,3:0:0:0:
440,123,221579,2,0,P|364:105|334:101,1,103.999995239258,12|2,0:0|0:0,0:0:0:0:
222,173,221815,1,8,0:0:0:0:
222,173,221894,2,0,P|192:230|230:271,1,103.999995239258,6|8,3:2|0:0,0:0:0:0:
356,257,222210,1,8,0:0:0:0:
232,36,222368,2,0,B|105:42|185:137|42:127,1,207.999990478516,0|0,3:0|3:0,0:0:0:0:
8,39,222763,1,0,3:0:0:0:
8,39,222842,2,0,L|75:27,1,51.999997619629,12|8,0:0|0:0,0:0:0:0:
232,138,223000,1,8,0:0:0:0:
219,199,223078,1,8,0:0:0:0:
207,260,223157,5,14,3:2:0:0:
132,142,223315,1,2,0:0:0:0:
422,268,223473,2,0,P|397:218|337:200,1,103.999995239258,2|2,3:2|0:0,0:0:0:0:
52,384,223789,5,2,3:2:0:0:
322,285,223947,1,2,0:0:0:0:
96,288,224105,1,10,0:0:0:0:
222,230,224263,1,2,0:0:0:0:
62,188,224421,6,0,P|2:238|11:293,1,103.999995239258,6|2,3:2|0:0,0:0:0:0:
182,135,224736,1,10,0:0:0:0:
36,37,224894,1,2,0:0:0:0:
293,38,225052,5,2,3:2:0:0:
175,235,225210,1,2,0:0:0:0:
131,13,225368,1,8,0:0:0:0:
237,121,225526,1,2,0:0:0:0:
76,133,225684,5,6,3:2:0:0:
191,360,225842,1,2,0:0:0:0:
325,142,226000,1,10,0:0:0:0:
24,237,226157,1,2,0:0:0:0:
152,282,226315,2,0,P|110:311|97:361,1,103.999995239258,2|2,3:2|0:0,0:0:0:0:
483,240,226631,2,0,P|413:239|379:196,1,103.999995239258,10|2,0:0|0:0,0:0:0:0:
230,138,226947,5,6,3:2:0:0:
288,256,227105,1,2,0:0:0:0:
316,25,227263,1,10,0:0:0:0:
145,234,227421,1,2,0:0:0:0:
40,53,227579,2,0,P|99:13|151:29,1,103.999995239258,2|0,3:2|0:0,0:0:0:0:
325,142,227894,2,0,P|258:154|218:118,1,103.999995239258,8|0,0:0|0:0,0:0:0:0:
122,291,228210,5,14,3:2:0:0:
77,149,228368,1,2,0:0:0:0:
210,378,228526,1,10,0:0:0:0:
254,217,228684,1,2,0:0:0:0:
3,256,228842,5,2,3:2:0:0:
195,158,229000,1,2,0:0:0:0:
124,305,229157,2,0,P|94:197|71:131,1,155.999992858887,10|0,0:0|0:0,0:0:0:0:
28,66,229473,5,6,3:2:0:0:
110,22,229631,1,2,0:0:0:0:
282,164,229789,1,10,0:0:0:0:
200,120,229947,1,2,0:0:0:0:
372,74,230105,2,0,P|440:-3|499:32,1,155.999992858887,2|0,3:2|0:0,0:0:0:0:
512,199,230421,2,0,P|440:157|410:170,1,103.999995239258,10|0,0:0|0:0,0:0:0:0:
282,164,230736,6,0,P|306:241|311:286,2,103.999995239258,6|0|8,3:2|0:0|0:0,0:0:0:0:
199,231,231210,1,2,0:0:0:0:
449,40,231368,2,0,P|393:78|346:66,1,103.999995239258,2|0,3:2|0:0,0:0:0:0:
241,329,231684,2,0,P|272:275|328:265,1,103.999995239258,8|2,0:0|0:0,0:0:0:0:
412,207,232000,5,6,3:2:0:0:
272,129,232157,1,2,0:0:0:0:
400,329,232315,5,10,0:0:0:0:
376,99,232473,1,2,0:0:0:0:
264,276,232631,5,2,3:2:0:0:
509,68,232789,1,8,0:0:0:0:
509,68,232868,1,8,0:0:0:0:
509,68,232947,2,0,L|469:226,1,155.999992858887,10|0,0:0|0:0,0:0:0:0:
345,164,233263,5,14,3:2:0:0:
437,132,233421,1,2,0:0:0:0:
351,267,233579,1,10,0:0:0:0:
381,63,233736,1,2,0:0:0:0:
255,113,233894,1,2,3:2:0:0:
473,216,234052,1,2,0:0:0:0:
190,300,234210,2,0,P|223:228|260:221,1,103.999995239258,10|2,0:0|0:0,0:0:0:0:
361,171,234526,5,6,3:2:0:0:
214,87,234684,1,2,0:0:0:0:
452,55,234842,1,12,0:0:0:0:
240,221,235000,1,2,3:2:0:0:
322,0,235157,1,14,0:0:0:0:
450,318,235315,1,2,3:2:0:0:
498,193,235473,2,0,P|415:194|381:239,1,103.999995239258,14|8,0:0|0:0,0:0:0:0:
333,281,235710,1,8,0:0:0:0:
333,281,235789,5,14,3:2:0:0:
253,186,235947,1,2,3:2:0:0:
319,72,236105,1,10,0:0:0:0:
434,105,236263,1,4,3:0:0:0:
434,105,236342,1,4,3:0:0:0:
434,105,236421,1,2,3:2:0:0:
186,61,236579,1,2,3:2:0:0:
351,199,236736,1,14,0:0:0:0:
274,0,236894,1,2,0:0:0:0:
190,179,237052,5,14,3:2:0:0:
339,73,237210,1,2,3:2:0:0:
318,325,237368,2,0,P|268:285|220:297,1,103.999995239258,10|2,0:0|3:2,0:0:0:0:
164,366,237605,1,0,3:0:0:0:
164,366,237684,1,4,3:0:0:0:
59,96,237842,1,14,0:0:0:0:
0,258,238000,2,0,B|106:251|23:184|177:188,1,155.999992858887,10|0,0:0|0:0,0:0:0:0:
278,127,238315,6,0,P|201:88|257:2,1,207.999990478516,6|8,3:2|0:0,0:0:0:0:
294,336,238789,1,2,0:0:0:0:
252,235,238947,2,0,P|190:283|197:322,1,103.999995239258,6|0,3:2|0:0,0:0:0:0:
462,235,239263,2,0,P|389:229|350:184,1,103.999995239258,8|2,0:0|0:0,0:0:0:0:
278,127,239579,5,6,3:2:0:0:
420,58,239736,1,2,0:0:0:0:
168,121,239894,2,0,P|210:44|255:40,1,103.999995239258,10|0,0:0|0:0,0:0:0:0:
398,166,240210,1,2,3:2:0:0:
398,166,240368,1,2,0:0:0:0:
211,318,240526,1,10,0:0:0:0:
279,159,240684,5,2,0:0:0:0:
279,159,240763,1,2,0:0:0:0:
279,159,240842,2,0,P|304:242|306:289,1,103.999995239258,14|2,3:2|0:0,0:0:0:0:
161,184,241157,1,14,3:2:0:0:
373,82,241315,1,2,0:0:0:0:
196,23,241473,1,12,0:0:0:0:
412,235,241631,1,2,0:0:0:0:
41,179,241789,2,0,P|63:113|109:103,1,103.999995239258,12|8,0:0|0:0,0:0:0:0:
225,123,242026,1,8,0:0:0:0:
225,123,242105,5,12,0:0:0:0:
133,237,242263,1,8,0:0:0:0:
196,23,242421,1,8,0:0:0:0:
318,296,242579,1,12,0:0:0:0:
385,141,242736,2,0,P|446:124|501:125,1,103.999995239258,8|0,0:0|3:0,0:0:0:0:
455,236,242973,1,0,3:0:0:0:
455,236,243052,1,12,0:0:0:0:
136,119,243210,5,14,3:2:0:0:
256,192,243289,12,0,245736,3:0:0:0:
