osu file format v14

[General]
AudioFilename: audio.mp3
AudioLeadIn: 0
PreviewTime: 41461
Countdown: 0
SampleSet: Soft
StackLeniency: 0.7
Mode: 0
LetterboxInBreaks: 0
WidescreenStoryboard: 1

[Editor]
Bookmarks: 53461
DistanceSpacing: 1
BeatDivisor: 4
GridSize: 8
TimelineZoom: 2.4

[Metadata]
Title:INFINITI MOFULITY
TitleUnicode:いんふぃにてぃもふりてぃ
Artist:Nanahira x Camellia x p19
ArtistUnicode:ななひら×かめりあ×p19
Creator:Doj
Version:roris
Source:もふもふな放課後
Tags:pepega lolis omg i made this in one day im so proud of myself
BeatmapID:2084602
BeatmapSetID:996612

[Difficulty]
HPDrainRate:5
CircleSize:4
OverallDifficulty:8
ApproachRate:9
SliderMultiplier:1.6
SliderTickRate:1

[Events]
//Background and Video events
0,0,"wallhaven-nr1ggj.jpg",0,0
//Break Periods
//Storyboard Layer 0 (Background)
//Storyboard Layer 1 (Fail)
//Storyboard Layer 2 (Pass)
//Storyboard Layer 3 (Foreground)
//Storyboard Sound Samples

[TimingPoints]
1462,333.333333333333,4,2,1,60,1,0
2128,-200,4,2,1,60,0,0
2378,-200,4,2,1,5,0,0
2461,-83.3333333333333,4,2,1,60,0,0
2961,-133.333333333333,4,2,1,60,0,0
4295,-117.647058823529,4,2,1,60,0,0
4628,-105.263157894737,4,2,1,60,0,0
4961,-100,4,2,1,60,0,0
5628,-133.333333333333,4,2,1,60,0,0
6628,-100,4,2,1,60,0,0
6961,-90.9090909090909,4,2,1,60,0,0
7295,-83.3333333333333,4,2,1,60,0,0
7628,-125,4,2,1,60,0,0
9461,-111.111111111111,4,2,1,60,0,0
9711,-111.111111111111,4,2,1,60,0,0
11628,-100,4,2,1,60,0,0
11961,-125,4,2,1,60,0,0
13128,-83.3333333333333,4,2,1,60,0,0
13461,-100,4,2,1,60,0,0
18461,-71.4285714285714,4,2,1,60,0,0
18795,-100,4,2,1,60,0,0
20961,-71.4285714285714,4,2,1,60,0,0
21295,-76.9230769230769,4,2,1,60,0,0
21545,-76.9230769230769,4,2,1,5,0,0
21628,-76.9230769230769,4,2,1,60,0,0
22795,-100,4,2,1,60,0,0
23128,-200,4,2,1,60,0,0
24128,-125,4,2,1,60,0,0
33461,-100,4,2,1,60,0,0
33795,-83.3333333333333,4,2,1,60,0,0
34461,-71.4285714285714,4,2,1,60,0,0
36461,-166.666666666667,4,2,1,60,0,0
36795,-111.111111111111,4,2,1,60,0,0
37461,-125,4,2,1,60,0,0
40461,-90.9090909090909,4,2,1,60,0,0
40795,-125,4,2,1,60,0,0
41961,-100,4,2,1,60,0,0
57295,-76.9230769230769,4,2,1,60,0,0
57545,-76.9230769230769,4,2,1,5,0,0
57628,-90.9090909090909,4,2,1,60,0,0
57878,-90.9090909090909,4,2,1,5,0,0
57961,-66.6666666666667,4,2,1,60,0,0
58211,-66.6666666666667,4,2,1,5,0,0
58295,-133.333333333333,4,2,1,60,0,0
58711,-133.333333333333,4,2,1,5,0,0
58795,-133.333333333333,4,2,1,60,0,0
66461,-100,4,2,1,60,0,0
67128,-111.111111111111,4,2,1,60,0,0
67628,-125,4,2,1,60,0,0
68795,-76.9230769230769,4,2,1,60,0,0
69045,-76.9230769230769,4,2,1,5,0,0
69128,-83.3333333333333,4,2,1,60,0,0
69378,-83.3333333333333,4,2,1,5,0,0
69461,-100,4,2,1,60,0,0
78628,-76.9230769230769,4,2,1,60,0,0
78878,-76.9230769230769,4,2,1,5,0,0
78961,-100,4,2,1,60,0,0
79211,-100,4,2,1,5,0,0
79295,-71.4285714285714,4,2,1,60,0,0
79378,-71.4285714285714,4,2,1,5,0,0
79461,-133.333333333333,4,2,1,60,0,0
80128,-100,4,2,1,60,0,0
85128,-66.6666666666667,4,2,1,60,0,0
85461,-125,4,2,1,60,0,0
88961,-83.3333333333333,4,2,1,60,0,0
90795,-100,4,2,1,60,0,0
98878,-100,4,2,1,5,0,0
98961,-100,4,2,1,60,0,0
100795,-83.3333333333333,4,2,1,60,0,0
101211,-83.3333333333333,4,2,1,5,0,0
101295,-200,4,2,1,60,0,0
102045,-200,4,2,1,5,0,0

[Colours]
Combo1 : 250,207,107
Combo2 : 193,107,245
Combo3 : 37,185,239
Combo4 : 255,128,255

[HitObjects]
193,158,2128,6,0,P|206:194|212:231,1,60
250,315,2461,2,0,P|261:244|279:173,1,143.999995605469
358,224,2795,1,0,0:0:0:0:
168,307,2961,2,0,P|117:318|92:320,1,60.0000022888184
168,307,3961,6,0,P|133:293|97:288,1,60.0000022888184
299,256,4295,2,0,P|343:235|369:206,1,68.0000012969971
286,86,4628,2,0,L|279:172,1,75.9999979705811
404,301,4961,2,0,L|393:137,1,160
489,201,5461,5,0,0:0:0:0:
299,256,5628,2,0,L|306:328,1,60.0000022888184
299,256,6628,2,0,L|200:247,1,80
213,163,6961,2,0,L|107:153,1,88.000002685547
299,256,7295,2,0,L|402:265,1,95.9999970703126
213,163,7628,2,0,L|51:147,1,160
25,166,8128,5,0,0:0:0:0:
86,68,8295,2,0,P|123:81|166:89,1,64
25,166,8628,1,0,0:0:0:0:
64,279,8795,2,0,P|121:267|151:263,2,64
124,187,9295,1,0,0:0:0:0:
124,187,9461,6,0,P|162:205|214:219,1,71.9999978027344
231,178,9711,2,0,P|272:168|321:147,1,71.9999978027344
316,113,9961,1,0,0:0:0:0:
434,133,10128,2,0,L|417:223,1,71.9999978027344
316,113,10461,1,0,0:0:0:0:
369,218,10628,6,0,P|383:266|389:319,1,71.9999978027344
316,113,10961,1,0,0:0:0:0:
267,219,11128,1,0,0:0:0:0:
251,251,11211,1,0,0:0:0:0:
234,283,11294,1,0,0:0:0:0:
215,313,11378,1,0,0:0:0:0:
195,343,11461,1,0,0:0:0:0:
62,330,11628,6,0,P|30:341|9:345,1,40
129,243,11795,2,0,P|162:251|181:259,1,40
326,344,11961,2,0,P|390:320|350:211,1,192
223,121,12628,1,0,0:0:0:0:
223,121,12711,1,0,0:0:0:0:
223,121,12795,2,0,L|238:170,3,32
316,47,13128,2,0,L|333:102,3,47.9999985351563
435,108,13461,6,0,P|414:156|403:208,1,80
512,277,13795,2,0,P|505:229|492:190,1,80
403,284,14128,1,0,0:0:0:0:
308,219,14295,1,0,0:0:0:0:
425,293,14461,1,0,0:0:0:0:
315,333,14628,1,0,0:0:0:0:
315,333,14961,5,0,0:0:0:0:
213,300,15128,2,0,P|165:313|121:320,1,80
51,200,15461,1,0,0:0:0:0:
51,200,15545,2,0,P|100:209|141:223,1,80
217,194,15795,2,0,P|228:175|241:137,3,40
203,62,16128,6,0,P|176:33|125:35,1,80
257,142,16461,2,0,P|307:123|338:115,1,80
466,176,16795,1,0,0:0:0:0:
354,120,16961,1,0,0:0:0:0:
452,68,17128,1,0,0:0:0:0:
379,214,17295,1,0,0:0:0:0:
379,214,17628,5,0,0:0:0:0:
444,295,17795,2,0,L|533:280,1,80
332,336,18128,1,0,0:0:0:0:
332,336,18211,2,0,L|226:324,1,80
160,349,18461,2,0,P|134:360|106:368,3,55.9999982910157
200,258,18795,6,0,P|213:221|225:160,1,80
77,74,19128,2,0,P|87:127|101:161,1,80
198,93,19461,1,0,0:0:0:0:
127,222,19628,1,0,0:0:0:0:
198,93,19795,1,0,0:0:0:0:
21,165,19961,1,0,0:0:0:0:
21,165,20295,5,0,0:0:0:0:
49,261,20461,2,0,P|35:310|21:347,1,80
149,188,20795,1,0,0:0:0:0:
140,196,20878,1,0,0:0:0:0:
136,212,20961,2,0,P|139:235|144:251,4,27.9999991455078
227,335,21295,6,0,P|322:305|406:287,1,155.999992858887
409,305,21628,1,0,0:0:0:0:
371,218,21795,1,0,0:0:0:0:
418,137,21961,1,0,0:0:0:0:
508,113,22128,1,0,0:0:0:0:
371,218,22295,1,0,0:0:0:0:
383,43,22461,1,0,0:0:0:0:
336,143,22628,1,0,0:0:0:0:
336,143,22795,6,0,P|311:162|268:166,1,40
125,163,22961,2,0,P|168:145|185:142,1,40
255,238,23128,2,0,B|193:216|184:128|239:94|251:85|251:85|281:97,1,220
336,143,24128,6,0,P|349:181|355:219,1,64
411,278,24461,2,0,P|375:328|290:322,1,128
137,215,24961,1,0,0:0:0:0:
121,311,25128,2,0,P|161:308|204:283,1,64
66,150,25461,6,0,P|46:185|40:236,1,64
137,215,25795,1,0,0:0:0:0:
308,187,25961,1,0,0:0:0:0:
224,137,26128,1,0,0:0:0:0:
264,269,26295,1,0,0:0:0:0:
213,106,26461,1,0,0:0:0:0:
139,252,26628,1,0,0:0:0:0:
139,252,26711,1,0,0:0:0:0:
139,252,26795,6,0,P|152:292|160:332,1,64
37,259,27128,2,0,P|42:194|61:118,1,128
121,57,27628,1,0,0:0:0:0:
213,106,27795,2,0,P|252:100|302:88,1,64
121,57,28128,5,0,0:0:0:0:
129,146,28295,1,0,0:0:0:0:
205,192,28461,1,0,0:0:0:0:
205,192,28628,1,0,0:0:0:0:
121,57,28795,1,0,0:0:0:0:
129,146,28962,1,0,0:0:0:0:
205,192,29128,1,0,0:0:0:0:
292,173,29295,1,0,0:0:0:0:
292,173,29378,1,0,0:0:0:0:
292,173,29461,6,0,P|324:179|362:192,1,64
512,84,29795,2,0,P|454:108|380:122,1,128
311,90,30295,1,0,0:0:0:0:
392,207,30461,1,0,0:0:0:0:
392,207,30628,6,0,L|408:294,1,64
339,363,30961,2,0,L|327:300,1,64
233,209,31295,1,0,0:0:0:0:
327,300,31461,2,0,L|339:363,1,64
242,272,31795,2,0,L|233:209,1,64
198,169,32045,1,0,0:0:0:0:
198,169,32128,6,0,P|138:173|120:244,1,128
229,304,32628,1,0,0:0:0:0:
99,338,32795,2,0,P|50:320|23:316,1,64
229,304,33128,2,0,P|264:295|312:274,1,64
334,180,33461,5,0,0:0:0:0:
327,219,33545,1,0,0:0:0:0:
323,259,33627,1,0,0:0:0:0:
322,299,33711,1,0,0:0:0:0:
325,347,33795,2,0,P|352:351|375:357,3,47.9999985351563
401,244,34128,2,0,P|423:272|433:293,3,47.9999985351563
512,213,34461,6,0,P|507:244|500:266,6,27.9999991455078
488,349,34795,5,0,0:0:0:0:
488,349,35628,1,0,0:0:0:0:
512,213,35961,1,0,0:0:0:0:
464,115,36295,5,0,0:0:0:0:
464,115,36378,1,0,0:0:0:0:
464,115,36461,2,0,L|423:132,3,23.9999992675781
368,83,36795,2,0,P|313:72|251:53,2,107.999996704102
246,137,37461,2,0,P|207:144|164:156,1,64
61,82,37795,2,0,P|39:124|92:190,1,128
169,182,38295,1,0,0:0:0:0:
267,121,38461,2,0,P|284:89|289:54,1,64
194,58,38795,5,0,0:0:0:0:
282,21,38961,1,0,0:0:0:0:
372,53,39128,1,0,0:0:0:0:
372,53,39295,1,0,0:0:0:0:
194,58,39461,5,0,0:0:0:0:
282,21,39627,1,0,0:0:0:0:
372,53,39794,1,0,0:0:0:0:
391,147,39961,1,0,0:0:0:0:
391,147,40045,1,0,0:0:0:0:
391,147,40128,6,0,P|443:135|511:127,1,96
512,221,40461,2,0,P|483:218|471:215,6,22.0000006713867
419,276,40795,2,0,P|388:265|338:257,1,64
256,289,41128,1,0,0:0:0:0:
137,256,41295,2,0,P|132:293|144:330,1,64
256,289,41628,2,0,P|261:252|249:215,1,64
183,141,41961,2,0,P|260:181|338:207,1,160
470,241,42462,1,0,0:0:0:0:
511,125,42628,1,0,0:0:0:0:
400,170,42795,6,0,L|431:344,1,160
324,353,43295,1,0,0:0:0:0:
324,353,43378,1,0,0:0:0:0:
324,353,43461,2,0,P|328:310|331:296,2,40
207,237,43795,1,0,0:0:0:0:
123,298,43961,6,0,L|139:381,1,80
310,230,44295,2,0,L|294:151,1,80
207,237,44628,1,0,0:0:0:0:
102,182,44795,2,0,P|59:169|17:163,1,80
207,237,45128,1,0,0:0:0:0:
284,348,45295,1,0,0:0:0:0:
284,348,45378,1,0,0:0:0:0:
284,348,45461,6,0,P|337:371|378:380,1,80
432,290,45795,2,0,P|470:259|464:199,1,80
397,160,46045,1,0,0:0:0:0:
388,170,46128,2,0,P|392:220|398:240,2,40
466,50,46461,1,0,0:0:0:0:
337,105,46628,6,0,P|298:122|237:136,1,80
466,50,46961,2,0,P|416:36|369:30,1,80
215,24,47295,1,0,0:0:0:0:
215,24,47378,1,0,0:0:0:0:
215,24,47461,2,0,P|218:48|224:64,2,40
311,26,47795,1,0,0:0:0:0:
123,93,47961,1,0,0:0:0:0:
123,93,48045,1,0,0:0:0:0:
123,93,48128,6,0,P|88:142|148:218,1,160
288,229,48628,1,0,0:0:0:0:
288,229,48711,1,0,0:0:0:0:
288,229,48795,2,0,L|263:281,2,40
194,150,49128,1,0,0:0:0:0:
302,115,49295,6,0,P|352:134|398:145,1,80
511,80,49628,2,0,P|491:44|448:29,1,80
367,53,49961,1,0,0:0:0:0:
436,190,50128,2,0,P|499:170|541:164,2,80
278,81,50628,1,0,0:0:0:0:
278,81,50711,1,0,0:0:0:0:
278,81,50795,6,0,B|209:45|190:115|100:86,1,160
0,116,51295,1,0,0:0:0:0:
0,116,51378,1,0,0:0:0:0:
0,116,51461,2,0,L|5:176,2,40
63,32,51795,1,0,0:0:0:0:
127,166,51961,6,0,L|113:251,1,80
181,350,52295,2,0,P|237:347|265:312,1,80
192,246,52628,1,0,0:0:0:0:
63,305,52795,2,0,L|81:396,2,80
33,185,53295,1,0,0:0:0:0:
33,185,53378,1,0,0:0:0:0:
33,185,53461,5,0,0:0:0:0:
321,121,57295,6,0,P|342:203|352:282,1,155.999992858887
316,343,57628,2,0,P|241:340|224:264,1,132.00000402832
129,287,57961,2,0,B|178:285|206:253|206:253|210:195|147:167,1,180.000006866455
75,122,58295,2,0,B|153:88|157:168|244:120,1,150.000005722046
192,55,58795,5,0,0:0:0:0:
285,24,58961,1,0,0:0:0:0:
285,24,59128,1,0,0:0:0:0:
366,84,59295,1,0,0:0:0:0:
366,84,59461,2,0,L|355:148,2,60.0000022888184
456,131,59961,1,0,0:0:0:0:
461,227,60128,5,0,0:0:0:0:
395,297,60295,1,0,0:0:0:0:
395,297,60461,1,0,0:0:0:0:
299,307,60628,1,0,0:0:0:0:
299,307,60795,2,0,P|249:293|216:288,1,60.0000022888184
213,167,61128,2,0,P|174:201|152:227,1,60.0000022888184
101,295,61461,5,0,0:0:0:0:
15,182,61628,1,0,0:0:0:0:
0,162,61961,1,0,0:0:0:0:
99,45,62128,1,0,0:0:0:0:
114,25,62461,1,0,0:0:0:0:
213,167,62628,1,0,0:0:0:0:
233,194,62961,1,0,0:0:0:0:
351,67,63128,1,0,0:0:0:0:
368,45,63461,5,0,0:0:0:0:
461,168,63628,1,0,0:0:0:0:
381,226,63795,2,0,L|346:251,1,30.0000011444092
481,266,63961,2,0,L|486:312,1,30.0000011444092
461,168,64128,5,0,0:0:0:0:
368,45,64295,1,0,0:0:0:0:
349,23,64628,1,0,0:0:0:0:
190,148,64795,1,0,0:0:0:0:
165,168,65128,1,0,0:0:0:0:
287,339,65295,1,0,0:0:0:0:
310,362,65628,1,0,0:0:0:0:
495,219,65795,1,0,0:0:0:0:
512,201,66128,5,0,0:0:0:0:
446,147,66295,1,0,0:0:0:0:
382,93,66461,1,0,0:0:0:0:
382,93,66545,1,0,0:0:0:0:
382,93,66628,2,0,P|355:101|321:108,1,40
239,140,66795,6,0,P|185:121|146:115,1,80
29,230,67128,2,0,P|80:226|170:195,1,143.999995605469
88,137,67628,1,0,0:0:0:0:
179,207,67795,2,0,P|172:239|167:252,3,32
226,314,68128,2,0,P|208:332|194:343,3,32
110,305,68461,2,0,P|79:294|63:290,3,32
241,291,68795,6,0,P|316:273|406:260,1,155.999992858887
492,256,69128,2,0,P|423:235|352:201,1,143.999995605469
311,112,69461,5,0,0:0:0:0:
392,64,69628,2,0,P|405:104|399:148,1,80
311,112,69961,1,0,0:0:0:0:
227,65,70128,2,0,P|258:33|308:18,1,80
311,112,70461,1,0,0:0:0:0:
176,133,70628,1,0,0:0:0:0:
176,133,70711,1,0,0:0:0:0:
176,133,70795,6,0,P|118:117|79:111,1,80
317,216,71128,2,0,P|263:237|223:245,1,80
200,241,71378,1,0,0:0:0:0:
200,241,71461,1,0,0:0:0:0:
247,144,71628,1,0,0:0:0:0:
223,329,71795,1,0,0:0:0:0:
66,241,71961,1,0,0:0:0:0:
78,251,72045,1,0,0:0:0:0:
90,261,72128,6,0,P|83:307|62:366,1,80
174,156,72461,1,0,0:0:0:0:
78,95,72628,1,0,0:0:0:0:
78,95,72711,1,0,0:0:0:0:
78,95,72795,2,0,P|29:128|-3:142,1,80
175,0,73128,1,0,0:0:0:0:
273,146,73295,1,0,0:0:0:0:
273,146,73378,1,0,0:0:0:0:
273,146,73461,6,0,P|293:193|305:234,1,80
184,132,73795,2,0,P|190:100|203:64,3,40
144,24,74128,2,0,P|169:3|202:-15,3,40
269,25,74461,2,0,L|278:62,6,20
361,69,74795,6,0,L|352:162,1,80
471,253,75128,2,0,L|457:162,1,80
473,148,75378,1,0,0:0:0:0:
473,148,75461,1,0,0:0:0:0:
371,252,75628,1,0,0:0:0:0:
371,252,75711,1,0,0:0:0:0:
371,252,75795,2,0,P|314:233|277:227,1,80
204,157,76128,6,0,P|172:188|130:205,1,80
119,110,76461,1,0,0:0:0:0:
221,262,76628,1,0,0:0:0:0:
221,262,76711,1,0,0:0:0:0:
221,262,76795,2,0,P|228:308|233:350,1,80
317,310,77128,1,0,0:0:0:0:
128,345,77295,1,0,0:0:0:0:
128,345,77378,1,0,0:0:0:0:
128,345,77461,6,0,P|84:353|35:358,1,80
214,215,77795,1,0,0:0:0:0:
95,248,77961,1,0,0:0:0:0:
95,248,78045,1,0,0:0:0:0:
95,248,78128,2,0,P|67:244|37:237,1,40
45,126,78295,2,0,P|23:109|14:98,1,40
119,30,78461,1,0,0:0:0:0:
255,49,78628,6,0,P|301:106|261:189,1,155.999992858887
214,215,78961,2,0,P|275:197|362:187,1,120
491,256,79295,6,0,P|459:252|413:237,1,55.9999982910157
366,161,79461,6,0,L|358:267,1,90.0000034332277
261,275,79795,2,0,L|266:327,1,30.0000011444092
331,355,79961,2,0,L|326:407,1,30.0000011444092
411,315,80128,1,0,0:0:0:0:
205,367,80295,6,0,P|158:351|110:343,1,80
30,271,80628,1,0,0:0:0:0:
101,181,80795,2,0,P|141:168|203:158,1,80
260,90,81128,1,0,0:0:0:0:
376,162,81295,1,0,0:0:0:0:
376,162,81378,1,0,0:0:0:0:
376,162,81461,6,0,L|365:246,1,80
485,174,81795,2,0,L|474:90,1,80
496,63,82045,1,0,0:0:0:0:
496,63,82128,1,0,0:0:0:0:
366,13,82295,1,0,0:0:0:0:
260,90,82461,1,0,0:0:0:0:
318,203,82628,1,0,0:0:0:0:
318,203,82711,1,0,0:0:0:0:
318,203,82795,6,0,P|333:250|339:294,1,80
260,90,83128,1,0,0:0:0:0:
154,224,83295,1,0,0:0:0:0:
162,236,83378,1,0,0:0:0:0:
171,249,83461,6,0,P|151:291|115:342,1,80
260,90,83795,1,0,0:0:0:0:
160,56,83961,1,0,0:0:0:0:
56,20,84128,6,0,P|70:69|54:104,1,80
6,202,84461,1,0,0:0:0:0:
4,241,84544,1,0,0:0:0:0:
8,281,84627,1,0,0:0:0:0:
17,320,84710,1,0,0:0:0:0:
31,358,84795,2,0,P|49:350|66:340,1,40
99,216,84961,1,0,0:0:0:0:
175,324,85128,2,0,P|187:331|201:337,6,30.0000011444092
192,233,85461,5,0,0:0:0:0:
289,253,85628,2,0,P|351:229|437:213,1,128
512,252,86128,2,0,P|465:251|463:127,1,192
440,38,86795,2,0,P|391:32|341:22,2,96
322,96,87461,2,0,L|184:112,1,128
80,48,87961,1,0,0:0:0:0:
212,0,88128,5,0,0:0:0:0:
165,128,88295,1,0,0:0:0:0:
45,18,88461,1,0,0:0:0:0:
45,49,88544,1,0,0:0:0:0:
42,81,88627,1,0,0:0:0:0:
37,113,88710,1,0,0:0:0:0:
29,144,88795,2,0,P|6:138|-16:129,1,32
71,233,88961,6,0,P|103:214|141:202,1,47.9999985351563
224,300,89128,2,0,P|202:292|181:281,1,47.9999985351563
233,212,89295,1,0,0:0:0:0:
233,212,90128,2,0,P|256:225|283:236,3,47.9999985351563
320,307,90461,2,0,P|347:303|374:295,3,47.9999985351563
464,362,90795,6,0,P|476:318|484:257,1,80
364,99,91128,2,0,P|369:149|378:187,1,80
472,152,91461,1,0,0:0:0:0:
369,52,91628,1,0,0:0:0:0:
508,152,91795,1,0,0:0:0:0:
397,274,91961,1,0,0:0:0:0:
397,274,92295,5,0,0:0:0:0:
311,227,92461,2,0,P|261:241|240:276,1,80
391,378,92795,1,0,0:0:0:0:
391,378,92878,2,0,P|349:366|288:359,1,80
221,346,93128,2,0,P|203:356|184:365,3,40
86,335,93461,6,0,P|51:307|50:266,1,80
121,121,93795,2,0,P|139:177|146:211,1,80
26,177,94128,1,0,0:0:0:0:
156,270,94295,1,0,0:0:0:0:
4,194,94461,1,0,0:0:0:0:
107,40,94628,1,0,0:0:0:0:
107,40,94961,5,0,0:0:0:0:
210,79,95128,2,0,P|251:65|303:56,1,80
399,19,95462,1,0,0:0:0:0:
399,19,95545,2,0,P|431:61|431:106,1,80
357,158,95795,2,0,P|341:136|336:122,3,40
288,202,96128,6,0,L|184:187,1,80
383,266,96461,2,0,L|487:251,1,80
461,167,96795,1,0,0:0:0:0:
306,277,96961,1,0,0:0:0:0:
488,182,97128,1,0,0:0:0:0:
325,101,97295,1,0,0:0:0:0:
325,101,97628,5,0,0:0:0:0:
417,59,97795,2,0,L|428:153,1,80
239,105,98128,1,0,0:0:0:0:
236,85,98211,1,0,0:0:0:0:
232,65,98295,2,0,L|224:12,1,40
325,101,98461,1,0,0:0:0:0:
204,233,98628,6,0,P|280:202|340:187,1,120
339,210,98961,1,0,0:0:0:0:
325,101,99128,1,0,0:0:0:0:
417,59,99295,1,0,0:0:0:0:
500,125,99461,1,0,0:0:0:0:
297,95,99628,1,0,0:0:0:0:
475,125,99795,1,0,0:0:0:0:
339,210,99961,1,0,0:0:0:0:
464,371,100128,5,0,0:0:0:0:
467,331,100211,1,0,0:0:0:0:
469,291,100294,1,0,0:0:0:0:
472,251,100377,1,0,0:0:0:0:
474,211,100461,2,0,P|499:202|516:198,3,40
339,210,100795,6,0,B|282:209|254:155|254:155|230:235|131:240,1,239.999992675781
261,275,101295,2,0,B|329:310|397:279|397:279|369:316,1,180
256,192,102128,12,0,108128,0:0:0:0:
