osu file format v14

[General]
AudioFilename: audio.mp3
AudioLeadIn: 0
PreviewTime: 58361
Countdown: 0
SampleSet: Soft
StackLeniency: 0.7
Mode: 2
LetterboxInBreaks: 0
WidescreenStoryboard: 0

[Editor]
DistanceSpacing: 0.8
BeatDivisor: 4
GridSize: 4
TimelineZoom: 1.7

[Metadata]
Title:Karatto*kitsune iro diamond (Cut Ver.)
TitleUnicode:カラッと☆きつね色ダイヤモンド (Cut Ver.)
Artist:Nanahira x Camellia
ArtistUnicode:ななひら×かめりあ
Creator:My Angel RangE
Version:Rain*
Source:もふもふな放課後
Tags:p19 narutaki cao. c93 japanese もふかごプロジェクト mofukago project mofumofu afterschool
BeatmapID:2958557
BeatmapSetID:1438017

[Difficulty]
HPDrainRate:5
CircleSize:4
OverallDifficulty:9
ApproachRate:9
SliderMultiplier:1.25
SliderTickRate:1

[Events]
//Background and Video events
0,0,"78.png",0,0
//Break Periods
//Storyboard Layer 0 (Background)
//Storyboard Layer 1 (Fail)
//Storyboard Layer 2 (Pass)
//Storyboard Layer 3 (Foreground)
//Storyboard Layer 4 (Overlay)
//Storyboard Sound Samples

[TimingPoints]
3772,214.285714285714,4,2,0,60,1,0
7200,-100,4,2,0,70,0,0
20914,-100,4,2,0,60,0,0
24343,-100,4,2,0,70,0,0
27771,-100,4,2,0,60,0,0
31200,-100,4,2,0,70,0,0
34629,-100,4,2,0,60,0,0
53271,-100,4,2,0,70,0,0
57450,-100,4,2,0,70,0,0
57771,-100,4,2,0,70,0,0
58200,-100,4,2,0,70,0,0
58629,-100,4,2,0,80,0,1
72343,-100,4,2,0,60,0,0
79200,-100,4,2,0,70,0,0

[Colours]
Combo1 : 116,230,245
Combo2 : 255,98,176
Combo3 : 255,176,98

[HitObjects]
123,245,3772,6,0,P|79:229|131:201,1,125,2|0,0:0|0:0,0:0:0:0:
296,196,4093,1,2,0:0:0:0:
392,196,4307,2,0,L|464:196,2,62.5,2|2|0,0:0|0:0|0:0,0:0:0:0:
208,196,4629,5,2,0:0:0:0:
328,196,4950,1,2,0:0:0:0:
208,196,5271,1,2,0:0:0:0:
484,192,5486,6,0,L|359:192,1,125,2|0,0:0|0:0,0:0:0:0:
188,196,5807,1,2,0:0:0:0:
359,192,6021,1,2,0:0:0:0:
408,192,6129,1,2,0:0:0:0:
359,192,6236,1,0,0:0:0:0:
176,196,6343,6,0,L|92:196,1,62.5,8|8,3:0|3:0,0:0:0:0:
114,196,6557,2,0,L|198:196,1,62.5,4|4,3:0|3:0,0:0:0:0:
244,196,6771,2,0,L|328:196,1,62.5,4|4,3:0|3:0,0:0:0:0:
306,196,6985,2,0,L|222:196,1,62.5,0|0,1:0|1:0,0:0:0:0:
56,128,7200,6,0,P|16:180|64:192,1,125,4|0,1:0|1:0,0:0:0:0:
120,196,7521,1,0,0:0:0:0:
264,192,7629,2,0,L|389:192,1,125,4|0,3:0|1:0,0:0:0:0:
324,192,7950,1,0,0:0:0:0:
116,172,8057,6,0,P|72:140|124:116,1,125,4|0,3:0|1:0,0:0:0:0:
320,116,8379,2,0,P|363:146|319:176,1,125,4|4,3:0|3:0,0:0:0:0:
116,172,8700,1,0,1:0:0:0:
116,172,8914,6,0,L|116:300,1,125,4|0,3:0|1:0,0:0:0:0:
192,296,9236,1,0,0:0:0:0:
332,296,9343,2,0,L|457:296,1,125,4|0,3:0|1:0,0:0:0:0:
457,296,9664,1,0,0:0:0:0:
240,192,9771,6,0,P|196:224|248:248,1,125,4|0,3:0|1:0,0:0:0:0:
444,252,10093,2,0,P|487:222|443:192,1,125,4|4,3:0|3:0,0:0:0:0:
240,192,10414,1,0,1:0:0:0:
240,192,10629,6,0,L|92:192,1,125,4|0,3:0|1:0,0:0:0:0:
115,192,10950,1,0,0:0:0:0:
256,192,11057,2,0,L|404:192,1,125,4|0,3:0|1:0,0:0:0:0:
381,192,11379,1,0,0:0:0:0:
136,192,11486,6,0,P|88:180|132:144,1,125,4|0,3:0|1:0,0:0:0:0:
304,192,11807,2,0,P|353:175|314:140,1,125,4|4,3:0|3:0,0:0:0:0:
88,192,12129,1,0,1:0:0:0:
88,192,12343,6,0,L|88:56,1,125,4|0,3:0|1:0,0:0:0:0:
164,64,12664,1,0,0:0:0:0:
296,64,12771,2,0,L|296:200,1,125,4|0,3:0|1:0,0:0:0:0:
220,192,13092,1,0,0:0:0:0:
20,192,13200,6,0,L|168:192,1,125,0|0,1:0|1:0,0:0:0:0:
145,192,13521,1,0,0:0:0:0:
84,192,13629,2,0,L|12:192,1,62.5,0|4,1:0|3:0,0:0:0:0:
84,192,13843,2,0,L|156:192,1,62.5,0|0,1:0|0:0,0:0:0:0:
320,192,14057,6,0,L|180:192,1,125,4|0,3:0|1:0,0:0:0:0:
252,192,14379,1,0,0:0:0:0:
384,136,14486,2,0,L|524:136,1,125,4|0,3:0|1:0,0:0:0:0:
452,136,14808,1,0,0:0:0:0:
236,136,14914,6,0,B|172:136|172:136|172:68,1,125,4|0,3:0|1:0,0:0:0:0:
384,136,15236,2,0,B|448:136|448:136|448:204,1,125,4|4,3:0|3:0,0:0:0:0:
172,136,15557,1,0,1:0:0:0:
172,136,15771,6,0,L|40:136,1,125,4|0,3:0|1:0,0:0:0:0:
104,136,16093,1,0,0:0:0:0:
240,136,16200,2,0,L|372:136,1,125,4|0,3:0|1:0,0:0:0:0:
308,136,16522,1,0,0:0:0:0:
96,180,16629,6,0,L|240:180,1,125,4|0,3:0|1:0,0:0:0:0:
444,180,16950,2,0,L|300:180,1,125,4|4,3:0|3:0,0:0:0:0:
96,180,17271,1,0,1:0:0:0:
96,180,17486,6,0,L|232:180,1,125,4|0,3:0|1:0,0:0:0:0:
221,180,17807,1,0,0:0:0:0:
88,176,17914,2,0,L|88:52,1,125,4|0,3:0|1:0,0:0:0:0:
168,52,18235,1,4,3:0:0:0:
372,48,18343,6,0,L|512:48,1,125,4|4,1:0|3:0,0:0:0:0:
296,108,18664,2,0,L|156:108,1,125,0|4,1:0|3:0,0:0:0:0:
368,160,18986,1,0,1:0:0:0:
368,160,19414,1,4,3:0:0:0:
96,160,19629,1,4,1:0:0:0:
256,192,19843,12,0,20700,0:0:0:0:
80,136,20914,6,0,P|40:184|92:184,1,125,4|2,1:0|0:0,0:0:0:0:
196,200,21236,1,2,0:0:0:0:
196,200,21343,2,0,L|71:200,1,125,2|2,0:0|0:0,0:0:0:0:
240,200,21771,6,0,L|372:200,1,125,2|0,0:0|0:0,0:0:0:0:
300,200,22093,1,2,0:0:0:0:
180,200,22200,2,0,P|140:188|192:156,1,125,0|2,0:0|0:0,0:0:0:0:
356,144,22629,6,0,L|448:144,1,62.5,2|0,0:0|0:0,0:0:0:0:
418,144,22843,2,0,L|356:144,1,62.5,2|0,0:0|0:0,0:0:0:0:
260,80,23057,2,0,L|168:80,1,62.5,2|0,0:0|0:0,0:0:0:0:
197,80,23271,2,0,L|259:80,1,62.5,2|0,0:0|0:0,0:0:0:0:
376,76,23486,6,0,P|424:108|372:140,1,125,2|2,0:0|0:0,0:0:0:0:
304,144,23807,1,2,0:0:0:0:
387,144,23914,2,0,L|459:144,1,62.5,2|0,0:0|0:0,0:0:0:0:
449,144,24129,2,0,L|387:144,1,62.5,2|0,0:0|0:0,0:0:0:0:
152,136,24343,6,0,P|108:168|152:200,1,125,4|0,1:0|1:0,0:0:0:0:
224,200,24664,1,0,0:0:0:0:
436,196,24771,2,0,P|476:155|429:129,1,125,4|0,3:0|1:0,0:0:0:0:
360,128,25093,1,0,0:0:0:0:
152,120,25200,6,0,L|64:120,2,62.5,4|4|0,3:0|3:0|1:0,0:0:0:0:
328,116,25521,2,0,L|416:116,2,62.5,4|4|0,3:0|3:0|0:0,0:0:0:0:
88,164,25843,1,0,1:0:0:0:
188,164,26057,6,0,L|63:164,1,125,4|0,3:0|1:0,0:0:0:0:
63,164,26379,1,0,0:0:0:0:
284,164,26486,2,0,L|360:164,2,62.5,4|0|0,3:0|0:0|1:0,0:0:0:0:
220,164,26807,1,0,0:0:0:0:
24,80,26914,6,0,L|168:80,1,125,4|0,3:0|1:0,0:0:0:0:
360,80,27236,2,0,L|235:80,1,125,4|0,3:0|0:0,0:0:0:0:
149,80,27557,1,0,1:0:0:0:
448,80,27771,6,0,L|448:232,1,125,4|2,1:0|0:0,0:0:0:0:
372,200,28093,1,2,0:0:0:0:
228,200,28200,2,0,L|92:200,1,125,2|2,0:0|0:0,0:0:0:0:
252,236,28629,6,0,L|388:236,1,125,2|2,0:0|0:0,0:0:0:0:
312,236,28950,1,2,0:0:0:0:
176,236,29057,2,0,P|140:180|188:176,1,125,2|2,0:0|0:0,0:0:0:0:
377,236,29486,6,0,L|517:236,1,125,2|2,0:0|0:0,0:0:0:0:
440,236,29807,1,0,0:0:0:0:
296,232,29914,2,0,L|216:232,1,62.5,2|0,0:0|0:0,0:0:0:0:
233,232,30129,2,0,L|296:232,1,62.5,2|0,0:0|0:0,0:0:0:0:
424,184,30343,6,0,L|299:184,1,125,2|2,0:0|0:0,0:0:0:0:
240,184,30664,1,2,0:0:0:0:
299,184,30771,2,0,P|343:160|287:128,1,125,0|2,0:0|0:0,0:0:0:0:
240,120,31093,1,0,0:0:0:0:
24,128,31200,6,0,L|172:128,1,125,4|0,1:0|1:0,0:0:0:0:
204,128,31521,1,0,0:0:0:0:
404,144,31629,2,0,P|448:184|408:208,1,125,4|0,3:0|1:0,0:0:0:0:
348,208,31950,1,0,0:0:0:0:
160,208,32057,6,0,L|68:208,2,62.5,4|4|0,3:0|3:0|1:0,0:0:0:0:
348,208,32379,2,0,L|440:208,2,62.5,4|4|0,3:0|3:0|0:0,0:0:0:0:
128,228,32700,1,0,1:0:0:0:
256,228,32914,6,0,P|300:188|248:176,1,125,4|0,3:0|1:0,0:0:0:0:
192,172,33236,1,0,0:0:0:0:
128,172,33343,2,0,L|40:172,1,62.5,4|0,3:0|0:0,0:0:0:0:
321,172,33557,2,0,L|409:172,1,62.5,0|0,1:0|0:0,0:0:0:0:
136,216,33771,6,0,L|48:216,2,62.5,4|4|0,3:0|3:0|1:0,0:0:0:0:
307,164,34093,2,0,L|395:164,2,62.5,4|4|0,3:0|3:0|0:0,0:0:0:0:
95,164,34414,1,0,1:0:0:0:
95,164,34629,6,0,L|238:165,1,125,4|2,1:0|0:0,0:0:0:0:
304,240,34950,1,0,0:0:0:0:
176,240,35057,2,0,L|176:104,1,125,2|2,0:0|0:0,0:0:0:0:
288,240,35486,6,0,P|340:192|296:176,1,125,2|2,0:0|0:0,0:0:0:0:
256,172,35807,1,2,0:0:0:0:
153,172,35914,1,4,1:0:0:0:
340,172,36129,1,4,1:0:0:0:
28,172,36343,6,0,L|168:172,1,125,4|2,1:0|0:0,0:0:0:0:
204,172,36664,1,0,0:0:0:0:
96,172,36771,2,0,P|52:216|104:248,1,125,2|2,0:0|0:0,0:0:0:0:
252,248,37200,6,0,L|392:248,1,125,2|0,0:0|0:0,0:0:0:0:
311,249,37521,1,2,0:0:0:0:
208,240,37629,1,4,1:0:0:0:
479,247,37843,1,4,1:0:0:0:
208,240,38057,6,0,P|168:200|220:208,1,125,4|0,1:0|0:0,0:0:0:0:
280,192,38379,1,0,0:0:0:0:
348,192,38486,2,0,L|416:192,2,62.5,0|0|0,0:0|0:0|0:0,0:0:0:0:
280,192,38807,1,0,0:0:0:0:
160,188,38914,6,0,P|124:184|168:136,1,125,0|0,0:0|0:0,0:0:0:0:
268,132,39236,2,0,P|315:107|275:71,1,125,0|0,0:0|0:0,0:0:0:0:
156,76,39557,1,0,0:0:0:0:
128,192,39986,6,0,L|149:51,1,125,0|0,1:0|1:0,0:0:0:0:
48,69,40307,1,0,1:0:0:0:
328,236,40521,6,0,P|440:196|316:164,1,312.5,4|0,1:0|0:0,0:0:0:0:
326,148,41271,1,0,0:0:0:0:
104,236,41486,6,0,P|40:216|116:176,1,187.5,4|0,1:0|0:0,0:0:0:0:
229,236,41914,2,0,L|104:236,1,125,2|0,0:0|1:0,0:0:0:0:
229,236,42343,6,0,L|416:236,1,187.5,4|0,3:0|0:0,0:0:0:0:
312,236,42771,2,0,L|312:104,1,125,2|4,0:0|3:0,0:0:0:0:
436,116,43200,6,0,L|240:116,1,187.5,4|0,3:0|0:0,0:0:0:0:
372,68,43629,2,0,B|436:68|436:68|436:0,1,125,2|8,0:0|3:0,0:0:0:0:
372,68,43950,1,4,3:0:0:0:
304,68,44057,6,0,L|156:68,1,125,4|4,3:0|3:0,0:0:0:0:
304,68,44486,2,0,L|304:208,1,125,2|0,0:0|0:0,0:0:0:0:
104,212,44914,6,0,P|44:200|116:160,1,187.5,4|0,3:0|0:0,0:0:0:0:
229,212,45343,2,0,L|93:212,1,125,2|4,0:0|3:0,0:0:0:0:
229,212,45771,6,0,L|432:212,1,187.5,4|0,3:0|0:0,0:0:0:0:
312,212,46200,2,0,L|176:212,1,125,2|4,0:0|3:0,0:0:0:0:
312,212,46629,6,0,P|384:192|320:164,1,187.5,4|0,3:0|0:0,0:0:0:0:
252,164,47057,2,0,L|128:164,1,125,2|8,0:0|3:0,0:0:0:0:
52,164,47379,1,4,3:0:0:0:
127,164,47486,6,0,L|128:24,1,125,4|4,3:0|3:0,0:0:0:0:
240,168,47914,2,0,L|115:168,1,125,2|0,0:0|0:0,0:0:0:0:
336,240,48343,6,0,P|400:216|324:176,1,187.5,4|0,3:0|0:0,0:0:0:0:
272,168,48771,2,0,L|400:168,1,125,2|4,0:0|3:0,0:0:0:0:
204,96,49200,6,0,P|134:129|201:168,1,187.5,4|0,3:0|0:0,0:0:0:0:
272,168,49629,2,0,L|144:168,1,125,2|4,0:0|3:0,0:0:0:0:
272,168,50057,6,0,L|480:168,1,187.5,4|0,3:0|0:0,0:0:0:0:
396,168,50486,1,2,0:0:0:0:
232,168,50700,6,0,P|140:216|240:228,1,250,8|4,3:0|3:0,0:0:0:0:
364,240,51343,2,0,L|428:240,1,62.5,2|2,0:0|0:0,0:0:0:0:
226,245,51557,6,0,B|40:244|40:244|40:164,1,250,4|0,1:0|0:0,0:0:0:0:
140,180,52200,2,0,L|276:180,1,125,4|0,3:0|0:0,0:0:0:0:
140,180,52629,6,0,L|4:180,2,125,4|2|2,3:0|0:0|0:0,0:0:0:0:
412,180,53271,6,0,P|492:176|400:136,1,250,4|0,1:0|1:0,0:0:0:0:
320,136,53807,1,0,0:0:0:0:
252,136,53914,2,0,L|377:136,1,125,4|0,3:0|1:0,0:0:0:0:
252,136,54343,6,0,L|127:136,1,125,4|0,3:0|1:0,0:0:0:0:
192,136,54664,1,0,0:0:0:0:
260,136,54771,2,0,L|260:261,1,125,4|0,3:0|1:0,0:0:0:0:
48,260,55200,6,0,L|200:260,1,125,4|0,3:0|1:0,0:0:0:0:
173,260,55521,1,4,3:0:0:0:
108,260,55629,2,0,P|64:236|112:200,1,125,4|0,3:0|1:0,0:0:0:0:
276,192,56057,6,0,L|412:192,1,125,4|0,3:0|1:0,0:0:0:0:
480,192,56379,1,0,0:0:0:0:
401,192,56486,2,0,L|401:40,1,125,4|0,3:0|1:0,0:0:0:0:
92,68,56914,6,0,L|20:68,2,62.5,0|0|0,1:0|1:0|1:0,0:0:0:0:
324,72,57236,2,0,L|324:148,1,62.5,0|0,1:0|0:0,0:0:0:0:
92,144,57450,1,0,1:0:0:0:
92,144,57664,1,0,1:0:0:0:
324,134,57771,1,0,1:0:0:0:
189,133,58200,5,4,1:0:0:0:
60,136,58629,6,0,L|60:216,1,62.5,4|0,1:0|0:0,0:0:0:0:
304,196,58843,2,0,L|388:196,2,62.5,0|2|4,1:0|0:0|3:0,0:0:0:0:
112,200,59164,2,0,L|40:200,2,62.5,2|0|0,0:0|1:0|0:0,0:0:0:0:
304,196,59486,6,0,L|444:196,1,125,4|0,3:0|1:0,0:0:0:0:
429,196,59807,1,2,0:0:0:0:
206,196,59914,2,0,L|56:196,1,125,4|0,3:0|1:0,0:0:0:0:
140,196,60236,1,0,0:0:0:0:
348,200,60343,2,0,L|348:128,1,62.5,4|0,3:0|0:0,0:0:0:0:
140,128,60557,6,0,L|52:128,2,62.5,0|2|4,1:0|0:0|3:0,0:0:0:0:
320,200,60879,2,0,L|382:200,2,62.5,2|0|2,0:0|1:0|0:0,0:0:0:0:
112,196,61200,6,0,P|68:228|112:260,1,125,4|0,3:0|1:0,0:0:0:0:
184,264,61521,1,0,0:0:0:0:
396,264,61629,2,0,L|476:264,1,62.5,4|4,3:0|3:0,0:0:0:0:
396,264,61843,2,0,L|333:264,1,62.5,4|4,3:0|3:0,0:0:0:0:
136,264,62057,6,0,L|136:180,1,62.5,4|4,3:0|3:0,0:0:0:0:
364,200,62271,1,4,1:0:0:0:
244,200,62486,2,0,L|181:200,2,62.5,4|4|4,3:0|3:0|3:0,0:0:0:0:
312,200,62807,1,4,3:0:0:0:
488,200,62914,6,0,L|488:112,1,62.5,4|4,3:0|3:0,0:0:0:0:
276,156,63129,1,4,1:0:0:0:
408,156,63343,1,4,3:0:0:0:
276,156,63557,2,0,L|276:92,1,62.5,0|0,1:0|0:0,0:0:0:0:
108,96,63771,6,0,P|64:136|116:156,1,125,4|4,3:0|3:0,0:0:0:0:
296,192,64093,2,0,L|384:192,1,62.5,2|4,0:0|3:0,0:0:0:0:
108,196,64307,2,0,L|44:196,2,62.5,0|0|0,0:0|1:0|0:0,0:0:0:0:
296,192,64629,5,4,1:0:0:0:
168,196,64843,1,0,1:0:0:0:
296,192,65057,1,0,1:0:0:0:
104,192,65486,6,0,L|184:192,1,62.5,4|0,1:0|0:0,0:0:0:0:
388,180,65700,2,0,L|468:180,2,62.5,0|2|4,1:0|0:0|3:0,0:0:0:0:
188,144,66021,2,0,L|125:144,2,62.5,2|0|0,0:0|1:0|0:0,0:0:0:0:
404,132,66343,6,0,P|440:180|404:184,1,125,4|0,3:0|1:0,0:0:0:0:
332,184,66664,1,2,0:0:0:0:
152,184,66771,2,0,L|24:184,1,125,4|0,3:0|1:0,0:0:0:0:
84,184,67093,1,0,0:0:0:0:
308,216,67200,6,0,L|308:308,1,62.5,4|0,3:0|0:0,0:0:0:0:
120,280,67414,2,0,L|48:280,2,62.5,0|2|4,1:0|0:0|3:0,0:0:0:0:
308,278,67736,2,0,L|380:278,2,62.5,2|0|2,0:0|1:0|0:0,0:0:0:0:
96,212,68057,6,0,P|56:204|96:164,1,125,4|0,3:0|1:0,0:0:0:0:
168,168,68379,1,0,0:0:0:0:
400,176,68486,2,0,L|480:176,1,62.5,4|4,3:0|3:0,0:0:0:0:
462,176,68700,2,0,L|399:176,1,62.5,4|4,3:0|3:0,0:0:0:0:
204,180,68914,6,0,L|204:88,1,62.5,4|4,3:0|3:0,0:0:0:0:
399,176,69129,1,4,1:0:0:0:
288,144,69343,2,0,L|208:144,1,62.5,4|4,3:0|3:0,0:0:0:0:
226,144,69557,2,0,L|289:144,1,62.5,4|4,3:0|3:0,0:0:0:0:
484,140,69771,6,0,L|484:48,1,62.5,4|4,3:0|3:0,0:0:0:0:
262,124,69986,1,4,1:0:0:0:
388,120,70200,1,4,3:0:0:0:
262,124,70414,2,0,L|260:48,1,62.5,0|0,1:0|0:0,0:0:0:0:
56,120,70629,6,0,P|16:176|68:200,1,125,4|2,3:0|0:0,0:0:0:0:
128,200,70950,1,2,0:0:0:0:
324,188,71057,2,0,L|404:192,1,62.5,4|0,3:0|0:0,0:0:0:0:
386,191,71271,2,0,L|324:188,1,62.5,0|0,1:0|0:0,0:0:0:0:
100,272,71486,6,0,P|60:264|104:216,1,125,4|0,3:0|1:0,0:0:0:0:
168,216,71807,1,2,0:0:0:0:
364,224,71914,2,0,P|404:216|360:168,1,125,4|0,3:0|1:0,0:0:0:0:
296,168,72235,1,0,0:0:0:0:
104,128,72343,6,0,L|316:128,1,187.5,4|0,1:0|0:0,0:0:0:0:
72,232,72771,2,0,P|32:192|84:164,1,125,0|0,1:0|0:0,0:0:0:0:
144,164,73093,1,0,0:0:0:0:
356,160,73200,6,0,L|444:160,2,62.5,4|0|4,3:0|0:0|3:0,0:0:0:0:
284,160,73521,1,0,0:0:0:0:
100,136,73629,2,0,L|28:136,1,62.5,0|0,1:0|0:0,0:0:0:0:
37,136,73843,2,0,L|109:136,1,62.5,0|0,0:0|0:0,0:0:0:0:
312,160,74057,6,0,P|360:124|316:96,1,125,4|0,3:0|0:0,0:0:0:0:
116,244,74379,2,0,P|68:208|112:180,1,125,0|0,0:0|0:0,0:0:0:0:
312,160,74700,2,0,L|312:222,1,62.5,0|0,0:0|0:0,0:0:0:0:
116,244,74914,6,0,L|40:244,1,62.5,4|0,3:0|0:0,0:0:0:0:
53,244,75129,2,0,L|116:244,1,62.5,4|0,3:0|0:0,0:0:0:0:
304,240,75343,2,0,L|456:240,1,125,0|0,1:0|0:0,0:0:0:0:
364,240,75664,1,0,0:0:0:0:
152,240,75771,6,0,P|92:204|140:180,1,125,4|0,3:0|0:0,0:0:0:0:
188,184,76093,1,0,0:0:0:0:
376,180,76200,2,0,L|464:176,1,62.5,0|0,1:0|0:0,0:0:0:0:
438,177,76414,2,0,L|376:180,1,62.5,0|0,0:0|0:0,0:0:0:0:
200,128,76629,6,0,L|112:124,1,62.5,4|0,3:0|0:0,0:0:0:0:
316,128,76843,2,0,L|378:125,1,62.5,4|0,3:0|0:0,0:0:0:0:
164,128,77057,2,0,P|108:88|140:56,1,125,0|0,1:0|0:0,0:0:0:0:
216,56,77379,1,0,0:0:0:0:
452,56,77486,6,0,P|492:98|448:132,1,125,4|4,3:0|3:0,0:0:0:0:
372,132,77807,1,0,0:0:0:0:
184,128,77914,2,0,L|56:128,1,125,0|0,1:0|0:0,0:0:0:0:
59,128,78236,1,0,0:0:0:0:
296,176,78343,6,0,L|388:176,1,62.5,0|0,1:0|0:0,0:0:0:0:
358,176,78557,2,0,L|266:176,1,62.5,0|0,1:0|0:0,0:0:0:0:
128,232,78771,2,0,L|36:232,1,62.5,0|0,1:0|0:0,0:0:0:0:
66,232,78985,2,0,L|158:232,1,62.5,0|0,1:0|0:0,0:0:0:0:
352,240,79200,6,0,P|400:204|348:164,1,125,4|0,1:0|1:0,0:0:0:0:
140,168,79521,2,0,L|60:168,2,62.5,2|4|0,0:0|3:0|0:0,0:0:0:0:
336,168,79843,2,0,L|412:168,1,62.5,0|0,1:0|0:0,0:0:0:0:
144,80,80057,6,0,P|96:112|144:128,1,125,4|0,3:0|1:0,0:0:0:0:
328,128,80379,2,0,P|367:94|318:75,1,125,2|0,0:0|0:0,0:0:0:0:
136,140,80700,2,0,L|56:140,1,62.5,0|0,1:0|0:0,0:0:0:0:
252,216,80914,6,0,P|296:184|248:176,1,125,4|0,3:0|1:0,0:0:0:0:
76,224,81236,2,0,P|31:247|77:268,1,125,2|0,0:0|0:0,0:0:0:0:
268,276,81557,2,0,L|268:204,1,62.5,0|0,1:0|0:0,0:0:0:0:
75,160,81771,6,0,P|30:137|76:115,1,125,4|0,3:0|1:0,0:0:0:0:
152,120,82093,1,2,0:0:0:0:
344,72,82200,2,0,P|412:92|340:116,1,187.5,4|0,3:0|0:0,0:0:0:0:
144,172,82629,6,0,L|72:172,2,62.5,4|0|0,1:0|0:0|0:0,0:0:0:0:
316,204,82950,2,0,L|388:204,2,62.5,0|0|0,1:0|0:0|0:0,0:0:0:0:
240,204,83271,2,0,L|240:284,1,62.5,0|0,0:0|0:0,0:0:0:0:
320,272,83486,6,0,L|396:272,1,62.5,2|2,0:0|0:0,0:0:0:0:
272,272,83700,2,0,L|196:272,1,62.5,2|2,0:0|0:0,0:0:0:0:
392,296,83914,2,0,L|468:296,1,62.5,2|0,0:0|0:0,0:0:0:0:
454,296,84129,2,0,L|392:296,1,62.5,2|0,0:0|0:0,0:0:0:0:
88,288,84343,6,0,L|4:288,1,62.5,0|0,1:0|1:0,0:0:0:0:
25,288,84557,2,0,L|88:288,1,62.5,0|0,1:0|1:0,0:0:0:0:
384,220,84879,6,0,L|468:220,1,62.5,0|0,1:0|1:0,0:0:0:0:
488,220,85093,1,0,1:0:0:0:
488,220,85200,1,0,1:0:0:0:
132,164,85414,6,0,P|122:234|236:159,1,312.5,4|0,1:0|0:0,0:0:0:0:
456,256,86057,6,0,P|496:204|448:192,1,125,4|0,1:0|1:0,0:0:0:0:
392,188,86378,1,0,0:0:0:0:
248,192,86486,2,0,L|123:192,1,125,4|0,3:0|1:0,0:0:0:0:
188,192,86807,1,0,0:0:0:0:
396,212,86914,6,0,P|440:244|388:268,1,125,4|0,3:0|1:0,0:0:0:0:
192,268,87236,2,0,P|149:238|193:208,1,125,4|4,3:0|3:0,0:0:0:0:
396,212,87557,1,0,1:0:0:0:
400,208,87771,6,0,P|444:168|404:152,1,125,4|0,3:0|1:0,0:0:0:0:
320,156,88093,1,0,0:0:0:0:
180,88,88200,2,0,L|55:88,1,125,4|0,3:0|1:0,0:0:0:0:
55,88,88521,1,0,0:0:0:0:
272,192,88628,6,0,P|316:160|264:136,1,125,4|0,3:0|1:0,0:0:0:0:
68,132,88950,2,0,P|25:162|69:192,1,125,4|4,3:0|3:0,0:0:0:0:
272,192,89271,1,0,1:0:0:0:
332,192,89486,6,0,L|480:192,1,125,4|0,3:0|1:0,0:0:0:0:
397,192,89807,1,0,0:0:0:0:
256,192,89914,2,0,L|108:192,1,125,4|0,3:0|1:0,0:0:0:0:
131,192,90236,1,0,0:0:0:0:
376,192,90343,6,0,P|424:204|380:240,1,125,4|0,3:0|1:0,0:0:0:0:
168,192,90664,2,0,P|119:209|158:244,1,125,4|4,3:0|3:0,0:0:0:0:
376,192,90986,1,0,1:0:0:0:
448,192,91200,6,0,P|484:240|448:240,1,125,4|0,3:0|1:0,0:0:0:0:
380,240,91521,1,0,0:0:0:0:
249,240,91629,2,0,P|213:192|249:192,1,125,4|0,3:0|1:0,0:0:0:0:
317,192,91950,1,0,0:0:0:0:
492,192,92057,6,0,L|344:192,1,125,0|0,1:0|1:0,0:0:0:0:
367,192,92378,1,0,0:0:0:0:
428,192,92486,2,0,L|500:192,1,62.5,0|4,1:0|3:0,0:0:0:0:
428,192,92700,2,0,L|356:192,1,62.5,0|0,1:0|0:0,0:0:0:0:
192,192,92914,6,0,L|332:192,1,125,4|0,3:0|1:0,0:0:0:0:
260,192,93236,1,0,0:0:0:0:
128,248,93343,2,0,L|-12:248,1,125,4|0,3:0|1:0,0:0:0:0:
60,248,93665,1,0,0:0:0:0:
276,248,93771,6,0,B|340:248|340:248|340:316,1,125,4|0,3:0|1:0,0:0:0:0:
128,248,94093,2,0,B|64:248|64:248|64:180,1,125,4|4,3:0|3:0,0:0:0:0:
340,248,94414,1,0,1:0:0:0:
340,248,94628,6,0,L|472:248,1,125,4|0,3:0|1:0,0:0:0:0:
408,248,94950,1,0,0:0:0:0:
272,248,95057,2,0,L|140:248,1,125,4|0,3:0|1:0,0:0:0:0:
204,248,95379,1,0,0:0:0:0:
416,204,95486,6,0,L|272:204,1,125,4|0,3:0|1:0,0:0:0:0:
68,204,95807,2,0,L|212:204,1,125,4|4,3:0|3:0,0:0:0:0:
416,204,96128,1,0,1:0:0:0:
416,204,96343,6,0,L|280:204,1,125,4|0,3:0|1:0,0:0:0:0:
291,204,96664,1,0,0:0:0:0:
428,204,96771,2,0,P|464:260|424:276,1,125,4|0,3:0|1:0,0:0:0:0:
356,276,97092,1,4,3:0:0:0:
140,336,97200,6,0,L|0:336,1,125,4|4,1:0|3:0,0:0:0:0:
216,276,97521,2,0,L|356:276,1,125,0|4,1:0|3:0,0:0:0:0:
144,224,97843,1,0,1:0:0:0:
144,224,98271,1,4,3:0:0:0:
416,224,98486,1,4,1:0:0:0:
256,192,98700,12,0,99557,0:0:0:0:
368,344,99771,6,0,L|440:344,2,62.5,4|0|0,1:0|0:0|0:0,0:0:0:0:
196,312,100092,2,0,L|124:312,2,62.5,0|0|0,1:0|0:0|0:0,0:0:0:0:
272,312,100413,2,0,L|272:232,1,62.5,0|0,0:0|0:0,0:0:0:0:
192,244,100628,6,0,L|116:244,1,62.5,2|2,0:0|0:0,0:0:0:0:
240,244,100842,2,0,L|316:244,1,62.5,2|2,0:0|0:0,0:0:0:0:
120,220,101056,2,0,L|44:220,1,62.5,2|0,0:0|0:0,0:0:0:0:
58,220,101271,2,0,L|120:220,1,62.5,2|0,0:0|0:0,0:0:0:0:
424,228,101486,6,0,L|486:228,1,62.5,0|0,1:0|1:0,0:0:0:0:
487,228,101699,2,0,L|424:228,1,62.5,0|0,1:0|1:0,0:0:0:0:
128,296,102021,6,0,L|44:296,1,62.5,0|0,1:0|1:0,0:0:0:0:
128,296,102235,1,0,1:0:0:0:
66,296,102343,1,0,1:0:0:0:
388,200,102556,6,0,P|516:136|376:124,1,375,4|0,1:0|0:0,0:0:0:0:
