osu file format v14

[General]
AudioFilename: audio.mp3
AudioLeadIn: 0
PreviewTime: 58361
Countdown: 0
SampleSet: Soft
StackLeniency: 0.7
Mode: 2
LetterboxInBreaks: 0
WidescreenStoryboard: 0

[Editor]
DistanceSpacing: 0.8
BeatDivisor: 4
GridSize: 4
TimelineZoom: 1.7

[Metadata]
Title:Karatto*kitsune iro diamond (Cut Ver.)
TitleUnicode:カラッと☆きつね色ダイヤモンド (Cut Ver.)
Artist:Nanahira x Camellia
ArtistUnicode:ななひら×かめりあ
Creator:My Angel RangE
Version:Platter*
Source:もふもふな放課後
Tags:p19 narutaki cao. c93 japanese もふかごプロジェクト mofukago project mofumofu afterschool
BeatmapID:2958556
BeatmapSetID:1438017

[Difficulty]
HPDrainRate:4
CircleSize:3.7
OverallDifficulty:8
ApproachRate:8
SliderMultiplier:1.05
SliderTickRate:1

[Events]
//Background and Video events
0,0,"78.png",0,0
//Break Periods
//Storyboard Layer 0 (Background)
//Storyboard Layer 1 (Fail)
//Storyboard Layer 2 (Pass)
//Storyboard Layer 3 (Foreground)
//Storyboard Layer 4 (Overlay)
//Storyboard Sound Samples

[TimingPoints]
3772,214.285714285714,4,2,0,60,1,0
7200,-100,4,2,0,70,0,0
20914,-100,4,2,0,60,0,0
24343,-100,4,2,0,70,0,0
27771,-100,4,2,0,60,0,0
31200,-100,4,2,0,70,0,0
34629,-100,4,2,0,60,0,0
53271,-100,4,2,0,70,0,0
57450,-100,4,2,0,70,0,0
57771,-100,4,2,0,70,0,0
58200,-100,4,2,0,70,0,0
58629,-100,4,2,0,80,0,1
72343,-100,4,2,0,60,0,0
79200,-100,4,2,0,70,0,0

[Colours]
Combo1 : 116,230,245
Combo2 : 255,98,176
Combo3 : 255,176,98

[HitObjects]
96,268,3772,6,0,P|44:240|112:216,1,157.5,2|2,0:0|0:0,0:0:0:0:
200,208,4307,2,0,L|200:272,1,52.5,2|2,0:0|0:0,0:0:0:0:
296,252,4629,2,0,L|453:252,2,157.5,2|2|2,0:0|0:0|0:0,0:0:0:0:
92,256,5486,6,0,P|36:220|100:196,1,157.5,2|2,0:0|0:0,0:0:0:0:
176,192,6021,2,0,L|248:192,1,52.5,2|2,0:0|0:0,0:0:0:0:
312,192,6343,2,0,L|312:80,1,105,8|4,3:0|3:0,0:0:0:0:
408,84,6771,1,4,3:0:0:0:
408,84,6986,1,0,1:0:0:0:
124,176,7200,6,0,L|12:176,1,105,4|0,1:0|1:0,0:0:0:0:
19,176,7521,1,0,0:0:0:0:
19,176,7629,2,0,L|124:176,1,105,4|0,3:0|1:0,0:0:0:0:
336,176,8057,2,0,L|456:176,2,105,4|0|0,3:0|1:0|0:0,0:0:0:0:
36,256,8700,1,0,1:0:0:0:
36,256,8914,6,0,L|160:256,1,105,4|0,3:0|1:0,0:0:0:0:
180,256,9236,1,0,0:0:0:0:
224,256,9343,2,0,L|224:151,1,105,4|0,3:0|1:0,0:0:0:0:
432,168,9771,2,0,L|432:272,1,105,4|0,3:0|1:0,0:0:0:0:
432,273,10200,1,0,0:0:0:0:
144,172,10414,1,0,1:0:0:0:
144,172,10629,6,0,L|252:172,1,105,4|0,3:0|1:0,0:0:0:0:
196,172,10950,1,0,0:0:0:0:
144,172,11057,2,0,L|144:276,1,105,4|0,3:0|1:0,0:0:0:0:
360,276,11486,2,0,B|464:276,1,105,4|0,3:0|0:0,0:0:0:0:
465,276,11914,1,0,0:0:0:0:
176,192,12129,1,0,1:0:0:0:
80,192,12343,6,0,L|80:304,1,105,4|0,3:0|1:0,0:0:0:0:
128,192,12664,1,0,0:0:0:0:
176,192,12771,2,0,L|292:192,1,105,4|0,3:0|1:0,0:0:0:0:
72,188,13200,2,0,L|189:187,2,105,0|0|0,1:0|1:0|0:0,0:0:0:0:
168,112,13843,1,0,1:0:0:0:
456,112,14057,6,0,B|456:220|456:220,1,105,4|0,3:0|1:0,0:0:0:0:
404,220,14379,1,0,0:0:0:0:
354,220,14486,1,4,3:0:0:0:
354,220,14700,1,0,1:0:0:0:
136,216,14914,2,0,L|26:217,2,105,4|0|0,3:0|0:0|0:0,0:0:0:0:
412,288,15557,1,0,1:0:0:0:
492,288,15771,6,0,L|378:288,1,105,4|0,3:0|1:0,0:0:0:0:
352,288,16093,1,0,0:0:0:0:
316,288,16200,2,0,L|316:172,1,105,4|0,3:0|1:0,0:0:0:0:
104,272,16629,2,0,L|11:193,2,105,4|0|0,3:0|0:0|0:0,0:0:0:0:
416,188,17271,1,0,1:0:0:0:
416,188,17486,6,0,L|300:188,1,105,4|0,3:0|1:0,0:0:0:0:
311,188,17807,1,0,0:0:0:0:
311,188,17914,2,0,L|435:188,1,105,4|0,3:0|1:0,0:0:0:0:
128,184,18343,2,0,L|8:72,2,157.5,4|0|0,1:0|1:0|1:0,0:0:0:0:
216,184,19200,5,8,3:0:0:0:
216,184,19414,1,4,3:0:0:0:
256,192,19629,12,0,20486,0:0:0:0:
392,276,20914,6,0,P|468:248|388:200,1,210,4|2,1:0|0:0,0:0:0:0:
316,200,21557,1,2,0:0:0:0:
236,200,21771,2,0,L|92:96,2,157.5,2|2|2,0:0|0:0|0:0,0:0:0:0:
324,204,22629,6,0,L|444:204,1,105,2|2,0:0|0:0,0:0:0:0:
429,204,23057,2,0,L|324:204,1,105,2|2,0:0|0:0,0:0:0:0:
240,204,23486,2,0,B|240:100|240:100|352:100,1,210,2|2,0:0|0:0,0:0:0:0:
424,100,24129,1,2,0:0:0:0:
132,96,24343,6,0,P|56:132|132:168,1,210,4|4,1:0|3:0,0:0:0:0:
224,168,24986,1,0,1:0:0:0:
448,168,25200,2,0,P|504:120|448:100,1,157.5,4|4,3:0|3:0,0:0:0:0:
320,100,25843,1,0,1:0:0:0:
36,164,26057,6,0,L|264:164,1,210,4|4,3:0|3:0,0:0:0:0:
184,164,26700,1,0,1:0:0:0:
388,164,26914,2,0,L|508:56,2,157.5,4|4|0,3:0|3:0|1:0,0:0:0:0:
100,172,27771,6,0,P|24:228|112:256,1,210,4|2,1:0|0:0,0:0:0:0:
188,264,28414,1,2,0:0:0:0:
188,264,28629,2,0,L|316:172,2,157.5,2|2|2,0:0|0:0|0:0,0:0:0:0:
108,264,29486,6,0,L|4:264,2,105,2|2|2,0:0|0:0|0:0,0:0:0:0:
108,264,30129,1,2,0:0:0:0:
188,264,30343,2,0,P|264:232|188:188,1,210,2|0,0:0|0:0,0:0:0:0:
108,188,30986,1,2,0:0:0:0:
400,184,31200,6,0,P|476:172|400:148,1,210,4|4,1:0|3:0,0:0:0:0:
316,140,31843,1,0,1:0:0:0:
100,140,32057,2,0,L|276:140,1,157.5,4|4,3:0|3:0,0:0:0:0:
116,140,32700,1,0,1:0:0:0:
416,136,32914,6,0,P|496:172|412:208,1,210,4|4,3:0|3:0,0:0:0:0:
344,216,33557,1,0,1:0:0:0:
132,216,33771,2,0,L|4:116,2,157.5,4|4|0,3:0|3:0|1:0,0:0:0:0:
420,240,34629,6,0,P|496:208|416:184,1,210,4|2,1:0|0:0,0:0:0:0:
324,184,35271,1,2,0:0:0:0:
324,184,35486,2,0,L|104:184,1,210,2|4,0:0|1:0,0:0:0:0:
114,184,36129,1,4,1:0:0:0:
400,180,36343,6,0,P|468:172|392:120,1,210,4|2,1:0|0:0,0:0:0:0:
320,112,36986,1,2,0:0:0:0:
236,112,37200,2,0,L|446:112,1,210,2|4,0:0|1:0,0:0:0:0:
446,112,37843,1,4,1:0:0:0:
144,112,38057,6,0,P|68:164|152:200,1,210,4|0,1:0|0:0,0:0:0:0:
224,204,38700,1,0,0:0:0:0:
224,204,38914,2,0,L|66:204,2,157.5,0|0|0,0:0|0:0|0:0,0:0:0:0:
368,200,39986,5,0,1:0:0:0:
448,200,40200,2,0,L|448:132,1,52.5,0|0,1:0|1:0,0:0:0:0:
152,144,40521,2,0,P|56:176|156:208,1,262.5,4|0,1:0|0:0,0:0:0:0:
344,204,41486,6,0,P|416:188|332:148,1,210,4|2,1:0|0:0,0:0:0:0:
268,136,42129,1,0,1:0:0:0:
60,136,42343,2,0,L|60:248,1,105,4|0,3:0|0:0,0:0:0:0:
88,136,42771,2,0,L|200:136,1,105,2|4,0:0|3:0,0:0:0:0:
408,136,43200,6,0,P|488:168|412:200,1,210,4|2,3:0|0:0,0:0:0:0:
332,204,43843,1,8,3:0:0:0:
152,204,44057,2,0,L|152:88,1,105,4|4,3:0|3:0,0:0:0:0:
47,204,44486,2,0,L|163:204,1,105,2|0,0:0|0:0,0:0:0:0:
362,204,44914,6,0,L|146:204,1,210,4|2,3:0|0:0,0:0:0:0:
256,204,45557,1,4,3:0:0:0:
468,136,45771,2,0,L|352:136,1,105,4|0,3:0|0:0,0:0:0:0:
284,140,46200,2,0,L|284:20,1,105,2|4,0:0|3:0,0:0:0:0:
80,104,46629,6,0,P|8:156|80:156,1,210,4|2,3:0|0:0,0:0:0:0:
152,164,47271,1,8,3:0:0:0:
360,164,47486,2,0,L|244:164,1,105,4|4,3:0|3:0,0:0:0:0:
152,164,47914,2,0,L|152:52,1,105,2|0,0:0|0:0,0:0:0:0:
368,204,48343,6,0,P|432:180|352:132,1,210,4|2,3:0|0:0,0:0:0:0:
280,136,48986,1,4,3:0:0:0:
72,252,49200,2,0,L|72:92,1,157.5,4|0,3:0|0:0,0:0:0:0:
184,92,49843,1,0,0:0:0:0:
396,128,50057,6,0,P|464:196|392:208,1,210,4|2,3:0|0:0,0:0:0:0:
300,208,50700,2,0,P|232:140|304:128,1,210,8|4,3:0|3:0,0:0:0:0:
396,128,51343,1,2,0:0:0:0:
112,128,51557,6,0,P|44:196|116:208,1,210,4|0,1:0|0:0,0:0:0:0:
208,168,52200,2,0,L|208:272,1,105,4|0,3:0|0:0,0:0:0:0:
304,272,52629,2,0,L|409:272,1,105,4|2,3:0|0:0,0:0:0:0:
409,272,53057,1,2,0:0:0:0:
96,280,53271,6,0,P|28:272|104:212,1,210,4|0,1:0|1:0,0:0:0:0:
180,188,53914,2,0,L|180:308,1,105,4|0,3:0|1:0,0:0:0:0:
392,292,54343,2,0,L|496:292,1,105,4|0,3:0|1:0,0:0:0:0:
412,264,54771,2,0,L|412:160,1,105,4|0,3:0|1:0,0:0:0:0:
104,176,55200,6,0,P|36:236|104:240,1,210,4|4,3:0|3:0,0:0:0:0:
184,240,55843,1,0,1:0:0:0:
400,236,56057,2,0,L|520:236,1,105,4|0,3:0|1:0,0:0:0:0:
505,236,56486,2,0,L|400:236,1,105,4|0,3:0|1:0,0:0:0:0:
116,228,56914,6,0,L|12:228,1,105,0|0,1:0|1:0,0:0:0:0:
11,228,57236,2,0,L|116:228,1,105,0|0,1:0|1:0,0:0:0:0:
336,232,57664,1,0,1:0:0:0:
336,232,57771,1,0,1:0:0:0:
464,232,58200,1,4,1:0:0:0:
344,232,58629,6,0,L|216:232,1,105,4|0,1:0|1:0,0:0:0:0:
239,232,58950,1,2,0:0:0:0:
156,232,59164,2,0,L|156:164,1,52.5,2|0,0:0|1:0,0:0:0:0:
380,164,59486,2,0,L|485:164,1,105,4|0,3:0|1:0,0:0:0:0:
485,164,59807,1,2,0:0:0:0:
436,164,59914,2,0,L|331:164,1,105,4|0,3:0|1:0,0:0:0:0:
48,160,60343,6,0,L|48:52,1,105,4|0,3:0|1:0,0:0:0:0:
136,52,60664,1,2,0:0:0:0:
232,48,60879,2,0,L|232:108,1,52.5,2|0,0:0|1:0,0:0:0:0:
24,148,61200,6,0,L|148:148,1,105,4|0,3:0|1:0,0:0:0:0:
129,148,61521,1,0,0:0:0:0:
80,148,61629,2,0,P|24:192|96:208,1,157.5,4|4,3:0|3:0,0:0:0:0:
120,220,62057,5,4,3:0:0:0:
400,216,62271,1,4,1:0:0:0:
400,216,62486,2,0,L|504:216,1,105,4|4,3:0|3:0,0:0:0:0:
505,216,62807,1,4,3:0:0:0:
452,216,62914,5,4,3:0:0:0:
164,220,63129,2,0,L|40:220,2,105,4|4|0,1:0|3:0|1:0,0:0:0:0:
376,224,63771,2,0,P|428:216|372:172,1,157.5,4|2,3:0|0:0,0:0:0:0:
316,164,64200,2,0,L|196:164,1,105,4|0,3:0|1:0,0:0:0:0:
211,164,64521,1,0,0:0:0:0:
211,164,64629,5,4,1:0:0:0:
304,152,64843,1,0,1:0:0:0:
211,164,65057,1,0,1:0:0:0:
184,228,65486,6,0,L|312:228,1,105,4|0,1:0|1:0,0:0:0:0:
289,228,65807,1,2,0:0:0:0:
368,228,66021,2,0,L|368:160,1,52.5,2|0,0:0|1:0,0:0:0:0:
148,160,66343,2,0,L|43:160,1,105,4|0,3:0|1:0,0:0:0:0:
43,160,66664,1,2,0:0:0:0:
92,160,66771,2,0,L|197:160,1,105,4|0,3:0|1:0,0:0:0:0:
480,156,67200,6,0,L|480:48,1,105,4|0,3:0|1:0,0:0:0:0:
392,48,67521,1,2,0:0:0:0:
296,44,67736,2,0,L|296:104,1,52.5,2|0,0:0|1:0,0:0:0:0:
504,144,68057,2,0,L|380:144,1,105,4|0,3:0|1:0,0:0:0:0:
399,144,68378,1,0,0:0:0:0:
448,144,68486,2,0,P|504:188|432:204,1,157.5,4|4,3:0|3:0,0:0:0:0:
408,216,68914,5,4,3:0:0:0:
128,212,69128,1,4,1:0:0:0:
128,212,69343,2,0,L|24:212,1,105,4|4,3:0|3:0,0:0:0:0:
23,212,69664,1,4,3:0:0:0:
76,212,69771,5,4,3:0:0:0:
364,216,69986,2,0,L|488:216,2,105,4|4|0,1:0|3:0|1:0,0:0:0:0:
168,220,70628,6,0,P|116:212|172:168,1,157.5,4|2,3:0|0:0,0:0:0:0:
228,160,71057,2,0,L|348:160,1,105,4|0,3:0|1:0,0:0:0:0:
427,152,71486,2,0,P|483:124|423:108,1,157.5,4|2,3:0|0:0,0:0:0:0:
335,104,71914,2,0,L|332:-5,1,105,4|0,3:0|1:0,0:0:0:0:
44,100,72343,6,0,L|256:100,1,210,4|0,1:0|1:0,0:0:0:0:
258,96,72986,1,0,0:0:0:0:
416,92,73200,2,0,P|492:140|416:156,1,210,4|0,3:0|1:0,0:0:0:0:
336,92,73843,1,0,0:0:0:0:
128,160,74057,6,0,L|40:88,2,105,4|0|0,3:0|0:0|1:0,0:0:0:0:
208,160,74700,1,0,0:0:0:0:
300,160,74914,2,0,L|300:52,1,105,4|4,3:0|3:0,0:0:0:0:
80,156,75343,1,0,1:0:0:0:
80,156,75771,6,0,P|16:196|92:276,1,210,4|0,3:0|1:0,0:0:0:0:
164,280,76414,1,0,0:0:0:0:
292,252,76629,2,0,L|416:252,2,105,4|4|0,3:0|3:0|1:0,0:0:0:0:
292,252,77271,1,0,0:0:0:0:
84,252,77486,6,0,P|16:240|92:184,1,210,4|0,3:0|1:0,0:0:0:0:
176,184,78129,1,0,0:0:0:0:
176,184,78343,2,0,L|288:184,1,105,0|0,1:0|1:0,0:0:0:0:
368,184,78771,2,0,L|368:64,1,105,0|0,1:0|1:0,0:0:0:0:
84,120,79200,6,0,L|308:120,1,210,4|4,1:0|3:0,0:0:0:0:
228,120,79843,1,0,1:0:0:0:
16,120,80057,2,0,L|16:232,1,105,4|0,3:0|1:0,0:0:0:0:
124,224,80486,2,0,L|124:119,1,105,4|0,3:0|1:0,0:0:0:0:
400,116,80914,6,0,P|468:180|400:184,1,210,4|4,3:0|3:0,0:0:0:0:
320,152,81557,1,0,1:0:0:0:
320,152,81771,1,4,3:0:0:0:
112,156,81986,2,0,L|4:156,2,105,0|4|0,1:0|3:0|1:0,0:0:0:0:
396,144,82629,6,0,P|448:112|376:80,1,157.5,4|0,1:0|1:0,0:0:0:0:
232,108,83271,1,0,0:0:0:0:
136,108,83486,2,0,L|16:108,2,105,2|2|2,0:0|0:0|0:0,0:0:0:0:
136,108,84129,1,2,0:0:0:0:
416,112,84343,5,0,1:0:0:0:
464,116,84450,1,0,1:0:0:0:
464,116,84557,1,0,1:0:0:0:
416,112,84664,1,0,1:0:0:0:
300,176,84879,1,0,1:0:0:0:
252,172,84986,1,0,1:0:0:0:
252,172,85093,1,0,1:0:0:0:
300,176,85200,1,0,1:0:0:0:
496,184,85414,1,4,1:0:0:0:
381,206,86057,6,0,L|493:206,1,105,4|0,1:0|1:0,0:0:0:0:
486,206,86378,1,0,0:0:0:0:
486,206,86486,2,0,L|381:206,1,105,4|0,3:0|1:0,0:0:0:0:
169,206,86914,2,0,L|49:206,2,105,4|0|0,3:0|1:0|0:0,0:0:0:0:
469,126,87557,1,0,1:0:0:0:
469,126,87771,6,0,L|345:126,1,105,4|0,3:0|1:0,0:0:0:0:
325,126,88093,1,0,0:0:0:0:
281,126,88200,2,0,L|281:231,1,105,4|0,3:0|1:0,0:0:0:0:
73,214,88628,2,0,L|73:110,1,105,4|0,3:0|1:0,0:0:0:0:
73,109,89057,1,0,0:0:0:0:
361,210,89271,1,0,1:0:0:0:
361,210,89486,6,0,L|253:210,1,105,4|0,3:0|1:0,0:0:0:0:
309,210,89807,1,0,0:0:0:0:
361,210,89914,2,0,L|361:106,1,105,4|0,3:0|1:0,0:0:0:0:
145,106,90343,2,0,B|41:106,1,105,4|0,3:0|0:0,0:0:0:0:
40,106,90771,1,0,0:0:0:0:
329,190,90986,1,0,1:0:0:0:
425,190,91200,6,0,L|425:78,1,105,4|0,3:0|1:0,0:0:0:0:
377,190,91521,1,0,0:0:0:0:
329,190,91628,2,0,L|213:190,1,105,4|0,3:0|1:0,0:0:0:0:
433,194,92057,2,0,L|316:195,2,105,0|0|0,1:0|1:0|0:0,0:0:0:0:
337,270,92700,1,0,1:0:0:0:
49,270,92914,6,0,B|49:162|49:162,1,105,4|0,3:0|1:0,0:0:0:0:
101,162,93236,1,0,0:0:0:0:
151,162,93343,1,4,3:0:0:0:
151,162,93557,1,0,1:0:0:0:
369,166,93771,2,0,L|479:165,2,105,4|0|0,3:0|0:0|0:0,0:0:0:0:
93,94,94414,1,0,1:0:0:0:
13,94,94628,6,0,L|127:94,1,105,4|0,3:0|1:0,0:0:0:0:
153,94,94950,1,0,0:0:0:0:
189,94,95057,2,0,L|189:210,1,105,4|0,3:0|1:0,0:0:0:0:
401,110,95486,2,0,L|494:189,2,105,4|0|0,3:0|0:0|0:0,0:0:0:0:
89,194,96128,1,0,1:0:0:0:
89,194,96343,6,0,L|205:194,1,105,4|0,3:0|1:0,0:0:0:0:
194,194,96664,1,0,0:0:0:0:
194,194,96771,2,0,L|70:194,1,105,4|0,3:0|1:0,0:0:0:0:
377,198,97200,2,0,L|497:310,2,157.5,4|0|0,1:0|1:0|1:0,0:0:0:0:
300,200,98057,5,8,3:0:0:0:
300,200,98271,1,4,3:0:0:0:
256,192,98486,12,0,99343,0:0:0:0:
136,220,99771,6,0,P|84:252|156:284,1,157.5,4|0,1:0|1:0,0:0:0:0:
296,260,100413,1,0,0:0:0:0:
384,256,100628,2,0,L|504:256,2,105,2|2|2,0:0|0:0|0:0,0:0:0:0:
384,256,101271,1,2,0:0:0:0:
108,256,101485,5,0,1:0:0:0:
60,256,101592,1,0,1:0:0:0:
60,256,101699,1,0,1:0:0:0:
108,256,101807,1,0,1:0:0:0:
224,152,102021,1,0,1:0:0:0:
272,152,102128,1,0,1:0:0:0:
272,152,102235,1,0,1:0:0:0:
224,152,102343,1,0,1:0:0:0:
16,143,102557,6,0,B|228:143|228:143|228:255,1,315,4|0,1:0|0:0,0:0:0:0:
