osu file format v14

[General]
AudioFilename: audio.mp3
AudioLeadIn: 0
PreviewTime: 58361
Countdown: 0
SampleSet: Soft
StackLeniency: 0.7
Mode: 2
LetterboxInBreaks: 0
WidescreenStoryboard: 0

[Editor]
DistanceSpacing: 0.8
BeatDivisor: 4
GridSize: 4
TimelineZoom: 1.7

[Metadata]
Title:Karatto*kitsune iro diamond (Cut Ver.)
TitleUnicode:カラッと☆きつね色ダイヤモンド (Cut Ver.)
Artist:Nanahira x Camellia
ArtistUnicode:ななひら×かめりあ
Creator:My Angel RangE
Version:Cup*
Source:もふもふな放課後
Tags:p19 narutaki cao. c93 japanese もふかごプロジェクト mofukago project mofumofu afterschool
BeatmapID:2958553
BeatmapSetID:1438017

[Difficulty]
HPDrainRate:2
CircleSize:2.5
OverallDifficulty:6
ApproachRate:6
SliderMultiplier:0.699999999999999
SliderTickRate:1

[Events]
//Background and Video events
0,0,"78.png",0,0
//Break Periods
//Storyboard Layer 0 (Background)
//Storyboard Layer 1 (Fail)
//Storyboard Layer 2 (Pass)
//Storyboard Layer 3 (Foreground)
//Storyboard Layer 4 (Overlay)
//Storyboard Sound Samples

[TimingPoints]
3772,214.285714285714,4,2,0,60,1,0
7200,-100,4,2,0,70,0,0
20914,-100,4,2,0,60,0,0
24343,-100,4,2,0,70,0,0
27771,-100,4,2,0,60,0,0
31200,-100,4,2,0,70,0,0
34629,-100,4,2,0,60,0,0
53271,-100,4,2,0,70,0,0
57450,-51.2820512820513,4,2,0,70,0,0
57771,-100,4,2,0,70,0,0
58200,-100,4,2,0,70,0,0
58629,-100,4,2,0,80,0,1
72343,-100,4,2,0,60,0,0
79200,-100,4,2,0,70,0,0

[Colours]
Combo1 : 116,230,245
Combo2 : 255,98,176
Combo3 : 255,176,98

[HitObjects]
108,276,3772,6,0,P|72:248|116:228,1,105,2|2,0:0|0:0,0:0:0:0:
248,224,4629,2,0,L|368:224,2,105,2|2|2,0:0|0:0|0:0,0:0:0:0:
188,156,5486,6,0,L|304:160,1,105,2|2,0:0|0:0,0:0:0:0:
448,136,6343,2,0,L|304:136,1,140,8|4,3:0|3:0,0:0:0:0:
180,136,7200,6,0,P|136:156|184:208,1,140,4|4,1:0|3:0,0:0:0:0:
296,208,8057,2,0,L|180:212,1,105,4|4,3:0|3:0,0:0:0:0:
100,216,8700,1,0,1:0:0:0:
36,272,8914,6,0,L|180:272,1,140,4|4,3:0|3:0,0:0:0:0:
300,272,9771,1,4,3:0:0:0:
392,272,10093,2,0,L|392:164,1,105,4|0,3:0|1:0,0:0:0:0:
328,168,10629,6,0,L|188:168,1,140,4|4,3:0|3:0,0:0:0:0:
68,168,11486,1,4,3:0:0:0:
68,168,11807,2,0,L|173:168,1,105,4|0,3:0|1:0,0:0:0:0:
232,168,12343,6,0,L|232:308,1,140,4|4,3:0|3:0,0:0:0:0:
356,300,13200,2,0,L|508:300,1,140,0|0,1:0|1:0,0:0:0:0:
496,300,13843,1,0,1:0:0:0:
432,300,14057,6,0,L|280:300,1,140,4|4,3:0|3:0,0:0:0:0:
164,252,14914,2,0,L|280:252,2,105,4|4|0,3:0|3:0|1:0,0:0:0:0:
100,248,15771,6,0,L|256:248,1,140,4|4,3:0|3:0,0:0:0:0:
368,248,16629,1,4,3:0:0:0:
276,244,16950,2,0,L|276:132,1,105,4|0,3:0|1:0,0:0:0:0:
208,144,17486,6,0,L|60:144,1,140,4|4,3:0|3:0,0:0:0:0:
192,136,18343,2,0,L|304:136,2,105,4|0|0,1:0|1:0|1:0,0:0:0:0:
256,192,19629,12,0,20486,0:0:0:0:
72,192,20914,6,0,L|216:192,1,140,4|2,1:0|0:0,0:0:0:0:
332,192,21771,1,2,0:0:0:0:
212,192,22200,1,0,0:0:0:0:
332,192,22629,6,0,L|332:44,1,140,2|2,0:0|0:0,0:0:0:0:
216,48,23486,2,0,L|104:48,2,105,2|2|2,0:0|0:0|0:0,0:0:0:0:
280,96,24343,6,0,B|192:32|192:32|280:96,1,210,4|0,1:0|1:0,0:0:0:0:
352,96,25200,2,0,L|468:96,2,105,4|4|0,3:0|3:0|0:0,0:0:0:0:
312,148,26057,6,0,P|388:196|316:216,1,210,4|0,3:0|1:0,0:0:0:0:
256,216,26914,2,0,L|136:216,2,105,4|4|0,3:0|3:0|1:0,0:0:0:0:
320,216,27771,6,0,L|460:216,1,140,4|2,1:0|0:0,0:0:0:0:
460,216,28629,2,0,L|320:216,1,140,2|2,0:0|0:0,0:0:0:0:
192,216,29486,5,2,0:0:0:0:
320,216,29914,1,2,0:0:0:0:
192,216,30343,6,0,L|76:216,2,105,2|2|2,0:0|0:0|0:0,0:0:0:0:
256,216,31200,6,0,P|332:200|256:164,1,210,4|0,1:0|1:0,0:0:0:0:
188,160,32057,2,0,L|76:160,2,105,4|4|0,3:0|3:0|1:0,0:0:0:0:
264,160,32914,6,0,B|404:160|404:160|404:80,1,210,4|0,3:0|1:0,0:0:0:0:
336,88,33771,2,0,L|224:88,2,105,4|4|0,3:0|3:0|1:0,0:0:0:0:
400,88,34629,6,0,L|244:88,1,140,4|2,1:0|0:0,0:0:0:0:
132,92,35486,2,0,P|92:140|148:172,1,140,2|4,0:0|1:0,0:0:0:0:
204,172,36129,1,4,1:0:0:0:
143,173,36343,6,0,L|-5:173,1,140,4|2,1:0|0:0,0:0:0:0:
128,192,37200,2,0,L|276:192,1,140,2|4,0:0|1:0,0:0:0:0:
268,192,37843,1,4,1:0:0:0:
192,248,38057,6,0,L|40:248,1,140,4|0,1:0|0:0,0:0:0:0:
172,284,38914,2,0,L|388:284,1,210,0|0,0:0|0:0,0:0:0:0:
256,280,39986,6,0,L|72:280,1,175,0|4,1:0|1:0,0:0:0:0:
81,280,41057,1,0,0:0:0:0:
208,280,41486,6,0,L|432:280,1,210,4|0,1:0|1:0,0:0:0:0:
484,200,42343,2,0,L|260:200,1,210,4|4,3:0|3:0,0:0:0:0:
208,200,43200,6,0,L|208:92,1,105,4|0,3:0|0:0,0:0:0:0:
300,92,43843,2,0,L|148:92,1,140,8|4,3:0|3:0,0:0:0:0:
160,92,44486,1,2,0:0:0:0:
32,96,44914,6,0,L|256:96,1,210,4|4,3:0|3:0,0:0:0:0:
242,96,45771,2,0,L|32:96,1,210,4|4,3:0|3:0,0:0:0:0:
96,164,46629,6,0,L|208:164,1,105,4|0,3:0|0:0,0:0:0:0:
296,188,47271,2,0,L|144:188,1,140,8|4,3:0|3:0,0:0:0:0:
156,188,47914,1,2,0:0:0:0:
284,184,48343,6,0,L|500:184,1,210,4|4,3:0|3:0,0:0:0:0:
432,180,49200,2,0,L|216:180,1,210,4|4,3:0|3:0,0:0:0:0:
160,176,50057,6,0,L|160:288,1,105,4|0,3:0|0:0,0:0:0:0:
256,280,50700,2,0,L|116:280,1,140,8|4,3:0|3:0,0:0:0:0:
52,280,51343,1,2,0:0:0:0:
116,280,51557,1,4,1:0:0:0:
280,288,52200,5,4,3:0:0:0:
152,288,52629,1,4,3:0:0:0:
280,288,53057,1,2,0:0:0:0:
280,288,53271,6,0,L|56:288,1,210,4|4,1:0|3:0,0:0:0:0:
192,236,54343,2,0,L|416:236,1,210,4|0,3:0|1:0,0:0:0:0:
340,160,55200,6,0,L|232:160,2,105,4|4|0,3:0|3:0|1:0,0:0:0:0:
404,160,56057,2,0,L|512:160,2,105,4|0|0,3:0|0:0|1:0,0:0:0:0:
328,164,56914,6,0,P|268:100|332:76,1,175,0|0,1:0|1:0,0:0:0:0:
416,72,57771,1,0,1:0:0:0:
292,76,58200,1,4,1:0:0:0:
168,72,58629,6,0,L|16:72,1,140,4|4,1:0|3:0,0:0:0:0:
152,116,59486,2,0,L|304:116,1,140,4|4,3:0|3:0,0:0:0:0:
416,116,60343,6,0,P|456:180|408:188,1,140,4|4,3:0|3:0,0:0:0:0:
296,192,61200,1,4,3:0:0:0:
401,192,61629,2,0,L|289:192,1,105,4|4,3:0|3:0,0:0:0:0:
200,192,62271,5,4,1:0:0:0:
200,192,62486,2,0,L|88:192,1,105,4|4,3:0|3:0,0:0:0:0:
176,192,63129,1,4,1:0:0:0:
300,192,63557,6,0,L|216:192,1,69.9999999999999,0|4,1:0|3:0,0:0:0:0:
104,192,64200,1,4,3:0:0:0:
230,192,64629,2,0,L|300:192,2,69.9999999999999,4|0|0,1:0|1:0|1:0,0:0:0:0:
104,192,65486,6,0,L|256:192,1,140,4|4,1:0|3:0,0:0:0:0:
372,208,66343,2,0,L|220:208,1,140,4|4,3:0|3:0,0:0:0:0:
104,208,67200,6,0,P|58:166|109:131,1,140,4|4,3:0|3:0,0:0:0:0:
232,116,68057,1,4,3:0:0:0:
232,116,68486,2,0,L|344:116,1,105,4|4,3:0|3:0,0:0:0:0:
432,124,69128,5,4,1:0:0:0:
432,124,69343,2,0,L|327:124,1,105,4|4,3:0|3:0,0:0:0:0:
232,124,69986,1,4,1:0:0:0:
104,124,70414,6,0,L|188:124,1,69.9999999999999,0|4,1:0|3:0,0:0:0:0:
300,120,71057,1,4,3:0:0:0:
428,132,71486,2,0,L|280:132,1,140,4|4,3:0|3:0,0:0:0:0:
160,132,72343,6,0,P|112:112|156:60,1,140,4|0,1:0|1:0,0:0:0:0:
280,132,73200,1,4,3:0:0:0:
160,132,73629,1,0,1:0:0:0:
40,132,74057,6,0,L|256:132,1,210,4|0,3:0|0:0,0:0:0:0:
312,132,74914,2,0,L|312:288,1,140,4|0,3:0|1:0,0:0:0:0:
192,268,75771,6,0,L|44:268,1,140,4|0,3:0|1:0,0:0:0:0:
180,288,76629,2,0,L|328:288,1,140,4|0,3:0|1:0,0:0:0:0:
448,288,77486,6,0,P|484:232|444:236,1,140,4|0,3:0|1:0,0:0:0:0:
320,288,78343,2,0,L|172:288,1,140,0|0,1:0|1:0,0:0:0:0:
180,288,79200,6,0,L|396:288,1,210,4|0,1:0|1:0,0:0:0:0:
452,284,80057,2,0,L|236:284,1,210,4|0,3:0|1:0,0:0:0:0:
180,284,80914,6,0,P|140:276|180:220,1,140,4|4,3:0|3:0,0:0:0:0:
308,220,81771,2,0,L|168:220,1,140,4|4,3:0|3:0,0:0:0:0:
168,220,82629,6,0,L|316:220,1,140,4|0,1:0|0:0,0:0:0:0:
436,168,83486,2,0,L|220:168,1,210,2|2,0:0|0:0,0:0:0:0:
160,168,84343,6,0,L|265:168,1,105,0|0,1:0|1:0,0:0:0:0:
265,168,84879,2,0,L|160:168,1,105,0|0,1:0|1:0,0:0:0:0:
160,168,85414,1,4,1:0:0:0:
348,280,86057,6,0,P|392:260|344:208,1,140,4|4,1:0|3:0,0:0:0:0:
232,208,86914,2,0,L|348:204,1,105,4|4,3:0|3:0,0:0:0:0:
428,200,87557,1,0,1:0:0:0:
492,144,87771,6,0,L|348:144,1,140,4|4,3:0|3:0,0:0:0:0:
228,144,88628,1,4,3:0:0:0:
136,144,88950,2,0,L|136:252,1,105,4|0,3:0|1:0,0:0:0:0:
200,248,89486,6,0,L|340:248,1,140,4|4,3:0|3:0,0:0:0:0:
460,248,90343,1,4,3:0:0:0:
460,248,90664,2,0,L|355:248,1,105,4|0,3:0|1:0,0:0:0:0:
296,248,91200,6,0,L|296:108,1,140,4|4,3:0|3:0,0:0:0:0:
172,116,92057,2,0,L|20:116,1,140,0|0,1:0|1:0,0:0:0:0:
32,116,92700,1,0,1:0:0:0:
96,116,92914,6,0,L|248:116,1,140,4|4,3:0|3:0,0:0:0:0:
364,164,93771,2,0,L|248:164,2,105,4|4|0,3:0|3:0|1:0,0:0:0:0:
428,168,94628,6,0,L|272:168,1,140,4|4,3:0|3:0,0:0:0:0:
160,168,95486,1,4,3:0:0:0:
252,172,95807,2,0,L|252:284,1,105,4|0,3:0|1:0,0:0:0:0:
320,272,96343,6,0,L|468:272,1,140,4|4,3:0|3:0,0:0:0:0:
336,280,97200,2,0,L|224:280,2,105,4|0|0,1:0|1:0|1:0,0:0:0:0:
256,192,98486,12,0,99343,0:0:0:0:
396,192,99771,6,0,L|244:192,1,140,4|0,1:0|0:0,0:0:0:0:
124,188,100629,2,0,L|340:188,1,210,2|2,0:0|0:0,0:0:0:0:
400,184,101486,6,0,L|295:184,1,105,0|0,1:0|1:0,0:0:0:0:
295,184,102022,2,0,L|400:184,1,105,0|0,1:0|1:0,0:0:0:0:
400,184,102557,1,4,1:0:0:0:
