osu file format v14

[General]
AudioFilename: audio.mp3
AudioLeadIn: 0
PreviewTime: 70644
Countdown: 0
SampleSet: Soft
StackLeniency: 0.3
Mode: 0
LetterboxInBreaks: 0
WidescreenStoryboard: 0

[Editor]
Bookmarks: 53455,85455
DistanceSpacing: 0.8
BeatDivisor: 4
GridSize: 32
TimelineZoom: 2.4

[Metadata]
Title:INFINITI MOFULITY (Short Ver.)
TitleUnicode:いんふぃにてぃ もふりてぃ (Short Ver.)
Artist:Nanahira x Camellia
ArtistUnicode:ななひら×かめりあ
Creator:Moa
Version:Riana's Insane
Source:もふもふな放課後
Tags:p19 narutaki cao. c93 japanese もふかごプロジェクト mofukago project Riana Kawashiro UnLock- j-pop jpop pop
BeatmapID:1660701
BeatmapSetID:786320

[Difficulty]
HPDrainRate:6
CircleSize:4
OverallDifficulty:8
ApproachRate:9
SliderMultiplier:1.6
SliderTickRate:1

[Events]
//Background and Video events
0,0,"owo what is this.png",0,0
//Break Periods
2,23433,24466
2,100767,102133
//Storyboard Layer 0 (Background)
//Storyboard Layer 1 (Fail)
//Storyboard Layer 2 (Pass)
//Storyboard Layer 3 (Foreground)
//Storyboard Layer 4 (Overlay)
//Storyboard Sound Samples

[TimingPoints]
3400,333.333333333333,4,2,2,60,1,0
4066,-76.9230769230769,4,2,2,60,0,0
9566,-100,4,2,2,60,0,0
10066,-133.333333333333,4,2,2,60,0,0
14733,-125,4,2,2,60,0,0
15399,-90.9090909090909,4,2,2,60,0,0
16899,-111.111111111111,4,2,2,60,0,0
17399,-90.9090909090909,4,2,2,60,0,0
22233,-111.111111111111,4,2,2,60,0,0
25066,-83.3333333333333,4,2,2,60,0,0
26066,-100,4,2,2,60,0,0
34733,-86.9565217391304,4,2,2,60,0,0
36066,-133.333333333333,4,2,2,60,0,0
39399,-100,4,2,2,60,0,0
60733,-200,4,2,2,40,0,0
62066,-133.333333333333,4,2,2,40,0,0
63399,-133.333333333333,4,2,2,60,0,0
68399,-100,4,2,2,60,0,0
68733,-100,4,2,2,40,0,0
70399,-111.111111111111,4,2,2,50,0,0
70733,-76.9230769230769,4,2,2,60,0,0
71399,-100,4,2,2,70,0,1
80566,-100,4,2,2,70,0,0
81733,-133.333333333333,4,2,2,70,0,0
82066,-100,4,2,2,70,0,1
87399,-133.333333333333,4,2,2,60,0,1
91399,-100,4,2,2,60,0,0
94233,-111.111111111111,4,2,2,60,0,0
95066,-100,4,2,2,60,0,0
108733,-100,4,2,2,40,0,0
109066,-100,4,2,2,30,0,0
109399,-100,4,2,2,20,0,0
109733,-100,4,2,2,10,0,0
110066,-100,4,2,2,5,0,0

[Colours]
Combo1 : 128,255,255
Combo2 : 255,255,0
Combo3 : 255,128,128
Combo4 : 255,128,0

[HitObjects]
113,200,3733,6,0,L|74:170,1,40,0|0,0:0|0:0,0:0:0:0:
47,246,3899,2,0,L|2:264,1,40,0|0,0:0|0:0,0:0:0:0:
125,279,4066,2,0,P|199:275|247:339,1,155.999992858887,6|0,0:0|0:0,0:0:0:0:
246,334,4399,2,0,P|297:294|399:331,1,155.999992858887,6|0,0:0|0:0,0:0:0:0:
441,368,4733,5,6,0:0:0:0:
409,236,4899,1,2,0:0:0:0:
409,236,5899,5,4,0:0:0:0:
409,236,6233,1,6,0:0:0:0:
378,110,6566,1,6,0:0:0:0:
378,110,6899,1,6,0:0:0:0:
462,117,7399,5,6,0:0:0:0:
345,182,7565,1,2,0:0:0:0:
345,182,8566,5,4,0:0:0:0:
345,182,8899,1,6,0:0:0:0:
228,107,9233,1,6,0:0:0:0:
228,107,9566,2,0,B|187:78|147:99|147:99|112:117|69:91,1,160,6|0,0:0|0:0,0:0:0:0:
28,35,10066,6,0,P|32:100|11:165,1,120.000004577637,6|8,0:0|3:0,0:0:0:0:
60,218,10566,1,4,3:0:0:0:
134,195,10733,2,0,P|113:159|91:146,2,60.0000022888184,8|0|2,0:0|0:0|0:0,0:0:0:0:
60,218,11233,5,8,0:3:0:0:
60,218,11316,1,0,0:0:0:0:
60,218,11399,2,0,P|40:253|40:280,1,60.0000022888184,0|0,1:0|0:0,0:0:0:0:
86,336,11649,1,4,0:3:0:0:
86,336,11732,2,0,L|161:323,1,60.0000022888184,0|4,0:0|3:0,0:0:0:0:
209,274,12066,2,0,L|285:287,1,60.0000022888184,8|0,0:0|0:0,0:0:0:0:
331,334,12399,1,2,0:0:0:0:
445,269,12566,5,4,0:0:0:0:
445,269,12649,1,0,0:0:0:0:
445,269,12733,1,2,0:0:0:0:
430,184,12899,1,0,0:0:0:0:
355,150,13066,1,0,1:0:0:0:
281,180,13233,1,0,1:0:0:0:
281,180,13316,1,0,0:0:0:0:
281,180,13399,1,8,0:3:0:0:
141,144,13566,5,4,0:3:0:0:
234,246,13733,1,4,0:0:0:0:
19,204,13899,1,4,0:0:0:0:
202,71,14566,5,2,0:0:0:0:
202,71,14649,1,0,0:0:0:0:
202,71,14733,2,0,P|132:51|63:86,1,128,0|8,0:0|0:3,0:0:0:0:
195,304,15399,6,0,P|188:247|169:223,1,88.000002685547,6|0,0:0|0:0,0:0:0:0:
29,275,15733,2,0,P|68:293|112:292,1,88.000002685547,8|0,0:0|0:0,0:0:0:0:
239,174,16066,1,2,0:0:0:0:
310,233,16233,1,0,0:0:0:0:
310,233,16316,1,0,0:0:0:0:
310,233,16399,1,8,0:0:0:0:
377,190,16566,1,2,0:0:0:0:
239,174,16733,5,2,0:0:0:0:
170,223,16899,2,0,P|156:155|203:96,1,143.999995605469
354,49,17399,1,2,0:0:0:0:
354,49,17483,1,0,0:0:0:0:
354,49,17566,1,0,0:0:0:0:
460,134,17733,2,0,L|372:123,1,88.000002685547,8|0,0:0|0:0,0:0:0:0:
289,106,17983,5,2,0:3:0:0:
289,106,18066,2,0,P|291:149|315:187,1,88.000002685547,2|0,0:0|0:0,0:0:0:0:
353,330,18399,2,0,P|377:294|379:250,1,88.000002685547,8|0,0:0|0:0,0:0:0:0:
247,240,18733,1,2,0:0:0:0:
266,321,18899,1,0,0:0:0:0:
314,187,19066,1,8,0:0:0:0:
168,213,19232,1,0,0:0:0:0:
266,321,19399,5,2,0:0:0:0:
247,240,19565,1,0,0:0:0:0:
415,258,19732,2,0,L|327:270,1,88.000002685547,8|0,0:0|0:0,0:0:0:0:
266,321,20065,1,2,0:0:0:0:
266,321,20149,1,0,0:0:0:0:
266,321,20233,1,0,0:0:0:0:
314,187,20399,2,0,P|314:160|297:125,3,44.0000013427735,8|0|0|2,0:0|0:0|0:0|0:3,0:0:0:0:
238,106,20733,6,0,P|291:110|335:59,1,88.000002685547,2|0,0:0|0:0,0:0:0:0:
478,36,21066,2,0,P|425:32|381:83,1,88.000002685547,8|0,0:0|0:0,0:0:0:0:
399,216,21399,1,2,0:0:0:0:
314,187,21566,1,0,0:0:0:0:
314,187,21649,1,0,0:0:0:0:
314,187,21733,1,8,0:0:0:0:
336,272,21899,1,0,0:0:0:0:
175,220,22066,5,2,0:0:0:0:
137,296,22233,2,0,P|221:293|255:246,1,143.999995605469,0|0,0:0|0:0,0:0:0:0:
103,190,22732,1,2,0:0:0:0:
103,190,22816,1,0,0:0:0:0:
103,190,22899,2,0,L|104:164,4,17.9999994506836,0|0|0|0|12,0:0|0:0|0:0|0:0|0:0,0:0:0:0:
225,86,23233,5,4,0:0:0:0:
194,235,25066,6,0,B|196:292|114:319|74:247|97:212|115:196|115:196|136:177|166:179|195:201|195:201|260:242|323:188|323:188|365:246|433:216,1,527.999983886719,4|0,0:0|0:0,0:0:0:0:
416,222,26066,2,0,P|396:160|400:126,1,80,6|0,0:0|0:0,0:0:0:0:
448,23,26399,2,0,P|468:85|464:119,1,80,8|0,0:0|0:0,0:0:0:0:
323,109,26733,1,2,0:0:0:0:
333,93,26899,1,0,0:0:0:0:
448,23,27066,1,8,0:0:0:0:
362,18,27233,6,0,L|262:1,1,80,2|2,0:0|0:0,0:0:0:0:
205,28,27566,1,0,0:0:0:0:
65,88,27733,2,0,P|155:127|210:106,1,160,8|2,0:0|0:0,0:0:0:0:
290,128,28233,1,0,0:0:0:0:
216,240,28399,1,8,0:0:0:0:
297,213,28566,5,0,0:0:0:0:
297,213,28649,1,2,0:3:0:0:
297,213,28733,2,0,L|396:228,1,80,2|0,0:0|0:0,0:0:0:0:
482,175,29066,2,0,P|456:245|469:278,1,80,8|0,0:0|0:0,0:0:0:0:
485,325,29399,1,2,0:0:0:0:
426,381,29566,1,0,0:0:0:0:
344,368,29733,1,8,0:0:0:0:
318,289,29899,6,0,B|281:273|243:290|243:290|201:305|155:276,1,160,0|0,0:0|0:0,0:0:0:0:
240,122,30399,2,0,P|260:187|252:219,1,80,8|0,0:0|0:0,0:0:0:0:
114,213,30733,1,2,0:0:0:0:
88,237,30899,1,0,0:0:0:0:
79,285,31066,1,8,0:0:0:0:
134,363,31233,5,0,0:0:0:0:
134,363,31316,1,2,0:3:0:0:
134,363,31399,2,0,L|232:378,1,80,2|0,0:0|0:0,0:0:0:0:
363,316,31733,2,0,L|265:331,1,80,8|0,0:0|0:0,0:0:0:0:
214,204,32067,1,2,0:0:0:0:
223,186,32233,1,0,0:0:0:0:
291,239,32400,1,8,0:0:0:0:
437,200,32566,6,0,L|337:183,1,80,0|2,0:0|0:0,0:0:0:0:
332,112,32899,1,0,0:0:0:0:
179,80,33066,2,0,P|218:108|277:107,1,80,8|0,0:0|0:0,0:0:0:0:
454,82,33399,2,0,P|414:53|355:54,1,80,2|0,0:0|0:0,0:0:0:0:
358,186,33733,1,8,0:0:0:0:
291,239,33899,5,0,0:0:0:0:
291,239,33983,1,2,0:3:0:0:
291,239,34066,1,2,0:0:0:0:
217,191,34233,1,0,0:0:0:0:
81,193,34399,1,8,0:0:0:0:
150,235,34566,1,0,0:0:0:0:
196,115,34733,5,2,0:0:0:0:
232,71,34899,1,0,0:0:0:0:
279,59,35066,1,8,0:0:0:0:
317,72,35233,1,0,0:0:0:0:
348,84,35399,1,2,0:0:0:0:
371,78,35566,1,0,0:0:0:0:
384,72,35733,1,8,0:0:0:0:
390,66,35899,1,2,0:0:0:0:
441,4,36066,6,0,P|466:-2|489:2,3,30.0000011444092,2|0|0|0,0:0|0:0|0:0|0:0,0:0:0:0:
390,66,36399,2,0,P|372:47|364:25,3,30.0000011444092,8|8|4|4,0:3|0:3|0:3|0:3,0:0:0:0:
466,82,36733,1,4,0:0:0:0:
114,117,37566,5,4,0:0:0:0:
261,140,37899,1,4,0:0:0:0:
414,160,38233,1,2,0:0:0:0:
414,160,38399,2,0,B|431:156|441:139|441:139|486:197|460:239|460:239|367:262|359:347|411:382,1,330.000012588501,2|4,0:0|0:3,0:0:0:0:
404,376,39399,6,0,P|371:353|332:353,1,80,4|0,0:0|0:0,0:0:0:0:
180,356,39733,2,0,P|213:379|252:379,1,80,8|0,0:0|0:0,0:0:0:0:
323,273,40067,1,2,0:0:0:0:
334,256,40233,1,2,0:0:0:0:
188,274,40400,1,8,0:0:0:0:
127,222,40566,5,2,0:0:0:0:
127,222,40649,1,0,0:0:0:0:
127,222,40733,1,2,0:0:0:0:
56,259,40899,1,0,0:0:0:0:
159,353,41066,2,0,L|237:366,1,80,8|0,0:0|0:0,0:0:0:0:
346,307,41399,1,2,0:0:0:0:
304,303,41566,1,0,0:0:0:0:
267,262,41733,1,8,0:0:0:0:
292,191,41899,5,0,0:0:0:0:
292,191,41983,1,2,0:3:0:0:
292,191,42066,2,0,P|345:162|385:170,1,80,2|0,0:0|0:0,0:0:0:0:
499,244,42399,2,0,P|446:215|406:223,1,80,8|0,0:0|0:0,0:0:0:0:
259,272,42733,2,0,P|205:189|234:128,1,160,2|8,0:0|0:0,0:0:0:0:
365,164,43233,5,2,0:0:0:0:
365,164,43316,1,0,0:0:0:0:
365,164,43399,2,0,L|378:68,1,80,0|2,0:0|0:0,0:0:0:0:
450,32,43650,1,0,0:0:0:0:
450,32,43733,2,0,L|460:100,1,40,8|0,0:0|0:0,0:0:0:0:
426,221,43899,2,0,P|365:209|296:246,1,120,6|0,0:0|0:0,0:0:0:0:
312,229,44233,1,0,0:0:0:0:
264,292,44399,1,8,0:3:0:0:
186,272,44566,1,4,0:3:0:0:
262,159,44733,6,0,P|303:143|363:160,1,80,6|0,0:0|0:0,0:0:0:0:
471,227,45066,2,0,P|422:229|383:200,1,80,8|0,0:0|0:0,0:0:0:0:
383,76,45399,1,2,0:0:0:0:
466,93,45566,1,0,0:0:0:0:
383,76,45733,1,8,0:0:0:0:
298,59,45899,1,4,0:3:0:0:
237,120,46066,6,0,B|206:113|180:132|180:132|150:115|105:125,1,120,4|0,0:3|0:0,0:0:0:0:
121,122,46399,1,8,0:0:0:0:
68,53,46566,2,0,P|31:107|78:195,1,160,2|0,0:0|0:0,0:0:0:0:
205,217,47066,1,8,0:3:0:0:
129,259,47233,1,4,0:3:0:0:
129,259,47316,1,4,0:3:0:0:
129,259,47399,6,0,P|142:307|107:375,1,120,2|0,0:0|0:0,0:0:0:0:
114,368,47733,2,0,P|154:347|197:361,1,80,8|0,0:0|0:0,0:0:0:0:
275,384,48066,2,0,P|276:338|305:304,1,80,2|0,0:0|0:0,0:0:0:0:
428,326,48399,1,8,0:0:0:0:
358,369,48566,1,0,0:0:0:0:
334,238,48733,6,0,B|365:227|389:244|389:244|406:238|406:238|432:254|483:231,1,120,2|4,0:0|0:3,0:0:0:0:
448,242,49066,1,4,0:3:0:0:
441,157,49233,2,0,P|448:76|511:44,1,160,0|2,0:0|0:0,0:0:0:0:
367,42,49733,1,8,0:0:0:0:
305,90,49899,1,8,0:3:0:0:
305,90,49983,1,4,0:3:0:0:
305,90,50066,6,0,P|292:138|327:206,1,120,6|0,0:0|0:0,0:0:0:0:
319,199,50399,1,8,0:0:0:0:
381,138,50566,1,0,0:0:0:0:
340,272,50733,2,0,P|338:226|310:192,1,80,2|0,0:0|0:0,0:0:0:0:
176,220,51066,1,8,0:0:0:0:
254,258,51233,1,4,0:3:0:0:
117,278,51399,6,0,L|-5:250,1,120,4|0,0:3|0:0,0:0:0:0:
0,251,51733,1,8,0:0:0:0:
57,98,51899,2,0,P|83:217|64:241,1,160,0|4,0:0|0:3,0:0:0:0:
5,173,52399,1,8,0:3:0:0:
57,98,52566,1,4,0:3:0:0:
57,98,52649,1,4,0:3:0:0:
57,98,52733,6,0,P|105:111|173:76,1,120,2|0,0:0|0:0,0:0:0:0:
167,83,53066,1,8,0:0:0:0:
105,22,53233,1,0,0:0:0:0:
239,62,53400,2,0,P|193:63|159:92,1,80,2|0,0:0|0:0,0:0:0:0:
200,231,53733,1,8,0:0:0:0:
225,149,53900,1,0,0:0:0:0:
117,245,54066,6,0,L|0:221,1,120,4|0,0:3|0:0,0:0:0:0:
140,168,54400,1,8,0:0:0:0:
170,312,54566,2,0,B|207:334|245:314|245:314|286:298|324:319,1,160,0|2,0:0|0:0,0:0:0:0:
389,374,55066,1,8,0:3:0:0:
370,249,55233,1,4,0:3:0:0:
370,249,55316,1,4,0:3:0:0:
370,249,55399,5,4,0:0:0:0:
460,137,56066,1,2,0:0:0:0:
383,23,56399,1,0,0:0:0:0:
152,100,56899,5,0,0:0:0:0:
215,219,57066,1,2,0:0:0:0:
290,191,57399,1,0,0:0:0:0:
363,222,57733,1,2,0:0:0:0:
436,195,58066,1,2,0:0:0:0:
436,195,58566,5,4,0:0:0:0:
359,53,58899,1,4,0:0:0:0:
339,48,58982,1,4,0:3:0:0:
319,44,59065,1,8,0:3:0:0:
300,40,59149,1,8,0:3:0:0:
280,35,59232,1,4,0:0:0:0:
154,72,59566,5,4,0:0:0:0:
117,167,59899,1,4,0:0:0:0:
163,242,60233,1,4,0:0:0:0:
237,266,60733,6,0,P|297:248|352:269,1,120,6|0,0:0|0:0,0:0:0:0:
416,329,61399,2,0,L|439:276,1,40,2|0,0:0|0:0,0:0:0:0:
415,213,61733,1,2,0:0:0:0:
397,135,61899,1,2,0:0:0:0:
317,110,62066,6,0,P|359:60|399:53,1,90.0000034332277,2|0,0:0|0:0,0:0:0:0:
380,53,62399,1,2,0:0:0:0:
486,144,62566,2,0,L|387:134,1,90.0000034332277,2|0,0:0|0:0,0:0:0:0:
396,134,62899,1,2,0:0:0:0:
281,191,63066,1,2,0:0:0:0:
203,173,63233,1,2,0:0:0:0:
35,109,63399,5,4,0:0:0:0:
138,235,63566,1,4,0:0:0:0:
138,234,63899,5,4,0:0:0:0:
187,86,64066,1,4,0:0:0:0:
187,86,64399,5,4,0:0:0:0:
55,200,64566,1,4,0:0:0:0:
55,200,64899,5,4,0:0:0:0:
204,171,65066,1,4,0:0:0:0:
204,171,65399,5,4,0:0:0:0:
108,52,65566,1,4,0:0:0:0:
55,200,65733,5,8,0:3:0:0:
56,217,65816,1,8,0:3:0:0:
58,235,65899,1,4,0:3:0:0:
60,253,65983,1,4,0:3:0:0:
62,271,66066,1,4,0:0:0:0:
120,137,66233,1,4,0:0:0:0:
120,138,66566,5,4,0:0:0:0:
217,260,66733,1,4,0:0:0:0:
217,260,67066,5,4,0:0:0:0:
53,199,67233,1,4,0:0:0:0:
53,199,67566,5,4,0:0:0:0:
204,175,67733,1,4,0:0:0:0:
204,175,68066,5,4,0:0:0:0:
154,319,68233,1,4,0:0:0:0:
53,199,68399,5,8,0:3:0:0:
52,182,68482,1,8,0:3:0:0:
50,164,68565,1,4,0:3:0:0:
48,146,68649,1,4,0:3:0:0:
46,128,68733,2,0,P|83:103|127:107,1,80,2|0,0:0|0:0,0:0:0:0:
214,166,69066,6,0,P|194:169|175:165,3,40,2|0|0|0,0:0|0:0|0:0|0:0,0:0:0:0:
195,86,69399,2,0,P|203:67|217:53,3,40,2|0|0|0,0:0|0:0|0:0|0:0,0:0:0:0:
277,109,69733,2,0,P|288:125|294:144,3,40,2|0|0|0,0:0|0:0|0:0|0:0,0:0:0:0:
278,229,70066,6,0,L|415:211,1,120,2|0,0:0|0:0,0:0:0:0:
475,199,70399,2,0,L|370:176,1,107.999996704102,2|0,0:0|0:0,0:0:0:0:
294,144,70733,6,0,P|272:69|330:13,1,155.999992858887,4|0,0:0|0:0,0:0:0:0:
319,16,71066,2,0,P|265:72|187:50,1,155.999992858887,4|0,0:0|0:0,0:0:0:0:
194,57,71399,5,4,0:0:0:0:
129,160,71566,2,0,L|99:27,1,120,0|0,0:0|0:0,0:0:0:0:
102,42,71899,1,2,0:0:0:0:
129,160,72066,1,2,0:0:0:0:
16,256,72233,2,0,L|43:139,1,120,0|0,0:0|0:0,0:0:0:0:
43,139,72566,1,0,0:0:0:0:
108,238,72733,5,2,0:0:0:0:
185,206,72899,1,0,0:0:0:0:
185,206,73066,1,8,0:0:0:0:
256,249,73233,1,0,0:0:0:0:
256,249,73399,1,2,0:0:0:0:
322,208,73566,1,2,0:0:0:0:
270,327,73733,1,8,0:0:0:0:
383,274,73899,1,0,0:0:0:0:
383,274,73983,1,2,0:3:0:0:
383,274,74066,5,2,0:0:0:0:
423,106,74233,2,0,L|453:239,1,120,0|0,0:0|0:0,0:0:0:0:
450,224,74566,1,0,0:0:0:0:
245,168,74733,1,2,0:0:0:0:
285,0,74900,2,0,L|315:133,1,120,0|0,0:0|0:0,0:0:0:0:
312,118,75233,1,2,0:0:0:0:
322,208,75400,5,2,0:0:0:0:
245,168,75566,1,0,0:0:0:0:
245,168,75733,1,8,0:0:0:0:
179,218,75899,1,0,0:0:0:0:
179,218,76066,1,2,0:0:0:0:
113,259,76233,1,0,0:0:0:0:
165,140,76400,1,8,0:3:0:0:
59,211,76566,1,4,0:3:0:0:
59,211,76650,1,4,0:3:0:0:
59,211,76733,5,6,0:0:0:0:
179,218,76899,1,0,0:0:0:0:
86,133,77066,2,0,P|81:78|103:44,1,80,8|0,0:0|0:0,0:0:0:0:
173,21,77399,1,2,0:0:0:0:
306,75,77566,2,0,P|241:118|164:103,1,160,0|0,0:0|0:0,0:0:0:0:
91,57,78066,5,2,0:0:0:0:
152,187,78233,1,0,0:0:0:0:
152,187,78316,1,0,0:0:0:0:
152,187,78399,1,8,0:0:0:0:
68,287,78566,2,0,P|60:248|70:210,1,80,0|2,0:0|0:0,0:0:0:0:
146,307,78899,2,0,P|154:345|144:384,1,80,2|8,0:0|0:0,0:0:0:0:
33,359,79233,1,0,0:0:0:0:
33,359,79316,1,2,0:3:0:0:
33,359,79399,5,2,0:0:0:0:
146,307,79566,1,0,0:0:0:0:
40,212,79733,1,8,0:0:0:0:
68,287,79899,1,2,0:0:0:0:
100,149,80066,1,2,0:0:0:0:
95,119,80150,1,4,0:3:0:0:
91,89,80233,1,4,0:3:0:0:
87,59,80316,1,4,0:3:0:0:
82,30,80399,1,4,0:3:0:0:
184,107,80566,6,0,P|250:117|300:60,1,120,4|0,0:0|0:0,0:0:0:0:
288,86,80899,2,0,P|246:138|270:210,1,120,4|0,0:0|0:0,0:0:0:0:
252,187,81233,1,4,0:0:0:0:
317,301,81399,2,0,P|332:262|320:203,1,80,4|2,0:0|0:0,0:0:0:0:
199,256,81733,2,0,L|128:250,1,60.0000022888184,8|4,0:3|0:3,0:0:0:0:
252,187,82066,5,6,0:0:0:0:
153,124,82233,2,0,L|286:94,1,120,0|0,0:0|0:0,0:0:0:0:
271,97,82566,1,0,0:0:0:0:
153,124,82733,1,2,0:0:0:0:
22,13,82900,2,0,L|139:40,1,120,2|0,0:0|0:0,0:0:0:0:
139,40,83233,1,0,0:0:0:0:
18,97,83400,5,2,0:0:0:0:
78,165,83566,1,0,0:0:0:0:
78,165,83733,1,8,0:0:0:0:
153,124,83900,1,0,0:0:0:0:
153,124,84066,1,2,0:0:0:0:
138,39,84233,1,0,0:0:0:0:
236,141,84400,1,8,0:0:0:0:
226,10,84566,1,2,0:0:0:0:
226,10,84650,1,0,0:0:0:0:
226,10,84733,5,2,0:0:0:0:
398,44,84900,2,0,L|281:71,1,120,0|0,0:0|0:0,0:0:0:0:
281,71,85233,1,0,0:0:0:0:
392,201,85399,1,2,0:0:0:0:
220,235,85566,2,0,L|337:261,1,120,2|0,0:0|0:0,0:0:0:0:
337,262,85899,1,0,0:0:0:0:
341,131,86067,5,2,0:0:0:0:
264,171,86233,1,0,0:0:0:0:
264,171,86400,1,8,0:0:0:0:
198,121,86567,1,2,0:0:0:0:
198,121,86733,1,2,0:0:0:0:
132,80,86900,1,4,0:3:0:0:
184,199,87067,1,8,0:3:0:0:
62,138,87233,1,4,0:3:0:0:
62,138,87317,1,4,0:3:0:0:
62,138,87399,6,0,L|45:268,1,120.000004577637,4|8,0:0|0:3,0:0:0:0:
94,321,87899,1,4,0:3:0:0:
168,298,88066,2,0,P|147:262|125:249,2,60.0000022888184,8|0|2,0:0|0:0|0:0,0:0:0:0:
242,358,88566,5,8,0:3:0:0:
242,358,88649,1,0,0:0:0:0:
242,358,88733,2,0,P|271:353|295:336,1,60.0000022888184,0|0,1:0|0:0,0:0:0:0:
331,265,88982,1,4,0:3:0:0:
331,265,89066,2,0,P|370:267|403:295,1,60.0000022888184,0|4,0:0|0:3,0:0:0:0:
408,353,89399,1,8,0:0:0:0:
512,219,89566,2,0,L|452:229,1,60.0000022888184,0|2,0:0|0:0,0:0:0:0:
331,265,89899,5,4,0:0:0:0:
331,265,89982,1,0,0:0:0:0:
331,265,90066,1,2,0:0:0:0:
245,244,90232,1,0,0:0:0:0:
163,223,90399,1,0,1:0:0:0:
87,207,90566,1,0,1:0:0:0:
87,207,90649,1,0,0:0:0:0:
87,207,90732,1,8,0:3:0:0:
224,164,90899,5,4,0:3:0:0:
103,287,91066,1,4,0:0:0:0:
118,70,91232,1,4,0:0:0:0:
224,0,92066,6,0,P|193:61|180:19,1,160,2|8,0:0|0:3,0:0:0:0:
317,80,92733,6,0,P|324:137|343:161,1,80,4|0,0:0|0:0,0:0:0:0:
483,109,93067,2,0,P|444:91|400:92,1,80,8|0,0:0|0:0,0:0:0:0:
273,210,93400,1,2,0:0:0:0:
202,151,93567,1,0,0:0:0:0:
202,151,93650,1,0,0:0:0:0:
202,151,93733,1,8,0:0:0:0:
135,194,93900,1,0,0:0:0:0:
273,210,94067,5,2,0:0:0:0:
342,161,94233,2,0,P|356:229|309:288,1,143.999995605469,0|0,0:0|0:0,0:0:0:0:
158,335,94733,1,2,0:0:0:0:
158,335,94817,1,0,0:0:0:0:
158,335,94900,1,0,0:0:0:0:
52,250,95067,2,0,L|140:261,1,80,8|0,0:0|0:0,0:0:0:0:
219,287,95317,5,2,0:3:0:0:
219,287,95400,2,0,P|221:244|245:206,1,80,2|0,0:0|0:0,0:0:0:0:
283,63,95733,2,0,P|307:99|309:143,1,80,8|0,0:0|0:0,0:0:0:0:
177,153,96067,1,2,0:0:0:0:
196,72,96233,1,0,0:0:0:0:
244,206,96400,1,8,0:0:0:0:
98,180,96566,1,0,0:0:0:0:
196,72,96733,5,2,0:0:0:0:
177,153,96899,1,0,0:0:0:0:
345,135,97066,2,0,L|257:123,1,80,8|0,0:0|0:0,0:0:0:0:
196,72,97399,1,2,0:0:0:0:
196,72,97483,1,0,0:0:0:0:
196,72,97567,1,0,0:0:0:0:
244,206,97733,2,0,P|244:233|227:268,3,40,8|0|0|0,0:0|0:0|0:0|0:0,0:0:0:0:
167,227,98066,6,0,P|219:232|251:276,1,80,6|0,0:0|0:0,0:0:0:0:
391,337,98400,2,0,P|338:331|309:285,1,80,8|0,0:0|0:0,0:0:0:0:
367,178,98733,1,2,0:0:0:0:
277,176,98900,1,0,0:0:0:0:
277,176,98983,1,0,0:0:0:0:
277,176,99067,1,8,0:0:0:0:
326,103,99233,1,0,0:0:0:0:
186,129,99400,5,2,0:0:0:0:
104,166,99567,2,0,P|107:82|189:38,1,160
216,201,100066,1,2,0:0:0:0:
216,201,100150,1,0,0:0:0:0:
216,201,100233,2,0,L|235:198,4,20,0|0|0|4|0,0:0|0:0|0:0|0:0|0:0,0:0:0:0:
320,79,100567,5,4,0:0:0:0:
209,215,102733,6,0,B|253:177|303:214|303:214|356:250|408:205,1,200,4|0,0:0|0:0,0:0:0:0:
393,215,103233,1,4,0:0:0:0:
256,192,103316,12,0,110733,0:0:0:0:
