osu file format v14

[General]
AudioFilename: audio.mp3
AudioLeadIn: 0
PreviewTime: 70644
Countdown: 0
SampleSet: Soft
StackLeniency: 0.7
Mode: 0
LetterboxInBreaks: 0
WidescreenStoryboard: 0

[Editor]
DistanceSpacing: 0.8
BeatDivisor: 4
GridSize: 16
TimelineZoom: 2.5

[Metadata]
Title:INFINITI MOFULITY (Short Ver.)
TitleUnicode:いんふぃにてぃ もふりてぃ (Short Ver.)
Artist:Nanahira x Camellia
ArtistUnicode:ななひら×かめりあ
Creator:Moa
Version:Mofu Loli
Source:もふもふな放課後
Tags:p19 narutaki cao. c93 japanese もふかごプロジェクト mofukago project Riana Kawashiro UnLock- j-pop jpop pop
BeatmapID:1650657
BeatmapSetID:786320

[Difficulty]
HPDrainRate:6
CircleSize:4.2
OverallDifficulty:8
ApproachRate:9.2
SliderMultiplier:2
SliderTickRate:1

[Events]
//Background and Video events
0,0,"5488.jpg",0,0
//Break Periods
2,55599,57996
//Storyboard Layer 0 (Background)
//Storyboard Layer 1 (Fail)
//Storyboard Layer 2 (Pass)
//Storyboard Layer 3 (Foreground)
//Storyboard Layer 4 (Overlay)
//Storyboard Sound Samples

[TimingPoints]
3400,333.333333333333,4,2,0,60,1,0
14233,-200,4,2,0,60,0,0
14399,-100,4,2,0,60,0,0
15399,-90.9090909090909,4,2,0,60,0,0
17733,-66.6666666666667,4,2,0,60,0,0
18066,-90.9090909090909,4,2,0,60,0,0
20399,-66.6666666666667,4,2,0,60,0,0
20649,-90.9090909090909,4,2,0,60,0,0
25066,-500,4,2,0,60,0,0
26066,-100,4,2,0,60,0,0
60233,-200,4,2,0,60,0,0
60733,-100,4,2,0,40,0,0
63399,-100,4,2,0,60,0,0
68733,-200,4,2,0,40,0,0
70066,-129.87012987013,4,2,0,40,0,0
70399,-90.0900900900901,4,2,0,50,0,0
70733,-66.6666666666667,4,2,0,60,0,0
71399,-90.9090909090909,4,2,0,70,0,1
80566,-90.9090909090909,4,2,0,70,0,0
82066,-90.9090909090909,4,2,0,70,0,1
87399,-100,4,2,0,60,0,1
91233,-100,4,2,0,60,0,0
91566,-200,4,2,0,60,0,0
91899,-100,4,2,0,60,0,0
95066,-66.6666666666667,4,2,0,60,0,0
95316,-100,4,2,0,60,0,0
96066,-90.9090909090909,4,2,0,60,0,0
97732,-66.6666666666667,4,2,0,60,0,0
98066,-100,4,2,0,60,0,0
102733,-133.333333333333,4,2,0,60,0,0
108733,-133.333333333333,4,2,0,40,0,0
109066,-133.333333333333,4,2,0,30,0,0
109399,-133.333333333333,4,2,0,20,0,0
109733,-133.333333333333,4,2,0,10,0,0
110066,-133.333333333333,4,2,0,5,0,0

[Colours]
Combo1 : 128,255,255
Combo2 : 255,255,0
Combo3 : 255,128,128
Combo4 : 255,128,0

[HitObjects]
96,181,4066,6,0,P|148:124|225:142,1,150,6|0,0:0|0:0,0:0:0:0:
321,221,4399,2,0,L|165:201,1,150,6|0,0:0|0:0,0:0:0:0:
14,164,4733,5,6,0:0:0:0:
157,276,4899,2,0,P|206:274|239:237,1,100,2|8,0:0|0:0,0:0:0:0:
96,181,5233,1,0,0:0:0:0:
157,276,5399,1,2,0:0:0:0:
297,178,5566,2,0,P|249:153|178:187,1,100,2|8,0:0|0:0,0:0:0:0:
301,302,5899,1,4,0:0:0:0:
391,147,6066,5,2,0:0:0:0:
391,147,6233,2,0,B|379:53|379:53|345:9,1,150,6|0,0:0|0:0,0:0:0:0:
307,91,6566,2,0,P|378:94|429:35,1,150,6|0,0:0|0:0,0:0:0:0:
345,9,6899,2,0,P|274:6|223:65,1,150,6|0,0:0|0:0,0:0:0:0:
239,197,7233,2,0,L|237:147,1,50
307,91,7399,5,6,0:0:0:0:
285,264,7566,2,0,P|224:282|181:251,1,100,2|8,0:0|0:0,0:0:0:0:
359,180,7899,1,0,0:0:0:0:
239,197,8066,1,2,0:0:0:0:
439,241,8233,2,0,P|463:180|425:112,1,100,2|8,0:0|0:0,0:0:0:0:
373,307,8566,1,4,0:0:0:0:
353,104,8733,5,0,0:0:0:0:
353,104,8899,2,0,L|190:114,1,150,6|0,0:0|0:0,0:0:0:0:
214,194,9233,2,0,P|273:158|272:78,1,150,6|0,0:0|0:0,0:0:0:0:
189,33,9566,2,0,P|130:69|131:149,1,150,6|0,0:0|0:0,0:0:0:0:
214,194,9899,2,0,L|273:189,1,50
157,278,10066,5,6,0:0:0:0:
343,237,10233,1,0,0:0:0:0:
343,237,10316,1,0,0:0:0:0:
343,237,10399,2,0,P|359:178|315:117,1,100,8|4,3:0|3:0,0:0:0:0:
189,33,10733,1,8,0:0:0:0:
245,160,10899,1,0,0:0:0:0:
322,40,11066,1,2,0:0:0:0:
242,235,11233,1,8,0:3:0:0:
242,235,11399,6,0,L|249:63,2,150,0|4|4,1:0|0:3|3:0,0:0:0:0:
189,33,12066,2,0,P|229:6|321:56,1,150,8|0,0:0|0:0,0:0:0:0:
248,85,12399,1,2,0:0:0:0:
110,33,12566,5,4,0:0:0:0:
130,179,12733,1,2,0:0:0:0:
248,85,12899,1,0,0:0:0:0:
52,117,13066,2,0,L|-14:111,1,50,0|0,1:0|0:0,0:0:0:0:
229,183,13233,2,0,L|295:177,1,50,0|0,1:0|0:0,0:0:0:0:
68,263,13399,2,0,L|24:261,7,25,8|0|8|0|4|0|4|0,0:3|0:0|0:3|0:0|0:3|0:0|0:3|0:0,0:0:0:0:
91,264,13733,1,4,0:0:0:0:
229,183,13899,6,0,P|157:169|192:237,1,150,4|0,0:0|0:0,0:0:0:0:
228,261,14233,6,0,L|286:255,1,50,2|0,0:0|0:0,0:0:0:0:
385,224,14566,6,0,L|434:229,1,50,2|0,0:0|0:0,0:0:0:0:
229,183,14733,1,0,0:0:0:0:
211,146,14816,1,0,0:0:0:0:
211,106,14899,1,0,0:0:0:0:
231,71,14983,1,0,0:0:0:0:
202,99,15066,5,8,0:3:0:0:
195,138,15149,1,8,0:3:0:0:
207,176,15233,1,4,0:3:0:0:
232,206,15316,1,4,0:3:0:0:
269,219,15399,6,0,L|444:212,1,165.000005035401,6|0,0:0|0:0,0:0:0:0:
332,271,15733,2,0,P|280:305|209:269,1,110.000003356934,8|0,0:0|0:0,0:0:0:0:
127,231,16066,1,2,0:0:0:0:
269,219,16233,1,0,0:0:0:0:
38,238,16399,1,8,0:0:0:0:
358,212,16566,1,2,0:0:0:0:
157,325,16733,5,2,0:0:0:0:
309,136,16899,1,0,0:0:0:0:
309,136,16983,1,0,0:0:0:0:
309,136,17066,2,0,P|372:118|419:150,1,110.000003356934,8|0,0:0|0:0,0:0:0:0:
235,296,17399,2,0,L|214:112,1,165.000005035401,2|0,0:0|0:0,0:0:0:0:
358,212,17733,6,0,L|339:375,1,150.000005722046,8|0,0:0|0:0,0:0:0:0:
235,296,17983,1,2,0:3:0:0:
235,296,18066,6,0,P|146:278|110:362,1,165.000005035401,2|0,0:0|0:0,0:0:0:0:
235,296,18399,2,0,B|236:138,1,110.000003356934,8|0,0:0|0:0,0:0:0:0:
237,9,18733,1,2,0:0:0:0:
237,97,18899,1,0,0:0:0:0:
383,27,19066,1,8,0:0:0:0:
161,53,19233,1,0,0:0:0:0:
354,119,19399,5,2,0:0:0:0:
131,55,19566,1,0,0:0:0:0:
131,55,19649,1,0,0:0:0:0:
131,55,19733,2,0,L|-15:74,1,110.000003356934,8|0,0:0|0:0,0:0:0:0:
174,138,20066,2,0,P|225:82|200:-3,1,165.000005035401,2|0,0:0|0:0,0:0:0:0:
228,79,20399,6,0,L|239:277,1,150.000005722046,8|0,0:0|0:0,0:0:0:0:
357,174,20649,1,2,0:3:0:0:
357,174,20733,6,0,P|282:162|243:262,1,165.000005035401,2|0,0:0|0:0,0:0:0:0:
366,283,21066,2,0,L|354:149,1,110.000003356934,8|0,0:0|0:0,0:0:0:0:
375,370,21399,1,2,0:0:0:0:
235,228,21566,1,0,0:0:0:0:
366,283,21733,1,8,0:0:0:0:
166,295,21900,1,0,0:0:0:0:
328,191,22066,5,2,0:0:0:0:
128,203,22233,1,0,0:0:0:0:
128,203,22316,1,0,0:0:0:0:
128,203,22399,2,0,L|254:197,1,110.000003356934,8|0,0:0|0:0,0:0:0:0:
89,123,22733,2,0,L|161:119,1,55.0000016784668,2|0,0:0|0:0,0:0:0:0:
55,44,22899,2,0,L|103:41,3,27.5000008392334
116,39,23066,1,12,0:0:0:0:
225,107,23233,6,0,P|236:215|214:303,1,165.000005035401,4|0,0:0|0:0,0:0:0:0:
246,115,23566,2,0,P|257:174|253:233,2,110.000003356934,2|8|0,0:0|0:0|0:0,0:0:0:0:
133,263,24066,1,2,0:0:0:0:
280,216,24233,1,0,0:0:0:0:
112,269,24399,1,8,0:0:0:0:
301,211,24566,1,0,0:0:0:0:
110,116,24733,5,8,0:3:0:0:
83,150,24816,1,8,0:3:0:0:
76,193,24899,1,4,0:3:0:0:
84,236,24983,1,4,0:3:0:0:
112,269,25066,2,0,L|212:273,1,100,4|0,0:0|0:0,0:0:0:0:
416,224,26066,6,0,L|312:228,1,100,6|0,0:0|0:0,0:0:0:0:
484,272,26399,2,0,P|498:212|459:153,1,100,8|0,0:0|0:0,0:0:0:0:
429,344,26733,1,2,0:0:0:0:
338,155,26899,1,0,0:0:0:0:
416,224,27066,1,8,0:0:0:0:
223,205,27233,1,2,0:0:0:0:
390,80,27399,6,0,L|516:85,1,100,2|0,0:0|0:0,0:0:0:0:
254,122,27733,2,0,P|186:123|145:184,1,100,8|0,0:0|0:0,0:0:0:0:
346,254,28066,2,0,L|337:142,1,100,2|0,0:0|0:0,0:0:0:0:
290,314,28399,2,0,P|352:339|399:317,1,100,8|0,0:0|0:0,0:0:0:0:
481,190,28649,1,2,0:3:0:0:
481,190,28733,6,0,L|493:309,1,100,2|0,0:0|0:0,0:0:0:0:
396,73,29066,2,0,L|384:192,1,100,8|0,0:0|0:0,0:0:0:0:
364,348,29399,1,2,0:0:0:0:
377,261,29566,1,0,0:0:0:0:
457,359,29733,1,8,0:0:0:0:
294,294,29899,1,0,0:0:0:0:
462,227,30066,6,0,P|467:172|447:111,1,100,2|0,0:0|0:0,0:0:0:0:
365,14,30399,1,8,0:0:0:0:
385,172,30566,1,0,0:0:0:0:
461,17,30733,2,0,P|397:5|330:34,1,100,2|0,0:0|0:0,0:0:0:0:
192,100,31066,2,0,P|256:112|323:83,1,100,8|0,0:0|0:0,0:0:0:0:
74,28,31316,1,2,0:3:0:0:
74,28,31399,6,0,L|79:176,1,100,2|0,0:0|0:0,0:0:0:0:
85,330,31733,1,8,0:0:0:0:
81,226,31899,1,0,0:0:0:0:
0,282,32066,1,2,0:0:0:0:
197,267,32233,1,0,0:0:0:0:
0,282,32399,1,8,0:0:0:0:
177,353,32566,1,0,0:0:0:0:
165,183,32733,6,0,L|168:83,1,100,2|0,0:0|0:0,0:0:0:0:
230,236,33066,2,0,P|175:272|118:253,1,100,8|0,0:0|0:0,0:0:0:0:
246,154,33399,2,0,B|285:142|285:142|383:149,1,100,2|0,0:0|0:0,0:0:0:0:
496,186,33733,2,0,P|441:209|382:193,1,100,8|0,0:0|0:0,0:0:0:0:
246,154,33983,1,2,0:3:0:0:
246,154,34066,6,0,P|234:96|266:37,1,100,2|0,0:0|0:0,0:0:0:0:
322,226,34399,2,0,L|318:344,1,100,8|0,0:0|0:0,0:0:0:0:
324,107,34733,1,2,0:0:0:0:
318,325,34899,1,0,0:0:0:0:
402,203,35066,1,8,0:0:0:0:
239,249,35233,1,0,0:0:0:0:
484,261,35399,5,2,0:0:0:0:
497,223,35483,1,0,0:0:0:0:
496,183,35566,1,0,0:0:0:0:
480,146,35649,1,0,0:0:0:0:
450,118,35733,2,0,L|453:37,1,50,8|0,0:0|0:0,0:0:0:0:
402,203,35899,2,0,L|403:252,1,50,2|0,0:0|0:0,0:0:0:0:
308,100,36066,6,0,L|311:19,1,50,2|0,0:0|0:0,0:0:0:0:
234,234,36233,2,0,L|235:283,1,50
135,81,36399,1,8,0:3:0:0:
135,81,36483,1,8,0:3:0:0:
135,81,36566,2,0,L|138:0,1,50,4|4,0:3|0:3,0:0:0:0:
38,263,36733,1,4,0:0:0:0:
38,263,37566,5,4,0:0:0:0:
88,186,37899,6,0,P|136:170|207:218,1,100,4|0,0:0|0:0,0:0:0:0:
133,332,38233,1,2,0:0:0:0:
133,332,38316,1,0,0:0:0:0:
133,332,38399,1,2,0:0:0:0:
9,221,38566,5,0,0:0:0:0:
5,196,38649,1,0,0:0:0:0:
8,160,38733,5,8,0:3:0:0:
24,129,38816,1,0,0:0:0:0:
50,105,38899,1,0,0:0:0:0:
83,93,38983,1,8,0:3:0:0:
127,101,39066,5,8,0:3:0:0:
164,126,39149,1,8,0:3:0:0:
208,135,39233,1,4,0:3:0:0:
251,125,39316,1,4,0:3:0:0:
288,99,39399,6,0,L|282:-4,1,100,4|0,0:0|0:0,0:0:0:0:
377,130,39733,2,0,P|344:181|286:193,1,100,8|0,0:0|0:0,0:0:0:0:
358,35,40066,2,0,P|413:35|458:88,2,100,2|2|8,0:0|0:0|0:0,0:0:0:0:
484,151,40566,1,2,0:0:0:0:
377,225,40733,6,0,P|364:167|393:110,1,100,2|0,0:0|0:0,0:0:0:0:
461,274,41066,1,8,0:0:0:0:
463,176,41233,1,0,0:0:0:0:
271,282,41399,2,0,P|335:285|372:262,1,100,2|0,0:0|0:0,0:0:0:0:
173,243,41733,2,0,L|168:122,1,100,8|0,0:0|0:0,0:0:0:0:
91,305,41983,1,2,0:3:0:0:
91,305,42066,6,0,L|42:304,3,50,2|0|0|0,0:0|0:0|0:0|0:0,0:0:0:0:
173,243,42399,2,0,P|234:230|305:264,1,100,8|0,0:0|0:0,0:0:0:0:
92,306,42733,2,0,L|88:190,2,100,2|2|8,0:0|0:0|0:0,0:0:0:0:
15,164,43233,6,0,P|66:116|158:167,1,150,2|0,0:0|0:0,0:0:0:0:
20,121,43566,2,0,P|70:90|145:122,1,100,2|8,0:0|0:0,0:0:0:0:
206,185,43899,5,6,0:0:0:0:
243,210,43983,1,0,0:0:0:0:
282,214,44066,1,2,0:0:0:0:
317,195,44149,1,0,0:0:0:0:
335,165,44233,5,0,0:0:0:0:
364,147,44316,1,0,0:0:0:0:
393,147,44399,1,8,0:3:0:0:
420,160,44483,1,8,0:3:0:0:
437,177,44566,5,4,0:3:0:0:
437,177,44649,1,4,0:3:0:0:
437,177,44733,2,0,P|456:229|437:295,1,100,6|0,0:0|0:0,0:0:0:0:
324,81,45066,2,0,P|385:66|450:96,1,100,8|0,0:0|0:0,0:0:0:0:
289,200,45316,1,2,0:3:0:0:
289,200,45399,2,0,L|282:128,2,50,2|0|0,0:0|0:0|0:0,0:0:0:0:
239,57,45733,1,8,0:0:0:0:
240,266,45899,1,4,0:3:0:0:
240,266,45983,1,4,0:3:0:0:
240,266,46066,6,0,P|310:281|351:239,1,100,4|2,0:3|0:0,0:0:0:0:
289,200,46399,1,8,0:0:0:0:
190,336,46566,1,2,0:0:0:0:
229,365,46649,1,0,0:0:0:0:
277,379,46733,1,2,0:0:0:0:
326,371,46816,1,2,0:0:0:0:
371,351,46899,1,0,0:0:0:0:
289,200,47066,2,0,L|227:213,1,50,8|8,0:3|0:3,0:0:0:0:
171,177,47233,2,0,L|122:166,1,50,4|4,0:3|0:3,0:0:0:0:
344,140,47399,6,0,P|371:190|330:260,1,100,2|0,0:0|0:0,0:0:0:0:
264,94,47733,2,0,P|302:53|381:67,1,100,8|0,0:0|0:0,0:0:0:0:
492,127,47983,1,2,0:3:0:0:
492,127,48066,2,0,L|427:122,2,50,2|0|0,0:0|0:0|0:0,0:0:0:0:
271,191,48399,2,0,L|413:182,1,100,8|0,0:0|0:0,0:0:0:0:
186,147,48733,5,2,0:0:0:0:
300,291,48899,1,4,0:3:0:0:
300,291,48983,1,4,0:3:0:0:
300,291,49066,1,4,0:3:0:0:
323,115,49233,1,0,0:0:0:0:
271,191,49399,1,2,0:0:0:0:
492,127,49566,1,2,0:0:0:0:
265,54,49733,1,8,0:0:0:0:
492,127,49899,1,8,0:3:0:0:
492,127,49983,1,4,0:3:0:0:
492,127,50066,6,0,L|365:135,1,100,6|0,0:0|0:0,0:0:0:0:
211,242,50399,2,0,P|288:269|329:239,1,100,8|0,0:0|0:0,0:0:0:0:
392,133,50649,1,2,0:3:0:0:
392,133,50733,2,0,L|398:207,2,50,2|0|0,0:0|0:0|0:0,0:0:0:0:
406,280,51066,1,8,0:0:0:0:
459,86,51233,1,4,0:3:0:0:
459,86,51316,1,4,0:3:0:0:
459,86,51399,6,0,P|400:46|360:56,1,100,4|2,0:3|0:0,0:0:0:0:
243,142,51733,1,8,0:0:0:0:
392,133,51899,1,0,0:0:0:0:
230,58,52066,1,4,0:3:0:0:
230,58,52149,1,4,0:3:0:0:
230,58,52233,1,4,0:3:0:0:
318,236,52399,2,0,L|325:171,1,50,8|8,0:3|0:3,0:0:0:0:
162,183,52566,2,0,L|167:232,1,50,4|4,0:3|0:3,0:0:0:0:
269,317,52733,6,0,P|321:333|378:304,1,100,2|0,0:0|0:0,0:0:0:0:
512,227,53066,2,0,L|396:231,1,100,8|0,0:0|0:0,0:0:0:0:
262,159,53316,1,2,0:3:0:0:
262,158,53399,2,0,L|311:155,2,50,2|0|0,0:0|0:0|0:0,0:0:0:0:
200,244,53733,2,0,P|156:186|161:126,1,100,8|0,0:0|0:0,0:0:0:0:
309,263,54066,5,4,0:3:0:0:
309,263,54149,1,4,0:3:0:0:
309,263,54233,1,4,0:3:0:0:
146,332,54399,2,0,L|31:325,1,100,8|0,0:0|0:0,0:0:0:0:
187,203,54733,6,0,L|260:195,1,50,2|0,0:0|0:0,0:0:0:0:
85,122,54899,2,0,L|35:116,1,50,2|0,0:0|0:0,0:0:0:0:
211,66,55066,1,8,0:3:0:0:
211,66,55149,1,8,0:3:0:0:
211,66,55233,2,0,L|284:58,1,50,4|4,0:3|0:3,0:0:0:0:
35,116,55399,5,4,0:0:0:0:
35,116,58566,5,4,0:0:0:0:
35,116,58899,2,0,L|59:112,6,25,4|0|4|0|8|0|8,0:0|0:0|0:3|0:0|0:3|0:0|0:3,0:0:0:0:
156,158,59233,5,4,0:0:0:0:
156,158,59566,5,4,0:0:0:0:
156,158,59899,5,4,0:0:0:0:
156,158,60233,6,0,P|231:149|269:181,1,125,4|0,0:0|0:0,0:0:0:0:
379,259,60733,6,0,L|245:255,1,100,6|0,0:0|0:0,0:0:0:0:
397,163,61066,2,0,L|496:160,1,100,2|0,0:0|0:0,0:0:0:0:
326,103,61399,1,2,0:0:0:0:
379,259,61566,1,0,0:0:0:0:
379,259,61649,1,0,0:0:0:0:
379,259,61733,1,2,0:0:0:0:
422,62,61899,1,2,0:0:0:0:
266,177,62066,6,0,L|166:171,1,100,2|0,0:0|0:0,0:0:0:0:
2,244,62399,2,0,P|58:252|109:212,1,100,2|2,0:0|0:0,0:0:0:0:
221,93,62733,1,0,0:0:0:0:
42,153,62900,1,2,0:0:0:0:
42,153,62983,1,0,0:0:0:0:
42,153,63067,1,2,0:0:0:0:
182,267,63233,1,2,0:0:0:0:
182,267,63399,5,4,0:0:0:0:
413,192,63566,1,4,0:0:0:0:
413,192,63900,5,4,0:0:0:0:
182,117,64066,1,4,0:0:0:0:
182,117,64399,5,4,0:0:0:0:
325,314,64566,1,4,0:0:0:0:
325,314,64899,5,4,0:0:0:0:
325,71,65066,1,4,0:0:0:0:
325,71,65399,5,4,0:0:0:0:
182,267,65566,1,4,0:0:0:0:
182,267,65733,2,0,L|247:275,1,50,8|8,0:3|0:3,0:0:0:0:
303,203,65899,2,0,L|352:196,1,50,4|4,0:3|0:3,0:0:0:0:
459,177,66066,5,4,0:0:0:0:
182,87,66233,1,4,0:0:0:0:
182,87,66566,5,4,0:0:0:0:
355,325,66733,1,4,0:0:0:0:
355,325,67066,5,4,0:0:0:0:
354,31,67233,1,4,0:0:0:0:
354,31,67566,5,4,0:0:0:0:
182,267,67733,1,4,0:0:0:0:
182,267,68066,5,4,0:0:0:0:
459,177,68233,1,4,0:0:0:0:
459,177,68399,2,0,L|373:170,1,50,8|8,0:3|0:3,0:0:0:0:
332,109,68566,2,0,L|282:113,1,50,4|4,0:3|0:3,0:0:0:0:
206,191,68733,6,0,L|112:179,1,75,2|0,0:0|0:0,0:0:0:0:
0,217,69066,2,0,P|34:242|69:241,1,75,2|0,0:0|0:0,0:0:0:0:
160,245,69399,6,0,P|155:208|131:181,1,75,2|0,0:0|0:0,0:0:0:0:
59,90,69733,2,0,L|57:177,1,75,2|0,0:0|0:0,0:0:0:0:
159,106,70066,6,0,P|193:89|276:122,1,115.499997708893,2|0,0:0|0:0,0:0:0:0:
335,176,70399,6,0,P|394:194|482:147,1,166.500004064941,2|0,0:0|0:0,0:0:0:0:
390,12,70733,6,0,P|353:93|438:67,1,225.000008583069,4|0,0:0|0:0,0:0:0:0:
212,129,71066,2,0,P|249:210|164:184,1,225.000008583069,4|0,0:0|0:0,0:0:0:0:
303,275,71399,6,0,P|365:292|414:258,1,110.000003356934,4|0,0:0|0:0,0:0:0:0:
212,129,71733,2,0,P|161:110|112:131,1,110.000003356934,8|2,0:0|0:0,0:0:0:0:
286,190,71983,1,0,0:0:0:0:
286,190,72066,1,2,0:0:0:0:
301,149,72149,1,0,0:0:0:0:
302,104,72233,1,0,0:0:0:0:
284,63,72316,1,0,0:0:0:0:
244,44,72399,2,0,P|326:68|412:25,1,165.000005035401,8|0,0:0|0:0,0:0:0:0:
469,197,72733,6,0,P|446:252|368:267,1,110.000003356934,2|0,0:0|0:0,0:0:0:0:
286,190,72983,1,2,0:3:0:0:
286,190,73066,2,0,L|397:197,1,110.000003356934,8|0,0:0|0:0,0:0:0:0:
218,267,73316,1,2,0:3:0:0:
218,267,73399,2,0,L|151:275,1,55.0000016784668,2|0,0:0|0:0,0:0:0:0:
0,194,73566,2,0,L|67:202,1,55.0000016784668,2|0,0:0|0:0,0:0:0:0:
272,108,73733,2,0,L|121:121,1,110.000003356934,8|0,0:0|0:0,0:0:0:0:
326,37,73983,1,2,0:3:0:0:
326,37,74066,6,0,P|363:95|345:155,1,110.000003356934,2|0,0:0|0:0,0:0:0:0:
218,267,74399,2,0,P|240:215|300:203,1,110.000003356934,8|0,0:0|0:0,0:0:0:0:
481,279,74649,1,0,0:0:0:0:
481,279,74732,1,2,0:0:0:0:
449,291,74816,1,0,0:0:0:0:
416,284,74899,1,0,0:0:0:0:
390,263,74982,1,0,0:0:0:0:
380,231,75066,1,8,0:0:0:0:
481,279,75233,1,2,0:0:0:0:
332,351,75399,6,0,L|185:346,1,110.000003356934,2|0,0:0|0:0,0:0:0:0:
20,211,75733,1,8,0:0:0:0:
49,185,75816,1,0,0:0:0:0:
87,180,75899,1,0,0:0:0:0:
120,199,75983,1,0,0:0:0:0:
147,226,76066,1,2,0:0:0:0:
185,229,76149,1,0,0:0:0:0:
221,216,76233,1,0,0:0:0:0:
242,184,76316,1,0,0:0:0:0:
235,146,76399,2,0,L|229:108,6,27.5000008392334,8|0|8|0|4|0|4,0:3|0:0|0:3|0:0|0:3|0:0|0:3,0:0:0:0:
169,73,76733,6,0,P|225:38|285:72,1,110.000003356934,6|0,0:0|0:0,0:0:0:0:
421,150,77066,2,0,L|280:145,1,110.000003356934,8|0,0:0|0:0,0:0:0:0:
456,66,77316,1,0,0:0:0:0:
456,66,77399,1,2,0:0:0:0:
488,87,77483,1,0,0:0:0:0:
508,119,77566,1,0,0:0:0:0:
510,157,77649,1,0,0:0:0:0:
500,194,77733,2,0,P|474:257|507:353,1,165.000005035401,8|2,0:0|0:3,0:0:0:0:
390,278,78066,6,0,P|329:258|260:312,1,110.000003356934,2|0,0:0|0:0,0:0:0:0:
97,342,78399,2,0,P|155:359|230:308,1,110.000003356934,8|0,0:0|0:0,0:0:0:0:
257,122,78649,1,2,0:3:0:0:
257,122,78733,2,0,L|238:203,1,55.0000016784668,2|0,0:0|0:0,0:0:0:0:
149,272,78899,2,0,L|136:218,1,55.0000016784668,2|0,0:0|0:0,0:0:0:0:
203,41,79066,2,0,P|251:21|331:82,1,110.000003356934,8|0,0:0|0:0,0:0:0:0:
465,140,79316,1,2,0:3:0:0:
465,140,79399,6,0,L|323:123,1,110.000003356934,2|0,0:0|0:0,0:0:0:0:
136,218,79733,2,0,P|207:229|255:178,1,110.000003356934,8|2,0:0|0:0,0:0:0:0:
355,126,79983,1,0,0:0:0:0:
355,126,80066,2,0,L|354:167,8,27.5000008392334,2|0|4|0|4|0|4|0|4,0:0|0:0|0:3|0:0|0:3|0:0|0:3|0:0|0:3,0:0:0:0:
348,347,80566,5,4,0:0:0:0:
352,237,80899,5,4,0:0:0:0:
355,126,81233,5,4,0:0:0:0:
261,181,81399,1,4,0:0:0:0:
352,237,81566,1,2,0:0:0:0:
447,69,81733,1,8,0:3:0:0:
420,41,81816,1,8,0:3:0:0:
385,23,81899,1,4,0:3:0:0:
346,23,81983,1,4,0:3:0:0:
309,34,82066,6,0,P|254:53|197:24,1,110.000003356934,6|0,0:0|0:0,0:0:0:0:
23,105,82399,2,0,P|78:86|135:115,1,110.000003356934,8|0,0:0|0:0,0:0:0:0:
261,151,82649,1,2,0:3:0:0:
261,151,82733,2,0,P|219:174|193:168,1,55.0000016784668,2|0,0:0|0:0,0:0:0:0:
211,258,82899,2,0,P|165:245|151:223,1,55.0000016784668,2|0,0:0|0:0,0:0:0:0:
23,105,83066,2,0,L|28:275,1,165.000005035401,8|2,0:0|0:3,0:0:0:0:
206,339,83399,6,0,P|280:309|280:247,1,110.000003356934,2|0,0:0|0:0,0:0:0:0:
213,64,83733,2,0,L|213:176,1,110.000003356934,8|0,0:0|0:0,0:0:0:0:
373,134,83983,1,2,0:3:0:0:
373,134,84066,2,0,L|371:205,2,55.0000016784668,2|0|0,0:0|0:0|0:0,0:0:0:0:
310,61,84399,1,8,0:0:0:0:
343,41,84483,1,0,0:0:0:0:
381,36,84566,1,2,0:0:0:0:
418,46,84649,1,0,0:0:0:0:
447,71,84733,6,0,L|457:223,1,110.000003356934,2|0,0:0|0:0,0:0:0:0:
336,323,85066,2,0,P|406:330|443:297,1,110.000003356934,8|0,0:0|0:0,0:0:0:0:
323,215,85316,1,2,0:3:0:0:
323,215,85399,2,0,L|241:225,1,55.0000016784668,2|0,0:0|0:0,0:0:0:0:
178,291,85566,2,0,L|123:284,1,55.0000016784668,2|0,0:0|0:0,0:0:0:0:
184,92,85733,2,0,L|188:244,1,110.000003356934,8|0,0:0|0:0,0:0:0:0:
126,36,85983,1,2,0:3:0:0:
126,36,86066,6,0,P|175:8|230:23,1,110.000003356934,2|0,0:0|0:0,0:0:0:0:
425,91,86399,1,8,0:0:0:0:
425,91,86483,1,0,0:0:0:0:
425,91,86566,2,0,L|325:97,1,55.0000016784668,2|0,0:0|0:0,0:0:0:0:
186,201,86733,1,2,0:0:0:0:
186,201,86817,1,0,0:0:0:0:
186,201,86900,2,0,L|286:207,1,55.0000016784668,4|0,0:3|0:0,0:0:0:0:
421,296,87066,2,0,L|382:299,6,27.5000008392334,8|0|8|0|4|0|4,0:3|0:0|0:3|0:0|0:3|0:0|0:3,0:0:0:0:
447,294,87399,6,0,L|234:284,1,200,4|8,0:0|0:3,0:0:0:0:
70,320,87816,1,2,0:3:0:0:
70,320,87899,2,0,P|134:324|168:298,1,100,4|8,0:3|0:0,0:0:0:0:
274,200,88233,1,0,0:0:0:0:
104,227,88399,1,2,0:0:0:0:
247,284,88566,1,8,0:3:0:0:
195,62,88733,6,0,L|190:214,2,150,0|4|4,1:0|0:3|0:3,0:0:0:0:
247,284,89399,2,0,P|305:300|349:273,1,100,8|0,0:0|0:0,0:0:0:0:
293,201,89733,1,2,0:0:0:0:
159,316,89899,5,4,0:0:0:0:
190,211,90066,1,2,0:0:0:0:
338,283,90233,1,0,0:0:0:0:
96,241,90399,2,0,L|9:232,1,50,0|0,1:0|0:0,0:0:0:0:
233,118,90566,2,0,L|320:109,1,50,0|0,1:0|0:0,0:0:0:0:
61,38,90733,2,0,L|17:35,7,25,8|0|8|0|4|0|4|0,0:3|0:0|0:3|0:0|0:3|0:0|0:3|0:0,0:0:0:0:
82,40,91066,1,4,0:0:0:0:
332,107,91233,6,0,L|150:128,1,150,4|0,0:0|0:0,0:0:0:0:
324,186,91566,6,0,P|358:184|385:159,1,50,2|0,0:0|0:0,0:0:0:0:
416,61,91899,6,0,L|418:144,1,50,2|0,0:0|0:0,0:0:0:0:
420,286,92066,1,2,0:0:0:0:
399,299,92149,1,0,0:0:0:0:
374,305,92233,1,0,0:0:0:0:
349,299,92316,1,0,0:0:0:0:
316,276,92399,1,8,0:3:0:0:
276,265,92483,1,8,0:3:0:0:
236,273,92566,1,4,0:3:0:0:
210,303,92649,1,4,0:3:0:0:
184,333,92733,6,0,P|119:353|55:290,1,150,4|0,0:0|0:0,0:0:0:0:
127,167,93066,2,0,L|134:308,1,100,8|0,0:0|0:0,0:0:0:0:
120,67,93399,1,2,0:0:0:0:
131,266,93566,1,0,0:0:0:0:
205,112,93733,1,8,0:0:0:0:
35,177,93899,1,0,0:0:0:0:
239,215,94066,5,2,0:0:0:0:
120,67,94233,1,0,0:0:0:0:
120,68,94316,1,0,0:0:0:0:
120,67,94399,2,0,L|129:205,1,100,8|0,0:0|0:0,0:0:0:0:
331,96,94733,2,0,P|251:73|202:117,1,150,2|0,0:0|0:0,0:0:0:0:
386,206,95066,6,0,P|466:229|515:185,1,150,8|0,0:0|0:0,0:0:0:0:
438,3,95316,5,2,0:3:0:0:
438,3,95399,2,0,L|444:166,1,150,2|0,0:0|0:0,0:0:0:0:
330,265,95733,2,0,P|288:255|231:283,1,100,8|0,0:0|0:0,0:0:0:0:
91,346,96066,1,2,0:0:0:0:
237,276,96233,1,0,0:0:0:0:
91,346,96399,1,8,0:0:0:0:
292,346,96566,1,0,0:0:0:0:
120,254,96732,5,2,0:0:0:0:
343,318,96899,1,0,0:0:0:0:
343,318,96982,1,0,0:0:0:0:
343,318,97066,2,0,L|489:299,1,110.000003356934,8|0,0:0|0:0,0:0:0:0:
300,235,97399,2,0,P|246:296|279:382,1,165.000005035401,2|0,0:0|0:0,0:0:0:0:
246,294,97732,6,0,L|235:96,1,150.000005722046,8|0,0:0|0:0,0:0:0:0:
121,186,97983,1,2,0:3:0:0:
121,186,98066,6,0,P|196:198|235:105,1,150,6|0,0:0|0:0,0:0:0:0:
112,86,98399,2,0,L|123:211,1,100,8|0,0:0|0:0,0:0:0:0:
104,3,98732,1,2,0:0:0:0:
239,145,98899,1,0,0:0:0:0:
112,86,99066,1,8,0:0:0:0:
308,78,99233,1,0,0:0:0:0:
146,182,99399,5,2,0:0:0:0:
346,170,99566,1,0,0:0:0:0:
346,170,99649,1,0,0:0:0:0:
346,170,99732,2,0,L|220:175,1,100,8|0,0:0|0:0,0:0:0:0:
385,250,100066,2,0,L|314:254,1,50,2|0,0:0|0:0,0:0:0:0:
419,329,100233,2,0,L|376:335,3,25
366,339,100399,1,4,0:0:0:0:
249,266,100566,6,0,P|238:158|258:72,1,150,4|0,0:0|0:0,0:0:0:0:
228,258,100899,2,0,P|217:199|223:142,2,100,2|8|0,0:0|0:0|0:0,0:0:0:0:
341,110,101399,1,2,0:0:0:0:
132,174,101566,1,0,0:0:0:0:
362,104,101732,1,8,0:0:0:0:
111,179,101899,1,0,0:0:0:0:
364,257,102066,5,8,0:3:0:0:
391,223,102149,1,8,0:3:0:0:
398,180,102232,1,4,0:3:0:0:
390,137,102316,1,4,0:3:0:0:
362,104,102399,2,0,L|205:97,1,150,4|0,0:0|0:0,0:0:0:0:
111,179,102733,6,0,B|120:222|153:235|153:235|185:220|193:172,1,150.000005722046,4|0,0:0|0:0,0:0:0:0:
88,102,103233,1,4,0:0:0:0:
256,192,103316,12,0,110733,0:0:0:0:
