osu file format v14

[General]
AudioFilename: audio.mp3
AudioLeadIn: 0
PreviewTime: 70644
Countdown: 0
SampleSet: Soft
StackLeniency: 0.3
Mode: 0
LetterboxInBreaks: 0
WidescreenStoryboard: 0

[Editor]
Bookmarks: 53455,85455
DistanceSpacing: 0.8
BeatDivisor: 4
GridSize: 32
TimelineZoom: 2.599999

[Metadata]
Title:INFINITI MOFULITY (Short Ver.)
TitleUnicode:いんふぃにてぃ もふりてぃ (Short Ver.)
Artist:Nanahira x Camellia
ArtistUnicode:ななひら×かめりあ
Creator:Moa
Version:Kawa's Hard
Source:もふもふな放課後
Tags:p19 narutaki cao. c93 japanese もふかごプロジェクト mofukago project Riana Kawashiro UnLock- j-pop jpop pop
BeatmapID:2979964
BeatmapSetID:786320

[Difficulty]
HPDrainRate:4
CircleSize:3.5
OverallDifficulty:6
ApproachRate:8
SliderMultiplier:1.2
SliderTickRate:1

[Events]
//Background and Video events
0,0,"kawa.jpg",0,0
//Break Periods
//Storyboard Layer 0 (Background)
//Storyboard Layer 1 (Fail)
//Storyboard Layer 2 (Pass)
//Storyboard Layer 3 (Foreground)
//Storyboard Layer 4 (Overlay)
//Storyboard Sound Samples

[TimingPoints]
3400,333.333333333333,4,2,0,60,1,0
14233,-100,4,2,0,60,0,0
14399,-100,4,2,0,60,0,0
15399,-100,4,2,0,60,0,0
17733,-100,4,2,0,60,0,0
18066,-100,4,2,0,60,0,0
20399,-100,4,2,0,60,0,0
20649,-100,4,2,0,60,0,0
25066,-100,4,2,0,60,0,0
26066,-100,4,2,0,60,0,0
60233,-100,4,2,0,60,0,0
60733,-100,4,2,0,40,0,0
62066,-200,4,2,0,40,0,0
63399,-100,4,2,0,60,0,0
68733,-100,4,2,0,40,0,0
70066,-100,4,2,0,40,0,0
70399,-100,4,2,0,50,0,0
70733,-100,4,2,0,60,0,0
71399,-100,4,2,0,70,0,0
87399,-100,4,2,0,60,0,0
91233,-100,4,2,0,60,0,0
91566,-100,4,2,0,60,0,0
91899,-100,4,2,0,60,0,0
95066,-100,4,2,0,60,0,0
95316,-100,4,2,0,60,0,0
96066,-100,4,2,0,60,0,0
97732,-100,4,2,0,60,0,0
98066,-100,4,2,0,60,0,0
102733,-100,4,2,0,60,0,0
108733,-100,4,2,0,40,0,0
109066,-100,4,2,0,30,0,0
109399,-100,4,2,0,20,0,0
109733,-100,4,2,0,10,0,0
110066,-100,4,2,0,5,0,0

[Colours]
Combo1 : 66,240,201
Combo2 : 253,77,231
Combo3 : 252,112,224
Combo4 : 147,244,230

[HitObjects]
54,384,4066,5,6,0:0:0:0:
54,384,4399,1,6,0:0:0:0:
54,384,4733,5,6,0:0:0:0:
126,322,4899,2,0,L|134:199,1,120,2|0,0:0|0:0,0:0:0:0:
133,202,5899,2,0,P|159:233|234:244,1,120,4|6,0:0|0:0,0:0:0:0:
396,139,6566,2,0,P|454:137|497:97,2,120,6|6|0,0:0|0:0|0:0,0:0:0:0:
328,70,7399,5,6,0:0:0:0:
256,132,7565,2,0,L|248:255,1,120,2|0,0:0|0:0,0:0:0:0:
248,251,8566,2,0,P|222:220|147:209,1,120,4|6,0:0|0:0,0:0:0:0:
15,349,9233,2,0,P|41:318|116:307,2,120,6|6|2,0:0|0:0|0:0,0:0:0:0:
54,212,10066,6,0,P|62:181|40:89,1,120,6|8,0:0|3:0,0:0:0:0:
112,27,10566,2,0,B|158:12|195:46|195:46|233:84|277:68,1,180,4|2,3:0|0:0,0:0:0:0:
364,28,11233,1,8,0:3:0:0:
446,76,11399,2,0,P|471:122|464:195,1,120,0|0,1:0|0:0,0:0:0:0:
473,281,11899,2,0,L|415:268,1,60,4|8,3:0|0:0,0:0:0:0:
435,362,12233,2,0,L|376:348,1,60,0|2,0:0|0:0,0:0:0:0:
207,377,12566,6,0,P|262:364|300:306,1,120,4|0,0:0|0:0,0:0:0:0:
243,236,13066,2,0,P|259:181|228:119,1,120,0|8,1:0|0:3,0:0:0:0:
150,80,13566,2,0,L|74:60,1,60,4|4,0:3|0:0,0:0:0:0:
0,44,13899,1,4,0:0:0:0:
0,44,14733,5,0,0:0:0:0:
0,44,15066,1,8,0:3:0:0:
0,44,15399,6,0,P|33:72|43:115,1,90,6|0,0:0|0:0,0:0:0:0:
41,137,15733,2,0,L|35:204,1,60,8|0,0:0|0:0,0:0:0:0:
168,271,16066,2,0,P|145:241|109:236,1,60,2|0,0:0|0:0,0:0:0:0:
55,301,16399,2,0,P|17:305|-4:334,1,60,8|2,0:0|0:0,0:0:0:0:
131,367,16733,5,2,0:0:0:0:
131,367,17066,2,0,L|213:374,1,60,8|0,0:0|0:0,0:0:0:0:
286,376,17399,2,0,P|331:356|351:308,1,90,2|0,0:0|0:0,0:0:0:0:
351,298,17733,2,0,L|349:236,1,60,8|0,0:0|0:0,0:0:0:0:
462,351,18066,6,0,L|471:248,1,90,2|0,0:0|0:0,0:0:0:0:
472,239,18399,2,0,P|458:195|438:183,1,60,8|0,0:0|0:0,0:0:0:0:
301,138,18733,2,0,L|368:128,1,60,2|0,0:0|0:0,0:0:0:0:
444,70,19066,2,0,L|511:80,1,60,8|0,0:0|0:0,0:0:0:0:
384,0,19399,5,2,0:0:0:0:
383,0,19733,2,0,P|374:28|352:47,1,60,8|0,0:0|0:0,0:0:0:0:
260,76,20066,2,0,L|154:71,1,90,2|2,0:0|0:0,0:0:0:0:
151,71,20399,1,8,0:0:0:0:
44,291,20733,6,0,L|150:286,1,90,2|0,0:0|0:0,0:0:0:0:
153,286,21066,2,0,P|179:254|182:221,1,60,8|0,0:0|0:0,0:0:0:0:
47,168,21399,2,0,P|70:198|106:203,1,60,2|0,0:0|0:0,0:0:0:0:
160,138,21732,2,0,P|197:133|219:104,1,60,8|0,0:0|0:0,0:0:0:0:
94,59,22066,5,2,0:0:0:0:
94,59,22399,2,0,L|89:-17,1,60,8|0,0:0|0:0,0:0:0:0:
208,112,22733,2,0,B|203:169|203:169|201:206|165:213,1,120,2|12,0:0|0:0,0:0:0:0:
11,149,23233,5,4,0:0:0:0:
12,148,25066,2,0,B|71:131|111:177|111:177|142:159|126:114|158:97|158:97|193:144|261:123,1,300,4|0,0:0|0:0,0:0:0:0:
326,83,26066,5,6,0:0:0:0:
466,214,26399,2,0,P|461:242|431:273,1,60,8|0,0:0|0:0,0:0:0:0:
371,332,26733,2,0,P|319:312|283:253,1,120,2|8,0:0|0:0,0:0:0:0:
249,170,27233,2,0,P|217:120|162:97,1,120,2|0,0:0|0:0,0:0:0:0:
72,130,27733,1,8,0:0:0:0:
72,130,28066,2,0,L|61:62,2,60,2|0|8,0:0|0:0|0:0,0:0:0:0:
15,313,28733,5,2,0:0:0:0:
192,384,29066,2,0,P|230:372|245:349,1,60,8|0,0:0|0:0,0:0:0:0:
309,288,29399,2,0,L|303:164,1,120,2|8,0:0|0:0,0:0:0:0:
211,196,29899,2,0,L|217:72,1,120,2|2,0:0|0:0,0:0:0:0:
278,2,30399,1,8,0:0:0:0:
278,2,30733,2,0,P|301:32|335:41,2,60,2|0|8,0:0|0:0|0:0,0:0:0:0:
115,103,31399,5,2,0:0:0:0:
213,268,31733,2,0,L|287:258,1,60,8|0,0:0|0:0,0:0:0:0:
365,287,32066,2,0,P|381:228|440:197,1,120,2|8,0:0|0:0,0:0:0:0:
496,129,32566,2,0,P|436:144|380:109,1,120,2|2,0:0|0:0,0:0:0:0:
339,34,33066,1,8,0:0:0:0:
339,34,33399,2,0,L|404:20,2,60,2|0|8,0:0|0:0|0:0,0:0:0:0:
228,191,34066,6,0,L|95:174,1,120,2|8,0:0|0:0,0:0:0:0:
23,218,34566,1,0,0:0:0:0:
104,167,34733,2,0,P|115:133|106:100,1,60,2|0,0:0|0:0,0:0:0:0:
58,28,35066,1,8,0:0:0:0:
211,142,35399,2,0,L|344:159,1,120,2|8,0:0|0:0,0:0:0:0:
416,115,35899,1,2,0:0:0:0:
335,166,36066,2,0,P|324:200|333:233,1,60,2|0,0:0|0:0,0:0:0:0:
381,303,36399,1,8,0:3:0:0:
504,155,36733,5,4,0:0:0:0:
504,155,37566,2,0,P|489:127|441:104,1,60,4|0,0:0|0:0,0:0:0:0:
377,74,37899,1,4,0:0:0:0:
377,74,39399,5,4,0:0:0:0:
206,163,39733,2,0,P|215:204|234:217,1,60,8|0,0:0|0:0,0:0:0:0:
293,284,40066,2,0,P|328:247|417:247,1,120,2|8,0:0|0:0,0:0:0:0:
483,202,40566,2,0,L|476:331,1,120,2|0,0:0|0:0,0:0:0:0:
397,376,41066,1,8,0:0:0:0:
397,376,41399,2,0,P|372:335|354:329,1,60,2|0,0:0|0:0,0:0:0:0:
272,295,41733,2,0,P|223:296|209:308,1,60,8|0,0:0|0:0,0:0:0:0:
146,368,42066,5,2,0:0:0:0:
30,214,42399,2,0,L|39:150,1,60,8|0,0:0|0:0,0:0:0:0:
23,59,42733,2,0,P|48:94|133:115,1,120,2|8,0:0|0:0,0:0:0:0:
189,182,43233,2,0,P|246:168|284:123,1,120,2|2,0:0|0:0,0:0:0:0:
327,37,43733,1,8,0:0:0:0:
410,82,43899,2,0,L|416:202,1,120,6|0,0:0|0:0,0:0:0:0:
422,297,44399,1,8,0:3:0:0:
111,358,44733,6,0,P|154:350|187:295,1,90,6|0,0:0|0:0,0:0:0:0:
189,302,45066,2,0,L|185:240,1,60,8|0,0:0|0:0,0:0:0:0:
284,339,45399,2,0,L|294:211,1,120,2|8,0:0|0:0,0:0:0:0:
240,138,45899,1,4,0:3:0:0:
377,177,46066,2,0,P|390:207|382:246,2,60,4|2|8,0:3|0:0|0:0,0:0:0:0:
230,129,46566,2,0,P|217:99|225:60,2,60,2|2|0,0:0|0:0|0:0,0:0:0:0:
319,94,47066,2,0,L|390:80,1,60,8|4,0:3|0:3,0:0:0:0:
282,222,47399,6,0,L|166:207,1,90,2|0,0:0|0:0,0:0:0:0:
175,210,47733,2,0,P|141:229|135:256,1,60,8|0,0:0|0:0,0:0:0:0:
48,362,48066,2,0,B|79:372|106:350|106:350|131:329|160:337,1,120,2|8,0:0|0:0,0:0:0:0:
253,361,48566,1,0,0:0:0:0:
333,243,48733,2,0,L|324:180,2,60,2|4|4,0:0|0:3|0:3,0:0:0:0:
475,326,49233,2,0,L|484:263,2,60,0|2|2,0:0|0:0|0:0,0:0:0:0:
395,380,49733,2,0,P|369:365|354:339,1,60,8|8,0:0|0:3,0:0:0:0:
419,185,50066,6,0,P|448:142|494:128,1,90,6|0,0:0|0:0,0:0:0:0:
500,130,50399,2,0,L|496:65,1,60,8|0,0:0|0:0,0:0:0:0:
329,155,50733,2,0,B|280:158|280:158|262:144|262:144|214:147,1,120,2|8,0:0|0:0,0:0:0:0:
118,154,51233,1,4,0:3:0:0:
252,61,51399,2,0,P|282:61|318:93,2,60,4|2|8,0:3|0:0|0:0,0:0:0:0:
109,160,51899,2,0,P|83:175|53:175,2,60,0|4|4,0:0|0:3|0:3,0:0:0:0:
159,77,52399,2,0,L|153:2,1,60,8|4,0:3|0:3,0:0:0:0:
223,159,52733,6,0,L|211:260,1,90,2|0,0:0|0:0,0:0:0:0:
210,263,53066,2,0,P|192:290|158:298,1,60,8|0,0:0|0:0,0:0:0:0:
309,218,53399,2,0,P|326:256|302:338,1,120,2|8,0:0|0:0,0:0:0:0:
227,381,53899,1,0,0:0:0:0:
400,355,54066,2,0,L|460:345,2,60,4|4|8,0:3|0:3|0:0,0:0:0:0:
217,262,54566,2,0,L|157:252,2,60,0|2|2,0:0|0:0|0:0,0:0:0:0:
309,236,55066,2,0,P|336:203|338:178,1,60,8|4,0:3|0:3,0:0:0:0:
261,43,55399,5,4,0:0:0:0:
261,43,55733,1,2,0:0:0:0:
261,43,56066,1,0,0:0:0:0:
188,106,56233,2,0,P|197:153|255:201,1,120,2|2,0:0|0:0,0:0:0:0:
249,199,56899,2,0,L|313:190,1,60,2|2,0:0|0:0,0:0:0:0:
453,317,57399,2,0,L|393:308,1,60,2|0,0:0|0:0,0:0:0:0:
297,298,57733,1,2,0:0:0:0:
297,298,58066,5,2,0:0:0:0:
404,30,58566,1,2,0:0:0:0:
454,111,58733,2,0,P|431:154|353:176,1,120,2|8,0:0|0:3,0:0:0:0:
278,139,59233,6,0,L|154:126,1,120,4|4,0:0|0:0,0:0:0:0:
374,365,59899,2,0,L|498:352,1,120,4|4,0:0|0:0,0:0:0:0:
431,79,60733,5,6,0:0:0:0:
431,79,62066,2,0,B|455:58|436:23|396:17|364:52|363:106|399:167,1,210,2|2,0:0|0:0,0:0:0:0:
473,214,63399,6,0,P|497:236|507:273,1,60,4|4,0:0|0:0,0:0:0:0:
506,261,63899,2,0,P|504:293|482:324,1,60,4|4,0:0|0:0,0:0:0:0:
491,316,64399,2,0,P|465:335|426:339,1,60,4|4,0:0|0:0,0:0:0:0:
438,340,64899,2,0,P|406:332|379:305,1,60,4|4,0:0|0:0,0:0:0:0:
385,315,65399,2,0,P|369:286|373:247,1,60,4|4,0:0|0:0,0:0:0:0:
399,167,65733,1,8,0:3:0:0:
88,100,66066,6,0,P|64:122|54:159,1,60,4|4,0:0|0:0,0:0:0:0:
55,147,66566,2,0,P|57:179|79:210,1,60,4|4,0:0|0:0,0:0:0:0:
70,202,67066,2,0,P|96:221|135:225,1,60,4|4,0:0|0:0,0:0:0:0:
123,226,67566,2,0,P|155:218|182:191,1,60,4|4,0:0|0:0,0:0:0:0:
176,201,68066,2,0,P|192:172|188:133,1,60,4|4,0:0|0:0,0:0:0:0:
162,53,68400,1,8,0:3:0:0:
427,2,68733,5,2,0:0:0:0:
256,192,68816,12,4,70733,0:0:0:0:
0,333,71399,5,4,0:0:0:0:
82,382,71566,2,0,P|135:377|198:335,1,120,2|2,0:0|0:0,0:0:0:0:
142,184,72066,1,2,0:0:0:0:
224,233,72233,2,0,P|277:228|340:186,1,120,2|0,0:0|0:0,0:0:0:0:
407,133,72733,1,2,0:0:0:0:
464,209,72899,2,0,L|456:284,1,60,0|8,0:0|0:0,0:0:0:0:
475,363,73233,2,0,P|435:318|379:296,1,120,2|2,0:0|0:0,0:0:0:0:
283,304,73733,2,0,L|290:373,1,60,8|0,0:0|0:0,0:0:0:0:
132,279,74066,5,2,0:0:0:0:
68,207,74233,2,0,P|62:153|92:84,1,120,2|0,0:0|0:0,0:0:0:0:
233,197,74733,1,2,0:0:0:0:
238,101,74899,2,0,P|271:59|341:31,1,120,2|2,0:0|0:0,0:0:0:0:
425,48,75399,1,2,0:0:0:0:
467,134,75566,2,0,P|459:170|436:192,1,60,0|8,0:0|0:0,0:0:0:0:
352,213,75899,2,0,P|406:236|445:281,1,120,2|2,0:0|0:0,0:0:0:0:
467,375,76399,1,8,0:3:0:0:
271,299,76566,6,0,L|141:305,1,120,4|2,0:3|0:0,0:0:0:0:
66,349,77066,2,0,P|38:336|22:312,1,60,8|0,0:0|0:0,0:0:0:0:
22,216,77399,1,2,0:0:0:0:
162,302,77566,2,0,P|204:261|217:203,1,120,2|0,0:0|0:0,0:0:0:0:
191,109,78066,1,2,0:0:0:0:
108,152,78233,2,0,P|126:204|150:217,1,60,2|8,0:0|0:0,0:0:0:0:
254,296,78566,2,0,L|379:279,1,120,2|2,0:0|0:0,0:0:0:0:
468,268,79066,1,8,0:0:0:0:
338,185,79233,6,0,P|297:151|277:85,1,120,2|0,0:0|0:0,0:0:0:0:
313,0,79733,2,0,P|337:-9|324:9,1,60,8|2,0:0|0:0,0:0:0:0:
188,98,80066,1,0,0:0:0:0:
164,93,80149,1,0,0:0:0:0:
140,87,80233,2,0,L|64:72,1,60,2|4,0:0|0:3,0:0:0:0:
195,200,80566,6,0,B|227:201|247:173|247:173|266:146|296:146,2,120,4|4|4,0:0|0:0|0:0,0:0:0:0:
34,270,81399,2,0,P|61:278|82:299,1,60,4|2,0:0|0:0,0:0:0:0:
128,384,81733,1,8,0:3:0:0:
128,384,82066,5,6,0:0:0:0:
220,356,82233,2,0,P|237:342|264:231,1,120,2|0,0:0|0:0,0:0:0:0:
226,90,82733,1,2,0:0:0:0:
318,118,82900,2,0,P|335:132|362:243,1,120,2|0,0:0|0:0,0:0:0:0:
450,266,83399,1,2,0:0:0:0:
386,338,83566,2,0,P|349:335|316:312,1,60,2|8,0:0|0:0,0:0:0:0:
257,260,83899,2,0,P|205:230|146:231,1,120,2|2,0:0|0:0,0:0:0:0:
50,227,84399,2,0,P|52:263|63:285,1,60,8|2,0:0|0:0,0:0:0:0:
245,190,84733,5,2,0:0:0:0:
289,105,84899,2,0,P|269:55|199:14,1,120,2|0,0:0|0:0,0:0:0:0:
394,71,85399,1,2,0:0:0:0:
438,156,85566,2,0,P|418:206|348:247,1,120,2|0,0:0|0:0,0:0:0:0:
279,287,86066,1,2,0:0:0:0:
358,340,86233,2,0,L|433:332,1,60,2|8,0:0|0:0,0:0:0:0:
271,378,86566,2,0,P|216:355|183:306,1,120,2|4,0:0|0:3,0:0:0:0:
222,218,87066,2,0,P|258:196|286:201,1,60,8|4,0:3|0:3,0:0:0:0:
448,208,87399,6,0,P|449:175|494:92,1,120,4|8,0:0|0:3,0:0:0:0:
413,34,87899,2,0,B|367:19|330:53|330:53|292:91|248:75,1,180,4|2,0:3|0:0,0:0:0:0:
157,44,88566,1,8,0:3:0:0:
66,76,88732,2,0,P|41:122|48:195,1,120,0|0,1:0|0:0,0:0:0:0:
39,281,89232,2,0,L|97:268,1,60,4|8,0:3|0:0,0:0:0:0:
77,362,89566,2,0,L|136:348,1,60,0|2,0:0|0:0,0:0:0:0:
305,377,89899,6,0,P|250:364|212:306,1,120,4|0,0:0|0:0,0:0:0:0:
269,236,90399,2,0,P|253:181|284:119,1,120,0|8,1:0|0:3,0:0:0:0:
362,80,90899,2,0,L|438:60,1,60,4|4,0:3|0:0,0:0:0:0:
512,44,91232,1,4,0:0:0:0:
512,44,92733,6,0,P|479:72|469:115,1,90,4|0,0:0|0:0,0:0:0:0:
471,137,93067,2,0,L|477:204,1,60,8|0,0:0|0:0,0:0:0:0:
344,271,93400,2,0,P|367:241|403:236,1,60,2|0,0:0|0:0,0:0:0:0:
457,301,93733,2,0,P|495:305|516:334,1,60,8|0,0:0|0:0,0:0:0:0:
381,367,94067,5,2,0:0:0:0:
381,367,94400,2,0,L|299:374,1,60,8|0,0:0|0:0,0:0:0:0:
226,376,94733,2,0,P|181:356|161:308,1,90,2|0,0:0|0:0,0:0:0:0:
161,298,95067,2,0,L|163:236,1,60,8|0,0:0|0:0,0:0:0:0:
50,351,95400,6,0,L|41:248,1,90,2|0,0:0|0:0,0:0:0:0:
40,239,95733,2,0,P|54:195|74:183,1,60,8|0,0:0|0:0,0:0:0:0:
211,138,96067,2,0,L|144:128,1,60,2|0,0:0|0:0,0:0:0:0:
68,70,96400,2,0,L|1:80,1,60,8|0,0:0|0:0,0:0:0:0:
128,0,96733,5,2,0:0:0:0:
129,0,97067,2,0,P|138:28|160:47,1,60,8|0,0:0|0:0,0:0:0:0:
252,76,97400,2,0,L|358:71,1,90,2|0,0:0|0:0,0:0:0:0:
361,71,97733,1,8,0:0:0:0:
468,291,98067,6,0,L|362:286,1,90,6|0,0:0|0:0,0:0:0:0:
359,286,98400,2,0,P|333:254|330:221,1,60,8|0,0:0|0:0,0:0:0:0:
465,168,98733,2,0,P|442:198|406:203,1,60,2|0,0:0|0:0,0:0:0:0:
352,138,99066,2,0,P|315:133|293:104,1,60,8|0,0:0|0:0,0:0:0:0:
433,59,99400,5,2,0:0:0:0:
433,59,99733,2,0,L|438:-17,1,60,8|0,0:0|0:0,0:0:0:0:
304,112,100067,2,0,B|309:169|309:169|311:206|347:213,1,120,2|4,0:0|0:0,0:0:0:0:
501,149,100567,5,4,0:0:0:0:
501,149,100899,2,0,B|403:145|361:239|361:239|316:336|223:341,1,360,2|0,0:0|0:0,0:0:0:0:
129,358,102066,2,0,P|87:342|138:334,1,120,8|4,0:3|0:0,0:0:0:0:
321,358,102733,5,4,0:0:0:0:
191,26,103233,1,4,0:0:0:0:
256,192,103399,12,0,110733,0:0:0:0:
