osu file format v14

[General]
AudioFilename: audio.mp3
AudioLeadIn: 0
PreviewTime: 70644
Countdown: 0
SampleSet: Soft
StackLeniency: 0.7
Mode: 0
LetterboxInBreaks: 0
WidescreenStoryboard: 0

[Editor]
DistanceSpacing: 1
BeatDivisor: 4
GridSize: 4
TimelineZoom: 1

[Metadata]
Title:INFINITI MOFULITY (Short Ver.)
TitleUnicode:いんふぃにてぃ もふりてぃ (Short Ver.)
Artist:Nanahira x Camellia
ArtistUnicode:ななひら×かめりあ
Creator:Moa
Version:Fresh Normal
Source:もふもふな放課後
Tags:p19 narutaki cao. c93 japanese もふかごプロジェクト mofukago project Riana Kawashiro UnLock- j-pop jpop pop
BeatmapID:1808794
BeatmapSetID:786320

[Difficulty]
HPDrainRate:4
CircleSize:3.5
OverallDifficulty:4
ApproachRate:5
SliderMultiplier:1.1
SliderTickRate:1

[Events]
//Background and Video events
0,0,"5488.jpg",0,0
//Break Periods
//Storyboard Layer 0 (Background)
//Storyboard Layer 1 (Fail)
//Storyboard Layer 2 (Pass)
//Storyboard Layer 3 (Foreground)
//Storyboard Layer 4 (Overlay)
//Storyboard Sound Samples

[TimingPoints]
3400,333.333333333333,4,2,0,60,1,0
14233,-100,4,2,0,60,0,0
14399,-100,4,2,0,60,0,0
15399,-100,4,2,0,60,0,0
17733,-100,4,2,0,60,0,0
18066,-100,4,2,0,60,0,0
20399,-100,4,2,0,60,0,0
20649,-100,4,2,0,60,0,0
25066,-100,4,2,0,60,0,0
26066,-100,4,2,0,60,0,0
60233,-100,4,2,0,60,0,0
60733,-100,4,2,0,40,0,0
63399,-100,4,2,0,60,0,0
68733,-100,4,2,0,40,0,0
70066,-100,4,2,0,40,0,0
70399,-100,4,2,0,50,0,0
70733,-100,4,2,0,60,0,0
71399,-100,4,2,0,70,0,1
80566,-100,4,2,0,70,0,0
82066,-100,4,2,0,70,0,1
87399,-100,4,2,0,60,0,1
91233,-100,4,2,0,60,0,0
91566,-100,4,2,0,60,0,0
91899,-100,4,2,0,60,0,0
95066,-100,4,2,0,60,0,0
95316,-100,4,2,0,60,0,0
96066,-100,4,2,0,60,0,0
97732,-100,4,2,0,60,0,0
98066,-100,4,2,0,60,0,0
102733,-100,4,2,0,60,0,0
108733,-100,4,2,0,40,0,0
109066,-100,4,2,0,30,0,0
109399,-100,4,2,0,20,0,0
109733,-100,4,2,0,10,0,0
110066,-100,4,2,0,5,0,0

[Colours]
Combo1 : 128,255,255
Combo2 : 255,255,0
Combo3 : 255,128,128
Combo4 : 255,128,0

[HitObjects]
111,91,4066,5,6,0:0:0:0:
124,200,4399,1,6,0:0:0:0:
138,309,4733,6,0,L|213:302,1,55,6|2,0:0|0:0,0:0:0:0:
293,259,5233,1,0,0:0:0:0:
293,259,5399,2,0,L|368:252,1,55,2|2,0:0|0:0,0:0:0:0:
445,203,5899,1,4,0:0:0:0:
445,203,6066,2,0,L|438:128,1,55,2|6,0:0|0:0,0:0:0:0:
371,61,6566,2,0,P|309:51|249:74,1,110,6|6,0:0|0:0,0:0:0:0:
170,120,7233,1,0,0:0:0:0:
170,120,7399,6,0,L|166:195,1,55,6|2,0:0|0:0,0:0:0:0:
238,259,7899,1,0,0:0:0:0:
238,259,8066,2,0,L|234:334,1,55,2|2,0:0|0:0,0:0:0:0:
338,365,8566,1,4,0:0:0:0:
338,365,8733,2,0,L|340:310,1,55,2|6,0:0|0:0,0:0:0:0:
419,233,9233,2,0,P|428:172|405:108,1,110,6|6,0:0|0:0,0:0:0:0:
344,42,9899,1,0,0:0:0:0:
344,42,10066,6,0,P|276:23|173:61,1,165,6|4,0:0|3:0,0:0:0:0:
139,76,10733,1,8,0:0:0:0:
139,76,10899,2,0,L|134:154,1,55,0|2,0:0|0:0,0:0:0:0:
146,185,11233,1,8,0:3:0:0:
146,185,11399,2,0,L|151:263,1,55,0|0,1:0|0:0,0:0:0:0:
82,327,11899,2,0,P|160:353|195:338,1,110,4|0,3:0|0:0,0:0:0:0:
267,274,12566,6,0,P|312:263|382:278,1,110,4|0,0:0|0:0,0:0:0:0:
427,288,13066,2,0,L|435:159,1,110,0|0,1:0|1:0,0:0:0:0:
409,128,13566,2,0,L|403:61,1,55,4|4,0:3|0:3,0:0:0:0:
367,31,13899,1,4,0:0:0:0:
92,24,14733,2,0,L|80:133,1,110,2|8,0:0|0:3,0:0:0:0:
26,229,15399,6,0,P|80:248|133:229,1,110,6|8,0:0|0:0,0:0:0:0:
174,202,15899,1,0,0:0:0:0:
223,178,16066,2,0,P|274:162|325:181,1,110,2|8,0:0|0:0,0:0:0:0:
415,244,16733,1,2,0:0:0:0:
477,153,17066,2,0,L|469:32,2,110,8|2|8,0:0|0:0|0:0,0:0:0:0:
415,244,18066,6,0,L|407:353,1,110,2|8,0:0|0:0,0:0:0:0:
354,341,18566,1,0,0:0:0:0:
300,329,18733,2,0,P|244:303|186:322,1,110,2|8,0:0|0:0,0:0:0:0:
94,345,19399,1,2,0:0:0:0:
122,238,19733,2,0,P|127:179|116:119,1,110,8|2,0:0|0:0,0:0:0:0:
66,32,20399,1,8,0:0:0:0:
175,43,20733,6,0,L|304:56,1,110,2|8,0:0|0:0,0:0:0:0:
324,91,21233,1,0,0:0:0:0:
287,131,21399,2,0,L|177:142,1,110,2|8,0:0|0:0,0:0:0:0:
122,238,22066,2,0,L|154:350,1,110,2|8,0:0|0:0,0:0:0:0:
241,279,22733,1,2,0:0:0:0:
331,217,23066,6,0,L|342:274,1,55,12|4,0:0|0:0,0:0:0:0:
451,272,23566,2,0,L|461:217,2,55,2|8|0,0:0|0:0|0:0,0:0:0:0:
437,325,24066,1,2,0:0:0:0:
341,271,24399,1,8,0:0:0:0:
245,215,24733,2,0,L|240:136,1,55,8|0,0:3|0:0,0:0:0:0:
238,105,25066,1,4,0:0:0:0:
238,105,26066,5,6,0:0:0:0:
318,30,26399,2,0,P|368:11|419:27,1,110,8|2,0:0|0:0,0:0:0:0:
509,91,27066,1,8,0:0:0:0:
497,144,27233,2,0,L|492:263,1,110,2|0,0:0|0:0,0:0:0:0:
457,296,27733,2,0,P|397:314|345:297,1,110,8|2,0:0|0:0,0:0:0:0:
258,244,28399,1,8,0:0:0:0:
162,188,28733,5,2,0:0:0:0:
244,114,29066,2,0,P|252:52|238:6,1,110,8|2,0:0|0:0,0:0:0:0:
183,2,29566,2,0,L|120:8,1,55,0|8,0:0|0:0,0:0:0:0:
75,22,29899,2,0,P|61:74|69:128,1,110,2|2,0:0|0:0,0:0:0:0:
162,188,30566,2,0,L|159:261,1,55,2|2,0:0|0:0,0:0:0:0:
73,310,31066,2,0,P|147:354|184:344,1,110,8|2,0:0|0:0,0:0:0:0:
266,306,31733,5,8,0:0:0:0:
361,251,32066,2,0,L|438:266,2,55,2|2|8,0:0|0:0|0:0,0:0:0:0:
322,212,32566,2,0,L|326:89,1,110,2|2,0:0|0:0,0:0:0:0:
245,25,33233,1,2,0:0:0:0:
245,25,33399,2,0,P|194:15|127:37,1,110,2|8,0:0|0:0,0:0:0:0:
96,131,34066,6,0,P|181:142|311:109,1,220,2|2,0:0|0:0,0:0:0:0:
395,40,35066,1,8,0:0:0:0:
445,137,35399,2,0,P|458:223|408:362,1,220,2|2,0:0|0:0,0:0:0:0:
336,273,36399,1,8,0:3:0:0:
254,347,36733,5,4,0:0:0:0:
167,278,37066,2,0,P|109:267|49:281,1,110,2|0,0:0|0:0,0:0:0:0:
9,299,37566,1,4,0:0:0:0:
12,189,37899,2,0,L|43:65,1,110,4|2,0:0|0:0,0:0:0:0:
56,30,38399,1,2,0:0:0:0:
134,108,38733,2,0,P|205:123|253:100,1,110,8|8,0:3|0:3,0:0:0:0:
318,35,39399,5,4,0:0:0:0:
408,98,39733,2,0,L|397:216,1,110,8|2,0:0|0:0,0:0:0:0:
365,252,40233,2,0,P|338:263|307:258,1,55,2|8,0:0|0:0,0:0:0:0:
264,234,40566,2,0,L|137:235,1,110,2|2,0:0|0:0,0:0:0:0:
98,139,41233,1,2,0:0:0:0:
98,139,41399,2,0,L|207:138,1,110,2|8,0:0|0:0,0:0:0:0:
264,234,42066,5,2,0:0:0:0:
210,329,42399,2,0,P|266:347|320:325,1,110,8|2,0:0|0:0,0:0:0:0:
395,258,43066,1,8,0:0:0:0:
395,258,43233,2,0,L|397:125,1,110,2|2,0:0|0:0,0:0:0:0:
347,49,43899,1,6,0:0:0:0:
244,88,44233,2,0,L|228:24,2,55,0|8|4,0:0|0:3|0:3,0:0:0:0:
260,140,44733,5,6,0:0:0:0:
182,218,45066,2,0,P|165:277|191:336,1,110,8|2,0:0|0:0,0:0:0:0:
289,324,45733,2,0,L|350:319,1,55,8|4,0:0|0:3,0:0:0:0:
392,294,46066,2,0,P|401:225|394:170,1,110,4|8,0:3|0:0,0:0:0:0:
342,190,46566,2,0,P|329:139|335:80,1,110,2|0,0:0|0:0,0:0:0:0:
358,32,47066,1,8,0:0:0:0:
248,32,47399,5,2,0:0:0:0:
137,31,47733,2,0,L|16:41,1,110,8|2,0:0|0:0,0:0:0:0:
21,149,48399,2,0,L|91:143,1,55,8|0,0:0|0:0,0:0:0:0:
131,146,48733,2,0,P|140:202|126:270,1,110,2|4,0:0|0:3,0:0:0:0:
137,308,49233,2,0,P|199:319|254:297,1,110,2|2,0:0|0:0,0:0:0:0:
289,276,49733,1,8,0:0:0:0:
379,214,50066,5,6,0:0:0:0:
307,130,50399,2,0,L|290:19,1,110,8|2,0:0|0:0,0:0:0:0:
180,20,51066,2,0,L|167:86,1,55,8|4,0:0|0:3,0:0:0:0:
158,127,51399,2,0,L|174:235,1,110,4|8,0:3|0:0,0:0:0:0:
183,290,51899,2,0,P|134:319|64:301,1,110,2|4,0:0|0:3,0:0:0:0:
38,280,52399,1,8,0:3:0:0:
56,171,52733,5,2,0:0:0:0:
158,127,53066,2,0,P|210:117|287:136,1,110,8|2,0:0|0:0,0:0:0:0:
315,149,53566,1,2,0:0:0:0:
315,149,53733,2,0,L|389:146,1,55,8|0,0:0|0:0,0:0:0:0:
425,147,54066,2,0,P|434:202|426:269,1,110,4|8,0:3|0:0,0:0:0:0:
386,291,54566,2,0,L|258:298,1,110,2|2,0:0|0:0,0:0:0:0:
221,301,55066,1,8,0:3:0:0:
111,290,55399,6,0,L|102:366,2,55,4|0|2,0:0|0:0|0:0,0:0:0:0:
113,234,55899,2,0,L|102:104,1,110,2|2,0:0|0:0,0:0:0:0:
100,14,56566,1,2,0:0:0:0:
202,70,56899,1,0,0:0:0:0:
202,70,57066,2,0,P|256:85|313:60,1,110,2|0,0:0|0:0,0:0:0:0:
400,12,57733,1,2,0:0:0:0:
445,112,58066,6,0,L|499:110,2,55,2|0|2,0:0|0:0|0:0,0:0:0:0:
452,166,58566,1,4,0:0:0:0:
464,275,58899,1,4,0:0:0:0:
364,321,59233,2,0,P|286:328|238:317,1,110,4|4,0:0|0:0,0:0:0:0:
150,289,59899,1,4,0:0:0:0:
220,204,60233,2,0,P|228:151|211:84,1,110,4|0,0:0|0:0,0:0:0:0:
187,49,60733,6,0,L|316:42,1,110,6|2,0:0|0:0,0:0:0:0:
401,74,61399,1,2,0:0:0:0:
344,168,61733,2,0,L|335:230,1,55,2|2,0:0|0:0,0:0:0:0:
312,272,62066,2,0,P|241:279|183:260,1,110,2|2,0:0|0:0,0:0:0:0:
166,229,62566,2,0,L|36:235,1,110,2|2,0:0|0:0,0:0:0:0:
10,203,63066,2,0,P|8:162|19:141,1,55,2|2,0:0|0:0,0:0:0:0:
40,101,63399,6,0,L|116:113,1,55,4|4,0:0|0:0,0:0:0:0:
169,28,63899,2,0,L|223:19,1,55,4|4,0:0|0:0,0:0:0:0:
241,128,64399,6,0,L|259:179,1,55,4|4,0:0|0:0,0:0:0:0:
369,180,64899,2,0,L|387:128,1,55,4|4,0:0|0:0,0:0:0:0:
494,149,65399,1,4,0:0:0:0:
494,259,65733,1,8,0:3:0:0:
405,324,66066,6,0,L|334:340,1,55,4|4,0:0|0:0,0:0:0:0:
316,231,66566,2,0,L|262:218,1,55,4|4,0:0|0:0,0:0:0:0:
203,312,67066,6,0,L|189:365,1,55,4|4,0:0|0:0,0:0:0:0:
79,364,67566,2,0,L|65:310,1,55,4|4,0:0|0:0,0:0:0:0:
26,207,68066,1,4,0:0:0:0:
33,97,68399,1,4,0:3:0:0:
121,30,68733,6,0,P|188:21|234:38,1,110,2|2,0:0|0:0,0:0:0:0:
282,128,69399,2,0,P|334:142|388:132,1,110,2|2,0:0|0:0,0:0:0:0:
489,89,70066,1,2,0:0:0:0:
475,198,70399,1,2,0:0:0:0:
388,132,70733,2,0,L|377:14,1,110,4|4,0:0|0:0,0:0:0:0:
275,63,71399,6,0,P|216:72|168:59,1,110,4|8,0:0|0:0,0:0:0:0:
116,40,71899,1,2,0:0:0:0:
68,68,72066,2,0,L|66:195,1,110,2|8,0:0|0:0,0:0:0:0:
19,278,72733,2,0,P|70:291|134:258,1,110,2|8,0:0|0:0,0:0:0:0:
167,239,73233,2,0,P|217:218|269:231,1,110,2|2,0:0|0:0,0:0:0:0:
371,273,73899,1,2,0:0:0:0:
371,273,74066,6,0,L|374:155,1,110,2|8,0:0|0:0,0:0:0:0:
349,113,74566,1,0,0:0:0:0:
378,66,74733,2,0,L|501:68,1,110,2|8,0:0|0:0,0:0:0:0:
508,175,75399,2,0,P|514:239|508:296,1,110,2|8,0:0|0:0,0:0:0:0:
478,329,75899,2,0,L|355:330,1,110,2|2,0:0|0:0,0:0:0:0:
259,309,76566,1,4,0:3:0:0:
259,309,76733,6,0,L|248:181,1,110,6|8,0:0|0:0,0:0:0:0:
161,133,77399,1,2,0:0:0:0:
161,133,77566,2,0,L|82:136,2,55,0|8|0,0:0|0:0|0:0,0:0:0:0:
199,94,78066,2,0,L|325:96,1,110,2|8,0:0|0:0,0:0:0:0:
359,117,78566,2,0,L|468:115,1,110,2|2,0:0|0:0,0:0:0:0:
419,16,79233,6,0,L|301:18,1,110,2|2,0:0|0:0,0:0:0:0:
253,20,79733,2,0,L|135:22,1,110,8|2,0:0|0:0,0:0:0:0:
92,42,80233,2,0,P|82:69|87:107,1,55,4|4,0:3|0:3,0:0:0:0:
113,141,80566,2,0,P|117:199|105:269,1,110,4|4,0:0|0:0,0:0:0:0:
57,346,81233,1,4,0:0:0:0:
109,362,81399,2,0,P|151:351|174:332,1,55,4|2,0:0|0:0,0:0:0:0:
196,303,81733,1,8,0:3:0:0:
279,231,82066,6,0,P|349:223|405:237,1,110,6|8,0:0|0:0,0:0:0:0:
429,195,82566,1,0,0:0:0:0:
470,159,82733,2,0,P|476:77|466:47,1,110,2|8,0:0|0:0,0:0:0:0:
362,20,83399,2,0,L|245:22,1,110,2|8,0:0|0:0,0:0:0:0:
213,61,83899,2,0,P|205:129|214:177,1,110,2|2,0:0|0:0,0:0:0:0:
262,267,84566,1,2,0:0:0:0:
262,267,84733,6,0,P|182:283|158:268,1,110,2|8,0:0|0:0,0:0:0:0:
113,244,85233,1,0,0:0:0:0:
86,195,85399,2,0,L|108:70,1,110,2|8,0:0|0:0,0:0:0:0:
213,61,86066,2,0,P|266:52|323:67,1,110,2|8,0:0|0:0,0:0:0:0:
350,111,86566,2,0,P|402:124|456:115,1,110,2|4,0:0|0:3,0:0:0:0:
505,214,87233,1,4,0:3:0:0:
505,214,87399,6,0,P|451:205|398:218,1,110,4|8,0:0|0:3,0:0:0:0:
349,243,87899,1,4,0:3:0:0:
349,243,88066,2,0,L|277:239,1,55,8|0,0:0|0:0,0:0:0:0:
189,265,88566,1,0,0:0:0:0:
189,265,88733,2,0,L|95:270,2,82.5,8|4|4,0:3|0:3|0:3,0:0:0:0:
207,213,89399,2,0,L|207:142,1,55,8|0,0:0|0:0,0:0:0:0:
205,46,89899,6,0,P|269:31|317:49,1,110,4|0,0:0|0:0,0:0:0:0:
360,64,90399,2,0,L|362:194,1,110,0|0,1:0|1:0,0:0:0:0:
329,218,90899,2,0,L|329:291,1,55,4|4,0:3|0:3,0:0:0:0:
294,316,91233,1,4,0:0:0:0:
41,210,92066,2,0,L|141:273,1,110,2|8,0:0|0:3,0:0:0:0:
227,210,92733,6,0,P|233:137|225:94,1,110,4|8,0:0|0:0,0:0:0:0:
254,53,93233,1,0,0:0:0:0:
307,62,93399,2,0,P|370:73|427:57,1,110,2|8,0:0|0:0,0:0:0:0:
491,141,94066,1,2,0:0:0:0:
441,238,94399,2,0,L|453:355,2,110,8|2|8,0:0|0:0|0:0,0:0:0:0:
346,181,95399,6,0,P|288:176|229:206,1,110,2|8,0:0|0:0,0:0:0:0:
194,224,95899,1,0,0:0:0:0:
149,256,96066,2,0,P|98:276|44:270,1,110,2|8,0:0|0:0,0:0:0:0:
86,168,96733,1,2,0:0:0:0:
128,66,97066,2,0,L|251:65,1,110,8|2,0:0|0:0,0:0:0:0:
348,63,97733,1,8,0:0:0:0:
388,165,98066,6,0,L|278:165,1,110,6|8,0:0|0:0,0:0:0:0:
223,171,98566,1,0,0:0:0:0:
223,171,98733,2,0,P|213:233|225:287,1,110,2|8,0:0|0:0,0:0:0:0:
307,347,99399,1,2,0:0:0:0:
389,272,99733,2,0,P|397:218|387:164,1,110,8|2,0:0|0:0,0:0:0:0:
364,114,100233,1,0,0:0:0:0:
364,114,100399,2,0,L|290:115,1,55,4|4,0:0|0:0,0:0:0:0:
208,70,100899,6,0,L|202:9,2,55,2|8|0,0:0|0:0|0:0,0:0:0:0:
216,124,101399,2,0,L|206:247,1,110,2|8,0:0|0:0,0:0:0:0:
142,322,102066,2,0,P|202:349|251:332,1,110,8|4,0:3|0:0,0:0:0:0:
320,260,102733,2,0,L|437:254,1,110,4|0,0:0|0:0,0:0:0:0:
484,250,103233,1,4,0:0:0:0:
256,192,103316,12,0,110733,0:0:0:0:
