osu file format v14

[General]
AudioFilename: audio.mp3
AudioLeadIn: 0
PreviewTime: 75011
Countdown: 0
SampleSet: Soft
StackLeniency: 0.3
Mode: 3
LetterboxInBreaks: 0
SpecialStyle: 0
WidescreenStoryboard: 1

[Editor]
DistanceSpacing: 0.6
BeatDivisor: 4
GridSize: 4
TimelineZoom: 1.3

[Metadata]
Title:Fuwa Mofu Happiness 24/7!! (Short Ver.)
TitleUnicode:ふわもふはぴねす24/7!! (Short Ver.)
Artist:Nanahira x Camellia
ArtistUnicode:ななひら×かめりあ
Creator:My Angel RangE
Version:Normal
Source:もふもふな放課後
Tags:p19 narutaki cao. C95 japanese もふかごプロジェクト Mofukago project mofumofu afterschool jpop j-pop pop DenYi MARE hapinesu
BeatmapID:2060333
BeatmapSetID:890867

[Difficulty]
HPDrainRate:7
CircleSize:4
OverallDifficulty:7
ApproachRate:9.4
SliderMultiplier:1.4
SliderTickRate:1

[Events]
//Background and Video events
0,0,"879.jpg",0,0
//Break Periods
//Storyboard Layer 0 (Background)
//Storyboard Layer 1 (Fail)
//Storyboard Layer 2 (Pass)
//Storyboard Layer 3 (Foreground)
//Storyboard Layer 4 (Overlay)
//Storyboard Sound Samples
Sample,29849,0,"LR4_SnareBPDT.wav",20
Sample,70065,0,"LR_HiHat Synth Fast.wav",70
Sample,71362,0,"LR_HiHat Synth Fast.wav",70
Sample,72660,0,"LR_Snare Hat.wav",40
Sample,72660,0,"LR_HiHat Synth Fast.wav",70
Sample,75416,0,"LR5_HiHat NSynth.wav",70
Sample,80281,0,"LR5_HiHat NSynth.wav",70
Sample,83200,0,"LR5_HiHat NSynth.wav",70
Sample,83524,0,"LR5_HiHat NSynth.wav",70
Sample,111578,0,"LR4_SnareBPDT.wav",20

[TimingPoints]
1309,324.324324324324,4,2,1,40,1,0
3741,324.324324324324,4,2,1,60,1,0
11524,-100,4,2,1,70,0,0
15579,324.324324324324,4,2,1,70,1,0
31146,-100,4,2,1,60,0,0
54498,-100,4,2,1,50,0,0
64714,-100,4,2,1,60,0,0
75092,-100,4,2,1,70,0,1
91957,324.324324324324,4,2,1,70,1,1
97308,324.324324324324,4,2,1,70,1,1
98605,-100,4,2,1,70,0,0
112551,-100,4,2,1,60,0,0

[HitObjects]
192,192,1309,5,0,0:0:0:70:LR2_HHatRvHw.wav
448,192,1309,1,0,0:0:0:0:
320,192,1633,1,0,0:0:0:70:LR2_HHatRvHw.wav
64,192,1957,1,0,0:0:0:70:LR2_HHatRvHw.wav
320,192,2281,1,0,0:0:0:70:LR2_HHatRvHw.wav
64,192,2606,1,0,0:0:0:70:LR2_HHatRvHw.wav
448,192,2606,1,0,0:0:0:0:
192,192,2930,1,0,0:0:0:70:LR2_HHatRvHw.wav
320,192,2930,1,0,0:0:0:0:
192,192,3254,128,0,3741:0:0:0:30:LR4_SnareBPDT.wav
320,192,3254,128,0,3741:0:0:0:0:
64,192,3741,1,2,0:0:0:0:
448,192,3741,1,0,0:0:0:0:
320,192,5038,1,2,0:0:0:0:
448,192,5038,1,0,0:0:0:0:
64,192,5362,1,2,0:0:0:0:
192,192,5362,1,0,0:0:0:0:
320,192,5524,1,2,0:0:0:0:
448,192,5524,1,0,0:0:0:0:
64,192,5686,1,2,0:0:0:0:
192,192,5686,1,0,0:0:0:0:
448,192,5849,1,0,0:0:0:0:
320,192,6011,1,0,0:0:0:0:
192,192,6173,1,0,0:0:0:0:
64,192,6335,1,2,0:0:0:0:
448,192,6335,1,0,0:0:0:0:
64,192,7632,1,2,0:0:0:0:
192,192,7632,1,0,0:0:0:0:
320,192,7957,1,2,0:0:0:0:
448,192,7957,1,0,0:0:0:0:
64,192,8119,1,2,0:0:0:0:
192,192,8119,1,0,0:0:0:0:
320,192,8281,1,2,0:0:0:0:
448,192,8281,1,0,0:0:0:0:
64,192,8443,1,0,0:0:0:0:
192,192,8605,1,0,0:0:0:0:
320,192,8768,1,0,0:0:0:0:
64,192,8930,128,2,9254:0:0:0:0:
448,192,8930,1,0,0:0:0:0:
448,192,9254,1,2,0:0:0:0:
192,192,9416,128,4,9740:0:0:0:0:
320,192,9416,128,2,9740:0:0:0:0:
64,192,10227,1,2,0:0:0:0:
192,192,10227,1,0,0:0:0:0:
64,192,10551,1,2,0:0:0:0:
192,192,10551,1,0,0:0:0:0:
320,192,10876,1,2,0:0:0:0:
448,192,10876,1,0,0:0:0:0:
320,192,11200,1,2,0:0:0:0:
448,192,11200,1,0,0:0:0:0:
64,192,11524,1,6,0:0:0:0:
192,192,11524,1,8,0:0:0:40:LR_Snare Hat.wav
448,192,11849,1,2,0:0:0:0:
192,192,12011,1,2,0:0:0:0:
320,192,12173,1,0,0:0:0:0:
448,192,12335,1,0,0:0:0:30:LR4_ClapLRV.wav
192,192,12497,1,0,0:0:0:0:
320,192,12659,1,0,0:0:0:0:
64,192,12822,1,2,0:0:0:0:
448,192,12822,1,0,0:0:0:0:
192,192,13146,1,2,0:0:0:0:
320,192,13308,1,2,0:0:0:0:
192,192,13470,1,0,0:0:0:0:
64,192,13632,1,0,0:0:0:70:LR4_ClapLRV.wav
320,192,13795,1,2,0:0:0:0:
192,192,13957,1,0,0:0:0:0:
64,192,14119,1,2,0:0:0:0:
448,192,14119,1,0,0:0:0:0:
320,192,14443,1,2,0:0:0:0:
64,192,14605,1,2,0:0:0:0:
192,192,14768,1,0,0:0:0:70:LR4_ClapLRV.wav
320,192,14930,1,0,0:0:0:70:LR4_ClapLRV.wav
448,192,15092,1,2,0:0:0:0:
64,192,15254,1,2,0:0:0:0:
192,192,15416,1,0,0:0:0:0:
320,192,15579,1,2,0:0:0:0:
448,192,15579,1,0,0:0:0:70:cymbal_short.wav
64,192,15741,1,2,0:0:0:0:
192,192,15741,1,0,0:0:0:70:cymbal_short.wav
320,192,15903,128,2,16227:0:0:0:0:
448,192,15903,128,0,16227:0:0:0:70:cymbal_short.wav
192,192,16876,1,2,0:0:0:0:
320,192,16876,1,0,0:0:0:0:
64,192,17362,1,2,0:0:0:0:
192,192,17362,1,0,0:0:0:0:
320,192,17524,1,2,0:0:0:0:
448,192,17524,1,0,0:0:0:0:
64,192,18011,1,2,0:0:0:0:
192,192,18011,1,0,0:0:0:0:
64,192,18335,1,2,0:0:0:0:
192,192,18335,1,0,0:0:0:0:
320,192,18660,1,2,0:0:0:0:
448,192,18660,1,0,0:0:0:0:
64,192,18822,1,2,0:0:0:0:
192,192,18822,1,0,0:0:0:0:
320,192,19146,128,0,19470:0:0:0:0:
64,192,19470,1,2,0:0:0:0:
192,192,19470,1,4,0:0:0:0:
320,192,19795,1,8,0:0:0:0:
448,192,19795,1,0,0:0:0:0:
192,192,19957,1,2,0:0:0:0:
64,192,20119,1,0,0:0:0:0:
448,192,20281,1,2,0:0:0:0:
192,192,20443,1,8,0:0:0:0:
320,192,20443,1,0,0:0:0:0:
64,192,20606,1,0,0:0:0:0:
448,192,20768,1,0,0:0:0:0:
320,192,20930,1,2,0:0:0:0:
64,192,21092,1,8,0:0:0:0:
192,192,21092,1,0,0:0:0:0:
448,192,21254,1,2,0:0:0:0:
320,192,21416,1,2,0:0:0:0:
192,192,21578,1,2,0:0:0:0:
64,192,21741,1,8,0:0:0:0:
448,192,21741,1,0,0:0:0:0:
320,192,21903,1,0,0:0:0:0:
64,192,22065,1,2,0:0:0:0:
192,192,22065,1,0,0:0:0:0:
320,192,22389,1,8,0:0:0:0:
448,192,22389,1,0,0:0:0:0:
64,192,22551,1,2,0:0:0:0:
192,192,22714,1,0,0:0:0:0:
320,192,22876,1,2,0:0:0:0:
64,192,23038,1,8,0:0:0:0:
448,192,23038,1,0,0:0:0:0:
192,192,23200,1,0,0:0:0:0:
320,192,23524,1,2,0:0:0:0:
64,192,23687,1,8,0:0:0:0:
192,192,23687,1,0,0:0:0:0:
448,192,23849,1,2,0:0:0:0:
320,192,24011,1,2,0:0:0:0:
192,192,24173,1,2,0:0:0:0:
64,192,24335,1,8,0:0:0:0:
448,192,24335,1,0,0:0:0:0:
320,192,24660,1,2,0:0:0:0:
448,192,24660,1,0,0:0:0:0:
64,192,24984,1,8,0:0:0:0:
192,192,24984,1,0,0:0:0:0:
448,192,25146,1,2,0:0:0:0:
320,192,25308,1,0,0:0:0:0:
192,192,25470,1,2,0:0:0:0:
64,192,25633,1,8,0:0:0:0:
448,192,25633,1,0,0:0:0:0:
320,192,25795,1,0,0:0:0:0:
192,192,25957,1,0,0:0:0:0:
64,192,26119,1,2,0:0:0:0:
320,192,26281,1,8,0:0:0:0:
448,192,26281,1,0,0:0:0:0:
64,192,26443,1,2,0:0:0:0:
192,192,26606,1,2,0:0:0:0:
320,192,26768,1,2,0:0:0:0:
64,192,26930,1,8,0:0:0:0:
448,192,26930,1,0,0:0:0:0:
192,192,27092,1,2,0:0:0:0:
320,192,27254,128,0,27578:0:0:0:0:
64,192,27578,1,8,0:0:0:0:
192,192,27578,1,2,0:0:0:0:
320,192,27903,128,2,28227:0:0:0:0:
64,192,28227,1,8,0:0:0:0:
192,192,28227,1,2,0:0:0:0:
448,192,28389,128,2,28876:0:0:0:0:
64,192,28876,1,8,0:0:0:0:
192,192,28876,128,2,29200:0:0:0:0:
320,192,29200,128,2,29524:0:0:0:0:
64,192,29524,1,8,0:0:0:0:
448,192,29524,1,2,0:0:0:0:
320,192,29849,1,2,0:0:0:0:
64,192,30011,1,0,0:0:0:20:LR4_SnareBPDT.wav
448,192,30173,1,0,0:0:0:20:LR4_SnareBPDT.wav
192,192,30335,1,0,0:0:0:20:LR4_SnareBPDT.wav
64,192,30497,1,0,0:0:0:20:LR4_SnareBPDT.wav
320,192,30822,128,0,31146:0:0:0:0:
64,192,31146,1,2,0:0:0:0:
448,192,31146,1,4,0:0:0:0:
64,192,31470,1,8,0:0:0:0:
192,192,31470,1,0,0:0:0:0:
320,192,31795,1,0,0:0:0:0:
192,192,32119,1,8,0:0:0:0:
448,192,32119,1,0,0:0:0:0:
320,192,32443,1,0,0:0:0:0:
64,192,32768,1,8,0:0:0:0:
448,192,32768,1,0,0:0:0:0:
192,192,33092,1,2,0:0:0:0:
320,192,33416,1,8,0:0:0:0:
448,192,33416,1,0,0:0:0:0:
64,192,33741,1,2,0:0:0:0:
192,192,34065,1,8,0:0:0:0:
320,192,34065,1,0,0:0:0:0:
448,192,34227,1,2,0:0:0:0:
64,192,34389,1,0,0:0:0:0:
192,192,34551,1,2,0:0:0:0:
320,192,34714,1,8,0:0:0:0:
448,192,34714,1,0,0:0:0:0:
64,192,34876,1,0,0:0:0:0:
192,192,35200,1,2,0:0:0:0:
64,192,35362,1,8,0:0:0:0:
320,192,35362,1,0,0:0:0:0:
448,192,35524,1,2,0:0:0:0:
320,192,35687,1,2,0:0:0:0:
64,192,35849,128,2,36011:0:0:0:0:
320,192,36011,128,8,36335:0:0:0:0:
448,192,36011,1,0,0:0:0:0:
64,192,36335,1,2,0:0:0:0:
192,192,36335,1,0,0:0:0:0:
320,192,36660,1,8,0:0:0:0:
448,192,36660,1,0,0:0:0:0:
64,192,36984,1,0,0:0:0:0:
320,192,37308,1,8,0:0:0:0:
448,192,37308,1,0,0:0:0:0:
64,192,37633,1,0,0:0:0:0:
192,192,37957,1,8,0:0:0:0:
320,192,37957,1,0,0:0:0:0:
448,192,38281,1,2,0:0:0:0:
320,192,38443,1,2,0:0:0:0:
64,192,38606,1,8,0:0:0:0:
192,192,38606,1,0,0:0:0:0:
448,192,38768,1,2,0:0:0:0:
192,192,39092,1,2,0:0:0:0:
64,192,39254,1,8,0:0:0:0:
320,192,39254,1,0,0:0:0:0:
448,192,39416,1,0,0:0:0:0:
192,192,39578,1,2,0:0:0:0:
320,192,39741,1,2,0:0:0:0:
64,192,39903,1,8,0:0:0:0:
448,192,39903,1,0,0:0:0:0:
192,192,40065,1,2,0:0:0:0:
320,192,40389,1,2,0:0:0:0:
64,192,40551,1,8,0:0:0:0:
192,192,40551,1,0,0:0:0:0:
448,192,40714,1,2,0:0:0:0:
320,192,40876,128,2,41200:0:0:0:0:
64,192,41200,1,8,0:0:0:0:
448,192,41200,128,0,41524:0:0:0:0:
192,192,41524,1,2,0:0:0:0:
320,192,41524,1,4,0:0:0:0:
64,192,41849,1,8,0:0:0:0:
448,192,41849,1,0,0:0:0:0:
320,192,42173,1,0,0:0:0:0:
192,192,42497,1,8,0:0:0:0:
448,192,42497,1,0,0:0:0:0:
64,192,42822,1,0,0:0:0:0:
192,192,43146,1,8,0:0:0:0:
320,192,43146,1,0,0:0:0:0:
448,192,43470,1,2,0:0:0:0:
64,192,43795,1,8,0:0:0:0:
320,192,43795,1,0,0:0:0:0:
192,192,44119,1,2,0:0:0:0:
320,192,44443,1,8,0:0:0:0:
448,192,44443,1,0,0:0:0:0:
64,192,44606,1,2,0:0:0:0:
448,192,44768,1,2,0:0:0:0:
192,192,44930,1,2,0:0:0:0:
64,192,45092,1,8,0:0:0:0:
320,192,45092,1,0,0:0:0:0:
448,192,45254,1,0,0:0:0:0:
320,192,45578,1,2,0:0:0:0:
192,192,45741,1,8,0:0:0:0:
448,192,45741,1,0,0:0:0:0:
64,192,45903,1,2,0:0:0:0:
192,192,46065,1,2,0:0:0:0:
320,192,46227,128,2,46389:0:0:0:0:
64,192,46389,128,8,46714:0:0:0:0:
448,192,46389,1,0,0:0:0:0:
320,192,46714,1,2,0:0:0:0:
448,192,46714,1,0,0:0:0:0:
64,192,47038,1,8,0:0:0:0:
192,192,47038,1,0,0:0:0:0:
448,192,47362,1,0,0:0:0:0:
64,192,47687,1,8,0:0:0:0:
320,192,47687,1,0,0:0:0:0:
192,192,48011,1,0,0:0:0:0:
320,192,48335,1,8,0:0:0:0:
448,192,48335,1,0,0:0:0:0:
64,192,48660,1,2,0:0:0:0:
448,192,48822,1,8,0:0:0:0:
192,192,48984,1,8,0:0:0:0:
320,192,48984,1,0,0:0:0:0:
64,192,49146,1,2,0:0:0:0:
320,192,49308,1,2,0:0:0:0:
448,192,49308,1,0,0:0:0:0:
320,192,49795,1,2,0:0:0:0:
448,192,49795,1,0,0:0:0:0:
64,192,49957,1,0,0:0:0:0:
192,192,50119,1,0,0:0:0:0:
320,192,50281,1,0,0:0:0:0:
448,192,50443,1,0,0:0:0:0:
64,192,50606,1,2,0:0:0:0:
192,192,50606,1,0,0:0:0:0:
64,192,51092,1,2,0:0:0:0:
192,192,51092,1,0,0:0:0:0:
448,192,51254,1,0,0:0:0:0:
320,192,51416,1,0,0:0:0:0:
192,192,51578,1,0,0:0:0:0:
64,192,51741,1,2,0:0:0:0:
448,192,51741,1,0,0:0:0:0:
64,192,52227,1,2,0:0:0:0:
448,192,52227,1,0,0:0:0:0:
192,192,52551,1,0,0:0:0:22:LR4_ClapLRV.wav
320,192,52551,1,0,0:0:0:0:
64,192,52714,1,0,0:0:0:0:
192,192,53038,1,2,0:0:0:0:
320,192,53038,1,0,0:0:0:0:
64,192,53362,1,0,0:0:0:0:
448,192,53362,1,0,0:0:0:0:
192,192,53687,1,0,0:0:0:0:
320,192,53849,128,0,54173:0:0:0:22:LR4_ClapLRV.wav
448,192,53849,128,0,54173:0:0:0:0:
192,192,54497,128,0,54822:0:0:0:0:
64,192,55146,128,0,55470:0:0:0:0:
192,192,55795,128,0,56119:0:0:0:0:
320,192,56443,128,0,56768:0:0:0:0:
448,192,57092,128,0,57416:0:0:0:0:
320,192,57741,128,0,58065:0:0:0:0:
192,192,58389,128,0,58714:0:0:0:0:
448,192,59038,128,0,59362:0:0:0:0:
192,192,59687,128,0,60011:0:0:0:0:
448,192,60335,128,0,60660:0:0:0:0:
64,192,60984,128,0,61308:0:0:0:0:
320,192,61633,128,0,61957:0:0:0:0:
192,192,62281,128,0,62606:0:0:0:0:
320,192,62930,128,0,63254:0:0:0:0:
448,192,63578,128,0,63903:0:0:0:0:
320,192,64227,128,0,64714:0:0:0:0:
64,192,64714,1,2,0:0:0:0:
192,192,64714,1,4,0:0:0:0:
320,192,65200,1,0,0:0:0:70:LR4_SnarePHW.wav
192,192,65524,1,0,0:0:0:0:
64,192,65849,1,0,0:0:0:70:LR4_SnarePHW.wav
192,192,66011,1,2,0:0:0:0:
448,192,66011,1,4,0:0:0:70:cymbal_short.wav
320,192,66497,1,0,0:0:0:70:LR4_SnarePHW.wav
448,192,66822,1,0,0:0:0:0:
320,192,67146,1,0,0:0:0:70:LR4_SnarePHW.wav
64,192,67308,1,2,0:0:0:0:
192,192,67308,1,4,0:0:0:70:cymbal_short.wav
320,192,67795,1,0,0:0:0:70:LR4_SnarePHW.wav
192,192,68119,1,0,0:0:0:0:
64,192,68443,1,0,0:0:0:70:LR4_SnarePHW.wav
320,192,68606,1,2,0:0:0:0:
448,192,68606,1,4,0:0:0:70:cymbal_short.wav
64,192,69092,128,0,69416:0:0:0:70:LR4_SnarePHW.wav
192,192,69416,128,0,69741:0:0:0:0:
320,192,69741,128,0,70065:0:0:0:70:LR4_SnarePHW.wav
64,192,70065,1,6,0:0:0:0:
448,192,70065,1,8,0:0:0:40:LR_Snare Hat.wav
192,192,70389,1,0,0:0:0:70:LR_HiHat Synth Fast.wav
320,192,70714,1,0,0:0:0:70:LR_HiHat Synth Fast.wav
448,192,71038,1,0,0:0:0:70:LR_HiHat Synth Fast.wav
320,192,71362,1,2,0:0:0:0:
192,192,71687,1,0,0:0:0:70:LR_HiHat Synth Fast.wav
64,192,72011,1,0,0:0:0:70:LR_HiHat Synth Fast.wav
192,192,72335,1,0,0:0:0:70:LR_HiHat Synth Fast.wav
448,192,72660,1,2,0:0:0:0:
320,192,72822,1,0,0:0:0:0:
192,192,72984,1,0,0:0:0:70:LR_HiHat Synth Fast.wav
64,192,73146,1,0,0:0:0:0:
448,192,73308,1,0,0:0:0:70:LR_HiHat Synth Fast.wav
320,192,73470,1,2,0:0:0:0:
192,192,73633,1,0,0:0:0:70:LR_HiHat Synth Fast.wav
64,192,73795,1,2,0:0:0:0:
448,192,73795,1,0,0:0:0:0:
64,192,74119,1,2,0:0:0:0:
448,192,74119,1,0,0:0:0:0:
192,192,74281,1,2,0:0:0:0:
320,192,74281,1,0,0:0:0:0:
64,192,74606,128,0,75092:0:0:0:0:
448,192,74606,128,0,75092:0:0:0:0:
192,192,75092,1,4,0:0:0:0:
320,192,75092,1,2,0:0:0:0:
64,192,75416,1,2,0:0:0:0:
192,192,75578,1,8,0:0:0:0:
320,192,75578,1,2,0:0:0:0:
448,192,75741,1,0,0:0:0:70:LR5_HiHat NSynth.wav
320,192,75903,1,2,0:0:0:0:
192,192,76065,1,0,0:0:0:70:LR5_HiHat NSynth.wav
320,192,76227,1,2,0:0:0:0:
448,192,76227,1,8,0:0:0:0:
64,192,76389,1,0,0:0:0:70:LR5_HiHat NSynth.wav
192,192,76389,1,0,0:0:0:0:
448,192,76714,1,0,0:0:0:70:LR5_HiHat NSynth.wav
64,192,76876,1,2,0:0:0:0:
192,192,76876,1,8,0:0:0:0:
448,192,77038,1,0,0:0:0:70:LR5_HiHat NSynth.wav
320,192,77200,1,2,0:0:0:0:
192,192,77362,1,0,0:0:0:70:LR5_HiHat NSynth.wav
320,192,77524,1,8,0:0:0:0:
448,192,77524,1,2,0:0:0:0:
64,192,77687,1,0,0:0:0:70:LR5_HiHat NSynth.wav
192,192,78173,1,8,0:0:0:0:
320,192,78173,1,2,0:0:0:0:
448,192,78335,1,0,0:0:0:70:LR5_HiHat NSynth.wav
64,192,78497,1,2,0:0:0:0:
192,192,78660,1,0,0:0:0:70:LR5_HiHat NSynth.wav
320,192,78822,1,8,0:0:0:0:
448,192,78822,1,2,0:0:0:0:
64,192,78984,1,0,0:0:0:70:LR5_HiHat NSynth.wav
192,192,78984,1,0,0:0:0:0:
448,192,79308,1,0,0:0:0:70:LR5_HiHat NSynth.wav
192,192,79470,1,8,0:0:0:0:
320,192,79470,1,2,0:0:0:0:
448,192,79633,1,0,0:0:0:70:LR5_HiHat NSynth.wav
64,192,79795,1,2,0:0:0:0:
192,192,79795,1,0,0:0:0:0:
320,192,79957,1,0,0:0:0:70:LR5_HiHat NSynth.wav
448,192,79957,1,0,0:0:0:0:
64,192,80119,1,8,0:0:0:0:
192,192,80119,1,2,0:0:0:0:
320,192,80281,128,2,80606:0:0:0:0:
192,192,80606,1,2,0:0:0:0:
64,192,80768,1,10,0:0:0:0:
448,192,80768,1,4,0:0:0:0:
192,192,81092,1,2,0:0:0:0:
320,192,81254,1,0,0:0:0:70:LR5_HiHat NSynth.wav
64,192,81416,1,8,0:0:0:0:
448,192,81416,1,2,0:0:0:0:
320,192,81578,1,0,0:0:0:70:LR5_HiHat NSynth.wav
192,192,81741,1,2,0:0:0:0:
64,192,81903,1,0,0:0:0:70:LR5_HiHat NSynth.wav
320,192,82065,1,8,0:0:0:0:
448,192,82065,1,2,0:0:0:0:
64,192,82389,1,2,0:0:0:0:
192,192,82551,1,0,0:0:0:70:LR5_HiHat NSynth.wav
320,192,82714,1,8,0:0:0:0:
448,192,82714,1,2,0:0:0:0:
64,192,82876,1,0,0:0:0:70:LR5_HiHat NSynth.wav
448,192,83200,1,2,0:0:0:0:
320,192,83362,1,10,0:0:0:0:
192,192,83524,1,2,0:0:0:0:
320,192,83687,1,2,0:0:0:0:
448,192,83687,1,0,0:0:0:0:
64,192,83849,1,2,0:0:0:0:
192,192,83849,1,0,0:0:0:70:LR5_HiHat NSynth.wav
320,192,84011,1,2,0:0:0:0:
448,192,84011,1,8,0:0:0:0:
64,192,84173,1,2,0:0:0:0:
192,192,84173,1,0,0:0:0:70:LR5_HiHat NSynth.wav
448,192,84497,1,0,0:0:0:0:
320,192,84660,1,0,0:0:0:0:
192,192,84822,1,0,0:0:0:0:
64,192,85146,1,0,0:0:0:30:LR4_SnareBPDT.wav
448,192,85146,1,0,0:0:0:0:
192,192,85470,1,2,0:0:0:0:
320,192,85470,1,4,0:0:0:0:
64,192,85957,1,8,0:0:0:0:
320,192,85957,1,2,0:0:0:0:
448,192,86119,1,0,0:0:0:70:LR5_HiHat NSynth.wav
192,192,86281,1,2,0:0:0:0:
320,192,86443,1,0,0:0:0:70:LR5_HiHat NSynth.wav
64,192,86606,1,2,0:0:0:0:
448,192,86606,1,8,0:0:0:0:
192,192,86768,1,0,0:0:0:70:LR5_HiHat NSynth.wav
320,192,86768,1,0,0:0:0:0:
448,192,87092,1,0,0:0:0:70:LR5_HiHat NSynth.wav
64,192,87254,1,8,0:0:0:0:
320,192,87254,1,2,0:0:0:0:
192,192,87416,1,0,0:0:0:70:LR5_HiHat NSynth.wav
448,192,87578,1,2,0:0:0:0:
320,192,87741,1,0,0:0:0:70:LR5_HiHat NSynth.wav
64,192,87903,1,8,0:0:0:0:
192,192,87903,1,2,0:0:0:0:
320,192,88065,1,0,0:0:0:70:LR5_HiHat NSynth.wav
448,192,88065,1,0,0:0:0:0:
320,192,88389,1,0,0:0:0:70:LR5_HiHat NSynth.wav
64,192,88551,1,8,0:0:0:0:
192,192,88551,1,2,0:0:0:0:
448,192,88714,1,0,0:0:0:70:LR5_HiHat NSynth.wav
320,192,88876,1,2,0:0:0:0:
192,192,89038,1,0,0:0:0:70:LR5_HiHat NSynth.wav
64,192,89200,1,8,0:0:0:0:
448,192,89200,1,2,0:0:0:0:
192,192,89362,1,0,0:0:0:70:LR5_HiHat NSynth.wav
320,192,89362,1,0,0:0:0:0:
448,192,89687,1,0,0:0:0:70:LR5_HiHat NSynth.wav
192,192,89849,1,8,0:0:0:0:
320,192,89849,1,2,0:0:0:0:
448,192,90011,1,0,0:0:0:70:LR5_HiHat NSynth.wav
64,192,90173,1,2,0:0:0:0:
192,192,90173,1,0,0:0:0:0:
320,192,90335,1,0,0:0:0:70:LR5_HiHat NSynth.wav
448,192,90335,1,0,0:0:0:0:
64,192,90497,1,8,0:0:0:0:
192,192,90497,1,2,0:0:0:0:
320,192,90660,128,0,90984:0:0:0:0:
192,192,90984,1,2,0:0:0:0:
64,192,91146,1,10,0:0:0:0:
448,192,91146,1,4,0:0:0:0:
192,192,91470,1,2,0:0:0:0:
64,192,91633,1,0,0:0:0:70:LR5_HiHat NSynth.wav
320,192,91795,1,2,0:0:0:0:
448,192,91795,1,8,0:0:0:0:
64,192,91957,1,10,0:0:0:0:
192,192,91957,1,0,0:0:0:70:LR5_HiHat NSynth.wav
64,192,92281,1,2,0:0:0:0:
192,192,92281,1,0,0:0:0:70:LR5_HiHat NSynth.wav
320,192,92605,1,2,0:0:0:0:
448,192,92605,1,0,0:0:0:70:LR5_HiHat NSynth.wav
320,192,92929,1,2,0:0:0:0:
448,192,92929,1,0,0:0:0:70:LR5_HiHat NSynth.wav
64,192,93254,1,6,0:0:0:0:
192,192,93254,1,0,0:0:0:70:LR5_HiHat NSynth.wav
320,192,93578,1,2,0:0:0:0:
448,192,93740,1,2,0:0:0:0:
64,192,93902,1,0,0:0:0:0:
192,192,94065,1,8,0:0:0:70:LR4_ClapLRV.wav
320,192,94227,1,0,0:0:0:0:
448,192,94389,1,0,0:0:0:0:
64,192,94551,1,2,0:0:0:0:
192,192,94551,1,0,0:0:0:0:
320,192,94875,1,2,0:0:0:0:
448,192,95038,1,2,0:0:0:0:
320,192,95200,1,0,0:0:0:0:
192,192,95362,1,8,0:0:0:70:LR4_ClapLRV.wav
448,192,95524,1,2,0:0:0:0:
320,192,95686,1,0,0:0:0:0:
64,192,95848,1,2,0:0:0:0:
192,192,95848,1,0,0:0:0:0:
448,192,96173,1,2,0:0:0:0:
64,192,96335,1,2,0:0:0:0:
192,192,96497,1,8,0:0:0:70:LR4_ClapLRV.wav
320,192,96659,1,8,0:0:0:70:LR4_ClapLRV.wav
448,192,96821,1,2,0:0:0:0:
192,192,96984,1,2,0:0:0:0:
64,192,97146,1,0,0:0:0:0:
320,192,97308,1,2,0:0:0:0:
448,192,97308,1,0,0:0:0:70:cymbal_short.wav
64,192,97470,1,2,0:0:0:0:
192,192,97470,1,0,0:0:0:70:cymbal_short.wav
320,192,97632,128,2,97956:0:0:0:0:
448,192,97632,128,0,97956:0:0:0:70:cymbal_short.wav
64,192,98605,1,2,0:0:0:0:
192,192,98605,1,0,0:0:0:0:
320,192,99091,1,2,0:0:0:0:
448,192,99091,1,0,0:0:0:0:
64,192,99253,1,2,0:0:0:0:
192,192,99253,1,0,0:0:0:0:
192,192,99740,1,2,0:0:0:0:
320,192,99740,1,0,0:0:0:0:
192,192,100064,1,2,0:0:0:0:
320,192,100064,1,0,0:0:0:0:
64,192,100389,1,2,0:0:0:0:
448,192,100389,1,0,0:0:0:0:
192,192,100551,1,2,0:0:0:0:
320,192,100551,1,0,0:0:0:0:
192,192,100875,128,0,101199:0:0:0:0:
320,192,101199,1,2,0:0:0:0:
448,192,101199,1,4,0:0:0:0:
64,192,101524,1,8,0:0:0:0:
192,192,101524,1,0,0:0:0:0:
320,192,101686,1,2,0:0:0:0:
448,192,101848,1,0,0:0:0:0:
64,192,102010,1,2,0:0:0:0:
192,192,102172,1,8,0:0:0:0:
320,192,102172,1,0,0:0:0:0:
448,192,102335,1,0,0:0:0:0:
320,192,102497,1,0,0:0:0:0:
192,192,102659,1,2,0:0:0:0:
64,192,102821,1,8,0:0:0:0:
448,192,102821,1,0,0:0:0:0:
192,192,102983,1,2,0:0:0:0:
320,192,103145,1,2,0:0:0:0:
192,192,103308,1,2,0:0:0:0:
64,192,103470,1,8,0:0:0:0:
448,192,103470,1,0,0:0:0:0:
192,192,103632,1,0,0:0:0:0:
320,192,103794,1,2,0:0:0:0:
448,192,103794,1,0,0:0:0:0:
64,192,104118,1,8,0:0:0:0:
192,192,104118,1,0,0:0:0:0:
320,192,104280,1,2,0:0:0:0:
448,192,104443,1,0,0:0:0:0:
320,192,104605,1,2,0:0:0:0:
64,192,104767,1,8,0:0:0:0:
192,192,104767,1,0,0:0:0:0:
320,192,104929,1,0,0:0:0:0:
448,192,104929,1,0,0:0:0:0:
192,192,105253,1,2,0:0:0:0:
320,192,105416,1,8,0:0:0:0:
448,192,105416,1,0,0:0:0:0:
192,192,105578,1,2,0:0:0:0:
64,192,105740,1,2,0:0:0:0:
192,192,105902,1,2,0:0:0:0:
320,192,106064,1,8,0:0:0:0:
448,192,106064,1,0,0:0:0:0:
64,192,106389,1,2,0:0:0:0:
192,192,106389,1,0,0:0:0:0:
320,192,106713,1,8,0:0:0:0:
448,192,106713,1,0,0:0:0:0:
192,192,106875,1,2,0:0:0:0:
64,192,107037,1,0,0:0:0:0:
320,192,107199,1,2,0:0:0:0:
64,192,107362,1,8,0:0:0:0:
448,192,107362,1,0,0:0:0:0:
192,192,107524,1,0,0:0:0:0:
320,192,107686,1,0,0:0:0:0:
448,192,107848,1,2,0:0:0:0:
64,192,108010,1,8,0:0:0:0:
192,192,108010,1,0,0:0:0:0:
320,192,108172,1,2,0:0:0:0:
448,192,108335,1,2,0:0:0:0:
320,192,108497,1,2,0:0:0:0:
64,192,108659,1,8,0:0:0:0:
192,192,108659,1,0,0:0:0:0:
448,192,108821,1,2,0:0:0:0:
192,192,108983,128,0,109307:0:0:0:0:
320,192,109307,1,8,0:0:0:0:
448,192,109307,1,2,0:0:0:0:
192,192,109632,128,2,109956:0:0:0:0:
320,192,109956,1,8,0:0:0:0:
448,192,109956,1,2,0:0:0:0:
64,192,110118,128,2,110605:0:0:0:0:
320,192,110605,128,8,110929:0:0:0:0:
448,192,110605,1,2,0:0:0:0:
192,192,110929,128,2,111253:0:0:0:0:
320,192,111253,1,8,0:0:0:0:
448,192,111253,1,2,0:0:0:0:
192,192,111578,1,2,0:0:0:0:
320,192,111740,1,0,0:0:0:20:LR4_SnareBPDT.wav
64,192,111902,1,0,0:0:0:20:LR4_SnareBPDT.wav
192,192,112064,1,0,0:0:0:20:LR4_SnareBPDT.wav
320,192,112226,1,0,0:0:0:20:LR4_SnareBPDT.wav
448,192,112551,128,0,112875:0:0:0:0:
64,192,112875,1,2,0:0:0:0:
192,192,112875,1,0,0:0:0:0:
192,192,113362,1,2,0:0:0:0:
320,192,113362,1,0,0:0:0:0:
64,192,113524,1,2,0:0:0:0:
448,192,113524,1,0,0:0:0:0:
192,192,114010,1,2,0:0:0:0:
320,192,114010,1,0,0:0:0:0:
192,192,114335,1,2,0:0:0:0:
320,192,114335,1,0,0:0:0:0:
64,192,114659,1,2,0:0:0:0:
192,192,114659,1,0,0:0:0:0:
320,192,114821,1,2,0:0:0:0:
448,192,114821,1,0,0:0:0:0:
64,192,115145,128,0,115794:0:0:0:20:LR4_ClapLRV.wav
192,192,115145,128,0,115794:0:0:0:0:
