osu file format v14

[General]
AudioFilename: audio.mp3
AudioLeadIn: 0
PreviewTime: 75011
Countdown: 0
SampleSet: Soft
StackLeniency: 0.3
Mode: 3
LetterboxInBreaks: 0
SpecialStyle: 0
WidescreenStoryboard: 0

[Editor]
DistanceSpacing: 0.6
BeatDivisor: 4
GridSize: 4
TimelineZoom: 2

[Metadata]
Title:Fuwa Mofu Happiness 24/7!! (Short Ver.)
TitleUnicode:ふわもふはぴねす24/7!! (Short Ver.)
Artist:Nanahira x Camellia
ArtistUnicode:ななひら×かめりあ
Creator:My Angel RangE
Version:24/7 Happiness!!
Source:もふもふな放課後
Tags:p19 narutaki cao. C95 japanese もふかごプロジェクト Mofukago project mofumofu afterschool jpop j-pop pop DenYi MARE hapinesu
BeatmapID:1862336
BeatmapSetID:890867

[Difficulty]
HPDrainRate:8
CircleSize:4
OverallDifficulty:8
ApproachRate:9.4
SliderMultiplier:1.4
SliderTickRate:1

[Events]
//Background and Video events
0,0,"879.jpg",0,0
//Break Periods
//Storyboard Layer 0 (Background)
//Storyboard Layer 1 (Fail)
//Storyboard Layer 2 (Pass)
//Storyboard Layer 3 (Foreground)
//Storyboard Layer 4 (Overlay)
//Storyboard Sound Samples
Sample,73957,0,"LR4_SnarePHW.wav",70
Sample,83524,0,"LR5_HiHat NSynth.wav",70

[TimingPoints]
1309,324.324324324324,4,2,1,70,1,0
3741,324.324324324324,4,2,1,70,1,0
11524,-100,4,2,1,70,0,0
15579,324.324324324324,4,2,1,70,1,0
31146,-100,4,2,1,70,0,0
54498,-100,4,2,1,70,0,0
64714,-100,4,2,1,70,0,0
75092,-100,4,2,1,70,0,1
91957,324.324324324324,4,2,1,70,1,1
97308,324.324324324324,4,2,1,70,1,1
98605,-100,4,2,1,70,0,0
112551,-100,4,2,1,70,0,0

[HitObjects]
320,192,1309,5,0,0:0:0:70:LR2_HHatRvHw.wav
448,192,1309,1,0,0:0:0:0:
64,192,1471,1,0,0:0:0:70:LR2_HHatRvHw.wav
192,192,1552,1,0,0:0:0:70:LR2_HHatRvHw.wav
320,192,1633,1,0,0:0:0:70:LR2_HHatRvHw.wav
448,192,1633,1,0,0:0:0:0:
64,192,1795,1,0,0:0:0:70:LR2_HHatRvHw.wav
192,192,1876,1,0,0:0:0:0:
320,192,1957,1,0,0:0:0:70:LR2_HHatRvHw.wav
448,192,1957,1,0,0:0:0:0:
192,192,2038,1,0,0:0:0:70:LR2_HHatRvHw.wav
64,192,2119,1,0,0:0:0:70:LR2_HHatRvHw.wav
320,192,2281,1,0,0:0:0:70:LR2_HHatRvHw.wav
448,192,2281,1,0,0:0:0:0:
64,192,2444,1,0,0:0:0:70:LR2_HHatRvHw.wav
192,192,2525,1,0,0:0:0:70:LR2_HHatRvHw.wav
320,192,2606,1,0,0:0:0:70:LR2_HHatRvHw.wav
448,192,2606,1,0,0:0:0:0:
64,192,2768,1,0,0:0:0:70:LR2_HHatRvHw.wav
192,192,2808,1,0,0:0:0:70:LR2_HHatRvHw.wav
320,192,2849,1,0,0:0:0:70:LR2_HHatRvHw.wav
448,192,2890,1,0,0:0:0:70:LR2_HHatRvHw.wav
64,192,2930,1,0,0:0:0:70:LR2_HHatRvHw.wav
192,192,3011,1,0,0:0:0:0:
448,192,3092,1,0,0:0:0:70:LR2_HHatRvHw.wav
320,192,3133,1,0,0:0:0:70:LR2_HHatRvHw.wav
192,192,3173,1,0,0:0:0:70:LR2_HHatRvHw.wav
64,192,3214,1,0,0:0:0:70:LR2_HHatRvHw.wav
320,192,3254,1,0,0:0:0:30:LR4_SnareBPDT.wav
448,192,3254,1,0,0:0:0:0:
64,192,3336,1,0,0:0:0:30:LR4_SnareBPDT.wav
192,192,3336,1,0,0:0:0:0:
320,192,3417,1,0,0:0:0:30:LR4_SnareBPDT.wav
448,192,3417,1,0,0:0:0:0:
64,192,3498,1,0,0:0:0:30:LR4_SnareBPDT.wav
192,192,3498,1,0,0:0:0:0:
320,192,3579,1,0,0:0:0:30:LR4_SnareBPDT.wav
448,192,3579,1,0,0:0:0:0:
64,192,3741,128,2,4065:0:0:0:0:
192,192,3741,128,0,4065:0:0:0:0:
448,192,3741,128,0,4065:0:0:0:0:
64,192,5038,128,2,5281:0:0:0:0:
320,192,5038,128,0,5281:0:0:0:0:
448,192,5038,128,0,5281:0:0:0:0:
64,192,5362,128,2,5443:0:0:0:0:
192,192,5362,128,0,5443:0:0:0:0:
320,192,5524,128,2,5605:0:0:0:0:
448,192,5524,128,0,5605:0:0:0:0:
64,192,5686,128,2,5849:0:0:0:0:
192,192,5686,128,0,5849:0:0:0:0:
448,192,5849,128,0,6011:0:0:0:0:
320,192,6011,128,0,6173:0:0:0:0:
192,192,6173,128,0,6335:0:0:0:0:
64,192,6335,128,2,6659:0:0:0:0:
320,192,6335,128,0,6659:0:0:0:0:
448,192,6335,128,0,6659:0:0:0:0:
448,192,7146,1,0,0:0:0:0:
320,192,7227,1,0,0:0:0:0:
64,192,7308,1,0,0:0:0:0:
192,192,7389,1,0,0:0:0:0:
448,192,7470,1,0,0:0:0:0:
320,192,7551,1,0,0:0:0:0:
64,192,7632,128,2,7876:0:0:0:0:
192,192,7632,128,0,7876:0:0:0:0:
448,192,7632,128,0,7876:0:0:0:0:
64,192,7957,128,2,8038:0:0:0:0:
192,192,7957,128,0,8038:0:0:0:0:
320,192,8119,128,2,8200:0:0:0:0:
448,192,8119,128,0,8200:0:0:0:0:
64,192,8281,128,2,8443:0:0:0:0:
192,192,8281,128,0,8443:0:0:0:0:
448,192,8443,128,0,8605:0:0:0:0:
64,192,8605,128,0,8768:0:0:0:0:
320,192,8768,128,0,8930:0:0:0:0:
64,192,8930,1,2,0:0:0:0:
192,192,8930,1,0,0:0:0:0:
448,192,8930,1,0,0:0:0:0:
64,192,9092,1,0,0:0:0:0:
192,192,9173,1,0,0:0:0:0:
320,192,9254,1,2,0:0:0:0:
448,192,9335,1,2,0:0:0:0:
64,192,9416,128,4,9740:0:0:0:0:
192,192,9416,128,2,9740:0:0:0:0:
320,192,9416,128,0,9740:0:0:0:0:
448,192,9740,128,0,10146:0:0:0:0:
320,192,9903,128,0,10146:0:0:0:0:
192,192,10065,128,0,10146:0:0:0:0:
64,192,10227,1,2,0:0:0:0:
320,192,10227,128,0,10470:0:0:0:0:
448,192,10227,128,0,10470:0:0:0:0:
64,192,10551,128,2,10795:0:0:0:0:
192,192,10551,128,0,10795:0:0:0:0:
448,192,10551,1,0,0:0:0:0:
64,192,10876,1,2,0:0:0:0:
320,192,10876,128,0,11119:0:0:0:0:
448,192,10876,128,0,11119:0:0:0:0:
64,192,11200,128,2,11443:0:0:0:0:
192,192,11200,128,0,11443:0:0:0:0:
448,192,11200,1,0,0:0:0:0:
192,192,11524,1,2,0:0:0:0:
320,192,11524,128,4,12659:0:0:0:0:
448,192,11524,128,8,12011:0:0:0:40:LR_Snare Hat.wav
64,192,11849,1,2,0:0:0:0:
192,192,12011,1,2,0:0:0:0:
448,192,12173,1,0,0:0:0:0:
64,192,12335,1,0,0:0:0:30:LR4_ClapLRV.wav
192,192,12335,1,0,0:0:0:0:
448,192,12497,1,0,0:0:0:0:
64,192,12659,1,0,0:0:0:0:
192,192,12822,128,2,13957:0:0:0:0:
320,192,12822,1,0,0:0:0:0:
448,192,12822,128,0,13308:0:0:0:0:
64,192,12984,1,0,0:0:0:0:
320,192,13146,1,2,0:0:0:0:
64,192,13308,1,2,0:0:0:0:
448,192,13470,1,0,0:0:0:0:
64,192,13632,1,0,0:0:0:70:LR4_ClapLRV.wav
320,192,13632,1,0,0:0:0:0:
448,192,13795,1,2,0:0:0:0:
320,192,13876,1,0,0:0:0:0:
448,192,13957,1,0,0:0:0:0:
64,192,14119,128,2,15579:0:0:0:0:
320,192,14119,1,0,0:0:0:0:
448,192,14119,128,0,14605:0:0:0:0:
192,192,14281,1,0,0:0:0:0:
320,192,14443,1,2,0:0:0:0:
192,192,14605,1,2,0:0:0:0:
448,192,14768,1,0,0:0:0:70:LR4_ClapLRV.wav
192,192,14930,1,0,0:0:0:70:LR4_ClapLRV.wav
320,192,14930,1,0,0:0:0:0:
448,192,15092,128,2,15416:0:0:0:0:
320,192,15254,128,2,15416:0:0:0:0:
192,192,15416,1,0,0:0:0:0:
192,192,15579,1,2,0:0:0:0:
320,192,15579,1,0,0:0:0:70:cymbal_short.wav
448,192,15579,1,0,0:0:0:0:
64,192,15741,1,2,0:0:0:0:
320,192,15741,1,0,0:0:0:70:cymbal_short.wav
448,192,15741,1,0,0:0:0:0:
64,192,15903,128,2,16227:0:0:0:0:
192,192,15903,128,0,16227:0:0:0:70:cymbal_short.wav
320,192,15903,128,0,16227:0:0:0:0:
192,192,16551,128,0,16876:0:0:0:0:
64,192,16876,128,2,17038:0:0:0:0:
320,192,16876,128,0,17038:0:0:0:0:
448,192,16876,128,0,17038:0:0:0:0:
64,192,17362,1,2,0:0:0:0:
320,192,17362,1,0,0:0:0:0:
448,192,17362,1,0,0:0:0:0:
64,192,17524,128,2,17849:0:0:0:0:
192,192,17524,128,0,17849:0:0:0:0:
448,192,17524,128,0,17849:0:0:0:0:
192,192,18011,128,2,18173:0:0:0:0:
320,192,18011,128,0,18173:0:0:0:0:
448,192,18011,128,0,18173:0:0:0:0:
64,192,18335,128,2,18497:0:0:0:0:
192,192,18335,128,0,18497:0:0:0:0:
320,192,18335,128,0,18497:0:0:0:0:
64,192,18660,1,2,0:0:0:0:
320,192,18660,1,0,0:0:0:0:
448,192,18660,1,0,0:0:0:0:
64,192,18822,128,2,18984:0:0:0:0:
320,192,18822,128,0,18984:0:0:0:0:
448,192,18822,128,0,18984:0:0:0:0:
64,192,19146,1,0,0:0:0:0:
448,192,19146,1,0,0:0:0:0:
320,192,19227,1,0,0:0:0:0:
192,192,19308,1,0,0:0:0:0:
64,192,19389,1,0,0:0:0:0:
192,192,19470,128,2,19795:0:0:0:0:
320,192,19470,128,4,19633:0:0:0:0:
448,192,19470,128,0,19633:0:0:0:0:
64,192,19795,128,8,19957:0:0:0:0:
320,192,19795,128,0,19957:0:0:0:0:
448,192,19795,128,0,19957:0:0:0:0:
192,192,19957,128,2,20119:0:0:0:0:
64,192,20119,128,0,20281:0:0:0:0:
448,192,20119,128,0,20281:0:0:0:0:
320,192,20281,128,2,20443:0:0:0:0:
64,192,20443,128,8,20606:0:0:0:0:
192,192,20443,128,0,20606:0:0:0:0:
448,192,20443,128,0,20606:0:0:0:0:
320,192,20606,128,0,20930:0:0:0:0:
192,192,20768,128,0,20930:0:0:0:0:
448,192,20768,128,0,20930:0:0:0:0:
64,192,20930,128,2,21092:0:0:0:0:
192,192,21092,128,8,21254:0:0:0:0:
320,192,21092,1,0,0:0:0:0:
448,192,21092,128,0,21416:0:0:0:0:
320,192,21254,128,2,21416:0:0:0:0:
64,192,21416,1,2,0:0:0:0:
192,192,21416,1,0,0:0:0:0:
192,192,21578,1,2,0:0:0:0:
320,192,21578,1,0,0:0:0:0:
64,192,21741,1,8,0:0:0:0:
320,192,21741,1,0,0:0:0:0:
448,192,21741,1,0,0:0:0:0:
192,192,21903,1,0,0:0:0:0:
320,192,21903,1,0,0:0:0:0:
64,192,22065,128,2,22227:0:0:0:0:
192,192,22065,128,0,22227:0:0:0:0:
448,192,22065,128,0,22389:0:0:0:0:
64,192,22389,128,8,22551:0:0:0:0:
192,192,22389,128,0,22551:0:0:0:0:
320,192,22389,128,0,22551:0:0:0:0:
448,192,22551,128,2,22714:0:0:0:0:
192,192,22714,128,0,22876:0:0:0:0:
320,192,22714,128,0,22876:0:0:0:0:
64,192,22876,128,2,23038:0:0:0:0:
192,192,23038,1,8,0:0:0:0:
320,192,23038,128,0,23200:0:0:0:0:
448,192,23038,128,0,23200:0:0:0:0:
64,192,23200,128,0,23443:0:0:0:0:
192,192,23200,128,0,23443:0:0:0:0:
64,192,23524,128,2,23687:0:0:0:0:
192,192,23524,128,0,23687:0:0:0:0:
320,192,23687,128,8,23849:0:0:0:0:
448,192,23687,128,0,23849:0:0:0:0:
64,192,23849,128,2,24011:0:0:0:0:
192,192,23849,128,0,24011:0:0:0:0:
320,192,24011,128,2,24173:0:0:0:0:
448,192,24011,128,0,24173:0:0:0:0:
64,192,24173,1,2,0:0:0:0:
192,192,24254,1,0,0:0:0:0:
64,192,24335,128,8,24497:0:0:0:0:
320,192,24335,128,0,24497:0:0:0:0:
448,192,24335,128,0,24660:0:0:0:0:
64,192,24660,128,2,24984:0:0:0:0:
192,192,24660,128,0,24822:0:0:0:0:
320,192,24660,128,0,24822:0:0:0:0:
192,192,24984,128,8,25146:0:0:0:0:
320,192,24984,128,0,25146:0:0:0:0:
448,192,24984,128,0,25146:0:0:0:0:
64,192,25146,128,2,25308:0:0:0:0:
192,192,25308,128,0,25470:0:0:0:0:
320,192,25308,128,0,25470:0:0:0:0:
448,192,25470,128,2,25633:0:0:0:0:
64,192,25633,128,8,25795:0:0:0:0:
192,192,25633,128,0,25795:0:0:0:0:
320,192,25633,1,0,0:0:0:0:
320,192,25795,128,0,26119:0:0:0:0:
64,192,25957,128,0,26119:0:0:0:0:
448,192,25957,128,0,26119:0:0:0:0:
192,192,26119,128,2,26281:0:0:0:0:
64,192,26281,1,8,0:0:0:0:
320,192,26281,128,0,26443:0:0:0:0:
448,192,26281,128,0,26606:0:0:0:0:
64,192,26443,128,2,26606:0:0:0:0:
192,192,26606,1,2,0:0:0:0:
320,192,26606,1,0,0:0:0:0:
320,192,26768,1,2,0:0:0:0:
448,192,26768,1,0,0:0:0:0:
64,192,26930,1,8,0:0:0:0:
192,192,26930,1,0,0:0:0:0:
448,192,26930,1,0,0:0:0:0:
64,192,27092,1,2,0:0:0:0:
192,192,27092,1,0,0:0:0:0:
320,192,27092,1,0,0:0:0:0:
320,192,27254,128,0,27416:0:0:0:0:
448,192,27254,128,0,27416:0:0:0:0:
192,192,27416,128,2,27578:0:0:0:0:
64,192,27578,1,8,0:0:0:0:
320,192,27578,128,2,27903:0:0:0:0:
448,192,27578,128,0,27903:0:0:0:0:
64,192,27903,128,2,28065:0:0:0:0:
192,192,27903,128,0,28065:0:0:0:0:
320,192,28065,128,0,28227:0:0:0:0:
64,192,28227,1,8,0:0:0:0:
192,192,28227,1,2,0:0:0:0:
448,192,28227,1,0,0:0:0:0:
64,192,28389,128,2,28714:0:0:0:0:
320,192,28389,128,0,28714:0:0:0:0:
448,192,28389,128,0,28714:0:0:0:0:
192,192,28714,1,2,0:0:0:0:
192,192,28876,128,8,29038:0:0:0:0:
320,192,28876,128,2,29038:0:0:0:0:
448,192,28876,128,0,29038:0:0:0:0:
64,192,29038,128,0,29200:0:0:0:0:
192,192,29200,128,2,29362:0:0:0:0:
320,192,29200,1,0,0:0:0:0:
448,192,29200,128,0,29362:0:0:0:0:
320,192,29362,128,0,29524:0:0:0:0:
64,192,29524,128,8,29687:0:0:0:0:
192,192,29524,128,2,29687:0:0:0:0:
448,192,29524,128,0,29687:0:0:0:0:
64,192,29849,1,2,0:0:0:0:
448,192,29849,1,0,0:0:0:20:LR4_SnareBPDT.wav
320,192,29930,1,0,0:0:0:20:LR4_SnareBPDT.wav
192,192,30011,1,0,0:0:0:20:LR4_SnareBPDT.wav
320,192,30092,1,0,0:0:0:20:LR4_SnareBPDT.wav
64,192,30173,1,0,0:0:0:20:LR4_SnareBPDT.wav
448,192,30173,1,0,0:0:0:0:
192,192,30254,1,0,0:0:0:20:LR4_SnareBPDT.wav
320,192,30335,1,0,0:0:0:20:LR4_SnareBPDT.wav
192,192,30416,1,0,0:0:0:20:LR4_SnareBPDT.wav
320,192,30497,1,0,0:0:0:20:LR4_SnareBPDT.wav
448,192,30497,1,0,0:0:0:0:
64,192,30822,1,0,0:0:0:0:
192,192,30903,1,0,0:0:0:0:
448,192,30984,1,0,0:0:0:0:
320,192,31065,1,0,0:0:0:0:
64,192,31146,128,2,31308:0:0:0:0:
192,192,31146,128,4,31308:0:0:0:0:
448,192,31146,128,0,31308:0:0:0:0:
320,192,31308,1,0,0:0:0:0:
64,192,31470,1,8,0:0:0:0:
192,192,31470,1,0,0:0:0:0:
448,192,31470,1,0,0:0:0:0:
192,192,31633,128,2,31714:0:0:0:0:
320,192,31633,128,0,31714:0:0:0:0:
192,192,31795,128,0,31957:0:0:0:0:
320,192,31795,128,0,31957:0:0:0:0:
64,192,31957,1,2,0:0:0:0:
64,192,32119,1,8,0:0:0:0:
320,192,32119,1,0,0:0:0:0:
448,192,32119,1,0,0:0:0:0:
64,192,32281,128,0,32362:0:0:0:0:
192,192,32281,128,0,32362:0:0:0:0:
64,192,32443,128,0,32606:0:0:0:0:
192,192,32443,128,0,32606:0:0:0:0:
320,192,32606,1,2,0:0:0:0:
64,192,32768,1,8,0:0:0:0:
192,192,32768,1,0,0:0:0:0:
448,192,32768,1,0,0:0:0:0:
320,192,32930,128,2,33011:0:0:0:0:
448,192,32930,128,0,33011:0:0:0:0:
320,192,33092,128,2,33254:0:0:0:0:
448,192,33092,128,0,33254:0:0:0:0:
192,192,33254,1,2,0:0:0:0:
64,192,33416,1,8,0:0:0:0:
192,192,33416,1,0,0:0:0:0:
448,192,33416,1,0,0:0:0:0:
192,192,33578,128,2,33660:0:0:0:0:
320,192,33578,128,0,33660:0:0:0:0:
192,192,33741,128,2,33903:0:0:0:0:
320,192,33741,128,0,33903:0:0:0:0:
64,192,34065,128,8,34227:0:0:0:0:
192,192,34065,128,0,34227:0:0:0:0:
448,192,34065,128,0,34227:0:0:0:0:
320,192,34227,128,2,34389:0:0:0:0:
64,192,34389,128,0,34551:0:0:0:0:
448,192,34389,128,0,34551:0:0:0:0:
192,192,34551,128,2,34714:0:0:0:0:
64,192,34714,128,8,34876:0:0:0:0:
320,192,34714,128,0,34876:0:0:0:0:
448,192,34714,1,0,0:0:0:0:
192,192,34876,128,0,35200:0:0:0:0:
448,192,34876,128,0,35200:0:0:0:0:
320,192,35200,128,2,35362:0:0:0:0:
64,192,35362,128,8,35524:0:0:0:0:
192,192,35362,128,0,35524:0:0:0:0:
448,192,35362,128,0,35524:0:0:0:0:
320,192,35524,128,2,35687:0:0:0:0:
64,192,35687,128,2,35849:0:0:0:0:
448,192,35687,128,0,35849:0:0:0:0:
320,192,35849,128,2,35930:0:0:0:0:
192,192,35930,128,0,36011:0:0:0:0:
64,192,36011,128,8,36173:0:0:0:0:
320,192,36011,128,0,36173:0:0:0:0:
448,192,36011,128,0,36173:0:0:0:0:
192,192,36173,1,0,0:0:0:0:
64,192,36335,128,2,36497:0:0:0:0:
192,192,36335,128,0,36497:0:0:0:0:
448,192,36335,128,0,36497:0:0:0:0:
320,192,36497,1,0,0:0:0:0:
64,192,36660,1,8,0:0:0:0:
320,192,36660,1,0,0:0:0:0:
320,192,36822,128,2,36903:0:0:0:0:
448,192,36822,128,0,36903:0:0:0:0:
320,192,36984,128,0,37146:0:0:0:0:
448,192,36984,128,0,37146:0:0:0:0:
192,192,37146,1,2,0:0:0:0:
64,192,37308,1,8,0:0:0:0:
192,192,37308,1,0,0:0:0:0:
448,192,37308,1,0,0:0:0:0:
192,192,37470,128,0,37551:0:0:0:0:
320,192,37470,128,0,37551:0:0:0:0:
192,192,37633,128,0,37795:0:0:0:0:
320,192,37633,128,0,37795:0:0:0:0:
64,192,37795,1,2,0:0:0:0:
64,192,37957,1,8,0:0:0:0:
320,192,37957,1,0,0:0:0:0:
448,192,37957,1,0,0:0:0:0:
64,192,38119,128,2,38200:0:0:0:0:
192,192,38119,128,0,38200:0:0:0:0:
64,192,38281,128,2,38443:0:0:0:0:
192,192,38281,128,0,38443:0:0:0:0:
320,192,38443,1,2,0:0:0:0:
64,192,38606,1,8,0:0:0:0:
320,192,38606,1,0,0:0:0:0:
448,192,38606,1,0,0:0:0:0:
64,192,38768,128,2,39092:0:0:0:0:
192,192,38768,128,0,39092:0:0:0:0:
448,192,39092,128,2,39254:0:0:0:0:
64,192,39254,128,8,39416:0:0:0:0:
192,192,39254,128,0,39416:0:0:0:0:
320,192,39254,128,0,39416:0:0:0:0:
448,192,39416,128,0,39578:0:0:0:0:
64,192,39578,128,2,39741:0:0:0:0:
320,192,39578,128,0,39741:0:0:0:0:
192,192,39741,128,2,39903:0:0:0:0:
64,192,39903,1,8,0:0:0:0:
320,192,39903,128,0,40065:0:0:0:0:
448,192,39903,128,0,40065:0:0:0:0:
64,192,40065,128,2,40389:0:0:0:0:
192,192,40065,128,0,40389:0:0:0:0:
448,192,40389,128,2,40551:0:0:0:0:
64,192,40551,128,8,40714:0:0:0:0:
192,192,40551,128,0,40714:0:0:0:0:
320,192,40551,1,0,0:0:0:0:
320,192,40714,128,2,40876:0:0:0:0:
64,192,40876,128,2,41038:0:0:0:0:
448,192,40876,128,0,41038:0:0:0:0:
192,192,41038,128,2,41200:0:0:0:0:
64,192,41200,128,8,41362:0:0:0:0:
320,192,41200,128,0,41362:0:0:0:0:
448,192,41200,128,0,41362:0:0:0:0:
192,192,41362,1,2,0:0:0:0:
64,192,41524,128,2,41687:0:0:0:0:
320,192,41524,128,4,41687:0:0:0:0:
448,192,41524,128,0,41687:0:0:0:0:
192,192,41687,1,0,0:0:0:0:
192,192,41849,1,8,0:0:0:0:
320,192,41849,1,0,0:0:0:0:
448,192,41849,1,0,0:0:0:0:
64,192,42011,128,2,42092:0:0:0:0:
192,192,42011,128,0,42092:0:0:0:0:
64,192,42173,128,0,42335:0:0:0:0:
192,192,42173,128,0,42335:0:0:0:0:
448,192,42335,1,2,0:0:0:0:
64,192,42497,1,8,0:0:0:0:
320,192,42497,1,0,0:0:0:0:
448,192,42497,1,0,0:0:0:0:
192,192,42660,128,0,42741:0:0:0:0:
320,192,42660,128,0,42741:0:0:0:0:
192,192,42822,128,0,42984:0:0:0:0:
320,192,42822,128,0,42984:0:0:0:0:
64,192,42984,1,2,0:0:0:0:
64,192,43146,1,8,0:0:0:0:
192,192,43146,1,0,0:0:0:0:
448,192,43146,1,0,0:0:0:0:
64,192,43308,128,2,43389:0:0:0:0:
448,192,43308,128,0,43389:0:0:0:0:
64,192,43470,128,2,43633:0:0:0:0:
448,192,43470,128,0,43633:0:0:0:0:
192,192,43633,1,2,0:0:0:0:
192,192,43795,1,8,0:0:0:0:
320,192,43795,1,0,0:0:0:0:
448,192,43795,1,0,0:0:0:0:
192,192,43957,128,2,44038:0:0:0:0:
448,192,43957,128,0,44038:0:0:0:0:
192,192,44119,128,2,44281:0:0:0:0:
448,192,44119,128,0,44281:0:0:0:0:
64,192,44443,128,8,44606:0:0:0:0:
192,192,44443,128,0,44606:0:0:0:0:
320,192,44443,128,0,44606:0:0:0:0:
448,192,44606,128,2,44768:0:0:0:0:
64,192,44768,128,2,44930:0:0:0:0:
320,192,44768,128,0,44930:0:0:0:0:
192,192,44930,128,2,45092:0:0:0:0:
64,192,45092,1,8,0:0:0:0:
320,192,45092,128,0,45254:0:0:0:0:
448,192,45092,128,0,45254:0:0:0:0:
64,192,45254,128,0,45578:0:0:0:0:
192,192,45254,128,0,45578:0:0:0:0:
320,192,45578,128,2,45741:0:0:0:0:
64,192,45741,1,8,0:0:0:0:
192,192,45741,128,0,45903:0:0:0:0:
448,192,45741,128,0,45903:0:0:0:0:
64,192,45903,128,2,46065:0:0:0:0:
320,192,46065,128,2,46227:0:0:0:0:
448,192,46065,128,0,46227:0:0:0:0:
192,192,46227,128,2,46308:0:0:0:0:
64,192,46308,128,0,46389:0:0:0:0:
192,192,46389,128,8,46551:0:0:0:0:
320,192,46389,128,0,46551:0:0:0:0:
448,192,46389,128,0,46551:0:0:0:0:
64,192,46551,1,0,0:0:0:0:
64,192,46714,128,2,46876:0:0:0:0:
320,192,46714,128,0,46876:0:0:0:0:
448,192,46714,128,0,46876:0:0:0:0:
192,192,46876,1,0,0:0:0:0:
64,192,47038,1,8,0:0:0:0:
320,192,47038,1,0,0:0:0:0:
448,192,47038,1,0,0:0:0:0:
192,192,47200,128,2,47281:0:0:0:0:
448,192,47200,128,0,47281:0:0:0:0:
192,192,47362,128,0,47524:0:0:0:0:
448,192,47362,128,0,47524:0:0:0:0:
320,192,47524,1,2,0:0:0:0:
64,192,47687,1,8,0:0:0:0:
192,192,47687,1,0,0:0:0:0:
448,192,47687,1,0,0:0:0:0:
64,192,47849,128,0,47930:0:0:0:0:
320,192,47849,128,0,47930:0:0:0:0:
64,192,48011,128,0,48173:0:0:0:0:
320,192,48011,128,0,48173:0:0:0:0:
448,192,48173,1,2,0:0:0:0:
64,192,48335,1,8,0:0:0:0:
192,192,48335,1,0,0:0:0:0:
448,192,48335,1,0,0:0:0:0:
320,192,48497,128,2,48578:0:0:0:0:
448,192,48497,128,0,48578:0:0:0:0:
320,192,48660,128,2,48822:0:0:0:0:
448,192,48660,128,0,48822:0:0:0:0:
64,192,48822,1,8,0:0:0:0:
192,192,48822,1,0,0:0:0:0:
320,192,48903,1,8,0:0:0:0:
448,192,48903,1,0,0:0:0:0:
64,192,48984,1,8,0:0:0:0:
192,192,48984,1,0,0:0:0:0:
320,192,49146,1,2,0:0:0:0:
448,192,49146,1,0,0:0:0:0:
64,192,49308,128,2,49633:0:0:0:0:
192,192,49308,128,0,49633:0:0:0:0:
448,192,49308,128,0,49633:0:0:0:0:
64,192,49795,128,2,50119:0:0:0:0:
192,192,49795,128,0,49876:0:0:0:0:
320,192,49795,1,0,0:0:0:0:
448,192,49876,128,0,49957:0:0:0:0:
320,192,49957,128,0,50038:0:0:0:0:
192,192,50038,128,0,50119:0:0:0:0:
448,192,50119,128,0,50200:0:0:0:0:
320,192,50200,128,0,50281:0:0:0:0:
192,192,50281,128,0,50362:0:0:0:0:
64,192,50362,128,0,50443:0:0:0:0:
320,192,50443,128,0,50524:0:0:0:0:
448,192,50443,128,0,50524:0:0:0:0:
64,192,50606,128,2,50930:0:0:0:0:
192,192,50606,128,0,50930:0:0:0:0:
320,192,50606,128,0,50930:0:0:0:0:
192,192,51092,1,2,0:0:0:0:
320,192,51092,128,0,51173:0:0:0:0:
448,192,51092,128,0,51416:0:0:0:0:
64,192,51173,128,0,51254:0:0:0:0:
192,192,51254,128,0,51335:0:0:0:0:
320,192,51335,128,0,51416:0:0:0:0:
64,192,51416,128,0,51497:0:0:0:0:
192,192,51497,128,0,51578:0:0:0:0:
320,192,51578,128,0,51660:0:0:0:0:
448,192,51660,128,0,51741:0:0:0:0:
64,192,51741,128,2,52065:0:0:0:0:
192,192,51741,128,0,52065:0:0:0:0:
64,192,52227,128,2,52389:0:0:0:0:
448,192,52227,128,0,52551:0:0:0:0:
64,192,52551,128,0,52714:0:0:0:22:LR4_ClapLRV.wav
192,192,52551,128,0,52714:0:0:0:0:
320,192,52714,128,0,53038:0:0:0:0:
64,192,53038,128,2,53362:0:0:0:0:
448,192,53038,128,0,53200:0:0:0:0:
192,192,53200,1,2,0:0:0:0:
320,192,53362,128,0,53524:0:0:0:0:
448,192,53362,128,0,53687:0:0:0:0:
64,192,53524,1,2,0:0:0:0:
192,192,53524,1,0,0:0:0:0:
320,192,53687,128,0,53849:0:0:0:0:
64,192,53849,128,0,54173:0:0:0:22:LR4_ClapLRV.wav
192,192,53849,128,0,54011:0:0:0:0:
448,192,54173,128,0,54254:0:0:0:0:
320,192,54254,128,0,54335:0:0:0:0:
192,192,54335,128,0,54416:0:0:0:0:
64,192,54416,128,0,54497:0:0:0:0:
320,192,54497,128,0,54822:0:0:0:0:
448,192,54497,128,0,54822:0:0:0:0:
64,192,54822,1,0,0:0:0:0:
192,192,54930,1,0,0:0:0:0:
64,192,55038,1,0,0:0:0:0:
320,192,55146,128,0,55470:0:0:0:0:
448,192,55146,128,0,55470:0:0:0:0:
192,192,55470,1,0,0:0:0:0:
64,192,55578,1,0,0:0:0:0:
192,192,55687,1,0,0:0:0:0:
320,192,55795,128,0,56119:0:0:0:0:
448,192,55795,128,0,56119:0:0:0:0:
64,192,56119,1,0,0:0:0:0:
192,192,56227,1,0,0:0:0:0:
64,192,56335,1,0,0:0:0:0:
320,192,56443,128,0,56768:0:0:0:0:
448,192,56443,128,0,56768:0:0:0:0:
64,192,56768,1,0,0:0:0:0:
192,192,56876,1,0,0:0:0:0:
320,192,56984,1,0,0:0:0:0:
64,192,57092,128,0,57416:0:0:0:0:
192,192,57092,128,0,57416:0:0:0:0:
320,192,57416,1,0,0:0:0:0:
448,192,57524,1,0,0:0:0:0:
320,192,57633,1,0,0:0:0:0:
64,192,57741,128,0,58065:0:0:0:0:
192,192,57741,128,0,58065:0:0:0:0:
448,192,58065,1,0,0:0:0:0:
320,192,58173,1,0,0:0:0:0:
448,192,58281,1,0,0:0:0:0:
64,192,58389,128,0,58714:0:0:0:0:
192,192,58389,128,0,58714:0:0:0:0:
320,192,58714,1,0,0:0:0:0:
448,192,58822,1,0,0:0:0:0:
320,192,58930,1,0,0:0:0:0:
64,192,59038,128,0,59362:0:0:0:0:
192,192,59038,128,0,59362:0:0:0:0:
448,192,59362,1,0,0:0:0:0:
320,192,59470,1,0,0:0:0:0:
64,192,59578,1,0,0:0:0:0:
192,192,59687,128,0,60011:0:0:0:0:
448,192,59687,128,0,60011:0:0:0:0:
320,192,60011,1,0,0:0:0:0:
64,192,60119,1,0,0:0:0:0:
320,192,60227,1,0,0:0:0:0:
192,192,60335,128,0,60660:0:0:0:0:
448,192,60335,128,0,60660:0:0:0:0:
64,192,60660,1,0,0:0:0:0:
320,192,60768,1,0,0:0:0:0:
64,192,60876,1,0,0:0:0:0:
192,192,60984,128,0,61308:0:0:0:0:
448,192,60984,128,0,61308:0:0:0:0:
320,192,61308,1,0,0:0:0:0:
64,192,61416,1,0,0:0:0:0:
320,192,61524,1,0,0:0:0:0:
192,192,61633,128,0,61957:0:0:0:0:
448,192,61633,128,0,61957:0:0:0:0:
64,192,61957,1,0,0:0:0:0:
320,192,62065,1,0,0:0:0:0:
192,192,62173,1,0,0:0:0:0:
64,192,62281,128,0,62606:0:0:0:0:
320,192,62281,128,0,62606:0:0:0:0:
448,192,62606,1,0,0:0:0:0:
192,192,62714,1,0,0:0:0:0:
448,192,62822,1,0,0:0:0:0:
64,192,62930,128,0,63254:0:0:0:0:
320,192,62930,128,0,63254:0:0:0:0:
192,192,63254,1,0,0:0:0:0:
448,192,63362,1,0,0:0:0:0:
192,192,63470,1,0,0:0:0:0:
320,192,63578,128,0,63903:0:0:0:0:
448,192,63578,128,0,63984:0:0:0:0:
64,192,63795,128,0,64551:0:0:0:0:
192,192,63903,128,0,64551:0:0:0:0:
320,192,64119,128,0,64551:0:0:0:0:
448,192,64227,128,0,64551:0:0:0:0:
64,192,64714,128,2,64876:0:0:0:0:
320,192,64714,128,4,64876:0:0:0:0:
448,192,64714,128,0,64876:0:0:0:0:
192,192,65038,1,0,0:0:0:0:
320,192,65119,1,0,0:0:0:0:
64,192,65200,1,0,0:0:0:70:LR4_SnarePHW.wav
448,192,65200,1,0,0:0:0:0:
192,192,65362,1,0,0:0:0:0:
320,192,65524,1,0,0:0:0:0:
448,192,65524,1,0,0:0:0:0:
192,192,65687,1,0,0:0:0:0:
320,192,65768,1,0,0:0:0:0:
64,192,65849,1,0,0:0:0:70:LR4_SnarePHW.wav
448,192,65849,1,0,0:0:0:0:
192,192,66011,128,2,66173:0:0:0:0:
320,192,66011,128,4,66173:0:0:0:70:cymbal_short.wav
448,192,66011,128,0,66173:0:0:0:0:
64,192,66335,1,0,0:0:0:0:
192,192,66416,1,0,0:0:0:0:
320,192,66497,1,0,0:0:0:70:LR4_SnarePHW.wav
448,192,66497,1,0,0:0:0:0:
192,192,66660,1,0,0:0:0:0:
64,192,66741,1,0,0:0:0:0:
320,192,66822,1,0,0:0:0:0:
448,192,66984,1,0,0:0:0:0:
320,192,67065,1,0,0:0:0:0:
64,192,67146,1,0,0:0:0:70:LR4_SnarePHW.wav
192,192,67146,1,0,0:0:0:0:
64,192,67308,128,2,67470:0:0:0:0:
320,192,67308,128,4,67470:0:0:0:70:cymbal_short.wav
448,192,67308,128,0,67470:0:0:0:0:
192,192,67633,1,0,0:0:0:0:
320,192,67714,1,0,0:0:0:0:
64,192,67795,1,0,0:0:0:70:LR4_SnarePHW.wav
448,192,67795,1,0,0:0:0:0:
320,192,67957,1,0,0:0:0:0:
64,192,68119,1,0,0:0:0:0:
192,192,68119,1,0,0:0:0:0:
448,192,68281,1,0,0:0:0:0:
320,192,68362,1,0,0:0:0:0:
64,192,68443,1,0,0:0:0:70:LR4_SnarePHW.wav
192,192,68443,1,0,0:0:0:0:
64,192,68606,128,2,68768:0:0:0:0:
320,192,68606,128,4,68768:0:0:0:70:cymbal_short.wav
448,192,68606,128,0,68768:0:0:0:0:
192,192,68930,1,0,0:0:0:0:
320,192,69011,1,0,0:0:0:0:
448,192,69092,1,0,0:0:0:70:LR4_SnarePHW.wav
64,192,69254,1,0,0:0:0:0:
192,192,69335,1,0,0:0:0:0:
320,192,69416,1,0,0:0:0:0:
448,192,69416,1,0,0:0:0:0:
64,192,69578,1,2,0:0:0:0:
192,192,69660,1,0,0:0:0:0:
448,192,69741,1,0,0:0:0:70:LR4_SnarePHW.wav
320,192,69822,1,0,0:0:0:0:
192,192,69903,1,0,0:0:0:0:
64,192,69984,1,0,0:0:0:0:
192,192,70065,1,6,0:0:0:0:
320,192,70065,1,8,0:0:0:40:LR_Snare Hat.wav
448,192,70065,1,0,0:0:0:70:LR_HiHat Synth Fast.wav
64,192,70227,1,0,0:0:0:0:
192,192,70389,1,0,0:0:0:70:LR_HiHat Synth Fast.wav
320,192,70389,1,0,0:0:0:0:
448,192,70551,1,0,0:0:0:0:
64,192,70714,1,0,0:0:0:70:LR_HiHat Synth Fast.wav
320,192,70714,1,0,0:0:0:0:
192,192,70876,1,2,0:0:0:0:
320,192,71038,1,0,0:0:0:70:LR_HiHat Synth Fast.wav
448,192,71038,1,0,0:0:0:0:
192,192,71200,1,2,0:0:0:0:
64,192,71362,1,2,0:0:0:0:
320,192,71362,1,0,0:0:0:70:LR_HiHat Synth Fast.wav
448,192,71362,1,0,0:0:0:0:
192,192,71524,1,0,0:0:0:0:
320,192,71687,1,0,0:0:0:70:LR_HiHat Synth Fast.wav
448,192,71687,1,0,0:0:0:0:
64,192,71849,1,2,0:0:0:0:
192,192,72011,1,0,0:0:0:70:LR_HiHat Synth Fast.wav
320,192,72011,1,0,0:0:0:0:
448,192,72011,1,0,0:0:0:0:
64,192,72173,1,2,0:0:0:0:
192,192,72335,1,0,0:0:0:70:LR_HiHat Synth Fast.wav
448,192,72335,1,0,0:0:0:0:
320,192,72497,1,2,0:0:0:0:
192,192,72578,1,2,0:0:0:0:
64,192,72660,1,2,0:0:0:0:
320,192,72660,1,8,0:0:0:40:LR_Snare Hat.wav
448,192,72660,1,0,0:0:0:70:LR_HiHat Synth Fast.wav
64,192,72822,1,0,0:0:0:0:
320,192,72822,1,0,0:0:0:0:
192,192,72984,1,0,0:0:0:70:LR_HiHat Synth Fast.wav
448,192,72984,1,0,0:0:0:0:
64,192,73146,1,0,0:0:0:0:
192,192,73146,1,0,0:0:0:0:
320,192,73146,1,0,0:0:0:0:
192,192,73308,1,0,0:0:0:70:LR_HiHat Synth Fast.wav
448,192,73308,1,0,0:0:0:0:
64,192,73470,1,2,0:0:0:0:
320,192,73470,1,0,0:0:0:0:
64,192,73633,1,0,0:0:0:70:LR_HiHat Synth Fast.wav
192,192,73633,1,0,0:0:0:0:
448,192,73633,1,0,0:0:0:0:
320,192,73795,1,2,0:0:0:0:
448,192,73795,1,0,0:0:0:0:
64,192,73876,1,0,0:0:0:0:
192,192,73957,1,2,0:0:0:0:
320,192,74038,1,0,0:0:0:0:
64,192,74119,1,2,0:0:0:0:
448,192,74119,1,0,0:0:0:0:
64,192,74281,1,2,0:0:0:0:
320,192,74281,1,0,0:0:0:0:
448,192,74281,1,0,0:0:0:0:
192,192,74606,1,0,0:0:0:0:
448,192,74606,1,0,0:0:0:0:
320,192,74687,1,0,0:0:0:0:
64,192,74768,1,0,0:0:0:0:
448,192,74768,1,0,0:0:0:0:
192,192,74849,1,0,0:0:0:0:
320,192,74930,1,0,0:0:0:0:
448,192,75011,1,0,0:0:0:0:
64,192,75092,1,4,0:0:0:0:
192,192,75092,1,2,0:0:0:0:
320,192,75092,1,0,0:0:0:0:
448,192,75254,1,0,0:0:0:0:
192,192,75416,1,2,0:0:0:0:
320,192,75416,1,0,0:0:0:70:LR5_HiHat NSynth.wav
64,192,75578,1,8,0:0:0:0:
320,192,75578,1,2,0:0:0:0:
448,192,75578,1,0,0:0:0:0:
192,192,75741,1,0,0:0:0:70:LR5_HiHat NSynth.wav
64,192,75903,1,2,0:0:0:0:
448,192,75903,1,0,0:0:0:0:
192,192,76065,1,0,0:0:0:70:LR5_HiHat NSynth.wav
64,192,76227,1,2,0:0:0:0:
320,192,76227,1,8,0:0:0:0:
448,192,76227,1,0,0:0:0:0:
64,192,76389,128,0,76551:0:0:0:70:LR5_HiHat NSynth.wav
448,192,76389,128,0,76714:0:0:0:0:
192,192,76551,128,2,76714:0:0:0:0:
320,192,76551,128,0,76714:0:0:0:0:
64,192,76714,128,0,76876:0:0:0:70:LR5_HiHat NSynth.wav
192,192,76876,128,2,77038:0:0:0:0:
320,192,76876,1,8,0:0:0:0:
448,192,76876,128,0,77038:0:0:0:0:
320,192,77038,128,0,77200:0:0:0:70:LR5_HiHat NSynth.wav
64,192,77200,128,2,77362:0:0:0:0:
448,192,77200,128,0,77362:0:0:0:0:
192,192,77362,128,0,77524:0:0:0:70:LR5_HiHat NSynth.wav
64,192,77524,128,8,77687:0:0:0:0:
320,192,77524,1,2,0:0:0:0:
448,192,77524,128,0,77687:0:0:0:0:
320,192,77687,128,0,77849:0:0:0:70:LR5_HiHat NSynth.wav
64,192,77849,1,2,0:0:0:0:
192,192,77849,1,0,0:0:0:0:
448,192,78011,1,0,0:0:0:70:LR5_HiHat NSynth.wav
64,192,78173,1,8,0:0:0:0:
192,192,78173,1,2,0:0:0:0:
320,192,78173,1,0,0:0:0:0:
448,192,78335,1,0,0:0:0:70:LR5_HiHat NSynth.wav
64,192,78497,1,2,0:0:0:0:
320,192,78497,1,0,0:0:0:0:
192,192,78578,1,0,0:0:0:0:
320,192,78660,1,0,0:0:0:70:LR5_HiHat NSynth.wav
448,192,78741,1,0,0:0:0:0:
64,192,78822,1,8,0:0:0:0:
192,192,78822,1,2,0:0:0:0:
320,192,78822,1,0,0:0:0:0:
320,192,78984,128,0,79146:0:0:0:70:LR5_HiHat NSynth.wav
448,192,78984,128,0,79308:0:0:0:0:
64,192,79146,128,2,79308:0:0:0:0:
192,192,79146,128,0,79308:0:0:0:0:
320,192,79308,128,0,79470:0:0:0:70:LR5_HiHat NSynth.wav
64,192,79470,128,8,79633:0:0:0:0:
192,192,79470,1,2,0:0:0:0:
448,192,79470,128,0,79633:0:0:0:0:
192,192,79633,128,0,79795:0:0:0:70:LR5_HiHat NSynth.wav
320,192,79795,128,2,79957:0:0:0:0:
448,192,79795,128,0,79957:0:0:0:0:
64,192,79957,128,0,80119:0:0:0:70:LR5_HiHat NSynth.wav
192,192,79957,128,0,80119:0:0:0:0:
320,192,80119,128,8,80281:0:0:0:0:
448,192,80119,128,2,80281:0:0:0:0:
64,192,80281,128,2,80443:0:0:0:0:
192,192,80281,128,0,80443:0:0:0:70:LR5_HiHat NSynth.wav
64,192,80606,1,2,0:0:0:0:
192,192,80687,1,2,0:0:0:0:
64,192,80768,128,8,80930:0:0:0:0:
320,192,80768,128,2,80930:0:0:0:0:
448,192,80768,128,4,80930:0:0:0:0:
320,192,81092,1,2,0:0:0:0:
448,192,81092,1,0,0:0:0:0:
192,192,81254,1,0,0:0:0:70:LR5_HiHat NSynth.wav
64,192,81416,1,8,0:0:0:0:
320,192,81416,1,2,0:0:0:0:
448,192,81416,1,0,0:0:0:0:
192,192,81578,1,0,0:0:0:70:LR5_HiHat NSynth.wav
320,192,81741,1,2,0:0:0:0:
448,192,81741,1,0,0:0:0:0:
64,192,81903,1,0,0:0:0:70:LR5_HiHat NSynth.wav
192,192,82065,1,8,0:0:0:0:
320,192,82065,1,2,0:0:0:0:
448,192,82065,1,0,0:0:0:0:
448,192,82227,1,0,0:0:0:70:LR5_HiHat NSynth.wav
320,192,82308,1,0,0:0:0:0:
64,192,82389,1,2,0:0:0:0:
192,192,82389,1,0,0:0:0:0:
448,192,82470,1,0,0:0:0:0:
320,192,82551,1,0,0:0:0:70:LR5_HiHat NSynth.wav
192,192,82633,1,0,0:0:0:0:
64,192,82714,1,8,0:0:0:0:
320,192,82714,1,2,0:0:0:0:
448,192,82714,1,0,0:0:0:0:
192,192,82876,1,0,0:0:0:70:LR5_HiHat NSynth.wav
320,192,83038,1,2,0:0:0:0:
448,192,83038,1,0,0:0:0:0:
192,192,83200,1,2,0:0:0:0:
320,192,83200,1,0,0:0:0:70:LR5_HiHat NSynth.wav
448,192,83281,1,2,0:0:0:0:
64,192,83362,1,10,0:0:0:0:
192,192,83403,1,2,0:0:0:0:
320,192,83443,1,2,0:0:0:0:
448,192,83484,1,2,0:0:0:0:
64,192,83524,1,2,0:0:0:0:
192,192,83606,1,2,0:0:0:0:
320,192,83687,1,2,0:0:0:0:
448,192,83687,1,0,0:0:0:0:
192,192,83849,1,2,0:0:0:0:
320,192,83849,1,0,0:0:0:70:LR5_HiHat NSynth.wav
64,192,84011,1,2,0:0:0:0:
320,192,84011,1,8,0:0:0:0:
448,192,84011,1,0,0:0:0:0:
64,192,84173,1,2,0:0:0:0:
192,192,84173,1,0,0:0:0:70:LR5_HiHat NSynth.wav
320,192,84173,1,0,0:0:0:0:
448,192,84497,1,0,0:0:0:0:
320,192,84538,1,0,0:0:0:0:
192,192,84578,1,0,0:0:0:0:
64,192,84619,1,0,0:0:0:0:
448,192,84660,1,0,0:0:0:0:
320,192,84741,1,0,0:0:0:0:
64,192,84822,1,0,0:0:0:0:
192,192,84822,1,0,0:0:0:0:
320,192,84984,1,0,0:0:0:30:LR4_SnareBPDT.wav
448,192,84984,1,0,0:0:0:0:
64,192,85065,1,0,0:0:0:30:LR4_SnareBPDT.wav
192,192,85065,1,0,0:0:0:0:
320,192,85146,1,0,0:0:0:30:LR4_SnareBPDT.wav
448,192,85146,1,0,0:0:0:0:
64,192,85227,1,0,0:0:0:30:LR4_SnareBPDT.wav
192,192,85227,1,0,0:0:0:0:
320,192,85308,1,0,0:0:0:30:LR4_SnareBPDT.wav
448,192,85308,1,0,0:0:0:0:
64,192,85470,1,2,0:0:0:0:
192,192,85470,1,4,0:0:0:0:
448,192,85470,1,0,0:0:0:0:
320,192,85633,1,0,0:0:0:0:
64,192,85795,1,2,0:0:0:0:
192,192,85795,1,0,0:0:0:70:LR5_HiHat NSynth.wav
64,192,85957,1,8,0:0:0:0:
192,192,85957,1,2,0:0:0:0:
448,192,85957,1,0,0:0:0:0:
320,192,86119,1,0,0:0:0:70:LR5_HiHat NSynth.wav
64,192,86281,1,2,0:0:0:0:
448,192,86281,1,0,0:0:0:0:
320,192,86443,1,0,0:0:0:70:LR5_HiHat NSynth.wav
64,192,86606,1,2,0:0:0:0:
192,192,86606,1,8,0:0:0:0:
448,192,86606,1,0,0:0:0:0:
192,192,86768,128,0,86930:0:0:0:70:LR5_HiHat NSynth.wav
448,192,86768,128,0,87092:0:0:0:0:
64,192,86930,128,2,87092:0:0:0:0:
320,192,86930,128,0,87092:0:0:0:0:
192,192,87092,128,0,87254:0:0:0:70:LR5_HiHat NSynth.wav
64,192,87254,1,8,0:0:0:0:
320,192,87254,128,2,87416:0:0:0:0:
448,192,87254,128,0,87416:0:0:0:0:
64,192,87416,128,0,87578:0:0:0:70:LR5_HiHat NSynth.wav
192,192,87578,128,2,87741:0:0:0:0:
448,192,87578,128,0,87741:0:0:0:0:
320,192,87741,128,0,87903:0:0:0:70:LR5_HiHat NSynth.wav
64,192,87903,1,8,0:0:0:0:
192,192,87903,128,2,88065:0:0:0:0:
448,192,87903,128,0,88065:0:0:0:0:
64,192,88065,128,0,88227:0:0:0:70:LR5_HiHat NSynth.wav
320,192,88227,1,2,0:0:0:0:
448,192,88227,1,0,0:0:0:0:
192,192,88389,1,0,0:0:0:70:LR5_HiHat NSynth.wav
64,192,88551,1,8,0:0:0:0:
320,192,88551,1,2,0:0:0:0:
448,192,88551,1,0,0:0:0:0:
192,192,88714,1,0,0:0:0:70:LR5_HiHat NSynth.wav
64,192,88876,1,2,0:0:0:0:
448,192,88876,1,0,0:0:0:0:
320,192,88957,1,0,0:0:0:0:
192,192,89038,1,0,0:0:0:70:LR5_HiHat NSynth.wav
64,192,89119,1,0,0:0:0:0:
192,192,89200,1,8,0:0:0:0:
320,192,89200,1,2,0:0:0:0:
448,192,89200,1,0,0:0:0:0:
192,192,89362,128,0,89524:0:0:0:70:LR5_HiHat NSynth.wav
448,192,89362,128,0,89687:0:0:0:0:
64,192,89524,128,2,89687:0:0:0:0:
320,192,89524,128,0,89687:0:0:0:0:
192,192,89687,128,0,89849:0:0:0:70:LR5_HiHat NSynth.wav
64,192,89849,1,8,0:0:0:0:
320,192,89849,128,2,90011:0:0:0:0:
448,192,89849,128,0,90011:0:0:0:0:
192,192,90011,128,0,90173:0:0:0:70:LR5_HiHat NSynth.wav
64,192,90173,128,2,90335:0:0:0:0:
448,192,90173,128,0,90335:0:0:0:0:
192,192,90335,128,0,90497:0:0:0:70:LR5_HiHat NSynth.wav
320,192,90335,128,0,90497:0:0:0:0:
64,192,90497,128,8,90660:0:0:0:0:
448,192,90497,128,2,90660:0:0:0:0:
192,192,90660,128,0,90822:0:0:0:0:
320,192,90660,128,0,90822:0:0:0:0:
448,192,90984,1,2,0:0:0:0:
320,192,91065,1,2,0:0:0:0:
64,192,91146,128,2,91308:0:0:0:0:
192,192,91146,128,8,91308:0:0:0:0:
448,192,91146,128,4,91308:0:0:0:0:
64,192,91470,1,2,0:0:0:0:
448,192,91470,1,0,0:0:0:0:
192,192,91633,1,0,0:0:0:70:LR5_HiHat NSynth.wav
64,192,91795,1,2,0:0:0:0:
320,192,91795,1,8,0:0:0:0:
448,192,91795,1,0,0:0:0:0:
64,192,91957,1,2,0:0:0:0:
192,192,91957,1,8,0:0:0:0:
448,192,91957,1,0,0:0:0:70:LR5_HiHat NSynth.wav
320,192,92119,1,0,0:0:0:0:
64,192,92281,1,2,0:0:0:0:
192,192,92281,1,0,0:0:0:70:LR5_HiHat NSynth.wav
64,192,92443,1,8,0:0:0:0:
320,192,92443,1,0,0:0:0:0:
448,192,92443,1,0,0:0:0:0:
192,192,92605,1,2,0:0:0:0:
320,192,92605,1,0,0:0:0:70:LR5_HiHat NSynth.wav
64,192,92767,1,8,0:0:0:0:
192,192,92767,1,0,0:0:0:0:
448,192,92767,1,0,0:0:0:0:
320,192,92929,1,2,0:0:0:0:
448,192,92929,1,0,0:0:0:70:LR5_HiHat NSynth.wav
192,192,93011,1,0,0:0:0:0:
64,192,93092,1,8,0:0:0:0:
448,192,93092,1,0,0:0:0:0:
320,192,93173,1,8,0:0:0:0:
64,192,93254,128,2,93740:0:0:0:0:
192,192,93254,1,4,0:0:0:0:
448,192,93254,128,0,94389:0:0:0:70:LR5_HiHat NSynth.wav
320,192,93578,1,2,0:0:0:0:
192,192,93740,1,2,0:0:0:0:
320,192,93902,1,0,0:0:0:0:
64,192,94065,1,8,0:0:0:70:LR4_ClapLRV.wav
192,192,94065,1,0,0:0:0:0:
320,192,94227,1,0,0:0:0:0:
64,192,94389,1,0,0:0:0:0:
64,192,94551,128,2,95038:0:0:0:0:
320,192,94551,128,0,95686:0:0:0:0:
448,192,94551,1,0,0:0:0:0:
192,192,94713,1,0,0:0:0:0:
448,192,94875,1,2,0:0:0:0:
192,192,95038,1,2,0:0:0:0:
448,192,95200,1,0,0:0:0:0:
64,192,95362,1,8,0:0:0:70:LR4_ClapLRV.wav
192,192,95362,1,0,0:0:0:0:
448,192,95524,1,2,0:0:0:0:
192,192,95605,1,0,0:0:0:0:
64,192,95686,1,0,0:0:0:0:
64,192,95848,128,2,96335:0:0:0:0:
320,192,95848,1,0,0:0:0:0:
448,192,95848,128,0,97308:0:0:0:0:
192,192,96173,1,2,0:0:0:0:
320,192,96335,1,2,0:0:0:0:
64,192,96497,1,8,0:0:0:70:LR4_ClapLRV.wav
192,192,96659,1,8,0:0:0:70:LR4_ClapLRV.wav
320,192,96659,1,0,0:0:0:0:
64,192,96821,128,2,97146:0:0:0:0:
192,192,96984,128,2,97146:0:0:0:0:
320,192,97146,1,0,0:0:0:0:
64,192,97308,1,2,0:0:0:0:
192,192,97308,1,0,0:0:0:70:cymbal_short.wav
320,192,97308,1,0,0:0:0:0:
64,192,97470,1,2,0:0:0:0:
320,192,97470,1,0,0:0:0:70:cymbal_short.wav
448,192,97470,1,0,0:0:0:0:
64,192,97632,128,2,97956:0:0:0:0:
192,192,97632,128,0,97956:0:0:0:70:cymbal_short.wav
448,192,97632,128,0,97956:0:0:0:0:
448,192,98280,128,0,98605:0:0:0:0:
64,192,98605,128,2,98767:0:0:0:0:
192,192,98605,128,0,98767:0:0:0:0:
320,192,98605,128,0,98767:0:0:0:0:
64,192,99091,1,2,0:0:0:0:
192,192,99091,1,0,0:0:0:0:
448,192,99091,1,0,0:0:0:0:
64,192,99253,128,2,99578:0:0:0:0:
320,192,99253,128,0,99578:0:0:0:0:
448,192,99253,128,0,99578:0:0:0:0:
64,192,99740,128,2,99902:0:0:0:0:
192,192,99740,128,0,99902:0:0:0:0:
320,192,99740,128,0,99902:0:0:0:0:
64,192,100064,128,2,100226:0:0:0:0:
320,192,100064,128,0,100226:0:0:0:0:
448,192,100064,128,0,100226:0:0:0:0:
64,192,100389,1,2,0:0:0:0:
192,192,100389,1,0,0:0:0:0:
448,192,100389,1,0,0:0:0:0:
64,192,100551,128,2,100713:0:0:0:0:
192,192,100551,128,0,100713:0:0:0:0:
448,192,100551,128,0,100713:0:0:0:0:
64,192,100875,1,0,0:0:0:0:
320,192,100875,1,0,0:0:0:0:
192,192,100956,1,0,0:0:0:0:
448,192,101037,1,0,0:0:0:0:
320,192,101118,1,0,0:0:0:0:
64,192,101199,128,2,101362:0:0:0:0:
192,192,101199,128,4,101362:0:0:0:0:
448,192,101199,128,0,101524:0:0:0:0:
64,192,101524,128,8,101686:0:0:0:0:
192,192,101524,128,0,101686:0:0:0:0:
320,192,101524,128,0,101686:0:0:0:0:
448,192,101686,128,2,101848:0:0:0:0:
64,192,101848,128,0,102010:0:0:0:0:
320,192,101848,128,0,102010:0:0:0:0:
192,192,102010,128,2,102172:0:0:0:0:
64,192,102172,128,8,102335:0:0:0:0:
320,192,102172,128,0,102335:0:0:0:0:
448,192,102172,128,0,102335:0:0:0:0:
192,192,102335,128,0,102659:0:0:0:0:
64,192,102497,128,0,102659:0:0:0:0:
320,192,102497,128,0,102659:0:0:0:0:
448,192,102659,128,2,102821:0:0:0:0:
64,192,102821,128,8,103145:0:0:0:0:
192,192,102821,1,0,0:0:0:0:
320,192,102821,128,0,102983:0:0:0:0:
192,192,102983,128,2,103145:0:0:0:0:
320,192,103145,1,2,0:0:0:0:
448,192,103145,1,0,0:0:0:0:
192,192,103308,1,2,0:0:0:0:
320,192,103308,1,0,0:0:0:0:
64,192,103470,1,8,0:0:0:0:
192,192,103470,1,0,0:0:0:0:
448,192,103470,1,0,0:0:0:0:
192,192,103632,1,0,0:0:0:0:
320,192,103632,1,0,0:0:0:0:
64,192,103794,128,2,104118:0:0:0:0:
320,192,103794,128,0,103956:0:0:0:0:
448,192,103794,128,0,103956:0:0:0:0:
192,192,104118,128,8,104280:0:0:0:0:
320,192,104118,128,0,104280:0:0:0:0:
448,192,104118,128,0,104280:0:0:0:0:
64,192,104280,128,2,104443:0:0:0:0:
192,192,104443,128,0,104605:0:0:0:0:
320,192,104443,128,0,104605:0:0:0:0:
448,192,104605,128,2,104767:0:0:0:0:
64,192,104767,128,8,104929:0:0:0:0:
192,192,104767,1,0,0:0:0:0:
320,192,104767,128,0,104929:0:0:0:0:
192,192,104929,128,0,105172:0:0:0:0:
448,192,104929,128,0,105172:0:0:0:0:
320,192,105253,128,2,105416:0:0:0:0:
448,192,105253,128,0,105416:0:0:0:0:
64,192,105416,128,8,105578:0:0:0:0:
192,192,105416,128,0,105578:0:0:0:0:
320,192,105578,128,2,105740:0:0:0:0:
448,192,105578,128,0,105740:0:0:0:0:
64,192,105740,128,2,105902:0:0:0:0:
192,192,105740,128,0,105902:0:0:0:0:
448,192,105902,1,2,0:0:0:0:
320,192,105983,1,0,0:0:0:0:
64,192,106064,128,8,106389:0:0:0:0:
192,192,106064,128,0,106226:0:0:0:0:
448,192,106064,128,0,106226:0:0:0:0:
192,192,106389,128,2,106551:0:0:0:0:
320,192,106389,128,0,106551:0:0:0:0:
448,192,106389,128,0,106713:0:0:0:0:
64,192,106713,128,8,106875:0:0:0:0:
192,192,106713,128,0,106875:0:0:0:0:
320,192,106713,128,0,106875:0:0:0:0:
448,192,106875,128,2,107037:0:0:0:0:
192,192,107037,128,0,107199:0:0:0:0:
320,192,107037,128,0,107199:0:0:0:0:
64,192,107199,128,2,107362:0:0:0:0:
192,192,107362,1,8,0:0:0:0:
320,192,107362,128,0,107524:0:0:0:0:
448,192,107362,128,0,107524:0:0:0:0:
192,192,107524,128,0,107848:0:0:0:0:
64,192,107686,128,0,107848:0:0:0:0:
320,192,107686,1,0,0:0:0:0:
448,192,107686,128,0,107848:0:0:0:0:
320,192,107848,128,2,108010:0:0:0:0:
64,192,108010,128,8,108335:0:0:0:0:
192,192,108010,128,0,108172:0:0:0:0:
448,192,108010,1,0,0:0:0:0:
448,192,108172,128,2,108335:0:0:0:0:
192,192,108335,1,2,0:0:0:0:
320,192,108335,1,0,0:0:0:0:
320,192,108497,1,2,0:0:0:0:
448,192,108497,1,0,0:0:0:0:
64,192,108659,1,8,0:0:0:0:
192,192,108659,1,0,0:0:0:0:
448,192,108659,1,0,0:0:0:0:
64,192,108821,1,2,0:0:0:0:
192,192,108821,1,0,0:0:0:0:
320,192,108821,1,0,0:0:0:0:
320,192,108983,128,0,109145:0:0:0:0:
448,192,108983,128,0,109145:0:0:0:0:
64,192,109145,128,2,109307:0:0:0:0:
192,192,109307,1,8,0:0:0:0:
320,192,109307,128,2,109632:0:0:0:0:
448,192,109307,128,0,109632:0:0:0:0:
64,192,109632,128,2,109794:0:0:0:0:
192,192,109632,128,0,109794:0:0:0:0:
448,192,109794,128,0,109956:0:0:0:0:
64,192,109956,1,8,0:0:0:0:
192,192,109956,1,2,0:0:0:0:
320,192,109956,1,0,0:0:0:0:
64,192,110118,128,2,110443:0:0:0:0:
192,192,110118,128,0,110443:0:0:0:0:
448,192,110118,128,0,110443:0:0:0:0:
64,192,110605,128,8,110767:0:0:0:0:
192,192,110605,128,2,110767:0:0:0:0:
320,192,110605,128,0,110767:0:0:0:0:
448,192,110767,128,0,110929:0:0:0:0:
64,192,110929,1,2,0:0:0:0:
192,192,110929,128,0,111091:0:0:0:0:
320,192,110929,128,0,111091:0:0:0:0:
448,192,111091,128,0,111253:0:0:0:0:
64,192,111253,128,8,111416:0:0:0:0:
192,192,111253,128,2,111416:0:0:0:0:
320,192,111253,128,0,111416:0:0:0:0:
64,192,111578,1,2,0:0:0:0:
192,192,111578,1,0,0:0:0:20:LR4_SnareBPDT.wav
320,192,111659,1,0,0:0:0:20:LR4_SnareBPDT.wav
448,192,111740,1,0,0:0:0:20:LR4_SnareBPDT.wav
64,192,111821,1,0,0:0:0:20:LR4_SnareBPDT.wav
192,192,111902,1,0,0:0:0:20:LR4_SnareBPDT.wav
320,192,111902,1,0,0:0:0:0:
448,192,111983,1,0,0:0:0:20:LR4_SnareBPDT.wav
64,192,112064,1,0,0:0:0:20:LR4_SnareBPDT.wav
192,192,112145,1,0,0:0:0:20:LR4_SnareBPDT.wav
320,192,112226,1,0,0:0:0:20:LR4_SnareBPDT.wav
448,192,112226,1,0,0:0:0:0:
320,192,112551,128,0,112875:0:0:0:0:
64,192,112875,128,2,113199:0:0:0:0:
192,192,112875,128,0,113199:0:0:0:0:
448,192,112875,128,0,113199:0:0:0:0:
64,192,113362,1,2,0:0:0:0:
320,192,113362,1,0,0:0:0:0:
448,192,113362,1,0,0:0:0:0:
64,192,113524,128,2,113848:0:0:0:0:
320,192,113524,128,0,113848:0:0:0:0:
448,192,113524,128,0,113848:0:0:0:0:
64,192,114010,128,2,114172:0:0:0:0:
192,192,114010,128,0,114172:0:0:0:0:
448,192,114010,128,0,114172:0:0:0:0:
192,192,114335,128,2,114497:0:0:0:0:
320,192,114335,128,0,114497:0:0:0:0:
448,192,114335,128,0,114497:0:0:0:0:
64,192,114659,1,2,0:0:0:0:
192,192,114659,1,0,0:0:0:0:
448,192,114659,1,0,0:0:0:0:
64,192,114821,128,2,114983:0:0:0:0:
192,192,114821,128,0,114983:0:0:0:0:
448,192,114821,128,0,114983:0:0:0:0:
64,192,115145,128,0,115794:0:0:0:20:LR4_ClapLRV.wav
192,192,115145,128,0,115794:0:0:0:0:
320,192,115145,128,0,115794:0:0:0:0:
