osu file format v14

[General]
AudioFilename: japaripa.mp3
AudioLeadIn: 0
PreviewTime: 38367
Countdown: 0
SampleSet: Soft
StackLeniency: 0.7
Mode: 3
LetterboxInBreaks: 0
SpecialStyle: 0
WidescreenStoryboard: 0

[Editor]
DistanceSpacing: 0.8
BeatDivisor: 4
GridSize: 8
TimelineZoom: 1.4

[Metadata]
Title:Youkoso JAPARI PARK e
TitleUnicode:ようこそジャパリパークへ
Artist:Nanahira
ArtistUnicode:ななひら
Creator:ExNeko
Version:Normal
Source:けものフレンズ
Tags:kemono friends opening はちぷよ hachipuyo すみじゅん sumijun Nico Nico Douga Tofu1222
BeatmapID:1232539
BeatmapSetID:582432

[Difficulty]
HPDrainRate:7
CircleSize:4
OverallDifficulty:7
ApproachRate:5
SliderMultiplier:1.4
SliderTickRate:1

[Events]
//Background and Video events
0,0,"bg.jpg",0,0
//Break Periods
//Storyboard Layer 0 (Background)
//Storyboard Layer 1 (Fail)
//Storyboard Layer 2 (Pass)
//Storyboard Layer 3 (Foreground)
//Storyboard Sound Samples

[TimingPoints]
250,352.941176470588,4,2,1,60,1,0
63779,-100,4,3,1,60,0,0
75073,-100,4,3,1,60,0,1
86367,-100,4,2,1,60,0,0

[HitObjects]
64,192,3073,5,2,0:0:0:0:
192,192,3249,1,0,0:0:0:0:
320,192,3426,1,0,0:0:0:0:
448,192,3602,1,2,0:0:0:0:
64,192,3602,1,0,0:0:0:0:
320,192,3955,1,0,0:0:0:0:
192,192,4132,1,0,0:0:0:0:
64,192,4308,1,2,0:0:0:0:
448,192,4308,1,0,0:0:0:0:
64,192,4661,1,8,0:0:0:0:
192,192,4838,1,8,0:0:0:0:
320,192,5014,1,8,0:0:0:0:
448,192,5014,1,4,0:0:0:0:
64,192,5367,1,2,0:0:0:0:
448,192,5544,1,8,0:0:0:0:
192,192,5720,1,2,0:0:0:0:
64,192,5897,1,2,0:0:0:0:
448,192,5897,1,4,0:0:0:0:
320,192,6073,1,0,0:0:0:0:
192,192,6249,1,8,0:0:0:0:
64,192,6249,1,0,0:0:0:0:
448,192,6426,1,0,0:0:0:0:
320,192,6602,1,2,0:0:0:0:
192,192,6779,1,0,0:0:0:0:
64,192,6955,1,0,0:0:0:0:
448,192,6955,1,8,0:0:0:0:
320,192,7132,1,0,0:0:0:0:
64,192,7308,128,2,7661:0:0:0:0:
192,192,7308,1,4,0:0:0:0:
320,192,7661,128,8,8014:0:0:0:0:
192,192,8014,128,2,8367:0:0:0:0:
448,192,8367,128,8,8720:0:0:0:0:
64,192,8720,1,2,0:0:0:0:
320,192,8720,1,4,0:0:0:0:
192,192,8897,1,0,0:0:0:0:
320,192,9073,1,2,0:0:0:0:
64,192,9249,1,0,0:0:0:0:
448,192,9426,1,2,0:0:0:0:
320,192,9602,1,0,0:0:0:0:
192,192,9779,1,2,0:0:0:0:
448,192,9955,1,0,0:0:0:0:
64,192,10132,1,0,0:0:0:0:
320,192,10132,1,2,0:0:0:0:
192,192,10308,1,0,0:0:0:0:
320,192,10485,1,2,0:0:0:0:
64,192,10661,1,0,0:0:0:0:
448,192,10838,1,2,0:0:0:0:
320,192,11014,1,0,0:0:0:0:
192,192,11191,1,2,0:0:0:0:
448,192,11367,1,2,0:0:0:0:
64,192,11544,1,2,0:0:0:0:
320,192,11544,1,4,0:0:0:0:
192,192,11720,1,0,0:0:0:0:
448,192,11897,1,2,0:0:0:0:
64,192,12073,1,0,0:0:0:0:
192,192,12249,1,2,0:0:0:0:
448,192,12426,1,0,0:0:0:0:
320,192,12602,1,2,0:0:0:0:
192,192,12779,1,0,0:0:0:0:
64,192,12955,1,2,0:0:0:0:
448,192,12955,128,0,13132:0:0:0:0:
320,192,13132,128,0,13308:0:0:0:0:
64,192,13308,128,8,13485:0:0:0:0:
192,192,13485,128,0,13661:0:0:0:0:
448,192,13661,128,0,14367:0:0:0:0:
320,192,13661,128,2,14014:0:0:0:0:
64,192,14014,128,8,14367:0:0:0:0:
192,192,14367,1,2,0:0:0:0:
320,192,14367,1,4,0:0:0:0:
64,192,15073,1,0,0:0:0:0:
320,192,15073,1,2,0:0:0:0:
192,192,15602,1,2,0:0:0:0:
448,192,15602,1,0,0:0:0:0:
64,192,16485,1,0,0:0:0:0:
192,192,16485,1,2,0:0:0:0:
448,192,16661,1,2,0:0:0:0:
320,192,16749,1,2,0:0:0:0:
192,192,16838,1,2,0:0:0:0:
64,192,17014,1,2,0:0:0:0:
192,192,17102,1,2,0:0:0:0:
320,192,17191,1,2,0:0:0:0:
448,192,17191,1,4,0:0:0:0:
64,192,17367,1,0,0:0:0:0:
192,192,17544,1,2,0:0:0:0:
320,192,17720,1,0,0:0:0:0:
448,192,17897,1,2,0:0:0:0:
192,192,18073,1,0,0:0:0:0:
64,192,18249,1,2,0:0:0:0:
320,192,18426,1,0,0:0:0:0:
192,192,18602,1,2,0:0:0:0:
448,192,18602,1,0,0:0:0:0:
64,192,18955,1,0,0:0:0:0:
320,192,18955,1,8,0:0:0:0:
192,192,19308,1,8,0:0:0:0:
320,192,19485,1,8,0:0:0:0:
192,192,19661,1,8,0:0:0:0:
320,192,19838,1,8,0:0:0:0:
448,192,20014,1,4,0:0:0:0:
64,192,20014,1,2,0:0:0:0:
320,192,20367,1,0,0:0:0:0:
192,192,20544,1,2,0:0:0:0:
448,192,20720,1,8,0:0:0:0:
320,192,20720,1,0,0:0:0:0:
192,192,20897,1,2,0:0:0:0:
320,192,21249,1,2,0:0:0:0:
64,192,21249,1,0,0:0:0:0:
192,192,21602,1,2,0:0:0:0:
320,192,21691,1,2,0:0:0:0:
448,192,21779,1,2,0:0:0:0:
64,192,21955,1,2,0:0:0:0:
192,192,22044,1,2,0:0:0:0:
320,192,22132,128,0,22397:0:0:0:0:
448,192,22132,1,8,0:0:0:0:
192,192,22397,128,8,22661:0:0:0:0:
448,192,22661,128,8,22838:0:0:0:0:
64,192,22838,1,2,0:0:0:0:
320,192,22838,1,4,0:0:0:0:
192,192,23014,1,0,0:0:0:0:
64,192,23191,1,8,0:0:0:0:
192,192,23279,1,0,0:0:0:0:
448,192,23367,1,0,0:0:0:0:
320,192,23455,1,0,0:0:0:0:
192,192,23544,1,2,0:0:0:0:
64,192,23544,1,0,0:0:0:0:
320,192,23720,1,2,0:0:0:0:
64,192,23897,1,8,0:0:0:0:
448,192,23897,1,0,0:0:0:0:
192,192,23985,1,2,0:0:0:0:
320,192,24073,1,2,0:0:0:0:
448,192,24249,1,2,0:0:0:0:
192,192,24249,1,4,0:0:0:0:
64,192,24602,1,2,0:0:0:0:
320,192,24602,1,4,0:0:0:0:
192,192,24955,128,6,25308:0:0:0:0:
448,192,24955,1,0,0:0:0:0:
64,192,25308,1,8,0:0:0:0:
320,192,25308,1,0,0:0:0:0:
192,192,25661,1,2,0:0:0:0:
448,192,25661,1,4,0:0:0:0:
64,192,26191,1,2,0:0:0:0:
192,192,26367,1,0,0:0:0:0:
320,192,26367,1,8,0:0:0:0:
448,192,26897,1,0,0:0:0:0:
192,192,27073,1,4,0:0:0:0:
64,192,27073,1,2,0:0:0:0:
320,192,27602,1,2,0:0:0:0:
448,192,27779,1,8,0:0:0:0:
64,192,27779,1,0,0:0:0:0:
192,192,27955,1,8,0:0:0:0:
320,192,28044,1,8,0:0:0:0:
448,192,28132,1,8,0:0:0:0:
64,192,28308,1,2,0:0:0:0:
192,192,28485,1,2,0:0:0:0:
320,192,28485,1,4,0:0:0:0:
448,192,29014,1,2,0:0:0:0:
192,192,29191,1,8,0:0:0:0:
64,192,29191,1,0,0:0:0:0:
320,192,29367,1,2,0:0:0:0:
448,192,29544,1,2,0:0:0:0:
64,192,29720,1,0,0:0:0:0:
320,192,29720,1,8,0:0:0:0:
192,192,30073,1,8,0:0:0:0:
448,192,30073,1,0,0:0:0:0:
64,192,30426,1,0,0:0:0:0:
320,192,30426,1,8,0:0:0:0:
192,192,30779,1,2,0:0:0:0:
448,192,30779,1,0,0:0:0:0:
320,192,30955,1,8,0:0:0:0:
64,192,31132,128,2,31661:0:0:0:0:
192,192,31132,1,4,0:0:0:0:
448,192,31485,1,2,0:0:0:0:
192,192,31661,1,8,0:0:0:0:
448,192,31838,1,2,0:0:0:0:
64,192,32014,1,2,0:0:0:0:
320,192,32014,128,0,32367:0:0:0:0:
192,192,32367,1,2,0:0:0:0:
448,192,32367,1,0,0:0:0:0:
64,192,32720,128,2,33073:0:0:0:0:
320,192,32720,1,4,0:0:0:0:
448,192,33073,1,8,0:0:0:0:
192,192,33249,1,2,0:0:0:0:
64,192,33426,1,0,0:0:0:0:
320,192,33426,128,2,33779:0:0:0:0:
448,192,33779,1,0,0:0:0:0:
192,192,33779,1,8,0:0:0:0:
64,192,33955,1,2,0:0:0:0:
320,192,34132,1,2,0:0:0:0:
448,192,34132,1,4,0:0:0:0:
64,192,34485,1,2,0:0:0:0:
192,192,34661,1,0,0:0:0:0:
320,192,34838,1,2,0:0:0:0:
64,192,35014,1,2,0:0:0:0:
448,192,35014,1,0,0:0:0:0:
192,192,35191,1,2,0:0:0:0:
320,192,35367,1,2,0:0:0:0:
448,192,35367,128,4,35720:0:0:0:0:
64,192,35720,1,0,0:0:0:0:
192,192,35720,1,2,0:0:0:0:
320,192,35897,1,2,0:0:0:0:
448,192,36073,1,2,0:0:0:0:
192,192,36161,1,2,0:0:0:0:
320,192,36249,1,2,0:0:0:0:
64,192,36426,1,2,0:0:0:0:
192,192,36602,1,4,0:0:0:0:
448,192,36602,1,8,0:0:0:0:
320,192,36779,1,2,0:0:0:0:
448,192,36955,1,0,0:0:0:0:
64,192,36955,1,2,0:0:0:0:
192,192,37308,1,0,0:0:0:0:
320,192,37661,1,0,0:0:0:0:
448,192,38014,1,0,0:0:0:0:
64,192,38367,1,2,0:0:0:0:
192,192,38367,1,4,0:0:0:0:
320,192,38544,1,2,0:0:0:0:
448,192,38720,1,8,0:0:0:0:
64,192,38897,1,2,0:0:0:0:
192,192,38897,1,0,0:0:0:0:
448,192,39249,1,0,0:0:0:0:
320,192,39249,1,2,0:0:0:0:
64,192,39426,1,8,0:0:0:0:
192,192,39602,1,2,0:0:0:0:
448,192,39602,1,0,0:0:0:0:
64,192,39955,1,0,0:0:0:0:
320,192,39955,1,8,0:0:0:0:
192,192,40132,1,8,0:0:0:0:
64,192,40308,1,8,0:0:0:0:
448,192,40308,1,0,0:0:0:0:
320,192,40661,1,2,0:0:0:0:
448,192,40661,1,0,0:0:0:0:
192,192,40838,1,0,0:0:0:0:
64,192,40838,1,8,0:0:0:0:
320,192,41014,1,2,0:0:0:0:
64,192,41191,1,2,0:0:0:0:
448,192,41191,1,4,0:0:0:0:
192,192,41367,1,0,0:0:0:0:
320,192,41544,1,8,0:0:0:0:
448,192,41544,1,0,0:0:0:0:
64,192,41720,1,0,0:0:0:0:
448,192,41897,1,2,0:0:0:0:
320,192,42073,1,0,0:0:0:0:
192,192,42249,1,8,0:0:0:0:
64,192,42249,1,0,0:0:0:0:
320,192,42426,1,0,0:0:0:0:
448,192,42602,128,0,42779:0:0:0:0:
64,192,42602,1,2,0:0:0:0:
320,192,42779,128,8,42955:0:0:0:0:
192,192,42955,128,8,43132:0:0:0:0:
64,192,43132,128,2,43308:0:0:0:0:
448,192,43308,1,8,0:0:0:0:
320,192,43485,1,8,0:0:0:0:
192,192,43661,1,8,0:0:0:0:
64,192,43838,1,8,0:0:0:0:
320,192,44014,1,2,0:0:0:0:
448,192,44014,1,4,0:0:0:0:
192,192,44191,1,2,0:0:0:0:
64,192,44367,1,8,0:0:0:0:
320,192,44544,1,2,0:0:0:0:
448,192,44544,1,0,0:0:0:0:
64,192,44897,1,2,0:0:0:0:
320,192,44897,1,0,0:0:0:0:
192,192,45073,1,8,0:0:0:0:
448,192,45249,1,0,0:0:0:0:
64,192,45249,1,2,0:0:0:0:
320,192,45602,1,8,0:0:0:0:
448,192,45602,1,0,0:0:0:0:
64,192,45779,1,8,0:0:0:0:
192,192,45955,1,8,0:0:0:0:
448,192,45955,1,0,0:0:0:0:
448,192,46308,1,8,0:0:0:0:
320,192,46397,1,8,0:0:0:0:
64,192,46485,1,8,0:0:0:0:
192,192,46573,1,2,0:0:0:0:
448,192,46661,1,2,0:0:0:0:
64,192,46838,1,2,0:0:0:0:
320,192,46838,1,4,0:0:0:0:
192,192,47014,1,0,0:0:0:0:
448,192,47191,1,8,0:0:0:0:
64,192,47191,1,0,0:0:0:0:
192,192,47367,1,0,0:0:0:0:
320,192,47544,1,2,0:0:0:0:
192,192,47720,1,0,0:0:0:0:
64,192,47897,1,8,0:0:0:0:
320,192,47897,1,0,0:0:0:0:
448,192,48073,1,0,0:0:0:0:
192,192,48249,1,0,0:0:0:0:
320,192,48249,128,2,48602:0:0:0:0:
448,192,48602,128,2,48955:0:0:0:0:
192,192,48955,128,2,49308:0:0:0:0:
64,192,49308,128,8,49661:0:0:0:0:
320,192,49661,1,2,0:0:0:0:
448,192,49661,1,4,0:0:0:0:
192,192,50191,1,2,0:0:0:0:
64,192,50544,1,2,0:0:0:0:
448,192,50720,1,2,0:0:0:0:
192,192,50897,1,2,0:0:0:0:
320,192,51073,1,4,0:0:0:0:
448,192,51073,128,8,51426:0:0:0:0:
64,192,51426,128,2,51779:0:0:0:0:
192,192,51779,128,0,52132:0:0:0:0:
320,192,52132,128,2,52485:0:0:0:0:
64,192,52485,1,2,0:0:0:0:
448,192,52485,1,4,0:0:0:0:
192,192,52838,1,2,0:0:0:0:
448,192,53014,1,0,0:0:0:0:
320,192,53014,1,2,0:0:0:0:
64,192,53367,1,2,0:0:0:0:
192,192,53544,1,2,0:0:0:0:
320,192,53544,1,0,0:0:0:0:
448,192,53720,1,2,0:0:0:0:
64,192,53897,1,0,0:0:0:0:
192,192,53897,1,8,0:0:0:0:
320,192,54426,1,2,0:0:0:0:
64,192,54602,1,0,0:0:0:0:
448,192,54602,1,0,0:0:0:0:
192,192,54955,1,2,0:0:0:0:
320,192,55132,1,0,0:0:0:0:
64,192,55308,1,2,0:0:0:0:
448,192,55308,1,4,0:0:0:0:
192,192,55485,1,2,0:0:0:0:
320,192,55661,1,8,0:0:0:0:
448,192,55661,1,0,0:0:0:0:
64,192,56014,1,0,0:0:0:0:
448,192,56191,1,0,0:0:0:0:
192,192,56191,1,2,0:0:0:0:
64,192,56367,1,0,0:0:0:0:
320,192,56367,1,8,0:0:0:0:
192,192,56544,1,2,0:0:0:0:
320,192,56720,1,2,0:0:0:0:
448,192,56720,1,0,0:0:0:0:
192,192,56897,1,2,0:0:0:0:
64,192,57073,1,8,0:0:0:0:
448,192,57073,1,0,0:0:0:0:
192,192,57249,1,0,0:0:0:0:
320,192,57426,1,0,0:0:0:0:
64,192,57602,1,0,0:0:0:0:
192,192,57602,1,2,0:0:0:0:
320,192,57779,1,8,0:0:0:0:
448,192,57779,1,0,0:0:0:0:
192,192,57955,1,2,0:0:0:0:
64,192,58132,1,4,0:0:0:0:
448,192,58132,1,8,0:0:0:0:
320,192,58308,1,2,0:0:0:0:
64,192,58485,1,0,0:0:0:0:
192,192,58485,1,2,0:0:0:0:
192,192,58661,1,0,0:0:0:0:
64,192,58838,1,2,0:0:0:0:
320,192,58838,1,0,0:0:0:0:
320,192,59014,1,8,0:0:0:0:
192,192,59191,1,0,0:0:0:0:
448,192,59191,1,2,0:0:0:0:
192,192,59367,1,8,0:0:0:0:
448,192,59544,1,0,0:0:0:0:
64,192,59544,128,2,60249:0:0:0:0:
448,192,60249,128,0,60955:0:0:0:0:
192,192,60602,1,0,0:0:0:0:
64,192,60955,1,2,0:0:0:0:
320,192,60955,1,4,0:0:0:0:
192,192,61132,1,0,0:0:0:0:
64,192,61308,1,2,0:0:0:0:
448,192,61485,1,0,0:0:0:0:
192,192,61661,1,2,0:0:0:0:
320,192,61838,1,0,0:0:0:0:
64,192,62014,1,2,0:0:0:0:
192,192,62191,1,0,0:0:0:0:
448,192,62367,1,2,0:0:0:0:
64,192,62367,128,0,62544:0:0:0:0:
192,192,62544,128,0,62720:0:0:0:0:
448,192,62720,128,2,62897:0:0:0:0:
320,192,62897,128,0,63073:0:0:0:0:
64,192,63073,128,0,63779:0:0:0:0:
192,192,63073,128,2,63426:0:0:0:0:
448,192,63426,128,2,63779:0:0:0:0:
320,192,63779,1,4,0:0:0:0:
192,192,63779,1,2,0:0:0:0:
64,192,63955,1,0,0:0:0:0:
320,192,64132,1,8,0:0:0:0:
192,192,64308,1,0,0:0:0:0:
448,192,64485,1,2,0:0:0:0:
320,192,64661,1,0,0:0:0:0:
192,192,64838,1,8,0:0:0:0:
448,192,65014,1,0,0:0:0:0:
64,192,65191,1,0,0:0:0:0:
320,192,65191,1,2,0:0:0:0:
192,192,65367,1,0,0:0:0:0:
448,192,65544,1,8,0:0:0:0:
64,192,65720,1,0,0:0:0:0:
192,192,65897,1,2,0:0:0:0:
320,192,66073,1,0,0:0:0:0:
64,192,66249,1,8,0:0:0:0:
448,192,66426,1,0,0:0:0:0:
64,192,66602,1,0,0:0:0:0:
320,192,66602,1,2,0:0:0:0:
192,192,66779,1,0,0:0:0:0:
448,192,66955,1,8,0:0:0:0:
64,192,67132,1,0,0:0:0:0:
192,192,67308,1,2,0:0:0:0:
320,192,67485,1,0,0:0:0:0:
448,192,67661,1,8,0:0:0:0:
192,192,67838,1,0,0:0:0:0:
64,192,68014,128,0,68191:0:0:0:0:
320,192,68014,1,2,0:0:0:0:
448,192,68191,128,8,68367:0:0:0:0:
64,192,68367,128,2,68544:0:0:0:0:
448,192,68544,128,8,68720:0:0:0:0:
192,192,68720,1,2,0:0:0:0:
320,192,68897,1,8,0:0:0:0:
192,192,69073,1,2,0:0:0:0:
320,192,69249,1,8,0:0:0:0:
448,192,69426,1,4,0:0:0:0:
64,192,69426,1,2,0:0:0:0:
320,192,69602,1,0,0:0:0:0:
192,192,69779,1,8,0:0:0:0:
448,192,69955,1,0,0:0:0:0:
192,192,70132,1,2,0:0:0:0:
64,192,70308,1,0,0:0:0:0:
320,192,70485,1,8,0:0:0:0:
192,192,70661,1,0,0:0:0:0:
64,192,70838,1,0,0:0:0:0:
320,192,70838,1,2,0:0:0:0:
448,192,71014,1,0,0:0:0:0:
64,192,71191,1,8,0:0:0:0:
320,192,71367,1,0,0:0:0:0:
192,192,71544,1,2,0:0:0:0:
64,192,71720,1,0,0:0:0:0:
448,192,71897,1,8,0:0:0:0:
192,192,72073,1,0,0:0:0:0:
64,192,72249,1,0,0:0:0:0:
320,192,72249,1,2,0:0:0:0:
448,192,72426,1,0,0:0:0:0:
192,192,72602,1,8,0:0:0:0:
320,192,72779,1,0,0:0:0:0:
64,192,72955,1,2,0:0:0:0:
192,192,73132,1,0,0:0:0:0:
448,192,73308,1,8,0:0:0:0:
64,192,73485,1,0,0:0:0:0:
192,192,73661,128,2,73838:0:0:0:0:
448,192,73661,128,0,74014:0:0:0:0:
64,192,73838,128,2,74191:0:0:0:0:
320,192,74014,128,2,74367:0:0:0:0:
192,192,74191,128,2,74367:0:0:0:0:
448,192,74367,1,8,0:0:0:0:
64,192,74367,1,2,0:0:0:0:
448,192,74720,1,8,0:0:0:0:
64,192,74720,1,2,0:0:0:0:
192,192,75073,1,4,0:0:0:0:
320,192,75073,1,8,0:0:0:0:
448,192,75249,1,2,0:0:0:0:
64,192,75426,1,0,0:0:0:0:
192,192,75426,1,8,0:0:0:0:
320,192,75602,1,2,0:0:0:0:
64,192,75779,1,8,0:0:0:0:
448,192,75779,1,0,0:0:0:0:
320,192,75955,1,2,0:0:0:0:
448,192,76132,1,0,0:0:0:0:
192,192,76132,1,8,0:0:0:0:
64,192,76308,1,2,0:0:0:0:
192,192,76485,1,8,0:0:0:0:
320,192,76485,1,0,0:0:0:0:
320,192,76749,1,2,0:0:0:0:
192,192,76838,1,8,0:0:0:0:
448,192,77014,1,2,0:0:0:0:
64,192,77191,1,0,0:0:0:0:
320,192,77191,1,8,0:0:0:0:
192,192,77367,1,2,0:0:0:0:
320,192,77544,1,0,0:0:0:0:
448,192,77544,1,8,0:0:0:0:
64,192,77720,1,2,0:0:0:0:
448,192,77897,1,0,0:0:0:0:
192,192,77897,1,8,0:0:0:0:
320,192,78073,1,2,0:0:0:0:
64,192,78249,1,8,0:0:0:0:
448,192,78249,1,0,0:0:0:0:
192,192,78426,1,2,0:0:0:0:
320,192,78602,1,8,0:0:0:0:
64,192,78602,1,0,0:0:0:0:
448,192,78779,1,2,0:0:0:0:
192,192,78955,1,8,0:0:0:0:
320,192,78955,1,0,0:0:0:0:
64,192,79132,1,2,0:0:0:0:
320,192,79308,1,8,0:0:0:0:
448,192,79308,128,0,79485:0:0:0:0:
192,192,79485,128,2,79661:0:0:0:0:
448,192,79661,128,8,79838:0:0:0:0:
192,192,79838,128,2,80014:0:0:0:0:
320,192,80014,1,8,0:0:0:0:
64,192,80191,1,8,0:0:0:0:
320,192,80367,1,12,0:0:0:0:
64,192,80544,1,2,0:0:0:0:
192,192,80720,1,8,0:0:0:0:
448,192,80720,1,0,0:0:0:0:
320,192,80897,1,2,0:0:0:0:
64,192,81073,1,0,0:0:0:0:
448,192,81073,1,8,0:0:0:0:
192,192,81249,1,2,0:0:0:0:
320,192,81426,1,8,0:0:0:0:
64,192,81426,1,0,0:0:0:0:
448,192,81602,1,2,0:0:0:0:
192,192,81779,1,8,0:0:0:0:
320,192,81779,1,0,0:0:0:0:
64,192,81955,1,2,0:0:0:0:
448,192,82132,1,0,0:0:0:0:
192,192,82132,1,8,0:0:0:0:
448,192,82397,1,2,0:0:0:0:
192,192,82485,1,8,0:0:0:0:
64,192,82661,1,2,0:0:0:0:
448,192,82838,1,0,0:0:0:0:
320,192,82838,1,8,0:0:0:0:
192,192,83014,1,2,0:0:0:0:
64,192,83191,1,8,0:0:0:0:
448,192,83191,1,0,0:0:0:0:
320,192,83367,1,2,0:0:0:0:
64,192,83544,1,0,0:0:0:0:
192,192,83544,1,8,0:0:0:0:
320,192,83720,1,2,0:0:0:0:
64,192,83897,1,0,0:0:0:0:
448,192,83897,1,8,0:0:0:0:
192,192,84073,1,2,0:0:0:0:
320,192,84249,1,8,0:0:0:0:
448,192,84249,1,0,0:0:0:0:
192,192,84426,1,2,0:0:0:0:
448,192,84602,1,0,0:0:0:0:
64,192,84602,1,8,0:0:0:0:
192,192,84779,1,2,0:0:0:0:
320,192,84955,128,8,85132:0:0:0:0:
64,192,84955,128,0,85308:0:0:0:0:
448,192,85132,128,2,85485:0:0:0:0:
192,192,85308,128,8,85661:0:0:0:0:
320,192,85485,128,2,85661:0:0:0:0:
448,192,85661,1,2,0:0:0:0:
64,192,85661,1,8,0:0:0:0:
64,192,86014,1,8,0:0:0:0:
448,192,86014,1,2,0:0:0:0:
320,192,86367,1,4,0:0:0:0:
192,192,86367,128,2,86720:0:0:0:0:
448,192,86720,128,0,87073:0:0:0:0:
320,192,87073,1,2,0:0:0:0:
64,192,87073,1,4,0:0:0:0:
192,192,87426,1,0,0:0:0:0:
448,192,87602,128,4,87955:0:0:0:0:
64,192,87602,1,2,0:0:0:0:
320,192,87955,1,0,0:0:0:0:
192,192,87955,1,2,0:0:0:0:
64,192,88132,128,0,88485:0:0:0:0:
448,192,88132,1,8,0:0:0:0:
320,192,88308,1,2,0:0:0:0:
448,192,88485,1,4,0:0:0:0:
192,192,88485,1,2,0:0:0:0:
