osu file format v14

[General]
AudioFilename: japaripa.mp3
AudioLeadIn: 0
PreviewTime: 38367
Countdown: 0
SampleSet: Soft
StackLeniency: 0.7
Mode: 3
LetterboxInBreaks: 0
SpecialStyle: 0
WidescreenStoryboard: 0

[Editor]
DistanceSpacing: 0.8
BeatDivisor: 4
GridSize: 8
TimelineZoom: 2.2

[Metadata]
Title:Youkoso JAPARI PARK e
TitleUnicode:ようこそジャパリパークへ
Artist:Nanahira
ArtistUnicode:ななひら
Creator:ExNeko
Version:JAPARIPA!
Source:けものフレンズ
Tags:kemono friends opening はちぷよ hachipuyo すみじゅん sumijun Nico Nico Douga Tofu1222
BeatmapID:1232538
BeatmapSetID:582432

[Difficulty]
HPDrainRate:8
CircleSize:4
OverallDifficulty:8
ApproachRate:5
SliderMultiplier:1.4
SliderTickRate:1

[Events]
//Background and Video events
0,0,"bg.jpg",0,0
//Break Periods
//Storyboard Layer 0 (Background)
//Storyboard Layer 1 (Fail)
//Storyboard Layer 2 (Pass)
//Storyboard Layer 3 (Foreground)
//Storyboard Sound Samples
Sample,73,0,"A6H.wav",70
Sample,426,0,"F6H.wav",70
Sample,1044,0,"C6H.wav",70
Sample,1397,0,"C7H.wav",70
Sample,1926,0,"A6H.wav",70

[TimingPoints]
250,352.941176470588,4,2,1,60,1,0
63779,-100,4,3,1,60,0,0
75073,-100,4,3,1,60,0,1
86367,-100,4,2,1,60,0,0

[HitObjects]
64,192,3073,5,0,0:0:0:70:F6H.wav
448,192,3073,1,0,0:0:0:70:Whistle 2.wav
192,192,3073,1,2,0:0:0:0:
320,192,3249,1,0,0:0:0:70:E6H.wav
192,192,3426,1,0,0:0:0:70:F6H.wav
64,192,3602,1,0,0:0:0:70:G6H.wav
448,192,3602,1,2,0:0:0:0:
320,192,3602,1,0,0:0:0:0:
192,192,3955,1,0,0:0:0:70:F6H.wav
320,192,4132,1,0,0:0:0:70:G6H.wav
448,192,4308,1,0,0:0:0:70:A6H.wav
64,192,4308,1,2,0:0:0:0:
192,192,4308,1,0,0:0:0:0:
320,192,4661,1,0,0:0:0:70:A#6H_Bb6H.wav
64,192,4661,1,8,0:0:0:0:
448,192,4838,1,0,0:0:0:70:B6H.wav
192,192,4838,1,8,0:0:0:0:
64,192,5014,1,0,0:0:0:70:C7H.wav
320,192,5014,1,8,0:0:0:0:
448,192,5014,1,4,0:0:0:0:
64,192,5367,1,0,0:0:0:30:FX_WindChimes.wav
192,192,5367,1,0,0:0:0:70:A6H.wav
64,192,5544,1,0,0:0:0:70:G6H.wav
448,192,5544,1,8,0:0:0:0:
320,192,5632,1,8,0:0:0:0:
192,192,5632,1,0,0:0:0:0:
448,192,5720,1,0,0:0:0:70:F6H.wav
64,192,5720,1,2,0:0:0:0:
320,192,5897,1,0,0:0:0:70:F6H.wav
192,192,5897,1,0,0:0:0:70:Whistle 2.wav
448,192,5897,1,6,0:0:0:0:
192,192,6073,1,0,0:0:0:0:
448,192,6249,1,0,0:0:0:70:D7H.wav
64,192,6249,1,8,0:0:0:0:
320,192,6249,1,0,0:0:0:0:
448,192,6426,1,0,0:0:0:0:
64,192,6602,1,0,0:0:0:70:C7H.wav
192,192,6602,1,2,0:0:0:0:
64,192,6779,1,0,0:0:0:0:
192,192,6955,1,0,0:0:0:70:F6H.wav
320,192,6955,1,8,0:0:0:0:
448,192,6955,1,0,0:0:0:0:
320,192,7132,1,0,0:0:0:0:
64,192,7308,1,0,0:0:0:70:D6H.wav
192,192,7308,1,6,0:0:0:0:
320,192,7485,1,0,0:0:0:0:
64,192,7661,1,0,0:0:0:70:A#6H_Bb6H.wav
448,192,7661,1,8,0:0:0:0:
192,192,7838,1,0,0:0:0:0:
320,192,8014,1,0,0:0:0:70:A6H.wav
448,192,8014,1,2,0:0:0:0:
192,192,8191,1,0,0:0:0:0:
320,192,8279,1,0,0:0:0:0:
64,192,8367,1,0,0:0:0:70:G6H.wav
448,192,8367,1,8,0:0:0:0:
192,192,8455,1,0,0:0:0:0:
320,192,8544,1,0,0:0:0:0:
192,192,8720,1,0,0:0:0:70:F6H.wav
448,192,8720,1,0,0:0:0:40:F3H_s.wav
64,192,8720,1,6,0:0:0:0:
64,192,8897,1,0,0:0:0:40:F4H_s.wav
320,192,8897,1,0,0:0:0:0:
192,192,8985,1,0,0:0:0:0:
448,192,9073,1,0,0:0:0:40:E3H_s.wav
320,192,9073,1,2,0:0:0:0:
192,192,9161,1,0,0:0:0:0:
448,192,9249,1,0,0:0:0:40:E4H_s.wav
64,192,9249,1,0,0:0:0:0:
320,192,9338,1,0,0:0:0:0:
64,192,9426,1,0,0:0:0:40:D#3H_Eb3H_s.wav
192,192,9426,1,2,0:0:0:0:
320,192,9602,1,0,0:0:0:40:D#4H_Eb4H_s.wav
192,192,9602,1,0,0:0:0:0:
448,192,9691,1,0,0:0:0:0:
192,192,9779,1,0,0:0:0:40:D3H_s.wav
64,192,9779,1,2,0:0:0:0:
320,192,9867,1,0,0:0:0:0:
448,192,9955,1,0,0:0:0:40:D4H_s.wav
64,192,9955,1,0,0:0:0:0:
192,192,10044,1,0,0:0:0:0:
448,192,10132,1,0,0:0:0:40:C#3H_Db3H_s.wav
320,192,10132,1,2,0:0:0:0:
64,192,10308,1,0,0:0:0:0:
320,192,10308,1,0,0:0:0:40:C#4H_Db4H_s.wav
192,192,10397,1,0,0:0:0:0:
448,192,10485,1,0,0:0:0:40:C3H_s.wav
64,192,10485,1,2,0:0:0:0:
448,192,10661,1,0,0:0:0:0:
320,192,10661,1,0,0:0:0:40:C4H_s.wav
192,192,10749,1,0,0:0:0:0:
320,192,10838,1,0,0:0:0:40:B2H_s.wav
64,192,10838,1,2,0:0:0:0:
448,192,11014,1,0,0:0:0:0:
64,192,11014,1,0,0:0:0:40:B3H_s.wav
192,192,11102,1,0,0:0:0:0:
320,192,11191,1,0,0:0:0:40:C3H_s.wav
448,192,11191,1,2,0:0:0:0:
64,192,11279,1,0,0:0:0:0:
192,192,11279,1,2,0:0:0:0:
320,192,11367,1,0,0:0:0:40:C4H_s.wav
448,192,11367,1,2,0:0:0:0:
192,192,11455,1,2,0:0:0:0:
64,192,11455,1,0,0:0:0:0:
448,192,11544,1,0,0:0:0:40:F3H_s.wav
320,192,11544,1,6,0:0:0:0:
64,192,11720,1,0,0:0:0:0:
320,192,11720,1,0,0:0:0:40:F4H_s.wav
192,192,11808,1,0,0:0:0:0:
64,192,11897,1,0,0:0:0:40:E3H_s.wav
448,192,11897,1,2,0:0:0:0:
448,192,12073,1,0,0:0:0:0:
320,192,12073,1,0,0:0:0:40:E4H_s.wav
192,192,12161,1,0,0:0:0:0:
320,192,12249,1,0,0:0:0:40:D#3H_Eb3H_s.wav
64,192,12249,1,2,0:0:0:0:
64,192,12426,1,0,0:0:0:0:
192,192,12426,1,0,0:0:0:40:D#4H_Eb4H_s.wav
448,192,12514,1,0,0:0:0:0:
320,192,12602,1,0,0:0:0:40:D3H_s.wav
192,192,12602,1,2,0:0:0:0:
64,192,12691,1,0,0:0:0:0:
192,192,12779,1,0,0:0:0:0:
448,192,12779,1,0,0:0:0:40:D4H_s.wav
320,192,12867,1,0,0:0:0:0:
448,192,12955,1,0,0:0:0:40:C#3H_Db3H_s.wav
64,192,12955,128,2,13308:0:0:0:0:
320,192,13132,1,0,0:0:0:40:C#4H_Db4H_s.wav
192,192,13308,1,0,0:0:0:40:C3H_s.wav
448,192,13308,128,8,13661:0:0:0:0:
320,192,13485,1,0,0:0:0:40:C4H_s.wav
64,192,13661,5,0,0:0:0:50:D6H.wav
192,192,13705,1,0,0:0:0:50:E6H.wav
320,192,13749,1,0,0:0:0:50:F6H.wav
448,192,13794,1,0,0:0:0:50:G6H.wav
64,192,13838,1,0,0:0:0:50:A6H.wav
192,192,13882,1,0,0:0:0:50:B6H.wav
448,192,13926,1,0,0:0:0:50:C7H.wav
320,192,13970,1,0,0:0:0:50:D7H.wav
192,192,14014,1,0,0:0:0:50:E7H.wav
64,192,14058,1,0,0:0:0:50:F7H.wav
448,192,14102,1,0,0:0:0:50:G7H.wav
320,192,14147,1,0,0:0:0:50:A7H.wav
64,192,14191,1,0,0:0:0:50:B7H.wav
192,192,14235,1,0,0:0:0:50:C8H.wav
448,192,14279,1,0,0:0:0:50:D8H.wav
320,192,14323,1,0,0:0:0:50:E8H.wav
192,192,14367,1,0,0:0:0:70:Whistle 2.wav
64,192,14367,1,2,0:0:0:0:
448,192,14367,1,4,0:0:0:0:
320,192,14544,5,0,0:0:0:70:F6H.wav
448,192,14720,5,0,0:0:0:70:G#6H_Ab6H.wav
320,192,14897,1,0,0:0:0:70:F6H.wav
64,192,15073,5,0,0:0:0:70:G#6H_Ab6H.wav
192,192,15073,1,2,0:0:0:0:
448,192,15073,128,0,15338:0:0:0:0:
320,192,15338,1,0,0:0:0:70:F6H.wav
192,192,15602,5,0,0:0:0:70:G#6H_Ab6H.wav
448,192,15602,1,0,0:0:0:0:
64,192,15602,128,2,15779:0:0:0:0:
320,192,15955,1,0,0:0:0:70:A#6H_Bb6H.wav
320,192,16132,1,0,0:0:0:70:A#6H_Bb6H.wav
192,192,16308,1,0,0:0:0:70:G#6H_Ab6H.wav
320,192,16485,1,0,0:0:0:70:A#6H_Bb6H.wav
448,192,16485,1,2,0:0:0:0:
64,192,16485,1,0,0:0:0:0:
64,192,16661,1,0,0:0:0:70:B6H.wav
192,192,16661,1,2,0:0:0:0:
320,192,16749,1,2,0:0:0:0:
448,192,16749,1,0,0:0:0:0:
64,192,16838,1,0,0:0:0:70:A#6H_Bb6H.wav
192,192,16838,1,2,0:0:0:0:
448,192,17014,1,0,0:0:0:70:G#6H_Ab6H.wav
320,192,17014,1,2,0:0:0:0:
192,192,17102,1,2,0:0:0:0:
64,192,17191,1,6,0:0:0:0:
448,192,17191,1,0,0:0:0:70:G#6H_Ab6H.wav
320,192,17191,1,0,0:0:0:70:Whistle 2.wav
192,192,17367,1,0,0:0:0:70:F6H.wav
64,192,17367,1,0,0:0:0:0:
448,192,17455,1,0,0:0:0:0:
320,192,17544,1,0,0:0:0:70:D#6H_Eb6H.wav
192,192,17544,1,2,0:0:0:0:
320,192,17720,1,0,0:0:0:70:F6H.wav
64,192,17720,1,0,0:0:0:0:
448,192,17808,1,0,0:0:0:0:
192,192,17897,1,0,0:0:0:0:
64,192,17897,1,2,0:0:0:0:
192,192,18073,1,0,0:0:0:0:
320,192,18073,1,0,0:0:0:0:
64,192,18161,1,0,0:0:0:0:
320,192,18249,1,2,0:0:0:0:
448,192,18249,1,0,0:0:0:0:
192,192,18338,1,0,0:0:0:0:
64,192,18426,1,0,0:0:0:0:
448,192,18426,1,0,0:0:0:0:
320,192,18514,1,0,0:0:0:0:
192,192,18602,1,0,0:0:0:70:G#6H_Ab6H.wav
64,192,18602,128,6,18955:0:0:0:0:
320,192,18779,1,0,0:0:0:70:F6H.wav
192,192,18955,1,0,0:0:0:70:D#6H_Eb6H.wav
448,192,18955,128,12,19308:0:0:0:0:
320,192,19132,1,0,0:0:0:70:F6H.wav
192,192,19308,1,0,0:0:0:0:
64,192,19308,1,8,0:0:0:0:
64,192,19485,1,0,0:0:0:0:
320,192,19485,1,8,0:0:0:0:
192,192,19661,1,8,0:0:0:0:
320,192,19661,1,0,0:0:0:0:
448,192,19838,1,8,0:0:0:0:
192,192,19838,1,0,0:0:0:0:
64,192,20014,1,0,0:0:0:70:Whistle 2.wav
320,192,20014,1,2,0:0:0:0:
448,192,20014,1,4,0:0:0:0:
192,192,20191,5,0,0:0:0:70:F6H.wav
448,192,20367,5,0,0:0:0:70:G#6H_Ab6H.wav
320,192,20544,1,0,0:0:0:70:F6H.wav
64,192,20544,1,2,0:0:0:0:
320,192,20720,5,0,0:0:0:70:G#6H_Ab6H.wav
192,192,20720,128,8,20897:0:0:0:0:
448,192,20897,1,2,0:0:0:0:
64,192,20897,1,0,0:0:0:0:
320,192,20985,1,0,0:0:0:70:F6H.wav
192,192,21073,1,0,0:0:0:0:
64,192,21249,5,0,0:0:0:70:G#6H_Ab6H.wav
448,192,21249,128,2,21426:0:0:0:0:
320,192,21249,1,4,0:0:0:0:
192,192,21602,1,0,0:0:0:70:A#6H_Bb6H.wav
64,192,21602,1,2,0:0:0:0:
320,192,21691,1,0,0:0:0:0:
448,192,21691,1,2,0:0:0:0:
192,192,21779,1,0,0:0:0:70:A#6H_Bb6H.wav
64,192,21779,1,2,0:0:0:0:
448,192,21955,1,0,0:0:0:70:G#6H_Ab6H.wav
64,192,21955,1,2,0:0:0:0:
192,192,22044,1,0,0:0:0:0:
320,192,22044,1,2,0:0:0:0:
448,192,22132,1,0,0:0:0:70:A#6H_Bb6H.wav
64,192,22132,128,8,22308:0:0:0:0:
320,192,22397,1,0,0:0:0:70:B6H.wav
448,192,22397,128,8,22573:0:0:0:0:
64,192,22661,1,0,0:0:0:70:A#6H_Bb6H.wav
192,192,22661,128,8,22838:0:0:0:0:
448,192,22838,1,0,0:0:0:70:Whistle 2.wav
320,192,22838,128,0,23191:0:0:0:70:G#6H_Ab6H.wav
64,192,22838,1,6,0:0:0:0:
192,192,23014,1,0,0:0:0:70:F6H.wav
64,192,23191,1,0,0:0:0:70:D#6H_Eb6H.wav
448,192,23191,1,8,0:0:0:0:
192,192,23279,1,0,0:0:0:0:
320,192,23367,1,0,0:0:0:70:F6H.wav
448,192,23367,1,0,0:0:0:0:
64,192,23455,1,0,0:0:0:0:
192,192,23544,1,2,0:0:0:0:
320,192,23544,1,0,0:0:0:0:
448,192,23632,1,0,0:0:0:0:
64,192,23720,1,2,0:0:0:0:
320,192,23808,1,2,0:0:0:0:
448,192,23808,1,0,0:0:0:0:
192,192,23897,1,0,0:0:0:0:
64,192,23897,1,8,0:0:0:0:
320,192,23985,1,2,0:0:0:0:
448,192,23985,1,0,0:0:0:0:
192,192,24073,1,2,0:0:0:0:
64,192,24073,1,0,0:0:0:0:
320,192,24249,1,0,0:0:0:70:A#5H_Bb5H.wav
448,192,24249,128,6,24602:0:0:0:0:
64,192,24426,1,0,0:0:0:0:
320,192,24602,1,0,0:0:0:70:B5H.wav
192,192,24602,128,6,24955:0:0:0:0:
448,192,24779,1,0,0:0:0:0:
320,192,24955,1,0,0:0:0:70:C6H.wav
64,192,24955,128,6,25308:0:0:0:0:
192,192,25132,1,2,0:0:0:0:
448,192,25132,1,0,0:0:0:0:
448,192,25308,128,0,25485:0:0:0:0:
320,192,25308,1,8,0:0:0:0:
64,192,25485,128,0,25661:0:0:0:0:
192,192,25485,1,2,0:0:0:0:
320,192,25661,1,0,0:0:0:70:A6H.wav
448,192,25661,1,6,0:0:0:0:
192,192,25838,1,0,0:0:0:70:A6H.wav
320,192,26014,1,0,0:0:0:70:A6H.wav
320,192,26191,1,0,0:0:0:70:A6H.wav
64,192,26191,1,2,0:0:0:0:
192,192,26367,1,0,0:0:0:70:A6H.wav
448,192,26367,1,8,0:0:0:0:
64,192,26367,1,0,0:0:0:0:
320,192,26544,1,0,0:0:0:70:D7H.wav
448,192,26544,1,2,0:0:0:0:
192,192,26720,1,0,0:0:0:70:A6H.wav
320,192,26720,1,2,0:0:0:0:
64,192,26897,5,2,0:0:0:0:
192,192,26897,1,0,0:0:0:70:A6H.wav
448,192,27073,1,0,0:0:0:70:G6H.wav
64,192,27073,1,2,0:0:0:0:
320,192,27073,1,4,0:0:0:0:
320,192,27249,1,0,0:0:0:70:A6H.wav
64,192,27426,1,0,0:0:0:70:G6H.wav
64,192,27602,1,0,0:0:0:70:G6H.wav
448,192,27602,1,2,0:0:0:0:
448,192,27779,1,0,0:0:0:70:F6H.wav
192,192,27779,1,8,0:0:0:0:
320,192,27955,1,8,0:0:0:70:F6H.wav
64,192,28044,1,8,0:0:0:0:
192,192,28044,1,0,0:0:0:0:
320,192,28132,1,0,0:0:0:70:G6H.wav
448,192,28132,1,8,0:0:0:0:
64,192,28308,1,2,0:0:0:0:
448,192,28308,1,0,0:0:0:0:
320,192,28485,1,0,0:0:0:70:G6H.wav
64,192,28485,1,0,0:0:0:70:Whistle 2.wav
192,192,28485,1,6,0:0:0:0:
320,192,28838,1,0,0:0:0:70:G6H.wav
320,192,29014,1,0,0:0:0:70:G6H.wav
64,192,29014,1,2,0:0:0:0:
448,192,29191,1,0,0:0:0:70:C7H.wav
192,192,29191,128,0,29367:0:0:0:0:
64,192,29191,1,8,0:0:0:0:
448,192,29367,1,0,0:0:0:70:G6H.wav
320,192,29367,128,2,29544:0:0:0:0:
192,192,29544,1,0,0:0:0:70:G6H.wav
64,192,29544,128,2,29720:0:0:0:0:
320,192,29720,1,0,0:0:0:70:G6H.wav
448,192,29720,128,8,29897:0:0:0:0:
192,192,29720,1,0,0:0:0:0:
320,192,30073,1,0,0:0:0:0:
192,192,30073,1,0,0:0:0:70:F#6H_Gb6H.wav
64,192,30073,128,8,30249:0:0:0:0:
320,192,30426,1,0,0:0:0:70:G6H.wav
192,192,30426,128,8,30602:0:0:0:0:
448,192,30426,1,0,0:0:0:0:
448,192,30779,1,2,0:0:0:0:
64,192,30779,1,0,0:0:0:70:A6H.wav
320,192,30955,1,8,0:0:0:0:
448,192,30955,1,0,0:0:0:0:
320,192,31132,1,0,0:0:0:70:A#6H_Bb6H.wav
64,192,31132,128,0,31661:0:0:0:70:Whistle 2.wav
192,192,31132,1,6,0:0:0:0:
448,192,31485,1,2,0:0:0:0:
320,192,31485,1,0,0:0:0:0:
192,192,31661,1,0,0:0:0:0:
448,192,31661,1,8,0:0:0:0:
320,192,31838,1,0,0:0:0:70:D6H.wav
192,192,31838,1,2,0:0:0:0:
64,192,32014,1,0,0:0:0:70:D6H.wav
320,192,32014,128,2,32367:0:0:0:0:
64,192,32367,1,8,0:0:0:0:
192,192,32367,1,0,0:0:0:0:
448,192,32367,1,0,0:0:0:0:
192,192,32720,1,0,0:0:0:70:Whistle 2.wav
448,192,32720,128,0,33073:0:0:0:70:A6H.wav
320,192,32720,1,6,0:0:0:0:
64,192,33073,1,0,0:0:0:0:
192,192,33073,1,0,0:0:0:0:
320,192,33073,1,8,0:0:0:0:
448,192,33249,1,0,0:0:0:70:C6H.wav
64,192,33249,1,2,0:0:0:0:
448,192,33426,1,0,0:0:0:70:C6H.wav
192,192,33426,128,2,33779:0:0:0:0:
64,192,33779,1,0,0:0:0:0:
320,192,33779,1,8,0:0:0:0:
448,192,33779,1,0,0:0:0:0:
64,192,33955,1,0,0:0:0:70:C6H.wav
192,192,33955,1,2,0:0:0:0:
192,192,34132,1,0,0:0:0:70:C#6H_Db6H.wav
448,192,34132,128,0,34485:0:0:0:70:Whistle 2.wav
320,192,34132,1,6,0:0:0:0:
64,192,34485,1,0,0:0:0:70:D#6H_Eb6H.wav
320,192,34485,128,2,34661:0:0:0:0:
448,192,34661,1,0,0:0:0:0:
192,192,34661,128,0,35014:0:0:0:70:F6H.wav
64,192,34838,1,2,0:0:0:0:
320,192,35014,1,0,0:0:0:70:C7H.wav
448,192,35014,128,2,35191:0:0:0:0:
192,192,35191,1,2,0:0:0:0:
64,192,35191,1,0,0:0:0:0:
448,192,35367,1,0,0:0:0:70:A6H.wav
64,192,35367,128,2,35720:0:0:0:0:
320,192,35367,1,4,0:0:0:0:
448,192,35720,1,0,0:0:0:70:A#6H_Bb6H.wav
192,192,35720,1,2,0:0:0:0:
64,192,35897,1,0,0:0:0:70:A6H.wav
448,192,35897,1,2,0:0:0:0:
64,192,36073,1,0,0:0:0:70:A6H.wav
448,192,36161,1,0,0:0:0:0:
320,192,36161,1,2,0:0:0:0:
64,192,36249,1,0,0:0:0:70:G6H.wav
192,192,36249,1,2,0:0:0:0:
192,192,36426,1,2,0:0:0:0:
448,192,36426,1,0,0:0:0:0:
64,192,36602,1,4,0:0:0:0:
448,192,36602,1,0,0:0:0:0:
320,192,36602,1,8,0:0:0:0:
192,192,36779,1,2,0:0:0:0:
320,192,36779,1,0,0:0:0:0:
448,192,36955,1,0,0:0:0:70:Whistle 2.wav
192,192,36955,1,0,0:0:0:0:
64,192,36955,1,2,0:0:0:0:
320,192,37308,1,0,0:0:0:70:G6H.wav
64,192,37661,1,0,0:0:0:70:C6H.wav
192,192,37661,1,0,0:0:0:30:FX_WindChimes.wav
320,192,37970,1,0,0:0:0:70:B7H.wav
448,192,38014,1,0,0:0:0:70:C8H.wav
192,192,38367,1,6,0:0:0:0:
320,192,38367,1,0,0:0:0:70:F6H.wav
64,192,38367,1,0,0:0:0:70:Whistle 2.wav
64,192,38544,1,0,0:0:0:70:E6H.wav
448,192,38544,1,2,0:0:0:0:
320,192,38720,1,0,0:0:0:70:F6H.wav
192,192,38720,1,8,0:0:0:0:
448,192,38720,1,0,0:0:0:0:
64,192,38897,1,0,0:0:0:70:G6H.wav
320,192,38897,128,2,39249:0:0:0:0:
192,192,39073,1,0,0:0:0:0:
448,192,39249,1,0,0:0:0:70:F6H.wav
64,192,39249,1,2,0:0:0:0:
320,192,39426,1,0,0:0:0:70:G6H.wav
192,192,39426,1,0,0:0:0:0:
64,192,39426,1,8,0:0:0:0:
192,192,39602,1,0,0:0:0:70:A6H.wav
448,192,39602,128,2,39955:0:0:0:0:
64,192,39779,1,0,0:0:0:0:
320,192,39955,1,0,0:0:0:70:A#6H_Bb6H.wav
192,192,39955,1,8,0:0:0:0:
320,192,40132,1,0,0:0:0:70:B6H.wav
64,192,40132,1,0,0:0:0:0:
448,192,40132,1,8,0:0:0:0:
192,192,40308,1,0,0:0:0:70:C7H.wav
64,192,40308,128,8,40661:0:0:0:0:
448,192,40485,1,0,0:0:0:0:
320,192,40661,1,0,0:0:0:70:A6H.wav
192,192,40661,1,2,0:0:0:0:
320,192,40838,1,0,0:0:0:70:G6H.wav
448,192,40838,1,8,0:0:0:0:
192,192,40926,1,0,0:0:0:0:
64,192,40926,1,8,0:0:0:0:
320,192,41014,1,0,0:0:0:70:F6H.wav
448,192,41014,1,2,0:0:0:0:
448,192,41191,1,0,0:0:0:70:F6H.wav
192,192,41191,1,0,0:0:0:70:Whistle 2.wav
64,192,41191,128,6,41367:0:0:0:0:
320,192,41367,1,0,0:0:0:0:
448,192,41544,1,0,0:0:0:70:D7H.wav
192,192,41544,128,8,41720:0:0:0:0:
64,192,41720,1,0,0:0:0:0:
320,192,41897,1,0,0:0:0:70:C7H.wav
448,192,41897,128,2,42073:0:0:0:0:
64,192,42073,1,0,0:0:0:0:
192,192,42249,1,0,0:0:0:70:F6H.wav
320,192,42249,128,8,42426:0:0:0:0:
448,192,42426,1,0,0:0:0:0:
192,192,42602,128,0,42955:0:0:0:0:
64,192,42602,128,0,42779:0:0:0:70:A#6H_Bb6H.wav
320,192,42602,1,2,0:0:0:0:
448,192,42779,1,0,0:0:0:70:A6H.wav
320,192,42779,128,8,43132:0:0:0:0:
64,192,42955,1,0,0:0:0:70:G6H.wav
448,192,42955,128,8,43308:0:0:0:0:
192,192,43132,1,0,0:0:0:70:F6H.wav
64,192,43132,128,8,43308:0:0:0:0:
320,192,43308,1,0,0:0:0:70:G6H.wav
192,192,43308,1,8,0:0:0:0:
320,192,43485,1,8,0:0:0:0:
64,192,43485,1,0,0:0:0:0:
64,192,43661,1,0,0:0:0:0:
448,192,43661,1,8,0:0:0:0:
448,192,43838,1,0,0:0:0:0:
192,192,43838,1,8,0:0:0:0:
320,192,44014,1,0,0:0:0:70:F6H.wav
64,192,44014,1,0,0:0:0:70:Whistle 2.wav
192,192,44014,1,6,0:0:0:0:
320,192,44191,1,0,0:0:0:70:E6H.wav
448,192,44191,1,2,0:0:0:0:
448,192,44367,1,0,0:0:0:70:F6H.wav
192,192,44367,1,8,0:0:0:0:
64,192,44367,1,0,0:0:0:0:
64,192,44544,1,0,0:0:0:70:G6H.wav
320,192,44544,128,2,44897:0:0:0:0:
192,192,44720,1,0,0:0:0:0:
448,192,44897,1,0,0:0:0:70:F6H.wav
64,192,44897,1,2,0:0:0:0:
320,192,45073,1,0,0:0:0:70:G6H.wav
192,192,45073,1,8,0:0:0:0:
448,192,45073,1,0,0:0:0:0:
320,192,45249,1,0,0:0:0:70:A6H.wav
64,192,45249,128,2,45602:0:0:0:0:
192,192,45426,1,0,0:0:0:0:
448,192,45602,1,8,0:0:0:0:
320,192,45602,1,0,0:0:0:70:A#6H_Bb6H.wav
192,192,45691,1,0,0:0:0:0:
320,192,45779,1,0,0:0:0:70:B6H.wav
64,192,45779,1,0,0:0:0:0:
448,192,45779,1,8,0:0:0:0:
64,192,45955,1,0,0:0:0:70:C7H.wav
192,192,45955,128,8,46132:0:0:0:0:
320,192,46132,1,0,0:0:0:0:
192,192,46308,1,0,0:0:0:70:A6H.wav
64,192,46308,1,8,0:0:0:0:
320,192,46397,1,8,0:0:0:0:
448,192,46397,1,0,0:0:0:0:
192,192,46485,1,0,0:0:0:70:G6H.wav
64,192,46485,1,8,0:0:0:0:
320,192,46573,1,2,0:0:0:0:
448,192,46573,1,0,0:0:0:0:
192,192,46661,1,0,0:0:0:70:F6H.wav
64,192,46661,1,2,0:0:0:0:
448,192,46838,1,0,0:0:0:70:F6H.wav
320,192,46838,1,0,0:0:0:70:Whistle 2.wav
192,192,46838,128,6,47191:0:0:0:0:
64,192,47014,1,0,0:0:0:0:
320,192,47191,1,0,0:0:0:70:D7H.wav
448,192,47191,128,8,47544:0:0:0:0:
192,192,47367,1,0,0:0:0:0:
320,192,47544,1,0,0:0:0:70:C7H.wav
64,192,47544,128,2,47897:0:0:0:0:
448,192,47720,1,0,0:0:0:0:
320,192,47897,1,0,0:0:0:70:F6H.wav
192,192,47897,128,8,48249:0:0:0:0:
448,192,48073,1,0,0:0:0:0:
320,192,48249,1,0,0:0:0:70:D6H.wav
64,192,48249,1,2,0:0:0:0:
64,192,48426,1,8,0:0:0:0:
448,192,48426,1,0,0:0:0:0:
448,192,48602,1,2,0:0:0:0:
320,192,48602,1,0,0:0:0:70:A#6H_Bb6H.wav
192,192,48691,1,0,0:0:0:0:
64,192,48691,1,2,0:0:0:0:
320,192,48779,1,0,0:0:0:0:
448,192,48779,1,8,0:0:0:0:
320,192,48955,1,0,0:0:0:70:A6H.wav
192,192,48955,1,2,0:0:0:0:
448,192,49044,1,0,0:0:0:0:
64,192,49132,1,2,0:0:0:0:
192,192,49132,1,0,0:0:0:0:
448,192,49220,1,2,0:0:0:0:
320,192,49220,1,0,0:0:0:0:
192,192,49308,1,0,0:0:0:70:G6H.wav
64,192,49308,128,8,49661:0:0:0:0:
192,192,49661,1,0,0:0:0:70:F6H.wav
448,192,49661,1,0,0:0:0:70:Whistle 2.wav
320,192,49661,1,6,0:0:0:0:
64,192,49838,1,0,0:0:0:0:
192,192,50014,1,0,0:0:0:0:
448,192,50191,1,0,0:0:0:0:
320,192,50191,1,2,0:0:0:0:
192,192,50367,1,0,0:0:0:0:
448,192,50544,1,0,0:0:0:70:F6H.wav
64,192,50544,1,2,0:0:0:0:
192,192,50720,1,0,0:0:0:70:F6H.wav
320,192,50720,1,2,0:0:0:0:
64,192,50897,1,2,0:0:0:0:
448,192,50897,1,0,0:0:0:70:G6H.wav
320,192,50985,1,0,0:0:0:0:
192,192,51073,1,0,0:0:0:70:G#6H_Ab6H.wav
64,192,51073,128,12,51426:0:0:0:0:
192,192,51426,1,0,0:0:0:70:G6H.wav
448,192,51426,128,2,51779:0:0:0:0:
320,192,51602,1,0,0:0:0:0:
192,192,51691,1,0,0:0:0:0:
64,192,51779,128,0,52132:0:0:0:70:F6H.wav
320,192,51955,1,2,0:0:0:0:
192,192,52132,1,0,0:0:0:70:C#6H_Db6H.wav
448,192,52132,128,2,52485:0:0:0:0:
320,192,52308,1,0,0:0:0:0:
192,192,52485,1,0,0:0:0:70:C6H.wav
64,192,52485,1,6,0:0:0:0:
448,192,52749,1,0,0:0:0:70:A6H.wav
64,192,52838,1,2,0:0:0:0:
320,192,52838,1,0,0:0:0:0:
192,192,53014,1,0,0:0:0:70:A6H.wav
448,192,53014,1,2,0:0:0:0:
192,192,53191,1,0,0:0:0:70:A6H.wav
320,192,53367,1,2,0:0:0:0:
448,192,53367,1,0,0:0:0:0:
192,192,53455,1,0,0:0:0:70:G#6H_Ab6H.wav
64,192,53544,1,0,0:0:0:0:
448,192,53544,1,2,0:0:0:0:
192,192,53720,1,0,0:0:0:70:A6H.wav
64,192,53720,1,2,0:0:0:0:
320,192,53808,1,0,0:0:0:0:
192,192,53897,1,0,0:0:0:70:A#6H_Bb6H.wav
448,192,53897,128,8,54426:0:0:0:0:
64,192,54073,1,2,0:0:0:0:
192,192,54249,1,2,0:0:0:0:
320,192,54426,1,0,0:0:0:70:C7H.wav
192,192,54514,1,0,0:0:0:70:A#6H_Bb6H.wav
320,192,54602,1,0,0:0:0:70:A6H.wav
64,192,54602,128,2,54955:0:0:0:0:
448,192,54779,1,2,0:0:0:0:
192,192,54955,1,2,0:0:0:0:
320,192,54955,1,0,0:0:0:0:
192,192,55132,1,0,0:0:0:70:A6H.wav
64,192,55308,1,0,0:0:0:70:Whistle 2.wav
448,192,55308,1,0,0:0:0:70:A#6H_Bb6H.wav
320,192,55308,1,6,0:0:0:0:
192,192,55485,1,2,0:0:0:0:
320,192,55485,1,0,0:0:0:0:
192,192,55661,1,0,0:0:0:70:A6H.wav
448,192,55661,1,8,0:0:0:0:
64,192,55661,1,0,0:0:0:0:
448,192,55838,1,0,0:0:0:70:F6H.wav
320,192,56014,1,0,0:0:0:0:
320,192,56191,1,0,0:0:0:70:D6H.wav
64,192,56191,1,2,0:0:0:0:
192,192,56367,1,8,0:0:0:0:
64,192,56367,1,0,0:0:0:0:
448,192,56367,1,0,0:0:0:0:
320,192,56544,1,0,0:0:0:70:F6H.wav
192,192,56544,1,2,0:0:0:0:
64,192,56720,1,0,0:0:0:70:A#6H_Bb6H.wav
448,192,56720,1,2,0:0:0:0:
192,192,56897,1,2,0:0:0:0:
320,192,56897,1,0,0:0:0:0:
320,192,57073,1,0,0:0:0:70:A6H.wav
448,192,57073,1,0,0:0:0:0:
64,192,57073,1,8,0:0:0:0:
448,192,57249,1,0,0:0:0:70:F6H.wav
192,192,57426,1,0,0:0:0:0:
320,192,57602,1,0,0:0:0:70:D6H.wav
192,192,57602,1,2,0:0:0:0:
64,192,57779,1,0,0:0:0:0:
320,192,57779,1,8,0:0:0:0:
448,192,57779,1,0,0:0:0:0:
448,192,57955,1,0,0:0:0:70:A6H.wav
192,192,57955,1,2,0:0:0:0:
320,192,58132,1,0,0:0:0:70:A#6H_Bb6H.wav
64,192,58132,1,0,0:0:0:70:Whistle 2.wav
192,192,58132,1,12,0:0:0:0:
320,192,58308,1,0,0:0:0:0:
448,192,58308,1,2,0:0:0:0:
192,192,58397,1,0,0:0:0:0:
64,192,58397,1,2,0:0:0:0:
320,192,58485,1,0,0:0:0:70:A6H.wav
448,192,58485,1,2,0:0:0:0:
448,192,58661,1,0,0:0:0:70:F6H.wav
64,192,58661,1,2,0:0:0:0:
192,192,58749,1,2,0:0:0:0:
320,192,58749,1,0,0:0:0:0:
64,192,58838,1,0,0:0:0:0:
448,192,58838,1,2,0:0:0:0:
320,192,59014,1,0,0:0:0:70:C#6H_Db6H.wav
64,192,59014,1,0,0:0:0:0:
192,192,59014,1,8,0:0:0:0:
192,192,59191,1,2,0:0:0:0:
448,192,59191,1,0,0:0:0:0:
320,192,59367,1,0,0:0:0:70:C#6H_Db6H.wav
64,192,59367,1,8,0:0:0:0:
448,192,59367,1,0,0:0:0:0:
192,192,59544,1,0,0:0:0:70:C6H.wav
320,192,59544,128,2,60249:0:0:0:0:
64,192,59897,1,0,0:0:0:0:
448,192,60073,1,0,0:0:0:0:
192,192,60249,1,0,0:0:0:70:G6H.wav
64,192,60249,128,0,60779:0:0:0:0:
320,192,60602,1,0,0:0:0:0:
192,192,60779,1,0,0:0:0:70:F6H.wav
448,192,60779,1,0,0:0:0:0:
448,192,60955,1,0,0:0:0:70:F6H.wav
64,192,60955,1,0,0:0:0:40:F3H_s.wav
320,192,60955,1,6,0:0:0:0:
192,192,61132,1,0,0:0:0:0:
448,192,61132,1,0,0:0:0:40:F4H_s.wav
320,192,61220,1,0,0:0:0:0:
64,192,61308,1,0,0:0:0:40:E3H_s.wav
192,192,61308,1,2,0:0:0:0:
320,192,61485,1,0,0:0:0:0:
64,192,61485,1,0,0:0:0:40:E4H_s.wav
192,192,61573,1,0,0:0:0:0:
448,192,61661,1,0,0:0:0:40:D#3H_Eb3H_s.wav
320,192,61661,1,2,0:0:0:0:
192,192,61838,1,0,0:0:0:0:
448,192,61838,1,0,0:0:0:40:D#4H_Eb4H_s.wav
320,192,61926,1,0,0:0:0:0:
192,192,62014,1,0,0:0:0:40:D3H_s.wav
64,192,62014,1,2,0:0:0:0:
448,192,62102,1,0,0:0:0:0:
64,192,62191,1,0,0:0:0:40:D4H_s.wav
320,192,62191,1,0,0:0:0:0:
192,192,62279,1,0,0:0:0:0:
64,192,62367,1,0,0:0:0:40:C#3H_Db3H_s.wav
448,192,62367,128,2,62720:0:0:0:0:
320,192,62544,1,0,0:0:0:40:C#4H_Db4H_s.wav
192,192,62632,1,0,0:0:0:0:
64,192,62720,128,0,63073:0:0:0:40:C3H_s.wav
192,192,62897,1,0,0:0:0:40:C4H_s.wav
320,192,62985,1,0,0:0:0:0:
448,192,63073,5,0,0:0:0:50:D6H.wav
320,192,63117,1,0,0:0:0:50:E6H.wav
192,192,63161,1,0,0:0:0:50:F6H.wav
64,192,63205,1,0,0:0:0:50:G6H.wav
448,192,63249,1,0,0:0:0:50:A6H.wav
320,192,63294,1,0,0:0:0:50:B6H.wav
64,192,63338,1,0,0:0:0:50:C7H.wav
192,192,63382,1,0,0:0:0:50:D7H.wav
320,192,63426,1,0,0:0:0:50:E7H.wav
448,192,63470,1,0,0:0:0:50:F7H.wav
64,192,63514,1,0,0:0:0:50:G7H.wav
192,192,63558,1,0,0:0:0:50:A7H.wav
448,192,63602,1,0,0:0:0:50:B7H.wav
320,192,63647,1,0,0:0:0:50:C8H.wav
192,192,63691,1,0,0:0:0:50:D8H.wav
64,192,63735,1,0,0:0:0:50:E8H.wav
448,192,63779,1,0,0:0:0:70:A6H.wav
320,192,63779,1,2,0:0:0:0:
192,192,63779,1,4,0:0:0:0:
448,192,63955,1,0,0:0:0:0:
64,192,63955,1,0,0:0:0:70:F6H.wav
320,192,64132,1,0,0:0:0:70:D6H.wav
64,192,64132,1,0,0:0:0:0:
192,192,64132,1,8,0:0:0:0:
192,192,64308,1,0,0:0:0:70:G6H.wav
448,192,64308,128,0,64838:0:0:0:0:
320,192,64485,1,0,0:0:0:35:A6H.wav
64,192,64485,1,2,0:0:0:0:
192,192,64661,1,0,0:0:0:35:F6H.wav
64,192,64838,1,0,0:0:0:35:D6H.wav
192,192,64838,1,0,0:0:0:0:
320,192,64838,1,8,0:0:0:0:
320,192,65014,1,0,0:0:0:35:G6H.wav
448,192,65014,1,0,0:0:0:0:
192,192,65102,1,0,0:0:0:0:
64,192,65191,1,0,0:0:0:70:G6H.wav
448,192,65191,1,2,0:0:0:0:
192,192,65367,1,0,0:0:0:0:
64,192,65367,1,0,0:0:0:70:E6H.wav
448,192,65544,1,0,0:0:0:70:C6H.wav
320,192,65544,1,0,0:0:0:0:
192,192,65544,1,8,0:0:0:0:
320,192,65720,1,0,0:0:0:70:F6H.wav
64,192,65720,128,0,66249:0:0:0:0:
192,192,65897,1,0,0:0:0:35:G6H.wav
448,192,65897,1,2,0:0:0:0:
320,192,66073,1,0,0:0:0:35:E6H.wav
448,192,66249,1,0,0:0:0:70:A5H.wav
192,192,66249,1,0,0:0:0:0:
320,192,66249,1,8,0:0:0:0:
448,192,66426,1,0,0:0:0:0:
64,192,66426,1,0,0:0:0:0:
64,192,66602,1,0,0:0:0:70:A#5H_Bb5H.wav
192,192,66602,128,2,66779:0:0:0:0:
448,192,66779,1,0,0:0:0:0:
320,192,66779,1,0,0:0:0:0:
192,192,66955,1,0,0:0:0:70:F6H.wav
448,192,66955,128,8,67132:0:0:0:0:
64,192,66955,1,0,0:0:0:0:
320,192,67132,1,0,0:0:0:0:
64,192,67132,1,0,0:0:0:0:
320,192,67308,1,0,0:0:0:70:E6H.wav
192,192,67308,1,2,0:0:0:0:
192,192,67485,1,0,0:0:0:70:F6H.wav
448,192,67485,1,0,0:0:0:0:
448,192,67661,1,0,0:0:0:70:E6H.wav
64,192,67661,1,0,0:0:0:0:
320,192,67661,1,8,0:0:0:0:
192,192,67838,1,0,0:0:0:0:
320,192,68014,1,0,0:0:0:70:D6H.wav
192,192,68014,1,2,0:0:0:0:
64,192,68014,128,0,68191:0:0:0:0:
448,192,68191,1,0,0:0:0:70:C6H.wav
192,192,68191,128,8,68367:0:0:0:0:
320,192,68367,1,0,0:0:0:70:A5H.wav
64,192,68367,1,2,0:0:0:0:
448,192,68367,128,0,68544:0:0:0:0:
192,192,68544,1,0,0:0:0:70:D6H.wav
320,192,68544,128,8,68720:0:0:0:0:
192,192,68720,1,2,0:0:0:0:
64,192,68720,1,0,0:0:0:0:
448,192,68720,1,0,0:0:0:0:
320,192,68897,1,8,0:0:0:0:
64,192,68897,1,0,0:0:0:0:
448,192,69073,1,2,0:0:0:0:
320,192,69073,1,0,0:0:0:0:
192,192,69161,1,2,0:0:0:0:
64,192,69161,1,0,0:0:0:0:
320,192,69249,1,8,0:0:0:0:
448,192,69249,1,0,0:0:0:0:
192,192,69426,1,0,0:0:0:70:A6H.wav
64,192,69426,1,6,0:0:0:0:
448,192,69426,1,0,0:0:0:0:
448,192,69602,1,0,0:0:0:0:
320,192,69602,1,0,0:0:0:70:F6H.wav
320,192,69779,1,0,0:0:0:70:D6H.wav
64,192,69779,1,0,0:0:0:0:
192,192,69779,1,8,0:0:0:0:
192,192,69955,1,0,0:0:0:70:G6H.wav
448,192,69955,128,0,70485:0:0:0:0:
320,192,70132,1,0,0:0:0:35:A6H.wav
64,192,70132,1,2,0:0:0:0:
192,192,70308,1,0,0:0:0:35:F6H.wav
64,192,70485,1,0,0:0:0:35:D6H.wav
192,192,70485,1,0,0:0:0:0:
320,192,70485,1,8,0:0:0:0:
320,192,70661,1,0,0:0:0:35:G6H.wav
448,192,70661,1,0,0:0:0:0:
192,192,70749,1,0,0:0:0:0:
64,192,70838,1,0,0:0:0:70:G6H.wav
448,192,70838,1,2,0:0:0:0:
64,192,71014,1,0,0:0:0:35:A6H.wav
192,192,71014,1,0,0:0:0:0:
448,192,71191,1,0,0:0:0:70:A#6H_Bb6H.wav
192,192,71191,1,8,0:0:0:0:
320,192,71191,1,0,0:0:0:0:
320,192,71367,1,0,0:0:0:35:A6H.wav
64,192,71367,128,0,71897:0:0:0:0:
448,192,71544,1,2,0:0:0:0:
192,192,71544,1,0,0:0:0:0:
320,192,71720,1,0,0:0:0:70:G6H.wav
448,192,71897,1,0,0:0:0:70:F6H.wav
192,192,71897,1,0,0:0:0:0:
320,192,71897,1,8,0:0:0:0:
448,192,72073,1,0,0:0:0:0:
64,192,72073,1,0,0:0:0:0:
64,192,72249,1,0,0:0:0:70:A#5H_Bb5H.wav
192,192,72249,128,2,72426:0:0:0:0:
448,192,72426,1,0,0:0:0:0:
320,192,72426,1,0,0:0:0:0:
192,192,72602,1,0,0:0:0:70:F6H.wav
448,192,72602,128,8,72779:0:0:0:0:
64,192,72602,1,0,0:0:0:0:
320,192,72779,1,0,0:0:0:0:
64,192,72779,1,0,0:0:0:0:
320,192,72955,1,0,0:0:0:70:E6H.wav
192,192,72955,1,2,0:0:0:0:
448,192,73132,1,0,0:0:0:0:
192,192,73132,1,0,0:0:0:0:
448,192,73308,1,0,0:0:0:70:F6H.wav
64,192,73308,1,0,0:0:0:0:
320,192,73308,1,8,0:0:0:0:
192,192,73485,1,0,0:0:0:70:G6H.wav
320,192,73485,1,0,0:0:0:0:
64,192,73661,5,2,0:0:0:0:
448,192,73661,1,0,0:0:0:70:G6H.wav
192,192,73661,1,0,0:0:0:0:
64,192,73838,1,0,0:0:0:0:
320,192,73838,1,2,0:0:0:0:
64,192,74014,1,2,0:0:0:0:
320,192,74014,1,0,0:0:0:0:
448,192,74014,1,0,0:0:0:0:
448,192,74191,1,0,0:0:0:70:F6H.wav
192,192,74191,1,2,0:0:0:0:
64,192,74367,1,0,0:0:0:70:F6H.wav
448,192,74367,1,10,0:0:0:0:
192,192,74367,1,0,0:0:0:30:FX_WindChimes.wav
320,192,74455,1,2,0:0:0:0:
192,192,74544,1,2,0:0:0:0:
320,192,74632,1,2,0:0:0:0:
64,192,74720,1,0,0:0:0:70:F6H.wav
448,192,74720,1,8,0:0:0:0:
192,192,74720,1,2,0:0:0:0:
320,192,74897,1,2,0:0:0:0:
64,192,74897,1,0,0:0:0:0:
448,192,75073,1,0,0:0:0:70:A6H.wav
192,192,75073,1,0,0:0:0:70:Whistle 2.wav
320,192,75073,1,12,0:0:0:0:
448,192,75249,1,0,0:0:0:70:F6H.wav
64,192,75249,1,2,0:0:0:0:
192,192,75426,1,0,0:0:0:70:D6H.wav
64,192,75426,1,0,0:0:0:0:
320,192,75426,1,8,0:0:0:0:
448,192,75602,1,0,0:0:0:70:G6H.wav
192,192,75602,1,2,0:0:0:0:
320,192,75779,1,0,0:0:0:35:A6H.wav
64,192,75779,1,8,0:0:0:0:
448,192,75779,1,0,0:0:0:0:
192,192,75955,1,0,0:0:0:35:F6H.wav
64,192,75955,1,2,0:0:0:0:
192,192,76132,1,0,0:0:0:35:D6H.wav
448,192,76132,1,8,0:0:0:0:
320,192,76132,1,0,0:0:0:0:
320,192,76308,1,0,0:0:0:35:G6H.wav
64,192,76308,1,2,0:0:0:0:
64,192,76485,1,0,0:0:0:70:G6H.wav
448,192,76485,1,8,0:0:0:0:
192,192,76485,1,0,0:0:0:0:
448,192,76661,1,0,0:0:0:70:E6H.wav
64,192,76749,1,0,0:0:0:0:
192,192,76749,1,2,0:0:0:0:
320,192,76838,1,0,0:0:0:70:C6H.wav
448,192,76838,1,8,0:0:0:0:
320,192,77014,1,0,0:0:0:70:F6H.wav
192,192,77014,1,2,0:0:0:0:
192,192,77191,1,0,0:0:0:35:G6H.wav
64,192,77191,1,8,0:0:0:0:
448,192,77191,1,0,0:0:0:0:
320,192,77367,1,0,0:0:0:35:E6H.wav
64,192,77367,1,2,0:0:0:0:
448,192,77544,1,0,0:0:0:70:A5H.wav
320,192,77544,1,0,0:0:0:0:
192,192,77544,1,8,0:0:0:0:
64,192,77720,1,0,0:0:0:0:
448,192,77720,1,2,0:0:0:0:
64,192,77897,1,0,0:0:0:70:A#5H_Bb5H.wav
192,192,77897,1,0,0:0:0:70:Whistle 2.wav
320,192,77897,1,8,0:0:0:0:
448,192,78073,1,0,0:0:0:0:
192,192,78073,1,2,0:0:0:0:
64,192,78249,1,0,0:0:0:70:F6H.wav
448,192,78249,1,0,0:0:0:0:
320,192,78249,1,8,0:0:0:0:
320,192,78426,1,2,0:0:0:0:
192,192,78426,1,0,0:0:0:0:
448,192,78602,1,0,0:0:0:70:E6H.wav
64,192,78602,1,0,0:0:0:0:
192,192,78602,1,8,0:0:0:0:
64,192,78779,1,0,0:0:0:70:F6H.wav
320,192,78779,1,2,0:0:0:0:
448,192,78955,1,0,0:0:0:70:E6H.wav
192,192,78955,1,0,0:0:0:0:
320,192,78955,1,8,0:0:0:0:
448,192,79132,1,0,0:0:0:0:
64,192,79132,1,2,0:0:0:0:
192,192,79220,1,2,0:0:0:0:
448,192,79308,1,0,0:0:0:70:D6H.wav
320,192,79308,1,0,0:0:0:0:
64,192,79308,1,8,0:0:0:0:
320,192,79485,1,0,0:0:0:70:C6H.wav
192,192,79485,1,2,0:0:0:0:
448,192,79661,1,0,0:0:0:70:A5H.wav
64,192,79661,1,0,0:0:0:0:
192,192,79661,1,8,0:0:0:0:
320,192,79838,1,0,0:0:0:70:D6H.wav
64,192,79838,1,2,0:0:0:0:
448,192,80014,128,0,80191:0:0:0:0:
320,192,80014,128,8,80367:0:0:0:0:
192,192,80014,1,0,0:0:0:0:
192,192,80191,128,0,80544:0:0:0:0:
64,192,80191,1,8,0:0:0:0:
64,192,80367,128,4,80544:0:0:0:0:
448,192,80367,1,8,0:0:0:0:
320,192,80544,1,2,0:0:0:0:
448,192,80544,128,0,80720:0:0:0:0:
320,192,80720,1,0,0:0:0:70:A6H.wav
64,192,80720,1,0,0:0:0:70:Whistle 2.wav
192,192,80720,1,12,0:0:0:0:
448,192,80897,1,0,0:0:0:70:F6H.wav
64,192,80897,1,2,0:0:0:0:
448,192,81073,1,0,0:0:0:70:D6H.wav
320,192,81073,1,0,0:0:0:0:
192,192,81073,1,8,0:0:0:0:
320,192,81249,1,0,0:0:0:70:G6H.wav
64,192,81249,1,2,0:0:0:0:
64,192,81426,1,0,0:0:0:35:A6H.wav
448,192,81426,1,0,0:0:0:0:
192,192,81426,1,8,0:0:0:0:
320,192,81602,1,0,0:0:0:35:F6H.wav
192,192,81602,1,2,0:0:0:0:
320,192,81779,1,0,0:0:0:35:D6H.wav
64,192,81779,1,8,0:0:0:0:
448,192,81779,1,0,0:0:0:0:
64,192,81955,1,0,0:0:0:35:G6H.wav
192,192,81955,1,2,0:0:0:0:
448,192,82132,1,0,0:0:0:70:G6H.wav
192,192,82132,1,8,0:0:0:0:
320,192,82132,1,0,0:0:0:0:
448,192,82308,1,0,0:0:0:70:A6H.wav
192,192,82397,1,0,0:0:0:0:
64,192,82397,1,2,0:0:0:0:
448,192,82485,1,0,0:0:0:70:A#6H_Bb6H.wav
320,192,82485,1,8,0:0:0:0:
320,192,82661,1,0,0:0:0:70:A6H.wav
192,192,82661,1,2,0:0:0:0:
448,192,82838,1,0,0:0:0:0:
192,192,82838,1,8,0:0:0:0:
64,192,82838,1,0,0:0:0:0:
320,192,83014,1,0,0:0:0:70:G6H.wav
64,192,83014,1,2,0:0:0:0:
448,192,83191,1,0,0:0:0:70:F6H.wav
192,192,83191,1,8,0:0:0:0:
320,192,83191,1,0,0:0:0:0:
64,192,83367,1,2,0:0:0:0:
448,192,83367,1,0,0:0:0:0:
320,192,83455,1,2,0:0:0:0:
448,192,83544,1,0,0:0:0:70:A#5H_Bb5H.wav
64,192,83544,1,0,0:0:0:70:Whistle 2.wav
192,192,83544,1,8,0:0:0:0:
320,192,83720,1,2,0:0:0:0:
192,192,83720,1,0,0:0:0:0:
320,192,83897,1,0,0:0:0:70:F6H.wav
448,192,83897,1,8,0:0:0:0:
64,192,83897,1,0,0:0:0:0:
64,192,84073,1,2,0:0:0:0:
192,192,84073,1,0,0:0:0:0:
448,192,84249,1,0,0:0:0:70:E6H.wav
192,192,84249,1,8,0:0:0:0:
320,192,84249,1,0,0:0:0:0:
64,192,84426,1,2,0:0:0:0:
320,192,84426,1,0,0:0:0:0:
448,192,84602,1,0,0:0:0:70:F6H.wav
64,192,84602,1,8,0:0:0:0:
192,192,84602,1,0,0:0:0:0:
320,192,84779,1,0,0:0:0:70:G6H.wav
192,192,84779,1,2,0:0:0:0:
448,192,84955,1,0,0:0:0:70:G6H.wav
64,192,84955,1,0,0:0:0:0:
320,192,84955,1,8,0:0:0:0:
192,192,85132,1,2,0:0:0:0:
320,192,85132,1,0,0:0:0:0:
64,192,85308,1,2,0:0:0:0:
448,192,85308,1,8,0:0:0:0:
320,192,85397,1,0,0:0:0:0:
192,192,85397,1,2,0:0:0:0:
448,192,85485,1,0,0:0:0:70:F6H.wav
64,192,85485,1,2,0:0:0:0:
64,192,85661,1,0,0:0:0:70:F6H.wav
192,192,85661,1,2,0:0:0:0:
320,192,85661,1,8,0:0:0:0:
64,192,85838,1,2,0:0:0:0:
448,192,85838,1,0,0:0:0:0:
192,192,85926,1,0,0:0:0:0:
320,192,86014,1,0,0:0:0:35:F6H.wav
448,192,86014,1,10,0:0:0:0:
192,192,86102,1,0,0:0:0:0:
64,192,86102,1,2,0:0:0:0:
320,192,86191,1,0,0:0:0:0:
448,192,86191,1,2,0:0:0:0:
192,192,86279,1,0,0:0:0:0:
64,192,86279,1,2,0:0:0:0:
320,192,86367,1,0,0:0:0:70:A#5H_Bb5H.wav
448,192,86367,128,0,86720:0:0:0:70:Whistle 2.wav
192,192,86720,1,0,0:0:0:70:F6H.wav
320,192,87073,1,0,0:0:0:70:E6H.wav
448,192,87073,1,2,0:0:0:0:
64,192,87073,128,4,87249:0:0:0:0:
192,192,87426,1,0,0:0:0:70:F6H.wav
448,192,87602,1,0,0:0:0:70:G6H.wav
320,192,87602,128,4,87955:0:0:0:0:
64,192,87602,1,2,0:0:0:0:
448,192,87955,1,0,0:0:0:70:F6H.wav
64,192,87955,1,4,0:0:0:0:
192,192,87955,1,0,0:0:0:0:
320,192,88132,1,0,0:0:0:70:G6H.wav
192,192,88132,1,0,0:0:0:0:
448,192,88132,128,8,88308:0:0:0:0:
64,192,88308,128,2,88485:0:0:0:0:
448,192,88485,1,0,0:0:0:70:F6H.wav
192,192,88485,1,0,0:0:0:70:Whistle 2.wav
320,192,88485,1,6,0:0:0:0:
320,192,88838,1,0,0:0:0:0:
