osu file format v14

[General]
AudioFilename: audio.mp3
AudioLeadIn: 0
PreviewTime: 38367
Countdown: 0
SampleSet: Soft
StackLeniency: 0.7
Mode: 0
LetterboxInBreaks: 0
WidescreenStoryboard: 1

[Editor]
DistanceSpacing: 0.8
BeatDivisor: 4
GridSize: 8
TimelineZoom: 2.2

[Metadata]
Title:Youkoso JAPARI PARK e
TitleUnicode:ようこそジャパリパークへ
Artist:Nanahira
ArtistUnicode:ななひら
Creator:- Squishi
Version:Insane
Source:けものフレンズ
Tags:kemono friends opening nico nico douga mini gaunt
BeatmapID:1473870
BeatmapSetID:669885

[Difficulty]
HPDrainRate:7
CircleSize:3.5
OverallDifficulty:7
ApproachRate:9
SliderMultiplier:1.7
SliderTickRate:1

[Events]
//Background and Video events
0,0,"bg.jpg",0,0
//Break Periods
//Storyboard Layer 0 (Background)
//Storyboard Layer 1 (Fail)
//Storyboard Layer 2 (Pass)
//Storyboard Layer 3 (Foreground)
//Storyboard Sound Samples
Sample,73,0,"A6H.wav",70
Sample,426,0,"F6H.wav",70
Sample,1044,0,"C6H.wav",70
Sample,1397,0,"C7H.wav",70
Sample,1926,0,"A6H.wav",70

[TimingPoints]
250,352.941176470588,4,2,1,80,1,0
12955,-90.9090909090909,4,2,1,80,0,0
14367,-133.333333333333,4,2,1,80,0,0
16661,-100,4,2,1,80,0,0
19308,-90.9090909090909,4,2,1,80,0,0
38367,-83.3333333333333,4,2,1,80,0,0
48249,-200,4,2,1,80,0,0
49661,-133.333333333333,4,2,1,80,0,0
54955,-83.3333333333333,4,2,1,80,0,0
60249,-133.333333333333,4,2,1,80,0,0
60955,-95.2380952380951,4,2,1,80,0,0
63779,-100,4,3,1,60,0,0
75073,-76.9230769230769,4,3,1,60,0,1
86367,-100,4,2,1,60,0,0

[Colours]
Combo1 : 255,228,52
Combo2 : 179,179,255
Combo3 : 124,63,63
Combo4 : 255,255,255

[HitObjects]
79,178,3073,5,0,0:0:0:0:
186,333,3249,1,0,0:0:0:0:
194,136,3426,1,0,0:0:0:0:
73,302,3602,1,4,0:0:0:0:
73,302,3955,5,0,0:0:0:0:
259,238,4132,1,0,0:0:0:0:
68,172,4308,1,4,0:0:0:0:
68,172,4661,5,0,0:0:0:0:
272,243,4838,1,0,0:0:0:0:
175,88,5014,1,4,0:0:0:0:
175,88,5367,5,0,0:0:0:0:
160,275,5544,1,8,0:0:0:0:
156,294,5632,1,0,0:0:0:0:
154,313,5720,1,0,0:0:0:0:
234,366,5897,6,0,P|309:371|362:336,1,127.5
363,323,6249,2,8,L|379:208,1,85,8|0,0:0|0:0,0:0:0:0:
357,141,6602,6,0,P|248:128|216:145,1,127.5
210,150,6955,2,8,P|172:168|113:155,1,85,8|0,0:0|0:0,0:0:0:0:
55,58,7308,5,0,0:0:0:0:
111,156,7485,1,0,0:0:0:0:
23,228,7661,5,8,0:0:0:0:
131,139,7838,1,0,0:0:0:0:
147,300,8014,5,0,0:0:0:0:
152,117,8191,1,0,0:0:0:0:
274,237,8367,5,8,0:0:0:0:
172,90,8544,1,0,0:0:0:0:
312,113,8720,5,4,0:0:0:0:
380,192,8897,1,0,0:0:0:0:
419,95,9073,1,8,0:0:0:0:
312,113,9249,1,0,0:0:0:0:
380,192,9426,1,0,0:0:0:0:
321,267,9602,1,0,0:0:0:0:
320,284,9691,1,0,0:0:0:0:
325,300,9779,2,8,P|331:340|329:362,1,42.5,8|0,0:0|0:0,0:0:0:0:
264,382,9955,1,0,0:0:0:0:
241,384,10044,1,0,0:0:0:0:
217,384,10132,5,0,0:0:0:0:
159,284,10308,1,0,0:0:0:0:
255,298,10485,1,8,0:0:0:0:
110,348,10661,1,0,0:0:0:0:
110,348,10749,1,0,0:0:0:0:
110,348,10838,1,0,0:0:0:0:
125,206,11014,1,0,0:0:0:0:
125,206,11102,1,0,0:0:0:0:
125,206,11191,2,8,L|128:135,2,42.5,8|8|0,0:0|0:0|0:0,0:0:0:0:
266,259,11544,6,0,P|202:262|172:245,1,85
330,191,11897,2,0,P|394:188|424:205,1,85,8|0,0:0|0:0,0:0:0:0:
361,315,12249,1,0,0:0:0:0:
233,189,12426,1,0,0:0:0:0:
230,169,12514,1,0,0:0:0:0:
235,145,12602,2,0,P|232:88|227:80,2,42.5,8|8|0,0:0|0:0|0:0,0:0:0:0:
110,195,12955,1,2,0:0:0:0:
126,214,13043,1,2,0:0:0:0:
148,227,13131,1,2,0:0:0:0:
173,231,13219,1,2,0:0:0:0:
198,225,13307,1,10,0:0:0:0:
219,210,13396,1,2,0:0:0:0:
233,189,13484,1,2,0:0:0:0:
235,162,13573,1,2,0:0:0:0:
221,133,13661,5,2,0:0:0:0:
244,132,13749,1,2,0:0:0:0:
267,131,13837,1,2,0:0:0:0:
291,130,13925,1,2,0:0:0:0:
314,129,14013,1,10,0:0:0:0:
337,128,14102,1,2,0:0:0:0:
361,127,14190,1,10,0:0:0:0:
384,126,14278,1,2,0:0:0:0:
407,124,14366,1,6,0:0:0:0:
426,243,14544,5,0,0:0:0:0:
492,168,14720,1,8,0:0:0:0:
338,241,14897,1,0,0:0:0:0:
492,168,15073,6,0,P|498:116|482:86,1,63.7500024318696
479,84,15338,2,0,P|475:60|479:33,1,31.8750012159348,0|8,0:0|0:0,0:0:0:0:
379,11,15602,2,0,L|236:4,1,127.500004863739
308,117,16132,1,0,0:0:0:0:
385,0,16308,1,0,0:0:0:0:
297,127,16485,6,0,P|277:163|274:179,1,31.8750012159348,8|0,0:0|0:0,0:0:0:0:
318,235,16661,1,0,0:0:0:0:
318,235,16749,1,0,0:0:0:0:
318,235,16838,2,8,L|193:235,1,85
174,178,17102,1,0,0:0:0:0:
174,178,17191,2,0,P|155:137|181:80,1,85
320,117,17544,2,8,L|207:135,1,85,8|0,0:0|0:0,0:0:0:0:
370,33,17897,1,0,0:0:0:0:
394,171,18073,1,0,0:0:0:0:
236,130,18249,2,8,L|320:117,1,85,8|0,0:0|0:0,0:0:0:0:
460,92,18602,5,0,0:0:0:0:
381,202,18779,1,0,0:0:0:0:
368,13,18955,5,8,0:0:0:0:
363,222,19132,1,0,0:0:0:0:
237,83,19308,2,0,P|291:79|314:65,1,46.7500014266968
137,39,19485,2,0,P|83:43|60:57,1,46.7500014266968
271,202,19661,5,4,0:0:0:0:
255,4,19838,1,0,0:0:0:0:
173,155,20014,5,4,0:0:0:0:
353,150,20191,1,0,0:0:0:0:
271,238,20367,1,8,0:0:0:0:
263,86,20544,1,0,0:0:0:0:
352,264,20720,2,0,P|259:318|232:309,1,93.5000028533936
241,301,20985,2,0,P|216:298|176:304,1,46.7500014266968,0|8,0:0|0:0,0:0:0:0:
89,217,21249,6,0,P|149:216|116:151,1,140.25000428009
66,111,21602,1,8,0:0:0:0:
142,108,21691,1,8,0:0:0:0:
216,102,21779,1,8,0:0:0:0:
216,102,21955,6,8,P|223:44|221:36,1,46.7500014266968
135,154,22132,2,8,L|292:177,2,140.25000428009
351,125,22838,6,0,P|359:194|341:249,1,93.5000028533936
250,309,23191,1,8,0:0:0:0:
279,317,23279,1,0,0:0:0:0:
307,323,23367,2,0,L|368:335,1,46.7500014266968
222,235,23544,1,0,0:0:0:0:
193,243,23632,1,0,0:0:0:0:
165,249,23720,2,0,L|104:261,1,46.7500014266968
262,145,23897,1,8,0:0:0:0:
291,153,23985,1,0,0:0:0:0:
319,159,24073,2,0,L|380:171,1,46.7500014266968
197,60,24249,6,0,P|130:64|194:2,1,187.000005706787,0|8,0:0|0:0,0:0:0:0:
86,196,24779,1,8,0:0:0:0:
383,75,24955,2,12,L|197:60,1,187.000005706787,8|12,0:0|0:0,0:0:0:0:
431,318,25661,5,0,0:0:0:0:
508,243,25838,1,0,0:0:0:0:
363,226,26014,1,0,0:0:0:0:
508,243,26191,6,0,P|521:178|425:102,1,187.000005706787
363,226,26720,2,0,P|412:216|445:183,1,93.5000028533936
276,131,27073,1,4,0:0:0:0:
276,249,27249,1,0,0:0:0:0:
284,122,27426,5,0,0:0:0:0:
172,213,27602,1,0,0:0:0:0:
292,110,27779,5,2,0:0:0:0:
123,135,27955,1,2,0:0:0:0:
123,135,28044,1,2,0:0:0:0:
123,135,28132,1,2,0:0:0:0:
496,309,28485,6,0,P|513:260|497:203,1,93.5000028533936,4|0,0:0|0:0,0:0:0:0:
345,260,28838,1,0,0:0:0:0:
433,257,29014,1,0,0:0:0:0:
293,152,29191,5,0,0:0:0:0:
385,184,29367,1,0,0:0:0:0:
319,8,29544,5,0,0:0:0:0:
362,94,29720,1,4,0:0:0:0:
65,299,30073,5,0,0:0:0:0:
206,18,30426,5,4,0:0:0:0:
389,365,30779,5,4,0:0:0:0:
73,120,31132,6,0,P|137:193|250:150,1,187.000005706787
234,35,31661,1,8,0:0:0:0:
166,115,31838,1,0,0:0:0:0:
341,112,32014,5,0,0:0:0:0:
219,23,32191,1,0,0:0:0:0:
423,45,32367,1,8,0:0:0:0:
147,334,32720,6,0,P|180:264|107:180,1,187.000005706787,0|8,0:0|0:0,0:0:0:0:
22,178,33249,1,0,0:0:0:0:
99,266,33426,5,0,0:0:0:0:
9,147,33602,1,0,0:0:0:0:
203,199,33779,1,8,0:0:0:0:
317,93,33955,1,0,0:0:0:0:
329,252,34132,5,2,0:0:0:0:
326,67,34308,1,2,0:0:0:0:
463,205,34485,1,2,0:0:0:0:
451,19,34661,5,2,0:0:0:0:
451,19,34749,1,2,0:0:0:0:
451,19,34838,1,2,0:0:0:0:
463,110,35014,1,2,0:0:0:0:
463,205,35191,1,0,0:0:0:0:
488,289,35367,5,4,0:0:0:0:
488,289,35720,1,0,0:0:0:0:
299,298,35897,5,8,0:0:0:0:
454,165,36073,1,0,0:0:0:0:
399,367,36249,5,8,0:0:0:0:
314,168,36426,1,0,0:0:0:0:
507,300,36602,1,8,0:0:0:0:
279,298,36779,5,0,0:0:0:0:
257,297,36867,5,0,0:0:0:0:
240,296,36955,5,0,0:0:0:0:
218,297,37308,5,0,0:0:0:0:
205,207,37661,1,0,0:0:0:0:
195,119,38014,1,0,0:0:0:0:
195,119,38367,5,0,0:0:0:0:
370,148,38544,1,0,0:0:0:0:
243,24,38720,1,8,0:0:0:0:
269,195,38897,2,0,L|288:311,1,101.999996887207
360,36,39249,5,0,0:0:0:0:
178,124,39426,1,8,0:0:0:0:
386,157,39602,2,0,L|517:177,1,101.999996887207
225,6,39955,5,0,0:0:0:0:
274,214,40132,1,8,0:0:0:0:
376,12,40308,1,0,0:0:0:0:
55,360,40661,5,0,0:0:0:0:
39,236,40838,1,8,0:0:0:0:
35,206,40926,1,0,0:0:0:0:
41,168,41014,2,0,P|39:104|32:88,1,50.9999984436036
15,37,41191,6,0,P|87:29|146:45,1,101.999996887207
158,64,41455,1,0,0:0:0:0:
158,64,41544,2,8,P|234:80|294:57,1,101.999996887207,8|0,0:0|0:0,0:0:0:0:
512,64,41897,2,0,L|292:7,1,203.999993774414,0|8,0:0|0:0,0:0:0:0:
446,172,42426,1,0,0:0:0:0:
200,240,42602,5,0,0:0:0:0:
413,184,42779,1,0,0:0:0:0:
228,93,42955,1,8,0:0:0:0:
329,313,43132,1,0,0:0:0:0:
365,77,43308,5,0,0:0:0:0:
186,256,43485,1,0,0:0:0:0:
436,193,43661,1,8,0:0:0:0:
211,82,43838,1,0,0:0:0:0:
337,337,44014,5,0,0:0:0:0:
306,173,44191,1,0,0:0:0:0:
430,274,44367,1,8,0:0:0:0:
249,264,44544,2,0,L|132:262,1,101.999996887207
429,169,44897,5,0,0:0:0:0:
353,368,45073,1,8,0:0:0:0:
297,149,45249,2,0,L|268:24,1,101.999996887207
455,282,45602,5,0,0:0:0:0:
226,259,45779,1,8,0:0:0:0:
443,155,45955,2,0,L|537:108,1,101.999996887207
271,131,46308,1,0,0:0:0:0:
443,153,46485,1,8,0:0:0:0:
447,180,46573,1,8,0:0:0:0:
462,206,46661,2,0,P|467:258|459:281,1,50.9999984436036
400,313,46838,6,0,L|259:323,1,101.999996887207
250,347,47102,1,0,0:0:0:0:
250,347,47191,2,8,P|177:366|114:342,1,101.999996887207,8|0,0:0|0:0,0:0:0:0:
220,75,47544,2,0,L|188:305,1,203.999993774414,0|8,0:0|0:0,0:0:0:0:
108,140,48073,1,0,0:0:0:0:
299,209,48249,5,2,0:0:0:0:
327,213,48337,1,2,0:0:0:0:
356,215,48425,1,2,0:0:0:0:
385,212,48513,1,2,0:0:0:0:
414,207,48601,1,10,0:0:0:0:
443,204,48690,1,2,0:0:0:0:
472,208,48778,1,2,0:0:0:0:
499,217,48866,1,2,0:0:0:0:
510,242,48955,5,2,0:0:0:0:
512,262,49043,1,2,0:0:0:0:
512,283,49131,1,2,0:0:0:0:
512,304,49219,1,2,0:0:0:0:
512,325,49307,1,10,0:0:0:0:
506,345,49396,1,2,0:0:0:0:
512,363,49484,1,10,0:0:0:0:
428,378,49661,6,0,L|288:385,1,127.500004863739
394,282,50191,2,0,L|266:264,1,127.500004863739
360,185,50720,2,0,L|292:149,1,63.7500024318696
339,59,51073,6,0,L|363:208,1,127.500004863739
251,141,51602,2,0,L|240:290,1,127.500004863739
141,158,52132,1,0,0:0:0:0:
133,257,52308,1,0,0:0:0:0:
267,144,52485,6,0,P|283:96|279:64,1,63.7500024318696
277,57,52749,2,0,L|390:49,1,95.6250036478044
267,144,53191,6,0,P|283:192|279:224,1,63.7500024318696
277,231,53455,2,0,L|390:239,1,95.6250036478044
452,327,53897,5,2,0:0:0:0:
336,344,54073,1,2,0:0:0:0:
221,358,54249,1,2,0:0:0:0:
497,237,54426,6,0,P|503:206|499:184,1,31.8750012159348
448,115,54602,5,0,0:0:0:0:
452,327,54779,1,0,0:0:0:0:
402,53,54955,2,0,P|449:0|494:58,1,152.999995330811,4|0,0:0|0:0,0:0:0:0:
448,115,55308,2,4,L|317:109,1,101.999996887207,4|0,0:0|0:0,0:0:0:0:
267,34,55661,1,8,0:0:0:0:
226,222,55838,2,0,L|215:115,1,101.999996887207
303,311,56191,2,0,L|321:193,1,101.999996887207,0|8,0:0|0:0,0:0:0:0:
205,369,56544,1,0,0:0:0:0:
46,282,56720,6,0,L|175:268,1,101.999996887207
239,130,57073,1,8,0:0:0:0:
303,311,57249,2,0,P|316:252|293:199,1,101.999996887207
171,80,57602,2,0,P|158:139|181:192,1,101.999996887207,0|8,0:0|0:0,0:0:0:0:
289,136,57955,2,0,L|212:126,1,50.9999984436036
397,203,58132,5,0,0:0:0:0:
424,88,58308,1,0,0:0:0:0:
456,276,58485,5,0,0:0:0:0:
430,62,58661,1,0,0:0:0:0:
355,297,58838,5,0,0:0:0:0:
432,38,59014,1,0,0:0:0:0:
465,306,59191,5,0,0:0:0:0:
289,136,59367,1,0,0:0:0:0:
512,179,59544,1,0,0:0:0:0:
87,331,60249,6,0,B|84:288|84:288|106:253|106:253|79:215|79:169|108:139,1,191.250007295609
185,258,60955,5,0,0:0:0:0:
232,178,61132,1,0,0:0:0:0:
265,299,61308,1,8,0:0:0:0:
310,207,61485,1,0,0:0:0:0:
344,342,61661,1,0,0:0:0:0:
390,235,61838,1,0,0:0:0:0:
390,235,61926,2,0,P|416:240|464:226,1,44.6249986381531,0|8,0:0|0:0,0:0:0:0:
310,207,62102,1,0,0:0:0:0:
310,207,62190,2,0,L|233:208,1,44.6249986381531
242,280,62367,5,2,0:0:0:0:
213,293,62455,1,2,0:0:0:0:
183,303,62543,1,2,0:0:0:0:
151,305,62631,1,2,0:0:0:0:
120,309,62719,1,2,0:0:0:0:
91,322,62808,1,2,0:0:0:0:
64,339,62896,1,2,0:0:0:0:
38,357,62984,1,2,0:0:0:0:
19,384,63073,5,10,0:0:0:0:
39,359,63161,1,2,0:0:0:0:
53,331,63249,1,10,0:0:0:0:
61,300,63337,1,2,0:0:0:0:
62,268,63425,1,10,0:0:0:0:
57,237,63514,1,2,0:0:0:0:
45,207,63602,1,10,0:0:0:0:
28,181,63690,1,2,0:0:0:0:
5,158,63778,5,6,0:0:0:0:
132,74,63955,1,0,0:0:0:0:
57,237,64132,1,8,0:0:0:0:
146,59,64308,6,0,L|326:87,1,170
248,240,64838,2,8,P|246:158|257:138,1,85,8|0,0:0|0:0,0:0:0:0:
392,196,65191,5,0,0:0:0:0:
241,261,65367,1,0,0:0:0:0:
346,107,65544,5,8,0:0:0:0:
308,309,65720,2,0,P|235:342|165:272,1,170
242,179,66249,2,8,P|249:238|229:276,1,85,8|0,0:0|0:0,0:0:0:0:
162,130,66602,1,0,0:0:0:0:
306,110,66779,1,0,0:0:0:0:
118,48,66955,5,8,0:0:0:0:
336,194,67132,1,0,0:0:0:0:
462,144,67308,6,0,P|392:139|344:182,1,127.5
336,194,67661,2,8,P|309:229|243:249,1,85,8|0,0:0|0:0,0:0:0:0:
242,111,68014,5,0,0:0:0:0:
330,335,68191,1,0,0:0:0:0:
169,278,68367,1,8,0:0:0:0:
254,94,68544,1,0,0:0:0:0:
350,342,68720,6,0,L|440:362,1,85
143,269,69073,2,0,L|53:249,1,85,8|0,0:0|0:0,0:0:0:0:
327,210,69426,5,0,0:0:0:0:
208,371,69602,1,0,0:0:0:0:
216,164,69779,1,8,0:0:0:0:
350,342,69955,2,0,P|414:375|515:330,1,170
441,202,70485,2,8,P|425:273|431:296,1,85,8|0,0:0|0:0,0:0:0:0:
506,255,70838,1,0,0:0:0:0:
351,124,71014,1,0,0:0:0:0:
346,333,71191,1,8,0:0:0:0:
439,134,71367,6,0,P|427:76|368:37,1,127.5
341,38,71720,2,0,P|280:60|232:50,1,85,0|8,0:0|0:0,0:0:0:0:
157,4,72073,1,0,0:0:0:0:
192,216,72249,6,0,L|205:109,1,85
96,258,72602,2,0,L|117:360,1,85,8|0,0:0|0:0,0:0:0:0:
272,257,72955,2,0,P|346:268|401:244,1,127.5
408,225,73308,2,8,L|424:328,1,85,8|0,0:0|0:0,0:0:0:0:
487,125,73661,5,0,0:0:0:0:
284,70,73838,1,8,0:0:0:0:
407,224,74014,1,8,0:0:0:0:
407,224,74102,1,8,0:0:0:0:
407,224,74191,1,8,0:0:0:0:
419,35,74367,5,0,0:0:0:0:
296,204,74544,1,8,0:0:0:0:
487,125,74720,1,8,0:0:0:0:
487,125,74808,1,8,0:0:0:0:
487,125,74897,1,8,0:0:0:0:
487,125,74985,1,8,0:0:0:0:
487,125,75073,5,8,0:0:0:0:
281,209,75249,1,0,0:0:0:0:
391,66,75426,5,8,0:0:0:0:
381,288,75514,1,0,0:0:0:0:
285,103,75779,5,8,0:0:0:0:
477,239,75955,1,0,0:0:0:0:
263,223,76132,5,8,0:0:0:0:
487,125,76308,1,0,0:0:0:0:
365,299,76485,5,8,0:0:0:0:
353,144,76661,1,0,0:0:0:0:
445,331,76838,5,8,0:0:0:0:
479,159,77014,1,0,0:0:0:0:
360,305,77191,5,8,0:0:0:0:
347,135,77367,1,0,0:0:0:0:
448,340,77544,5,8,0:0:0:0:
485,152,77720,1,0,0:0:0:0:
268,326,77897,6,0,P|198:335|145:317,1,110.499994941712
347,135,78249,2,0,P|417:126|470:144,1,110.499994941712,8|0,0:0|0:0,0:0:0:0:
215,255,78602,6,0,P|209:187|250:93,1,165.749992412568
264,81,78955,2,8,L|127:62,1,110.499994941712,8|0,0:0|0:0,0:0:0:0:
76,121,79308,5,0,0:0:0:0:
217,167,79485,1,0,0:0:0:0:
59,211,79661,5,8,0:0:0:0:
203,82,79838,1,0,0:0:0:0:
125,264,80014,5,8,0:0:0:0:
63,87,80191,1,8,0:0:0:0:
227,245,80367,5,8,0:0:0:0:
177,15,80544,1,8,0:0:0:0:
336,233,80720,5,8,0:0:0:0:
356,86,80897,1,0,0:0:0:0:
445,230,81073,5,8,0:0:0:0:
255,138,81249,1,0,0:0:0:0:
476,128,81426,5,8,0:0:0:0:
238,236,81602,1,8,0:0:0:0:
388,64,81779,5,8,0:0:0:0:
330,309,81955,1,0,0:0:0:0:
269,84,82132,5,8,0:0:0:0:
325,277,82308,1,0,0:0:0:0:
359,115,82485,5,8,0:0:0:0:
330,309,82661,1,0,0:0:0:0:
277,110,82838,5,8,0:0:0:0:
332,337,83014,1,8,0:0:0:0:
374,86,83191,1,8,0:0:0:0:
374,86,83367,1,8,0:0:0:0:
240,242,83544,6,0,P|139:262|112:251,1,110.499994941712
351,147,83897,2,0,P|452:127|479:138,1,110.499994941712,8|0,0:0|0:0,0:0:0:0:
412,378,84249,2,0,L|413:213,1,165.749992412568
413,212,84602,2,8,P|319:231|284:215,1,110.499994941712
208,182,84955,5,0,0:0:0:0:
432,213,85132,1,8,0:0:0:0:
188,77,85308,5,8,0:0:0:0:
188,77,85397,1,8,0:0:0:0:
188,77,85485,1,8,0:0:0:0:
323,329,85661,5,0,0:0:0:0:
396,38,85838,1,8,0:0:0:0:
141,307,86014,1,8,0:0:0:0:
141,307,86102,1,8,0:0:0:0:
141,307,86191,1,8,0:0:0:0:
341,164,86367,5,0,0:0:0:0:
277,107,86720,5,0,0:0:0:0:
312,29,87073,5,0,0:0:0:0:
396,38,87426,5,0,0:0:0:0:
277,107,87602,1,0,0:0:0:0:
409,123,87955,5,0,0:0:0:0:
312,29,88132,1,0,0:0:0:0:
341,164,88485,5,12,0:0:0:0:
