osu file format v14

[General]
AudioFilename: versus.mp3
AudioLeadIn: 0
PreviewTime: 76650
Countdown: 0
SampleSet: Normal
StackLeniency: 0.7
Mode: 3
LetterboxInBreaks: 0
SpecialStyle: 0
WidescreenStoryboard: 0

[Editor]
Bookmarks: 12000,21600,33600,43200,50400,55200,62400,67200,72000,76800,86400,98400,103200,108000,128400,130800,139050,147600,195000
DistanceSpacing: 0.8
BeatDivisor: 4
GridSize: 4
TimelineZoom: 2.5

[Metadata]
Title:Versus!
TitleUnicode:ばーさす!
Artist:Nanahira
ArtistUnicode:ななひら
Creator:SeonRae
Version:KSR
Source:
Tags:
BeatmapID:993936
BeatmapSetID:464193

[Difficulty]
HPDrainRate:8
CircleSize:7
OverallDifficulty:8
ApproachRate:5
SliderMultiplier:1.4
SliderTickRate:1

[Events]
//Background and Video events
0,0,"bg.jpg",0,0
//Break Periods
//Storyboard Layer 0 (Background)
//Storyboard Layer 1 (Fail)
//Storyboard Layer 2 (Pass)
//Storyboard Layer 3 (Foreground)
//Storyboard Sound Samples

[TimingPoints]
2400,300,4,1,0,20,1,0
9750,-83.3333333333333,4,1,0,20,0,0
10050,-100,4,1,0,20,0,0
10200,-83.3333333333333,4,1,0,20,0,0
10500,-100,4,1,0,20,0,0
10650,-83.3333333333333,4,1,0,20,0,0
11100,-58.8235294117647,4,1,0,20,0,0
11150,-333.333333333333,4,1,0,20,0,0
11200,-58.8235294117647,4,1,0,20,0,0
11250,-333.333333333333,4,1,0,20,0,0
11300,-58.8235294117647,4,1,0,20,0,0
11350,-333.333333333333,4,1,0,20,0,0
11400,-58.8235294117647,4,1,0,20,0,0
11450,-333.333333333333,4,1,0,20,0,0
11500,-58.8235294117647,4,1,0,20,0,0
11550,-333.333333333333,4,1,0,20,0,0
11600,-58.8235294117647,4,1,0,20,0,0
11650,-333.333333333333,4,1,0,20,0,0
11700,-333.333333333333,4,1,0,20,0,0
11925,-58.8235294117647,4,1,0,20,0,0
12000,-100,4,1,0,20,0,0
29100,-83.3333333333333,4,1,0,20,0,0
29250,-100,4,1,0,20,0,0
29550,-83.3333333333333,4,1,0,20,0,0
29700,-100,4,1,0,20,0,0
30000,-83.3333333333333,4,1,0,20,0,0
30150,-100,4,1,0,20,0,0
30450,-83.3333333333333,4,1,0,20,0,0
30600,-100,4,1,0,20,0,0
30900,-83.3333333333333,4,1,0,20,0,0
31050,-100,4,1,0,20,0,0
41850,-83.3333333333333,4,1,0,20,0,0
42150,-125,4,1,0,20,0,0
42450,-100,4,1,0,20,0,0
42600,-83.3333333333333,4,1,0,20,0,0
42750,-100,4,1,0,20,0,0
42900,-83.3333333333333,4,1,0,20,0,0
43050,-100,4,1,0,20,0,0
50400,-333.333333333333,4,1,0,20,0,0
50625,-55.5555555555556,4,1,0,20,0,0
50700,-100,4,1,0,20,0,0
51000,-333.333333333333,4,1,0,20,0,0
51225,-55.5555555555556,4,1,0,20,0,0
51300,-100,4,1,0,20,0,0
51600,-333.333333333333,4,1,0,20,0,0
51825,-55.5555555555556,4,1,0,20,0,0
51900,-100,4,1,0,20,0,0
52350,-83.3333333333333,4,1,0,20,0,0
52650,-100,4,1,0,20,0,0
54300,-125,4,1,0,20,0,0
54750,-66.6666666666667,4,1,0,20,0,0
54825,-200,4,1,0,20,0,0
54900,-66.6666666666667,4,1,0,20,0,0
54975,-200,4,1,0,20,0,0
55052,-66.6666666666667,4,1,0,20,0,0
55125,-200,4,1,0,20,0,0
55200,-100,4,1,0,20,0,0
60150,-66.6666666666667,4,1,0,20,0,0
60300,-200,4,1,0,20,0,0
60450,-100,4,1,0,20,0,0
61350,-66.6666666666667,4,1,0,20,0,0
61500,-200,4,1,0,20,0,0
61650,-100,4,1,0,20,0,0
72750,-66.6666666666667,4,1,0,20,0,0
72900,-200,4,1,0,20,0,0
73050,-100,4,1,0,20,0,0
73950,-66.6666666666667,4,1,0,20,0,0
74100,-200,4,1,0,20,0,0
74250,-100,4,1,0,20,0,0
75150,-125,4,1,0,20,0,0
75600,-100,4,1,0,20,0,0
76050,-58.8235294117647,4,1,0,20,0,0
76200,-333.333333333333,4,1,0,20,0,0
76350,-83.3333333333333,4,1,0,20,0,0
76650,-125,4,1,0,20,0,0
76950,-100,4,1,0,20,0,0
77100,-100,4,1,0,20,0,1
91200,-333.333333333333,4,1,0,20,0,1
91425,-58.8235294117647,4,1,0,20,0,1
91500,-100,4,1,0,20,0,1
93600,-100,4,1,0,20,0,0
97800,-66.6666666666667,4,1,0,20,0,0
97950,-200,4,1,0,20,0,0
98100,-66.6666666666667,4,1,0,20,0,0
98250,-200,4,1,0,20,0,0
98400,-100,4,1,0,20,0,0
98550,-83.3333333333333,4,1,0,20,0,0
98700,-100,4,1,0,20,0,0
99000,-83.3333333333333,4,1,0,20,0,0
99150,-100,4,1,0,20,0,0
99450,-83.3333333333333,4,1,0,20,0,0
99600,-100,4,1,0,20,0,0
99900,-83.3333333333333,4,1,0,20,0,0
100050,-100,4,1,0,20,0,0
100350,-83.3333333333333,4,1,0,20,0,0
100500,-100,4,1,0,20,0,0
102900,-66.6666666666667,4,1,0,20,0,0
103050,-200,4,1,0,20,0,0
103200,-100,4,1,0,20,0,0
107100,-58.8235294117647,4,1,0,20,0,0
107150,-333.333333333333,4,1,0,20,0,0
107200,-58.8235294117647,4,1,0,20,0,0
107250,-333.333333333333,4,1,0,20,0,0
107300,-58.8235294117647,4,1,0,20,0,0
107350,-333.333333333333,4,1,0,20,0,0
107400,-58.8235294117647,4,1,0,20,0,0
107450,-333.333333333333,4,1,0,20,0,0
107500,-58.8235294117647,4,1,0,20,0,0
107550,-333.333333333333,4,1,0,20,0,0
107600,-58.8235294117647,4,1,0,20,0,0
107650,-333.333333333333,4,1,0,20,0,0
107700,-333.333333333333,4,1,0,20,0,0
107925,-58.8235294117647,4,1,0,20,0,0
108000,-100,4,1,0,20,0,0
125100,-83.3333333333333,4,1,0,20,0,0
125250,-100,4,1,0,20,0,0
125550,-83.3333333333333,4,1,0,20,0,0
125700,-100,4,1,0,20,0,0
126000,-83.3333333333333,4,1,0,20,0,0
126150,-100,4,1,0,20,0,0
126450,-83.3333333333333,4,1,0,20,0,0
126600,-100,4,1,0,20,0,0
126900,-83.3333333333333,4,1,0,20,0,0
127050,-100,4,1,0,20,0,0
139050,-83.3333333333333,4,1,0,20,0,0
139350,-125,4,1,0,20,0,0
139650,-100,4,1,0,20,0,0
139800,-83.3333333333333,4,1,0,20,0,0
139950,-100,4,1,0,20,0,0
140100,-83.3333333333333,4,1,0,20,0,0
140250,-100,4,1,0,20,0,0
147600,-333.333333333333,4,1,0,20,0,0
147825,-58.8235294117647,4,1,0,20,0,0
147900,-100,4,1,0,20,0,0
148200,-333.333333333333,4,1,0,20,0,0
148425,-58.8235294117647,4,1,0,20,0,0
148500,-100,4,1,0,20,0,0
148800,-333.333333333333,4,1,0,20,0,0
149025,-100,4,1,0,20,0,0
149550,-83.3333333333333,4,1,0,20,0,0
149850,-100,4,1,0,20,0,0
151500,-125,4,1,0,20,0,0
151950,-66.6666666666667,4,1,0,20,0,0
152025,-200,4,1,0,20,0,0
152100,-66.6666666666667,4,1,0,20,0,0
152175,-200,4,1,0,20,0,0
152250,-66.6666666666667,4,1,0,20,0,0
152325,-200,4,1,0,20,0,0
152400,-100,4,1,0,20,0,0
157350,-66.6666666666667,4,1,0,20,0,0
157500,-200,4,1,0,20,0,0
157650,-100,4,1,0,20,0,0
158550,-66.6666666666667,4,1,0,20,0,0
158700,-200,4,1,0,20,0,0
158850,-100,4,1,0,20,0,0
169950,-66.6666666666667,4,1,0,20,0,0
170100,-200,4,1,0,20,0,0
170250,-100,4,1,0,20,0,0
171150,-66.6666666666667,4,1,0,20,0,0
171300,-200,4,1,0,20,0,0
171450,-100,4,1,0,20,0,0
172350,-125,4,1,0,20,0,0
172800,-100,4,1,0,20,0,0
173250,-58.8235294117647,4,1,0,20,0,0
173400,-333.333333333333,4,1,0,20,0,0
173550,-83.3333333333333,4,1,0,20,0,0
173850,-125,4,1,0,20,0,0
174150,-100,4,1,0,20,0,0
174300,-100,4,1,0,20,0,1
188400,-333.333333333333,4,1,0,20,0,1
188625,-58.8235294117647,4,1,0,20,0,1
188700,-100,4,1,0,20,0,1
190800,-100,4,1,0,20,0,0
195000,-66.6666666666667,4,1,0,20,0,0
195150,-200,4,1,0,20,0,0
195300,-66.6666666666667,4,1,0,20,0,0
195450,-200,4,1,0,20,0,0
195600,-100,4,1,0,20,0,0
195750,-83.3333333333333,4,1,0,20,0,0
195900,-100,4,1,0,20,0,0
196200,-83.3333333333333,4,1,0,20,0,0
196350,-100,4,1,0,20,0,0
196650,-83.3333333333333,4,1,0,20,0,0
196800,-100,4,1,0,20,0,0
197100,-83.3333333333333,4,1,0,20,0,0
197250,-100,4,1,0,20,0,0
197550,-83.3333333333333,4,1,0,20,0,0
197700,-100,4,1,0,20,0,0
199200,-66.6666666666667,4,1,0,20,0,0
199350,-200,4,1,0,20,0,0
199500,-100,4,1,0,20,0,0
207750,-83.3333333333333,4,1,0,20,0,0
207975,-100,4,1,0,20,0,0
208200,-83.3333333333333,4,1,0,20,0,0
208425,-100,4,1,0,20,0,0
209100,-58.8235294117647,4,1,0,20,0,0
209150,-333.333333333333,4,1,0,20,0,0
209200,-58.8235294117647,4,1,0,20,0,0
209250,-333.333333333333,4,1,0,20,0,0
209300,-58.8235294117647,4,1,0,20,0,0
209350,-333.333333333333,4,1,0,20,0,0
209400,-58.8235294117647,4,1,0,20,0,0
209450,-333.333333333333,4,1,0,20,0,0
209500,-58.8235294117647,4,1,0,20,0,0
209550,-333.333333333333,4,1,0,20,0,0
209600,-58.8235294117647,4,1,0,20,0,0
209650,-333.333333333333,4,1,0,20,0,0
209700,-333.333333333333,4,1,0,20,0,0
209925,-58.8235294117647,4,1,0,20,0,0
210000,-100,4,1,0,20,0,0
229950,-66.6666666666667,4,1,0,20,0,0
230100,-200,4,1,0,20,0,0
230250,-100,4,1,0,20,0,0
231150,-66.6666666666667,4,1,0,20,0,0
231300,-200,4,1,0,20,0,0
231450,-100,4,1,0,20,0,0
232350,-125,4,1,0,20,0,0
232800,-100,4,1,0,20,0,0
233250,-58.8235294117647,4,1,0,20,0,0
233400,-333.333333333333,4,1,0,20,0,0
233550,-83.3333333333333,4,1,0,20,0,0
233850,-125,4,1,0,20,0,0
234150,-100,4,1,0,20,0,0
234300,-100,4,1,0,20,0,1
248400,-333.333333333333,4,1,0,20,0,1
248625,-58.8235294117647,4,1,0,20,0,1
248700,-100,4,1,0,20,0,1
250800,-100,4,1,0,20,0,0
255000,-66.6666666666667,4,1,0,20,0,0
255150,-200,4,1,0,20,0,0
255300,-66.6666666666667,4,1,0,20,0,0
255450,-200,4,1,0,20,0,0
255600,-100,4,1,0,20,0,0
255750,-83.3333333333333,4,1,0,20,0,0
255900,-100,4,1,0,20,0,0
256200,-83.3333333333333,4,1,0,20,0,0
256350,-100,4,1,0,20,0,0
256650,-83.3333333333333,4,1,0,20,0,0
256800,-100,4,1,0,20,0,0
257100,-83.3333333333333,4,1,0,20,0,0
257250,-100,4,1,0,20,0,0
257550,-83.3333333333333,4,1,0,20,0,0
257700,-100,4,1,0,20,0,0
259200,-66.6666666666667,4,1,0,20,0,0
259350,-200,4,1,0,20,0,0
259500,-100,4,1,0,20,0,0
260400,-58.8235294117647,4,1,0,20,0,0
260550,-333.333333333333,4,1,0,20,0,0
260925,-58.8235294117647,4,1,0,20,0,0
261000,300,4,1,0,20,1,0
261000,-100,4,1,0,20,0,0
278100,-83.3333333333333,4,1,0,20,0,0
278250,-100,4,1,0,20,0,0
278550,-83.3333333333333,4,1,0,20,0,0
278700,-100,4,1,0,20,0,0
279000,-83.3333333333333,4,1,0,20,0,0
279150,-100,4,1,0,20,0,0
279450,-83.3333333333333,4,1,0,20,0,0
279600,-100,4,1,0,20,0,0
279900,-83.3333333333333,4,1,0,20,0,0
280050,-100,4,1,0,20,0,0
282600,-83.3333333333333,4,1,0,20,0,0
282900,-100,4,1,0,20,0,0
283050,-83.3333333333333,4,1,0,20,0,0
283350,-100,4,1,0,20,0,0
283650,-83.3333333333333,4,1,0,20,0,0
283950,-100,4,1,0,20,0,0
284250,-83.3333333333333,4,1,0,20,0,0
284550,-100,4,1,0,20,0,0
285000,-83.3333333333333,4,1,0,20,0,0
285300,-100,4,1,0,20,0,0
285450,-83.3333333333333,4,1,0,20,0,0
285750,-100,4,1,0,20,0,0
286050,-83.3333333333333,4,1,0,20,0,0
286350,-100,4,1,0,20,0,0
286650,-83.3333333333333,4,1,0,20,0,0
286950,-100,4,1,0,20,0,0
289650,-83.3333333333333,4,1,0,20,0,0
289950,-100,4,1,0,20,0,0
290100,-83.3333333333333,4,1,0,20,0,0
290400,-100,4,1,0,20,0,0
290550,-83.3333333333333,4,1,0,20,0,0
290850,-100,4,1,0,20,0,0
291000,-83.3333333333333,4,1,0,20,0,0
292200,-100,4,1,0,20,0,0

[HitObjects]
36,192,1650,5,0,0:0:0:0:
256,192,1650,1,0,0:0:0:0:
109,192,1700,1,0,0:0:0:0:
329,192,1700,1,0,0:0:0:0:
182,192,1750,1,0,0:0:0:0:
402,192,1750,1,0,0:0:0:0:
256,192,1800,1,0,0:0:0:0:
475,192,1800,1,0,0:0:0:0:
329,192,1875,1,0,0:0:0:0:
402,192,1875,1,0,0:0:0:0:
182,192,1950,1,0,0:0:0:0:
475,192,1950,1,0,0:0:0:0:
329,192,2025,1,0,0:0:0:0:
256,192,2025,1,0,0:0:0:0:
402,192,2100,1,0,0:0:0:0:
109,192,2100,1,0,0:0:0:0:
182,192,2175,1,0,0:0:0:0:
256,192,2175,1,0,0:0:0:0:
329,192,2250,1,0,0:0:0:0:
36,192,2250,1,0,0:0:0:0:
182,192,2325,1,0,0:0:0:0:
109,192,2325,1,0,0:0:0:0:
329,192,2400,1,0,0:0:0:0:
402,192,2400,1,0,0:0:0:0:
475,192,2400,1,0,0:0:0:0:
256,192,2400,1,0,0:0:0:0:
256,192,2550,128,0,2775:0:0:0:0:
329,192,2550,128,0,2775:0:0:0:0:
402,192,2550,128,0,2775:0:0:0:0:
475,192,2550,128,0,2775:0:0:0:0:
109,192,2850,1,0,0:0:0:0:
182,192,2850,1,0,0:0:0:0:
109,192,2925,1,0,0:0:0:0:
182,192,2925,1,0,0:0:0:0:
256,192,3000,128,0,3075:0:0:0:0:
402,192,3000,128,0,3075:0:0:0:0:
36,192,3150,1,0,0:0:0:0:
109,192,3150,1,0,0:0:0:0:
36,192,3225,1,0,0:0:0:0:
109,192,3225,1,0,0:0:0:0:
329,192,3300,128,0,3375:0:0:0:0:
182,192,3300,128,0,3375:0:0:0:0:
475,192,3450,1,0,0:0:0:0:
256,192,3450,1,0,0:0:0:0:
475,192,3525,1,0,0:0:0:0:
256,192,3525,1,0,0:0:0:0:
402,192,3600,128,0,3675:0:0:0:0:
109,192,3600,128,0,3675:0:0:0:0:
182,192,3750,1,0,0:0:0:0:
329,192,3750,1,0,0:0:0:0:
329,192,3825,1,0,0:0:0:0:
182,192,3825,1,0,0:0:0:0:
256,192,3900,128,0,3975:0:0:0:0:
36,192,3900,128,0,3975:0:0:0:0:
402,192,4050,1,0,0:0:0:0:
475,192,4050,1,0,0:0:0:0:
402,192,4125,1,0,0:0:0:0:
475,192,4125,1,0,0:0:0:0:
109,192,4200,128,0,4275:0:0:0:0:
256,192,4200,128,0,4275:0:0:0:0:
36,192,4350,1,0,0:0:0:0:
329,192,4350,1,0,0:0:0:0:
109,192,4425,1,0,0:0:0:0:
402,192,4425,1,0,0:0:0:0:
475,192,4500,1,0,0:0:0:0:
256,192,4500,1,0,0:0:0:0:
329,192,4500,1,0,0:0:0:0:
402,192,4575,1,0,0:0:0:0:
182,192,4575,1,0,0:0:0:0:
36,192,4575,1,0,0:0:0:0:
109,192,4650,1,0,0:0:0:0:
329,192,4650,1,0,0:0:0:0:
475,192,4650,1,0,0:0:0:0:
256,192,4725,1,0,0:0:0:0:
36,192,4725,1,0,0:0:0:0:
402,192,4725,1,0,0:0:0:0:
109,192,4800,1,0,0:0:0:0:
182,192,4800,1,0,0:0:0:0:
329,192,4800,1,0,0:0:0:0:
475,192,4800,1,0,0:0:0:0:
329,192,4950,128,0,5175:0:0:0:0:
182,192,4950,128,0,5175:0:0:0:0:
109,192,4950,128,0,5175:0:0:0:0:
475,192,4950,128,0,5175:0:0:0:0:
256,192,5250,1,0,0:0:0:0:
402,192,5250,1,0,0:0:0:0:
402,192,5325,1,0,0:0:0:0:
256,192,5325,1,0,0:0:0:0:
182,192,5400,128,0,5475:0:0:0:0:
36,192,5400,128,0,5475:0:0:0:0:
329,192,5550,1,0,0:0:0:0:
475,192,5550,1,0,0:0:0:0:
475,192,5625,1,0,0:0:0:0:
329,192,5625,1,0,0:0:0:0:
109,192,5700,128,0,5775:0:0:0:0:
256,192,5700,128,0,5775:0:0:0:0:
329,192,5850,1,0,0:0:0:0:
402,192,5850,1,0,0:0:0:0:
329,192,5925,1,0,0:0:0:0:
402,192,5925,1,0,0:0:0:0:
475,192,6000,1,0,0:0:0:0:
182,192,6000,1,0,0:0:0:0:
109,192,6075,1,0,0:0:0:0:
402,192,6075,1,0,0:0:0:0:
36,192,6150,1,0,0:0:0:0:
329,192,6150,1,0,0:0:0:0:
182,192,6150,1,0,0:0:0:0:
256,192,6225,1,0,0:0:0:0:
475,192,6225,1,0,0:0:0:0:
109,192,6225,1,0,0:0:0:0:
36,192,6300,1,0,0:0:0:0:
329,192,6300,1,0,0:0:0:0:
109,192,6375,1,0,0:0:0:0:
402,192,6375,1,0,0:0:0:0:
182,192,6450,1,0,0:0:0:0:
475,192,6450,1,0,0:0:0:0:
329,192,6450,1,0,0:0:0:0:
36,192,6525,1,0,0:0:0:0:
256,192,6525,1,0,0:0:0:0:
402,192,6525,1,0,0:0:0:0:
475,192,6600,1,0,0:0:0:0:
109,192,6600,1,0,0:0:0:0:
36,192,6675,1,0,0:0:0:0:
329,192,6675,1,0,0:0:0:0:
109,192,6750,1,0,0:0:0:0:
402,192,6750,1,0,0:0:0:0:
182,192,6825,1,0,0:0:0:0:
475,192,6825,1,0,0:0:0:0:
36,192,6825,1,0,0:0:0:0:
402,192,6900,1,0,0:0:0:0:
256,192,6900,1,0,0:0:0:0:
109,192,6900,1,0,0:0:0:0:
329,192,6975,1,0,0:0:0:0:
182,192,6975,1,0,0:0:0:0:
256,192,7050,1,0,0:0:0:0:
109,192,7050,1,0,0:0:0:0:
475,192,7050,1,0,0:0:0:0:
182,192,7125,1,0,0:0:0:0:
36,192,7125,1,0,0:0:0:0:
402,192,7125,1,0,0:0:0:0:
329,192,7200,1,0,0:0:0:0:
475,192,7200,1,0,0:0:0:0:
256,192,7200,1,0,0:0:0:0:
109,192,7200,1,0,0:0:0:0:
329,192,7350,128,0,7575:0:0:0:0:
475,192,7350,128,0,7575:0:0:0:0:
109,192,7350,128,0,7575:0:0:0:0:
256,192,7350,128,0,7575:0:0:0:0:
402,192,7650,1,0,0:0:0:0:
329,192,7650,1,0,0:0:0:0:
329,192,7725,1,0,0:0:0:0:
402,192,7725,1,0,0:0:0:0:
109,192,7800,128,0,7875:0:0:0:0:
256,192,7800,128,0,7875:0:0:0:0:
402,192,7950,1,0,0:0:0:0:
475,192,7950,1,0,0:0:0:0:
475,192,8025,1,0,0:0:0:0:
402,192,8025,1,0,0:0:0:0:
182,192,8100,128,0,8175:0:0:0:0:
329,192,8100,128,0,8175:0:0:0:0:
256,192,8250,1,0,0:0:0:0:
36,192,8250,1,0,0:0:0:0:
256,192,8325,1,0,0:0:0:0:
36,192,8325,1,0,0:0:0:0:
109,192,8400,128,0,8475:0:0:0:0:
402,192,8400,128,0,8475:0:0:0:0:
475,192,8400,1,0,0:0:0:0:
182,192,8550,1,0,0:0:0:0:
329,192,8550,1,0,0:0:0:0:
36,192,8550,1,0,0:0:0:0:
329,192,8625,1,0,0:0:0:0:
182,192,8625,1,0,0:0:0:0:
475,192,8700,128,0,8775:0:0:0:0:
256,192,8700,128,0,8775:0:0:0:0:
36,192,8700,1,0,0:0:0:0:
109,192,8700,1,0,0:0:0:0:
182,192,8850,1,0,0:0:0:0:
36,192,8850,1,0,0:0:0:0:
329,192,8850,1,0,0:0:0:0:
402,192,8900,1,0,0:0:0:0:
182,192,8925,1,0,0:0:0:0:
36,192,8925,1,0,0:0:0:0:
475,192,8950,1,0,0:0:0:0:
402,192,9000,1,0,0:0:0:0:
109,192,9000,1,0,0:0:0:0:
256,192,9000,1,0,0:0:0:0:
329,192,9100,1,0,0:0:0:0:
182,192,9100,1,0,0:0:0:0:
475,192,9100,1,0,0:0:0:0:
256,192,9200,1,0,0:0:0:0:
36,192,9200,1,0,0:0:0:0:
402,192,9200,1,0,0:0:0:0:
182,192,9300,1,0,0:0:0:0:
475,192,9300,1,0,0:0:0:0:
329,192,9300,1,0,0:0:0:0:
402,192,9400,1,0,0:0:0:0:
109,192,9400,1,0,0:0:0:0:
256,192,9400,1,0,0:0:0:0:
475,192,9500,1,0,0:0:0:0:
36,192,9500,1,0,0:0:0:0:
329,192,9500,1,0,0:0:0:0:
109,192,9600,1,0,0:0:0:0:
182,192,9600,1,0,0:0:0:0:
256,192,9600,1,0,0:0:0:0:
402,192,9600,1,0,0:0:0:0:
109,192,9750,128,0,9975:0:0:0:0:
182,192,9750,128,0,9975:0:0:0:0:
256,192,9750,128,0,9975:0:0:0:0:
402,192,9750,128,0,9975:0:0:0:0:
402,192,10050,1,0,0:0:0:0:
329,192,10050,1,0,0:0:0:0:
256,192,10050,1,0,0:0:0:0:
109,192,10050,1,0,0:0:0:0:
256,192,10200,128,0,10425:0:0:0:0:
109,192,10200,128,0,10425:0:0:0:0:
329,192,10200,128,0,10425:0:0:0:0:
402,192,10200,128,0,10425:0:0:0:0:
402,192,10500,1,0,0:0:0:0:
329,192,10500,1,0,0:0:0:0:
182,192,10500,1,0,0:0:0:0:
109,192,10500,1,0,0:0:0:0:
256,192,10500,1,0,0:0:0:0:
329,192,10650,128,0,11000:0:0:0:0:
182,192,10650,128,0,11100:0:0:0:0:
402,192,10650,128,0,11000:0:0:0:0:
109,192,10650,128,0,11100:0:0:0:0:
475,192,10650,128,0,11200:0:0:0:0:
36,192,10650,128,0,11300:0:0:0:0:
329,192,11100,1,0,0:0:0:0:
402,192,11100,1,0,0:0:0:0:
182,192,11200,1,0,0:0:0:0:
109,192,11200,1,0,0:0:0:0:
475,192,11300,1,0,0:0:0:0:
402,192,11300,1,0,0:0:0:0:
329,192,11300,1,0,0:0:0:0:
109,192,11400,1,0,0:0:0:0:
36,192,11400,1,0,0:0:0:0:
182,192,11400,1,0,0:0:0:0:
329,192,11500,1,0,0:0:0:0:
402,192,11500,1,0,0:0:0:0:
256,192,11500,1,0,0:0:0:0:
182,192,11600,1,0,0:0:0:0:
109,192,11600,1,0,0:0:0:0:
36,192,11600,1,0,0:0:0:0:
329,192,11700,1,0,0:0:0:0:
256,192,11700,1,0,0:0:0:0:
475,192,11700,1,0,0:0:0:0:
402,192,11700,1,0,0:0:0:0:
402,192,12000,128,0,12150:0:0:0:0:
182,192,12000,1,0,0:0:0:0:
329,192,12000,1,0,0:0:0:0:
36,192,12000,1,0,0:0:0:0:
109,192,12000,1,0,0:0:0:0:
475,192,12000,1,0,0:0:0:0:
256,192,12150,1,0,0:0:0:0:
109,192,12150,1,0,0:0:0:0:
36,192,12300,128,0,12450:0:0:0:0:
182,192,12300,1,0,0:0:0:0:
256,192,12300,1,0,0:0:0:0:
402,192,12300,1,0,0:0:0:0:
475,192,12300,1,0,0:0:0:0:
329,192,12450,128,0,12600:0:0:0:0:
109,192,12450,1,0,0:0:0:0:
402,192,12450,1,0,0:0:0:0:
36,192,12600,128,0,12750:0:0:0:0:
256,192,12600,1,0,0:0:0:0:
182,192,12750,128,0,12900:0:0:0:0:
402,192,12750,1,0,0:0:0:0:
475,192,12750,1,0,0:0:0:0:
256,192,12750,1,0,0:0:0:0:
329,192,12900,1,0,0:0:0:0:
36,192,12900,1,0,0:0:0:0:
109,192,12900,1,0,0:0:0:0:
402,192,12900,1,0,0:0:0:0:
475,192,13050,128,0,13200:0:0:0:0:
256,192,13050,1,0,0:0:0:0:
36,192,13050,1,0,0:0:0:0:
256,192,13200,1,0,0:0:0:0:
109,192,13200,1,0,0:0:0:0:
329,192,13200,1,0,0:0:0:0:
182,192,13275,1,0,0:0:0:0:
36,192,13275,1,0,0:0:0:0:
329,192,13350,1,0,0:0:0:0:
475,192,13350,1,0,0:0:0:0:
109,192,13350,1,0,0:0:0:0:
256,192,13425,1,0,0:0:0:0:
402,192,13425,1,0,0:0:0:0:
182,192,13500,1,0,0:0:0:0:
329,192,13500,1,0,0:0:0:0:
36,192,13500,1,0,0:0:0:0:
109,192,13500,1,0,0:0:0:0:
256,192,13575,1,0,0:0:0:0:
402,192,13575,1,0,0:0:0:0:
182,192,13650,1,0,0:0:0:0:
329,192,13650,1,0,0:0:0:0:
475,192,13650,1,0,0:0:0:0:
109,192,13725,1,0,0:0:0:0:
256,192,13725,1,0,0:0:0:0:
402,192,13800,128,0,13950:0:0:0:0:
475,192,13800,1,0,0:0:0:0:
36,192,13800,1,0,0:0:0:0:
182,192,13800,1,0,0:0:0:0:
109,192,13950,128,0,14100:0:0:0:0:
182,192,13950,1,0,0:0:0:0:
329,192,13950,1,0,0:0:0:0:
36,192,13950,1,0,0:0:0:0:
475,192,14100,128,0,14250:0:0:0:0:
256,192,14100,1,0,0:0:0:0:
329,192,14100,1,0,0:0:0:0:
402,192,14100,1,0,0:0:0:0:
182,192,14100,1,0,0:0:0:0:
182,192,14250,128,0,14400:0:0:0:0:
36,192,14250,1,0,0:0:0:0:
256,192,14250,1,0,0:0:0:0:
256,192,14400,128,0,14550:0:0:0:0:
402,192,14400,1,0,0:0:0:0:
475,192,14400,1,0,0:0:0:0:
109,192,14400,1,0,0:0:0:0:
109,192,14550,1,0,0:0:0:0:
475,192,14550,1,0,0:0:0:0:
402,192,14700,128,0,14850:0:0:0:0:
329,192,14700,1,0,0:0:0:0:
182,192,14700,1,0,0:0:0:0:
36,192,14700,1,0,0:0:0:0:
256,192,14700,1,0,0:0:0:0:
109,192,14850,128,0,15000:0:0:0:0:
182,192,14850,1,0,0:0:0:0:
475,192,14850,1,0,0:0:0:0:
402,192,15000,128,0,15150:0:0:0:0:
329,192,15000,1,0,0:0:0:0:
182,192,15150,1,0,0:0:0:0:
256,192,15150,1,0,0:0:0:0:
475,192,15150,1,0,0:0:0:0:
36,192,15300,128,0,15450:0:0:0:0:
402,192,15300,1,0,0:0:0:0:
329,192,15300,1,0,0:0:0:0:
182,192,15300,1,0,0:0:0:0:
109,192,15300,1,0,0:0:0:0:
329,192,15450,128,0,15600:0:0:0:0:
475,192,15450,1,0,0:0:0:0:
256,192,15450,1,0,0:0:0:0:
256,192,15600,1,0,0:0:0:0:
109,192,15600,1,0,0:0:0:0:
402,192,15600,1,0,0:0:0:0:
182,192,15675,1,0,0:0:0:0:
36,192,15675,1,0,0:0:0:0:
402,192,15750,1,0,0:0:0:0:
256,192,15750,1,0,0:0:0:0:
109,192,15750,1,0,0:0:0:0:
329,192,15825,1,0,0:0:0:0:
182,192,15825,1,0,0:0:0:0:
256,192,15900,1,0,0:0:0:0:
109,192,15900,1,0,0:0:0:0:
475,192,15900,1,0,0:0:0:0:
402,192,15900,1,0,0:0:0:0:
329,192,15975,1,0,0:0:0:0:
182,192,15975,1,0,0:0:0:0:
402,192,16050,1,0,0:0:0:0:
256,192,16050,1,0,0:0:0:0:
36,192,16050,1,0,0:0:0:0:
475,192,16125,1,0,0:0:0:0:
329,192,16125,1,0,0:0:0:0:
182,192,16200,128,0,16350:0:0:0:0:
109,192,16200,1,0,0:0:0:0:
402,192,16200,1,0,0:0:0:0:
256,192,16200,1,0,0:0:0:0:
475,192,16350,128,0,16500:0:0:0:0:
402,192,16350,1,0,0:0:0:0:
256,192,16350,1,0,0:0:0:0:
36,192,16350,1,0,0:0:0:0:
36,192,16500,128,0,16650:0:0:0:0:
109,192,16500,1,0,0:0:0:0:
256,192,16500,1,0,0:0:0:0:
329,192,16500,1,0,0:0:0:0:
182,192,16500,1,0,0:0:0:0:
329,192,16650,128,0,16800:0:0:0:0:
402,192,16650,1,0,0:0:0:0:
182,192,16650,1,0,0:0:0:0:
402,192,16800,128,0,16950:0:0:0:0:
256,192,16800,1,0,0:0:0:0:
36,192,16800,1,0,0:0:0:0:
109,192,16800,1,0,0:0:0:0:
475,192,16800,1,0,0:0:0:0:
329,192,16950,1,0,0:0:0:0:
109,192,16950,1,0,0:0:0:0:
36,192,17100,128,0,17250:0:0:0:0:
182,192,17100,1,0,0:0:0:0:
256,192,17100,1,0,0:0:0:0:
402,192,17100,1,0,0:0:0:0:
475,192,17100,1,0,0:0:0:0:
329,192,17250,128,0,17400:0:0:0:0:
109,192,17250,1,0,0:0:0:0:
402,192,17250,1,0,0:0:0:0:
36,192,17400,128,0,17550:0:0:0:0:
256,192,17400,1,0,0:0:0:0:
182,192,17550,128,0,17700:0:0:0:0:
402,192,17550,1,0,0:0:0:0:
475,192,17550,1,0,0:0:0:0:
256,192,17550,1,0,0:0:0:0:
329,192,17700,1,0,0:0:0:0:
36,192,17700,1,0,0:0:0:0:
109,192,17700,1,0,0:0:0:0:
402,192,17700,1,0,0:0:0:0:
475,192,17850,128,0,18000:0:0:0:0:
256,192,17850,1,0,0:0:0:0:
36,192,17850,1,0,0:0:0:0:
256,192,18000,1,0,0:0:0:0:
109,192,18000,1,0,0:0:0:0:
329,192,18000,1,0,0:0:0:0:
182,192,18075,1,0,0:0:0:0:
36,192,18075,1,0,0:0:0:0:
329,192,18150,1,0,0:0:0:0:
475,192,18150,1,0,0:0:0:0:
109,192,18150,1,0,0:0:0:0:
256,192,18225,1,0,0:0:0:0:
402,192,18225,1,0,0:0:0:0:
182,192,18300,1,0,0:0:0:0:
329,192,18300,1,0,0:0:0:0:
36,192,18300,1,0,0:0:0:0:
109,192,18300,1,0,0:0:0:0:
256,192,18375,1,0,0:0:0:0:
402,192,18375,1,0,0:0:0:0:
182,192,18450,1,0,0:0:0:0:
329,192,18450,1,0,0:0:0:0:
475,192,18450,1,0,0:0:0:0:
109,192,18525,1,0,0:0:0:0:
256,192,18525,1,0,0:0:0:0:
402,192,18600,128,0,18750:0:0:0:0:
475,192,18600,1,0,0:0:0:0:
182,192,18600,1,0,0:0:0:0:
36,192,18600,1,0,0:0:0:0:
109,192,18750,128,0,18900:0:0:0:0:
182,192,18750,1,0,0:0:0:0:
329,192,18750,1,0,0:0:0:0:
36,192,18750,1,0,0:0:0:0:
475,192,18900,128,0,19050:0:0:0:0:
256,192,18900,1,0,0:0:0:0:
329,192,18900,1,0,0:0:0:0:
402,192,18900,1,0,0:0:0:0:
182,192,18900,1,0,0:0:0:0:
182,192,19050,128,0,19200:0:0:0:0:
36,192,19050,1,0,0:0:0:0:
256,192,19050,1,0,0:0:0:0:
256,192,19200,128,0,19350:0:0:0:0:
402,192,19200,1,0,0:0:0:0:
475,192,19200,1,0,0:0:0:0:
109,192,19200,1,0,0:0:0:0:
109,192,19350,1,0,0:0:0:0:
475,192,19350,1,0,0:0:0:0:
402,192,19500,128,0,19650:0:0:0:0:
329,192,19500,1,0,0:0:0:0:
182,192,19500,1,0,0:0:0:0:
36,192,19500,1,0,0:0:0:0:
256,192,19500,1,0,0:0:0:0:
109,192,19650,128,0,19800:0:0:0:0:
182,192,19650,1,0,0:0:0:0:
475,192,19650,1,0,0:0:0:0:
329,192,19800,1,0,0:0:0:0:
402,192,19800,1,0,0:0:0:0:
182,192,19950,1,0,0:0:0:0:
256,192,19950,128,0,20100:0:0:0:0:
475,192,19950,128,0,20100:0:0:0:0:
402,192,20100,1,0,0:0:0:0:
329,192,20100,1,0,0:0:0:0:
109,192,20100,1,0,0:0:0:0:
36,192,20100,1,0,0:0:0:0:
475,192,20250,1,0,0:0:0:0:
182,192,20250,1,0,0:0:0:0:
329,192,20250,1,0,0:0:0:0:
36,192,20400,128,0,20625:0:0:0:0:
109,192,20400,128,0,20625:0:0:0:0:
182,192,20400,128,0,20625:0:0:0:0:
256,192,20400,128,0,20550:0:0:0:0:
329,192,20475,128,0,20625:0:0:0:0:
402,192,20550,128,0,20700:0:0:0:0:
475,192,20625,128,0,21225:0:0:0:0:
36,192,20700,128,0,20925:0:0:0:0:
109,192,20700,128,0,20925:0:0:0:0:
182,192,20700,128,0,20925:0:0:0:0:
256,192,21000,128,0,21150:0:0:0:0:
329,192,21000,128,0,21225:0:0:0:0:
402,192,21000,128,0,21225:0:0:0:0:
182,192,21075,128,0,21225:0:0:0:0:
109,192,21150,128,0,21300:0:0:0:0:
36,192,21225,128,0,21375:0:0:0:0:
256,192,21225,1,0,0:0:0:0:
329,192,21300,128,0,21525:0:0:0:0:
402,192,21300,128,0,21525:0:0:0:0:
475,192,21300,128,0,21525:0:0:0:0:
182,192,21300,1,0,0:0:0:0:
109,192,21375,1,0,0:0:0:0:
36,192,21450,1,0,0:0:0:0:
109,192,21525,1,0,0:0:0:0:
182,192,21600,128,0,21750:0:0:0:0:
329,192,21600,1,0,0:0:0:0:
256,192,21600,1,0,0:0:0:0:
475,192,21600,1,0,0:0:0:0:
402,192,21600,1,0,0:0:0:0:
36,192,21600,1,0,0:0:0:0:
109,192,21750,1,0,0:0:0:0:
402,192,21750,1,0,0:0:0:0:
475,192,21900,128,0,22050:0:0:0:0:
329,192,21900,1,0,0:0:0:0:
256,192,21900,1,0,0:0:0:0:
109,192,21900,1,0,0:0:0:0:
36,192,21900,1,0,0:0:0:0:
182,192,22050,128,0,22200:0:0:0:0:
402,192,22050,1,0,0:0:0:0:
109,192,22050,1,0,0:0:0:0:
475,192,22200,128,0,22350:0:0:0:0:
256,192,22200,1,0,0:0:0:0:
36,192,22200,1,0,0:0:0:0:
329,192,22200,1,0,0:0:0:0:
329,192,22350,128,0,22500:0:0:0:0:
256,192,22350,1,0,0:0:0:0:
109,192,22350,1,0,0:0:0:0:
182,192,22500,1,0,0:0:0:0:
475,192,22500,1,0,0:0:0:0:
402,192,22500,1,0,0:0:0:0:
109,192,22500,1,0,0:0:0:0:
36,192,22650,128,0,22800:0:0:0:0:
256,192,22650,1,0,0:0:0:0:
475,192,22650,1,0,0:0:0:0:
256,192,22800,1,0,0:0:0:0:
402,192,22800,1,0,0:0:0:0:
182,192,22800,1,0,0:0:0:0:
329,192,22875,1,0,0:0:0:0:
475,192,22875,1,0,0:0:0:0:
182,192,22950,1,0,0:0:0:0:
36,192,22950,1,0,0:0:0:0:
402,192,22950,1,0,0:0:0:0:
256,192,23025,1,0,0:0:0:0:
109,192,23025,1,0,0:0:0:0:
329,192,23100,1,0,0:0:0:0:
182,192,23100,1,0,0:0:0:0:
475,192,23100,1,0,0:0:0:0:
402,192,23100,1,0,0:0:0:0:
256,192,23175,1,0,0:0:0:0:
109,192,23175,1,0,0:0:0:0:
329,192,23250,1,0,0:0:0:0:
182,192,23250,1,0,0:0:0:0:
475,192,23250,1,0,0:0:0:0:
402,192,23325,1,0,0:0:0:0:
256,192,23325,1,0,0:0:0:0:
109,192,23400,128,0,23550:0:0:0:0:
36,192,23400,1,0,0:0:0:0:
329,192,23400,1,0,0:0:0:0:
182,192,23400,1,0,0:0:0:0:
402,192,23550,128,0,23700:0:0:0:0:
475,192,23550,1,0,0:0:0:0:
256,192,23550,1,0,0:0:0:0:
36,192,23700,128,0,23850:0:0:0:0:
256,192,23700,1,0,0:0:0:0:
182,192,23700,1,0,0:0:0:0:
109,192,23700,1,0,0:0:0:0:
329,192,23700,1,0,0:0:0:0:
329,192,23850,128,0,24000:0:0:0:0:
475,192,23850,1,0,0:0:0:0:
182,192,23850,1,0,0:0:0:0:
256,192,24000,128,0,24150:0:0:0:0:
109,192,24000,1,0,0:0:0:0:
36,192,24000,1,0,0:0:0:0:
402,192,24000,1,0,0:0:0:0:
402,192,24150,1,0,0:0:0:0:
36,192,24150,1,0,0:0:0:0:
109,192,24300,128,0,24450:0:0:0:0:
182,192,24300,1,0,0:0:0:0:
329,192,24300,1,0,0:0:0:0:
475,192,24300,1,0,0:0:0:0:
256,192,24300,1,0,0:0:0:0:
402,192,24450,128,0,24600:0:0:0:0:
329,192,24450,1,0,0:0:0:0:
36,192,24450,1,0,0:0:0:0:
109,192,24600,128,0,24750:0:0:0:0:
182,192,24600,1,0,0:0:0:0:
256,192,24600,1,0,0:0:0:0:
475,192,24600,1,0,0:0:0:0:
256,192,24750,1,0,0:0:0:0:
36,192,24750,1,0,0:0:0:0:
475,192,24900,128,0,25050:0:0:0:0:
109,192,24900,1,0,0:0:0:0:
182,192,24900,1,0,0:0:0:0:
329,192,24900,1,0,0:0:0:0:
402,192,24900,1,0,0:0:0:0:
182,192,25050,128,0,25200:0:0:0:0:
36,192,25050,1,0,0:0:0:0:
256,192,25050,1,0,0:0:0:0:
256,192,25200,1,0,0:0:0:0:
402,192,25200,1,0,0:0:0:0:
109,192,25200,1,0,0:0:0:0:
329,192,25275,1,0,0:0:0:0:
475,192,25275,1,0,0:0:0:0:
109,192,25350,1,0,0:0:0:0:
256,192,25350,1,0,0:0:0:0:
402,192,25350,1,0,0:0:0:0:
182,192,25425,1,0,0:0:0:0:
329,192,25425,1,0,0:0:0:0:
256,192,25500,1,0,0:0:0:0:
402,192,25500,1,0,0:0:0:0:
36,192,25500,1,0,0:0:0:0:
109,192,25500,1,0,0:0:0:0:
182,192,25575,1,0,0:0:0:0:
329,192,25575,1,0,0:0:0:0:
256,192,25650,1,0,0:0:0:0:
109,192,25650,1,0,0:0:0:0:
475,192,25650,1,0,0:0:0:0:
36,192,25725,1,0,0:0:0:0:
182,192,25725,1,0,0:0:0:0:
256,192,25800,128,0,25950:0:0:0:0:
402,192,25800,1,0,0:0:0:0:
109,192,25800,1,0,0:0:0:0:
329,192,25800,1,0,0:0:0:0:
36,192,25950,128,0,26100:0:0:0:0:
109,192,25950,1,0,0:0:0:0:
475,192,25950,1,0,0:0:0:0:
475,192,26100,128,0,26250:0:0:0:0:
402,192,26100,1,0,0:0:0:0:
256,192,26100,1,0,0:0:0:0:
182,192,26100,1,0,0:0:0:0:
329,192,26100,1,0,0:0:0:0:
182,192,26250,128,0,26400:0:0:0:0:
109,192,26250,1,0,0:0:0:0:
329,192,26250,1,0,0:0:0:0:
109,192,26400,128,0,26550:0:0:0:0:
475,192,26400,1,0,0:0:0:0:
36,192,26400,1,0,0:0:0:0:
402,192,26450,1,0,0:0:0:0:
329,192,26500,1,0,0:0:0:0:
256,192,26550,1,0,0:0:0:0:
182,192,26625,1,0,0:0:0:0:
475,192,26700,128,0,26850:0:0:0:0:
329,192,26700,1,0,0:0:0:0:
256,192,26700,1,0,0:0:0:0:
109,192,26700,1,0,0:0:0:0:
36,192,26700,1,0,0:0:0:0:
182,192,26850,128,0,27000:0:0:0:0:
402,192,26850,1,0,0:0:0:0:
109,192,26850,1,0,0:0:0:0:
475,192,27000,128,0,27150:0:0:0:0:
256,192,27000,1,0,0:0:0:0:
36,192,27000,1,0,0:0:0:0:
329,192,27000,1,0,0:0:0:0:
329,192,27150,128,0,27300:0:0:0:0:
109,192,27150,1,0,0:0:0:0:
256,192,27150,1,0,0:0:0:0:
182,192,27300,1,0,0:0:0:0:
475,192,27300,1,0,0:0:0:0:
402,192,27300,1,0,0:0:0:0:
109,192,27300,1,0,0:0:0:0:
36,192,27450,128,0,27600:0:0:0:0:
256,192,27450,1,0,0:0:0:0:
475,192,27450,1,0,0:0:0:0:
256,192,27600,1,0,0:0:0:0:
402,192,27600,1,0,0:0:0:0:
182,192,27600,1,0,0:0:0:0:
329,192,27675,1,0,0:0:0:0:
475,192,27675,1,0,0:0:0:0:
182,192,27750,1,0,0:0:0:0:
36,192,27750,1,0,0:0:0:0:
402,192,27750,1,0,0:0:0:0:
256,192,27825,1,0,0:0:0:0:
109,192,27825,1,0,0:0:0:0:
329,192,27900,1,0,0:0:0:0:
182,192,27900,1,0,0:0:0:0:
475,192,27900,1,0,0:0:0:0:
402,192,27900,1,0,0:0:0:0:
256,192,27975,1,0,0:0:0:0:
109,192,27975,1,0,0:0:0:0:
329,192,28050,1,0,0:0:0:0:
182,192,28050,1,0,0:0:0:0:
475,192,28050,1,0,0:0:0:0:
402,192,28125,1,0,0:0:0:0:
256,192,28125,1,0,0:0:0:0:
109,192,28200,128,0,28350:0:0:0:0:
36,192,28200,1,0,0:0:0:0:
329,192,28200,1,0,0:0:0:0:
182,192,28275,1,0,0:0:0:0:
475,192,28275,1,0,0:0:0:0:
402,192,28350,128,0,28500:0:0:0:0:
36,192,28350,1,0,0:0:0:0:
256,192,28350,1,0,0:0:0:0:
329,192,28425,1,0,0:0:0:0:
182,192,28425,1,0,0:0:0:0:
36,192,28500,128,0,28650:0:0:0:0:
256,192,28500,1,0,0:0:0:0:
475,192,28500,1,0,0:0:0:0:
182,192,28575,1,0,0:0:0:0:
109,192,28575,1,0,0:0:0:0:
402,192,28650,1,0,0:0:0:0:
475,192,28650,1,0,0:0:0:0:
329,192,28650,128,0,28800:0:0:0:0:
182,192,28725,1,0,0:0:0:0:
256,192,28725,1,0,0:0:0:0:
402,192,28800,1,0,0:0:0:0:
475,192,28800,1,0,0:0:0:0:
109,192,28875,1,0,0:0:0:0:
36,192,28875,1,0,0:0:0:0:
402,192,28950,1,0,0:0:0:0:
475,192,28950,1,0,0:0:0:0:
36,192,29025,1,0,0:0:0:0:
109,192,29025,1,0,0:0:0:0:
329,192,29100,128,0,29250:0:0:0:0:
402,192,29100,128,0,29250:0:0:0:0:
475,192,29100,128,0,29250:0:0:0:0:
109,192,29250,1,0,0:0:0:0:
182,192,29250,1,0,0:0:0:0:
329,192,29325,1,0,0:0:0:0:
402,192,29325,1,0,0:0:0:0:
109,192,29400,1,0,0:0:0:0:
182,192,29400,1,0,0:0:0:0:
329,192,29475,1,0,0:0:0:0:
402,192,29475,1,0,0:0:0:0:
36,192,29550,128,0,29700:0:0:0:0:
109,192,29550,128,0,29700:0:0:0:0:
182,192,29550,128,0,29700:0:0:0:0:
329,192,29700,1,0,0:0:0:0:
475,192,29700,1,0,0:0:0:0:
182,192,29775,1,0,0:0:0:0:
36,192,29775,1,0,0:0:0:0:
329,192,29850,1,0,0:0:0:0:
475,192,29850,1,0,0:0:0:0:
182,192,29925,1,0,0:0:0:0:
36,192,29925,1,0,0:0:0:0:
256,192,30000,128,0,30150:0:0:0:0:
402,192,30000,128,0,30150:0:0:0:0:
329,192,30000,128,0,30150:0:0:0:0:
109,192,30150,1,0,0:0:0:0:
182,192,30150,1,0,0:0:0:0:
402,192,30225,1,0,0:0:0:0:
475,192,30225,1,0,0:0:0:0:
36,192,30300,1,0,0:0:0:0:
109,192,30300,1,0,0:0:0:0:
329,192,30375,1,0,0:0:0:0:
402,192,30375,1,0,0:0:0:0:
109,192,30450,128,0,30600:0:0:0:0:
182,192,30450,128,0,30600:0:0:0:0:
256,192,30450,128,0,30600:0:0:0:0:
329,192,30600,1,0,0:0:0:0:
475,192,30600,1,0,0:0:0:0:
182,192,30675,1,0,0:0:0:0:
36,192,30675,1,0,0:0:0:0:
256,192,30750,1,0,0:0:0:0:
402,192,30750,1,0,0:0:0:0:
182,192,30825,1,0,0:0:0:0:
36,192,30825,1,0,0:0:0:0:
329,192,30900,128,0,30975:0:0:0:0:
475,192,30900,128,0,30975:0:0:0:0:
256,192,30900,128,0,30975:0:0:0:0:
36,192,31050,128,0,31425:0:0:0:0:
182,192,31050,128,0,31575:0:0:0:0:
329,192,31050,128,0,31800:0:0:0:0:
109,192,31050,128,0,31500:0:0:0:0:
402,192,31050,128,0,31725:0:0:0:0:
475,192,31050,128,0,31650:0:0:0:0:
36,192,31500,1,0,0:0:0:0:
109,192,31575,1,0,0:0:0:0:
182,192,31650,1,0,0:0:0:0:
475,192,31725,1,0,0:0:0:0:
402,192,31800,1,0,0:0:0:0:
256,192,31875,128,0,32025:0:0:0:0:
329,192,31875,1,0,0:0:0:0:
182,192,31950,128,0,32100:0:0:0:0:
109,192,32025,128,0,32175:0:0:0:0:
36,192,32100,128,0,32250:0:0:0:0:
329,192,32175,128,0,32325:0:0:0:0:
402,192,32250,128,0,32400:0:0:0:0:
475,192,32325,128,0,32475:0:0:0:0:
182,192,32400,1,0,0:0:0:0:
36,192,32400,1,0,0:0:0:0:
109,192,32400,1,0,0:0:0:0:
256,192,32550,128,0,32587:0:0:0:0:
182,192,32700,1,0,0:0:0:0:
402,192,32700,1,0,0:0:0:0:
109,192,32700,128,0,32737:0:0:0:0:
329,192,32850,128,0,32887:0:0:0:0:
256,192,33000,1,0,0:0:0:0:
475,192,33000,1,0,0:0:0:0:
182,192,33000,128,0,33037:0:0:0:0:
402,192,33150,128,0,33187:0:0:0:0:
36,192,33300,1,0,0:0:0:0:
109,192,33300,1,0,0:0:0:0:
182,192,33300,1,0,0:0:0:0:
329,192,33300,1,0,0:0:0:0:
256,192,33450,1,0,0:0:0:0:
329,192,33450,1,0,0:0:0:0:
109,192,33450,1,0,0:0:0:0:
475,192,33450,1,0,0:0:0:0:
36,192,33600,1,0,0:0:0:0:
475,192,33600,1,0,0:0:0:0:
402,192,33600,1,0,0:0:0:0:
182,192,33600,128,0,33750:0:0:0:0:
256,192,33600,128,0,33750:0:0:0:0:
329,192,33750,1,0,0:0:0:0:
109,192,33750,1,0,0:0:0:0:
36,192,33900,1,0,0:0:0:0:
256,192,33900,1,0,0:0:0:0:
402,192,33900,1,0,0:0:0:0:
475,192,33900,1,0,0:0:0:0:
109,192,34050,1,0,0:0:0:0:
182,192,34050,1,0,0:0:0:0:
402,192,34200,128,0,34350:0:0:0:0:
256,192,34200,1,0,0:0:0:0:
329,192,34200,1,0,0:0:0:0:
475,192,34200,1,0,0:0:0:0:
182,192,34350,128,0,34500:0:0:0:0:
109,192,34350,128,0,34500:0:0:0:0:
36,192,34350,1,0,0:0:0:0:
256,192,34350,1,0,0:0:0:0:
256,192,34500,1,0,0:0:0:0:
329,192,34500,1,0,0:0:0:0:
475,192,34500,1,0,0:0:0:0:
402,192,34500,1,0,0:0:0:0:
36,192,34650,1,0,0:0:0:0:
182,192,34650,1,0,0:0:0:0:
475,192,34800,128,0,34950:0:0:0:0:
402,192,34800,1,0,0:0:0:0:
256,192,34800,1,0,0:0:0:0:
36,192,34800,1,0,0:0:0:0:
329,192,34950,128,0,35100:0:0:0:0:
256,192,34950,128,0,35100:0:0:0:0:
109,192,34950,1,0,0:0:0:0:
182,192,34950,1,0,0:0:0:0:
36,192,35100,1,0,0:0:0:0:
182,192,35100,1,0,0:0:0:0:
402,192,35100,1,0,0:0:0:0:
475,192,35100,1,0,0:0:0:0:
256,192,35250,1,0,0:0:0:0:
402,192,35250,1,0,0:0:0:0:
36,192,35400,128,0,35550:0:0:0:0:
182,192,35400,128,0,35550:0:0:0:0:
329,192,35400,1,0,0:0:0:0:
475,192,35400,1,0,0:0:0:0:
109,192,35400,1,0,0:0:0:0:
256,192,35550,1,0,0:0:0:0:
402,192,35550,1,0,0:0:0:0:
256,192,35700,128,0,35850:0:0:0:0:
402,192,35700,128,0,35850:0:0:0:0:
109,192,35700,1,0,0:0:0:0:
182,192,35700,1,0,0:0:0:0:
36,192,35700,1,0,0:0:0:0:
329,192,35700,1,0,0:0:0:0:
182,192,35850,1,0,0:0:0:0:
475,192,35850,1,0,0:0:0:0:
109,192,36000,128,0,36150:0:0:0:0:
329,192,36000,128,0,36150:0:0:0:0:
475,192,36000,1,0,0:0:0:0:
256,192,36000,1,0,0:0:0:0:
36,192,36000,1,0,0:0:0:0:
182,192,36150,1,0,0:0:0:0:
402,192,36150,1,0,0:0:0:0:
329,192,36300,1,0,0:0:0:0:
256,192,36300,1,0,0:0:0:0:
36,192,36300,1,0,0:0:0:0:
109,192,36300,1,0,0:0:0:0:
182,192,36450,1,0,0:0:0:0:
475,192,36450,1,0,0:0:0:0:
256,192,36600,128,0,36750:0:0:0:0:
402,192,36600,1,0,0:0:0:0:
36,192,36600,1,0,0:0:0:0:
109,192,36600,1,0,0:0:0:0:
182,192,36750,128,0,36900:0:0:0:0:
475,192,36750,128,0,36900:0:0:0:0:
329,192,36750,1,0,0:0:0:0:
109,192,36750,1,0,0:0:0:0:
402,192,36900,1,0,0:0:0:0:
329,192,36900,1,0,0:0:0:0:
36,192,36900,1,0,0:0:0:0:
256,192,36900,1,0,0:0:0:0:
329,192,37050,128,0,37200:0:0:0:0:
36,192,37050,128,0,37200:0:0:0:0:
182,192,37050,1,0,0:0:0:0:
475,192,37050,1,0,0:0:0:0:
109,192,37200,1,0,0:0:0:0:
256,192,37200,1,0,0:0:0:0:
475,192,37200,1,0,0:0:0:0:
182,192,37350,1,0,0:0:0:0:
402,192,37350,1,0,0:0:0:0:
109,192,37500,128,0,37537:0:0:0:0:
475,192,37500,128,0,37650:0:0:0:0:
256,192,37500,1,0,0:0:0:0:
329,192,37500,1,0,0:0:0:0:
36,192,37500,1,0,0:0:0:0:
402,192,37500,1,0,0:0:0:0:
182,192,37575,128,0,37612:0:0:0:0:
256,192,37650,128,0,37687:0:0:0:0:
36,192,37650,1,0,0:0:0:0:
402,192,37650,1,0,0:0:0:0:
329,192,37725,128,0,37762:0:0:0:0:
402,192,37800,128,0,37837:0:0:0:0:
109,192,37800,128,0,37950:0:0:0:0:
182,192,37800,1,0,0:0:0:0:
256,192,37800,1,0,0:0:0:0:
36,192,37800,1,0,0:0:0:0:
475,192,37875,128,0,37912:0:0:0:0:
402,192,37950,128,0,37987:0:0:0:0:
182,192,37950,1,0,0:0:0:0:
256,192,37950,1,0,0:0:0:0:
329,192,38025,128,0,38062:0:0:0:0:
256,192,38100,128,0,38137:0:0:0:0:
402,192,38100,128,0,38250:0:0:0:0:
36,192,38100,1,0,0:0:0:0:
109,192,38100,1,0,0:0:0:0:
475,192,38100,1,0,0:0:0:0:
182,192,38175,128,0,38212:0:0:0:0:
109,192,38250,128,0,38287:0:0:0:0:
329,192,38250,1,0,0:0:0:0:
475,192,38250,1,0,0:0:0:0:
36,192,38325,128,0,38362:0:0:0:0:
256,192,38400,128,0,38550:0:0:0:0:
475,192,38400,128,0,38550:0:0:0:0:
329,192,38400,1,0,0:0:0:0:
182,192,38400,1,0,0:0:0:0:
109,192,38400,1,0,0:0:0:0:
36,192,38550,1,0,0:0:0:0:
402,192,38550,1,0,0:0:0:0:
109,192,38700,1,0,0:0:0:0:
329,192,38700,1,0,0:0:0:0:
475,192,38700,1,0,0:0:0:0:
256,192,38700,1,0,0:0:0:0:
402,192,38850,1,0,0:0:0:0:
36,192,38850,1,0,0:0:0:0:
182,192,39000,128,0,39150:0:0:0:0:
329,192,39000,1,0,0:0:0:0:
256,192,39000,1,0,0:0:0:0:
475,192,39000,1,0,0:0:0:0:
36,192,39150,128,0,39300:0:0:0:0:
329,192,39150,128,0,39300:0:0:0:0:
109,192,39150,1,0,0:0:0:0:
402,192,39150,1,0,0:0:0:0:
182,192,39300,1,0,0:0:0:0:
256,192,39300,1,0,0:0:0:0:
402,192,39300,1,0,0:0:0:0:
475,192,39300,1,0,0:0:0:0:
109,192,39450,1,0,0:0:0:0:
329,192,39450,1,0,0:0:0:0:
109,192,39600,128,0,39750:0:0:0:0:
182,192,39600,1,0,0:0:0:0:
475,192,39600,1,0,0:0:0:0:
36,192,39600,1,0,0:0:0:0:
256,192,39750,128,0,39900:0:0:0:0:
402,192,39750,128,0,39900:0:0:0:0:
329,192,39750,1,0,0:0:0:0:
182,192,39750,1,0,0:0:0:0:
36,192,39900,1,0,0:0:0:0:
109,192,39900,1,0,0:0:0:0:
329,192,39900,1,0,0:0:0:0:
475,192,39900,1,0,0:0:0:0:
109,192,40050,1,0,0:0:0:0:
256,192,40050,1,0,0:0:0:0:
329,192,40200,128,0,40350:0:0:0:0:
475,192,40200,128,0,40350:0:0:0:0:
36,192,40200,1,0,0:0:0:0:
182,192,40200,1,0,0:0:0:0:
402,192,40200,1,0,0:0:0:0:
109,192,40350,1,0,0:0:0:0:
256,192,40350,1,0,0:0:0:0:
36,192,40500,128,0,40650:0:0:0:0:
182,192,40500,128,0,40650:0:0:0:0:
256,192,40500,1,0,0:0:0:0:
329,192,40500,1,0,0:0:0:0:
402,192,40500,1,0,0:0:0:0:
475,192,40500,1,0,0:0:0:0:
109,192,40650,1,0,0:0:0:0:
402,192,40650,1,0,0:0:0:0:
109,192,40800,128,0,40950:0:0:0:0:
329,192,40800,128,0,40950:0:0:0:0:
182,192,40800,1,0,0:0:0:0:
256,192,40800,1,0,0:0:0:0:
475,192,40800,1,0,0:0:0:0:
402,192,40950,1,0,0:0:0:0:
36,192,40950,1,0,0:0:0:0:
109,192,41100,1,0,0:0:0:0:
256,192,41100,1,0,0:0:0:0:
329,192,41100,1,0,0:0:0:0:
475,192,41100,1,0,0:0:0:0:
182,192,41250,1,0,0:0:0:0:
36,192,41250,1,0,0:0:0:0:
402,192,41400,128,0,41550:0:0:0:0:
36,192,41400,1,0,0:0:0:0:
256,192,41400,1,0,0:0:0:0:
182,192,41400,1,0,0:0:0:0:
109,192,41475,1,0,0:0:0:0:
329,192,41475,1,0,0:0:0:0:
256,192,41550,128,0,41700:0:0:0:0:
36,192,41550,128,0,41700:0:0:0:0:
182,192,41550,1,0,0:0:0:0:
475,192,41550,1,0,0:0:0:0:
109,192,41700,1,0,0:0:0:0:
329,192,41700,1,0,0:0:0:0:
402,192,41700,1,0,0:0:0:0:
475,192,41700,1,0,0:0:0:0:
182,192,41850,128,0,42075:0:0:0:0:
329,192,41850,128,0,42075:0:0:0:0:
402,192,41850,1,0,0:0:0:0:
109,192,41850,1,0,0:0:0:0:
256,192,41850,1,0,0:0:0:0:
182,192,42150,1,0,0:0:0:0:
329,192,42150,1,0,0:0:0:0:
402,192,42150,128,0,42450:0:0:0:0:
475,192,42150,128,0,42450:0:0:0:0:
36,192,42150,128,0,42450:0:0:0:0:
109,192,42150,128,0,42450:0:0:0:0:
36,192,42600,128,0,42750:0:0:0:0:
182,192,42600,128,0,42750:0:0:0:0:
329,192,42600,128,0,42750:0:0:0:0:
475,192,42600,128,0,42750:0:0:0:0:
256,192,42600,1,0,0:0:0:0:
182,192,42900,128,0,43050:0:0:0:0:
109,192,42900,128,0,43050:0:0:0:0:
329,192,42900,128,0,43050:0:0:0:0:
402,192,42900,128,0,43050:0:0:0:0:
475,192,42900,1,0,0:0:0:0:
36,192,42900,1,0,0:0:0:0:
475,192,43200,1,0,0:0:0:0:
36,192,43200,1,0,0:0:0:0:
109,192,43200,1,0,0:0:0:0:
329,192,43200,128,0,43350:0:0:0:0:
256,192,43200,128,0,43350:0:0:0:0:
182,192,43350,1,0,0:0:0:0:
402,192,43350,1,0,0:0:0:0:
475,192,43500,1,0,0:0:0:0:
256,192,43500,1,0,0:0:0:0:
109,192,43500,1,0,0:0:0:0:
36,192,43500,1,0,0:0:0:0:
402,192,43650,1,0,0:0:0:0:
329,192,43650,1,0,0:0:0:0:
109,192,43800,128,0,43950:0:0:0:0:
256,192,43800,1,0,0:0:0:0:
182,192,43800,1,0,0:0:0:0:
36,192,43800,1,0,0:0:0:0:
329,192,43950,128,0,44100:0:0:0:0:
402,192,43950,128,0,44100:0:0:0:0:
475,192,43950,1,0,0:0:0:0:
256,192,43950,1,0,0:0:0:0:
256,192,44100,1,0,0:0:0:0:
182,192,44100,1,0,0:0:0:0:
36,192,44100,1,0,0:0:0:0:
109,192,44100,1,0,0:0:0:0:
475,192,44250,1,0,0:0:0:0:
329,192,44250,1,0,0:0:0:0:
36,192,44400,128,0,44550:0:0:0:0:
109,192,44400,1,0,0:0:0:0:
256,192,44400,1,0,0:0:0:0:
475,192,44400,128,0,44475:0:0:0:0:
182,192,44550,128,0,44700:0:0:0:0:
256,192,44550,128,0,44700:0:0:0:0:
402,192,44550,1,0,0:0:0:0:
329,192,44550,1,0,0:0:0:0:
475,192,44700,1,0,0:0:0:0:
329,192,44700,1,0,0:0:0:0:
109,192,44700,1,0,0:0:0:0:
36,192,44700,128,0,44737:0:0:0:0:
256,192,44850,1,0,0:0:0:0:
109,192,44850,128,0,44887:0:0:0:0:
475,192,45000,128,0,45150:0:0:0:0:
329,192,45000,128,0,45150:0:0:0:0:
182,192,45000,1,0,0:0:0:0:
36,192,45000,1,0,0:0:0:0:
402,192,45000,128,0,45037:0:0:0:0:
109,192,45150,1,0,0:0:0:0:
256,192,45150,128,0,45187:0:0:0:0:
256,192,45300,128,0,45450:0:0:0:0:
109,192,45300,128,0,45450:0:0:0:0:
329,192,45300,1,0,0:0:0:0:
475,192,45300,1,0,0:0:0:0:
182,192,45300,1,0,0:0:0:0:
402,192,45300,128,0,45337:0:0:0:0:
329,192,45450,1,0,0:0:0:0:
36,192,45450,128,0,45487:0:0:0:0:
402,192,45600,128,0,45750:0:0:0:0:
182,192,45600,128,0,45750:0:0:0:0:
36,192,45600,1,0,0:0:0:0:
256,192,45600,1,0,0:0:0:0:
475,192,45600,1,0,0:0:0:0:
329,192,45750,1,0,0:0:0:0:
109,192,45750,1,0,0:0:0:0:
182,192,45900,1,0,0:0:0:0:
256,192,45900,1,0,0:0:0:0:
475,192,45900,1,0,0:0:0:0:
402,192,45900,1,0,0:0:0:0:
329,192,46050,1,0,0:0:0:0:
36,192,46050,1,0,0:0:0:0:
256,192,46200,128,0,46350:0:0:0:0:
475,192,46200,1,0,0:0:0:0:
402,192,46200,1,0,0:0:0:0:
109,192,46200,128,0,46237:0:0:0:0:
329,192,46350,128,0,46500:0:0:0:0:
36,192,46350,128,0,46500:0:0:0:0:
402,192,46350,1,0,0:0:0:0:
182,192,46350,128,0,46387:0:0:0:0:
109,192,46500,1,0,0:0:0:0:
182,192,46500,1,0,0:0:0:0:
475,192,46500,1,0,0:0:0:0:
256,192,46500,128,0,46537:0:0:0:0:
182,192,46650,128,0,46800:0:0:0:0:
475,192,46650,128,0,46800:0:0:0:0:
36,192,46650,1,0,0:0:0:0:
329,192,46650,128,0,46687:0:0:0:0:
256,192,46800,1,0,0:0:0:0:
36,192,46800,1,0,0:0:0:0:
402,192,46800,128,0,46875:0:0:0:0:
329,192,46950,1,0,0:0:0:0:
109,192,46950,1,0,0:0:0:0:
402,192,47100,128,0,47137:0:0:0:0:
36,192,47100,128,0,47250:0:0:0:0:
256,192,47100,1,0,0:0:0:0:
182,192,47100,1,0,0:0:0:0:
475,192,47100,1,0,0:0:0:0:
109,192,47100,1,0,0:0:0:0:
329,192,47175,128,0,47212:0:0:0:0:
256,192,47250,128,0,47287:0:0:0:0:
475,192,47250,1,0,0:0:0:0:
109,192,47250,1,0,0:0:0:0:
182,192,47325,128,0,47362:0:0:0:0:
109,192,47400,128,0,47437:0:0:0:0:
402,192,47400,128,0,47550:0:0:0:0:
329,192,47400,1,0,0:0:0:0:
256,192,47400,1,0,0:0:0:0:
475,192,47400,1,0,0:0:0:0:
36,192,47475,128,0,47512:0:0:0:0:
109,192,47550,128,0,47587:0:0:0:0:
329,192,47550,1,0,0:0:0:0:
256,192,47550,1,0,0:0:0:0:
182,192,47625,128,0,47662:0:0:0:0:
256,192,47700,128,0,47737:0:0:0:0:
109,192,47700,128,0,47850:0:0:0:0:
475,192,47700,1,0,0:0:0:0:
402,192,47700,1,0,0:0:0:0:
36,192,47700,1,0,0:0:0:0:
329,192,47775,128,0,47812:0:0:0:0:
402,192,47850,128,0,47887:0:0:0:0:
182,192,47850,1,0,0:0:0:0:
36,192,47850,1,0,0:0:0:0:
475,192,47925,128,0,47962:0:0:0:0:
36,192,48000,128,0,48225:0:0:0:0:
182,192,48000,128,0,48225:0:0:0:0:
329,192,48000,128,0,48225:0:0:0:0:
256,192,48000,1,0,0:0:0:0:
402,192,48000,1,0,0:0:0:0:
109,192,48150,1,0,0:0:0:0:
475,192,48300,128,0,48750:0:0:0:0:
329,192,48300,128,0,48600:0:0:0:0:
182,192,48300,128,0,48450:0:0:0:0:
402,192,48300,1,0,0:0:0:0:
256,192,48300,1,0,0:0:0:0:
36,192,48300,1,0,0:0:0:0:
109,192,48450,128,0,48487:0:0:0:0:
402,192,48450,1,0,0:0:0:0:
256,192,48600,128,0,48637:0:0:0:0:
36,192,48600,1,0,0:0:0:0:
182,192,48600,1,0,0:0:0:0:
402,192,48750,128,0,48787:0:0:0:0:
109,192,48750,1,0,0:0:0:0:
329,192,48900,128,0,48937:0:0:0:0:
36,192,48900,1,0,0:0:0:0:
182,192,48900,1,0,0:0:0:0:
475,192,48900,1,0,0:0:0:0:
182,192,49050,128,0,49087:0:0:0:0:
402,192,49050,1,0,0:0:0:0:
109,192,49050,1,0,0:0:0:0:
256,192,49200,1,0,0:0:0:0:
475,192,49200,1,0,0:0:0:0:
36,192,49200,1,0,0:0:0:0:
402,192,49275,1,0,0:0:0:0:
182,192,49275,1,0,0:0:0:0:
329,192,49350,1,0,0:0:0:0:
109,192,49350,1,0,0:0:0:0:
256,192,49425,1,0,0:0:0:0:
36,192,49425,1,0,0:0:0:0:
475,192,49500,1,0,0:0:0:0:
182,192,49500,1,0,0:0:0:0:
329,192,49500,1,0,0:0:0:0:
109,192,49575,1,0,0:0:0:0:
402,192,49575,1,0,0:0:0:0:
329,192,49650,1,0,0:0:0:0:
36,192,49650,1,0,0:0:0:0:
256,192,49725,1,0,0:0:0:0:
475,192,49725,1,0,0:0:0:0:
109,192,49800,1,0,0:0:0:0:
329,192,49800,1,0,0:0:0:0:
36,192,49800,1,0,0:0:0:0:
182,192,49875,1,0,0:0:0:0:
402,192,49875,1,0,0:0:0:0:
256,192,49950,1,0,0:0:0:0:
36,192,49950,1,0,0:0:0:0:
475,192,49950,1,0,0:0:0:0:
109,192,50025,1,0,0:0:0:0:
329,192,50025,1,0,0:0:0:0:
182,192,50100,1,0,0:0:0:0:
402,192,50100,1,0,0:0:0:0:
36,192,50100,1,0,0:0:0:0:
256,192,50175,1,0,0:0:0:0:
475,192,50175,1,0,0:0:0:0:
36,192,50250,1,0,0:0:0:0:
329,192,50250,1,0,0:0:0:0:
182,192,50250,1,0,0:0:0:0:
109,192,50325,1,0,0:0:0:0:
402,192,50325,1,0,0:0:0:0:
36,192,50400,128,0,50700:0:0:0:0:
182,192,50400,128,0,50700:0:0:0:0:
329,192,50400,128,0,50700:0:0:0:0:
475,192,50400,128,0,50700:0:0:0:0:
109,192,50700,1,0,0:0:0:0:
256,192,50700,1,0,0:0:0:0:
402,192,50700,1,0,0:0:0:0:
402,192,51000,128,0,51300:0:0:0:0:
475,192,51000,128,0,51300:0:0:0:0:
36,192,51000,128,0,51300:0:0:0:0:
109,192,51000,128,0,51300:0:0:0:0:
182,192,51300,1,0,0:0:0:0:
329,192,51300,1,0,0:0:0:0:
256,192,51300,1,0,0:0:0:0:
182,192,51600,128,0,51900:0:0:0:0:
109,192,51600,128,0,51900:0:0:0:0:
329,192,51600,128,0,51900:0:0:0:0:
402,192,51600,128,0,51900:0:0:0:0:
475,192,51900,1,0,0:0:0:0:
256,192,51900,1,0,0:0:0:0:
36,192,51900,1,0,0:0:0:0:
182,192,52200,1,0,0:0:0:0:
329,192,52200,1,0,0:0:0:0:
109,192,52350,128,0,52500:0:0:0:0:
256,192,52350,128,0,52500:0:0:0:0:
402,192,52350,128,0,52500:0:0:0:0:
475,192,52350,1,0,0:0:0:0:
36,192,52350,1,0,0:0:0:0:
182,192,52650,128,0,53400:0:0:0:0:
256,192,52650,128,0,54000:0:0:0:0:
329,192,52650,128,0,53700:0:0:0:0:
402,192,52650,1,0,0:0:0:0:
109,192,52650,1,0,0:0:0:0:
36,192,52950,1,0,0:0:0:0:
109,192,52950,1,0,0:0:0:0:
402,192,53100,1,0,0:0:0:0:
475,192,53100,1,0,0:0:0:0:
475,192,53250,1,0,0:0:0:0:
36,192,53400,1,0,0:0:0:0:
109,192,53400,1,0,0:0:0:0:
36,192,53550,1,0,0:0:0:0:
402,192,53700,1,0,0:0:0:0:
475,192,53700,1,0,0:0:0:0:
475,192,53850,1,0,0:0:0:0:
109,192,54300,128,0,54900:0:0:0:0:
402,192,54300,128,0,54750:0:0:0:0:
329,192,54300,1,0,0:0:0:0:
182,192,54300,1,0,0:0:0:0:
36,192,54300,1,0,0:0:0:0:
475,192,54300,1,0,0:0:0:0:
329,192,54750,1,0,0:0:0:0:
475,192,54750,1,0,0:0:0:0:
256,192,54750,1,0,0:0:0:0:
182,192,54900,1,0,0:0:0:0:
36,192,54900,1,0,0:0:0:0:
256,192,54900,1,0,0:0:0:0:
256,192,55050,1,0,0:0:0:0:
109,192,55050,1,0,0:0:0:0:
402,192,55050,1,0,0:0:0:0:
475,192,55050,1,0,0:0:0:0:
36,192,55200,1,0,0:0:0:0:
109,192,55200,1,0,0:0:0:0:
256,192,55200,1,0,0:0:0:0:
329,192,55200,1,0,0:0:0:0:
475,192,55200,128,0,55500:0:0:0:0:
182,192,55350,1,0,0:0:0:0:
329,192,55500,1,0,0:0:0:0:
402,192,55500,1,0,0:0:0:0:
256,192,55500,1,0,0:0:0:0:
36,192,55650,1,0,0:0:0:0:
182,192,55650,1,0,0:0:0:0:
36,192,55800,128,0,56100:0:0:0:0:
402,192,55800,1,0,0:0:0:0:
329,192,55950,1,0,0:0:0:0:
256,192,55950,1,0,0:0:0:0:
109,192,56100,1,0,0:0:0:0:
182,192,56100,1,0,0:0:0:0:
475,192,56100,1,0,0:0:0:0:
402,192,56250,1,0,0:0:0:0:
256,192,56250,1,0,0:0:0:0:
402,192,56400,128,0,56700:0:0:0:0:
36,192,56400,128,0,56437:0:0:0:0:
329,192,56400,1,0,0:0:0:0:
475,192,56400,1,0,0:0:0:0:
109,192,56400,1,0,0:0:0:0:
182,192,56550,128,0,56587:0:0:0:0:
256,192,56550,1,0,0:0:0:0:
329,192,56700,128,0,56737:0:0:0:0:
36,192,56700,1,0,0:0:0:0:
256,192,56700,1,0,0:0:0:0:
182,192,56700,1,0,0:0:0:0:
109,192,56850,1,0,0:0:0:0:
475,192,56850,128,0,56887:0:0:0:0:
402,192,56850,1,0,0:0:0:0:
109,192,57000,1,0,0:0:0:0:
329,192,57000,1,0,0:0:0:0:
182,192,57150,1,0,0:0:0:0:
475,192,57150,128,0,57187:0:0:0:0:
256,192,57150,1,0,0:0:0:0:
36,192,57150,1,0,0:0:0:0:
109,192,57300,128,0,57600:0:0:0:0:
402,192,57300,128,0,57337:0:0:0:0:
329,192,57300,1,0,0:0:0:0:
475,192,57300,1,0,0:0:0:0:
182,192,57300,1,0,0:0:0:0:
256,192,57450,128,0,57487:0:0:0:0:
402,192,57450,1,0,0:0:0:0:
329,192,57600,128,0,57900:0:0:0:0:
475,192,57600,1,0,0:0:0:0:
36,192,57600,1,0,0:0:0:0:
182,192,57600,1,0,0:0:0:0:
256,192,57750,1,0,0:0:0:0:
109,192,57900,1,0,0:0:0:0:
182,192,57900,1,0,0:0:0:0:
402,192,57900,1,0,0:0:0:0:
36,192,58050,1,0,0:0:0:0:
256,192,58050,1,0,0:0:0:0:
36,192,58200,128,0,58500:0:0:0:0:
402,192,58200,1,0,0:0:0:0:
182,192,58350,1,0,0:0:0:0:
256,192,58350,1,0,0:0:0:0:
109,192,58500,1,0,0:0:0:0:
329,192,58500,1,0,0:0:0:0:
402,192,58500,1,0,0:0:0:0:
475,192,58650,1,0,0:0:0:0:
182,192,58650,1,0,0:0:0:0:
475,192,58800,128,0,59100:0:0:0:0:
36,192,58800,128,0,58837:0:0:0:0:
256,192,58800,1,0,0:0:0:0:
329,192,58800,1,0,0:0:0:0:
109,192,58950,128,0,58987:0:0:0:0:
402,192,58950,1,0,0:0:0:0:
182,192,59100,128,0,59137:0:0:0:0:
36,192,59100,1,0,0:0:0:0:
329,192,59100,1,0,0:0:0:0:
256,192,59100,1,0,0:0:0:0:
402,192,59250,1,0,0:0:0:0:
256,192,59250,128,0,59287:0:0:0:0:
109,192,59250,1,0,0:0:0:0:
402,192,59400,1,0,0:0:0:0:
36,192,59400,1,0,0:0:0:0:
109,192,59550,1,0,0:0:0:0:
329,192,59550,128,0,59587:0:0:0:0:
475,192,59550,1,0,0:0:0:0:
256,192,59550,1,0,0:0:0:0:
402,192,59700,128,0,60000:0:0:0:0:
256,192,59700,128,0,59737:0:0:0:0:
36,192,59700,1,0,0:0:0:0:
109,192,59700,1,0,0:0:0:0:
475,192,59700,1,0,0:0:0:0:
182,192,59850,128,0,59887:0:0:0:0:
329,192,59850,1,0,0:0:0:0:
475,192,60000,1,0,0:0:0:0:
256,192,60000,1,0,0:0:0:0:
36,192,60000,1,0,0:0:0:0:
109,192,60000,1,0,0:0:0:0:
36,192,60150,1,0,0:0:0:0:
182,192,60150,1,0,0:0:0:0:
329,192,60150,1,0,0:0:0:0:
475,192,60150,1,0,0:0:0:0:
36,192,60450,128,0,60900:0:0:0:0:
109,192,60450,128,0,60900:0:0:0:0:
402,192,60450,128,0,60900:0:0:0:0:
475,192,60450,128,0,60900:0:0:0:0:
329,192,60900,1,0,0:0:0:0:
256,192,60975,1,0,0:0:0:0:
182,192,60975,1,0,0:0:0:0:
36,192,61050,1,0,0:0:0:0:
109,192,61050,1,0,0:0:0:0:
329,192,61200,1,0,0:0:0:0:
402,192,61200,1,0,0:0:0:0:
182,192,61200,1,0,0:0:0:0:
109,192,61200,1,0,0:0:0:0:
36,192,61350,1,0,0:0:0:0:
109,192,61350,1,0,0:0:0:0:
402,192,61350,1,0,0:0:0:0:
475,192,61350,1,0,0:0:0:0:
109,192,61650,128,0,61950:0:0:0:0:
182,192,61650,128,0,61950:0:0:0:0:
329,192,61650,128,0,61950:0:0:0:0:
402,192,61650,128,0,61950:0:0:0:0:
256,192,61950,1,0,0:0:0:0:
329,192,62025,1,0,0:0:0:0:
402,192,62025,1,0,0:0:0:0:
256,192,62100,1,0,0:0:0:0:
182,192,62100,1,0,0:0:0:0:
36,192,62175,1,0,0:0:0:0:
109,192,62175,1,0,0:0:0:0:
256,192,62250,1,0,0:0:0:0:
329,192,62250,1,0,0:0:0:0:
402,192,62325,1,0,0:0:0:0:
475,192,62325,1,0,0:0:0:0:
36,192,62400,128,0,62550:0:0:0:0:
182,192,62400,128,0,62550:0:0:0:0:
256,192,62400,1,0,0:0:0:0:
329,192,62400,1,0,0:0:0:0:
109,192,62400,1,0,0:0:0:0:
402,192,62550,1,0,0:0:0:0:
36,192,62700,128,0,62850:0:0:0:0:
182,192,62700,128,0,62850:0:0:0:0:
475,192,62700,1,0,0:0:0:0:
329,192,62700,1,0,0:0:0:0:
256,192,62700,1,0,0:0:0:0:
402,192,62850,1,0,0:0:0:0:
329,192,63000,128,0,63150:0:0:0:0:
475,192,63000,128,0,63150:0:0:0:0:
109,192,63000,1,0,0:0:0:0:
182,192,63000,1,0,0:0:0:0:
256,192,63150,1,0,0:0:0:0:
329,192,63300,128,0,63450:0:0:0:0:
475,192,63300,128,0,63450:0:0:0:0:
36,192,63300,1,0,0:0:0:0:
109,192,63300,1,0,0:0:0:0:
182,192,63300,1,0,0:0:0:0:
256,192,63450,1,0,0:0:0:0:
109,192,63600,128,0,63750:0:0:0:0:
182,192,63600,128,0,63750:0:0:0:0:
329,192,63600,1,0,0:0:0:0:
475,192,63600,1,0,0:0:0:0:
402,192,63750,1,0,0:0:0:0:
109,192,63900,128,0,64050:0:0:0:0:
182,192,63900,128,0,64050:0:0:0:0:
256,192,63900,1,0,0:0:0:0:
329,192,63900,1,0,0:0:0:0:
475,192,63900,1,0,0:0:0:0:
36,192,64050,1,0,0:0:0:0:
329,192,64200,128,0,64350:0:0:0:0:
402,192,64200,128,0,64350:0:0:0:0:
256,192,64200,1,0,0:0:0:0:
109,192,64200,1,0,0:0:0:0:
36,192,64350,1,0,0:0:0:0:
402,192,64500,128,0,64650:0:0:0:0:
329,192,64500,128,0,64650:0:0:0:0:
109,192,64500,1,0,0:0:0:0:
182,192,64500,1,0,0:0:0:0:
256,192,64500,1,0,0:0:0:0:
475,192,64650,1,0,0:0:0:0:
256,192,64800,128,0,64950:0:0:0:0:
36,192,64800,128,0,64950:0:0:0:0:
402,192,64800,1,0,0:0:0:0:
182,192,64800,1,0,0:0:0:0:
329,192,64950,1,0,0:0:0:0:
36,192,65100,128,0,65250:0:0:0:0:
256,192,65100,128,0,65250:0:0:0:0:
475,192,65100,1,0,0:0:0:0:
402,192,65100,1,0,0:0:0:0:
182,192,65100,1,0,0:0:0:0:
329,192,65250,1,0,0:0:0:0:
182,192,65400,128,0,65550:0:0:0:0:
475,192,65400,128,0,65550:0:0:0:0:
256,192,65400,1,0,0:0:0:0:
109,192,65400,1,0,0:0:0:0:
36,192,65550,1,0,0:0:0:0:
475,192,65700,128,0,65850:0:0:0:0:
182,192,65700,128,0,65850:0:0:0:0:
109,192,65700,1,0,0:0:0:0:
256,192,65700,1,0,0:0:0:0:
402,192,65700,1,0,0:0:0:0:
329,192,65850,1,0,0:0:0:0:
36,192,66000,128,0,66075:0:0:0:0:
329,192,66000,128,0,66075:0:0:0:0:
182,192,66000,1,0,0:0:0:0:
402,192,66000,1,0,0:0:0:0:
256,192,66150,1,0,0:0:0:0:
109,192,66300,128,0,66375:0:0:0:0:
402,192,66300,128,0,66375:0:0:0:0:
182,192,66300,1,0,0:0:0:0:
329,192,66300,1,0,0:0:0:0:
475,192,66300,1,0,0:0:0:0:
256,192,66450,1,0,0:0:0:0:
182,192,66600,128,0,66675:0:0:0:0:
475,192,66600,128,0,66675:0:0:0:0:
36,192,66600,1,0,0:0:0:0:
329,192,66600,1,0,0:0:0:0:
256,192,66750,1,0,0:0:0:0:
402,192,66900,128,0,67050:0:0:0:0:
109,192,66900,128,0,67050:0:0:0:0:
182,192,66900,1,0,0:0:0:0:
36,192,66900,1,0,0:0:0:0:
329,192,66900,1,0,0:0:0:0:
36,192,67200,128,0,67500:0:0:0:0:
475,192,67200,128,0,67500:0:0:0:0:
182,192,67200,1,0,0:0:0:0:
329,192,67200,1,0,0:0:0:0:
256,192,67200,1,0,0:0:0:0:
109,192,67650,1,0,0:0:0:0:
329,192,67650,1,0,0:0:0:0:
182,192,67725,1,0,0:0:0:0:
402,192,67725,1,0,0:0:0:0:
36,192,67800,128,0,68100:0:0:0:0:
256,192,67800,1,0,0:0:0:0:
475,192,67800,1,0,0:0:0:0:
329,192,67800,1,0,0:0:0:0:
329,192,67950,1,0,0:0:0:0:
402,192,67950,1,0,0:0:0:0:
182,192,67950,1,0,0:0:0:0:
256,192,68250,1,0,0:0:0:0:
402,192,68250,1,0,0:0:0:0:
475,192,68250,1,0,0:0:0:0:
36,192,68400,128,0,68700:0:0:0:0:
475,192,68550,1,0,0:0:0:0:
256,192,68550,1,0,0:0:0:0:
402,192,68625,1,0,0:0:0:0:
182,192,68625,1,0,0:0:0:0:
329,192,68700,1,0,0:0:0:0:
256,192,68700,1,0,0:0:0:0:
109,192,68700,1,0,0:0:0:0:
402,192,68775,1,0,0:0:0:0:
182,192,68775,1,0,0:0:0:0:
329,192,68850,1,0,0:0:0:0:
109,192,68850,1,0,0:0:0:0:
256,192,68925,1,0,0:0:0:0:
36,192,68925,1,0,0:0:0:0:
182,192,69000,128,0,69300:0:0:0:0:
402,192,69000,128,0,69300:0:0:0:0:
475,192,69000,128,0,69600:0:0:0:0:
109,192,69000,1,0,0:0:0:0:
329,192,69000,1,0,0:0:0:0:
109,192,69600,128,0,69900:0:0:0:0:
402,192,69600,128,0,69900:0:0:0:0:
182,192,69600,1,0,0:0:0:0:
329,192,69600,1,0,0:0:0:0:
256,192,69600,1,0,0:0:0:0:
182,192,70050,1,0,0:0:0:0:
36,192,70050,1,0,0:0:0:0:
256,192,70125,1,0,0:0:0:0:
109,192,70125,1,0,0:0:0:0:
329,192,70200,1,0,0:0:0:0:
402,192,70200,1,0,0:0:0:0:
475,192,70200,1,0,0:0:0:0:
182,192,70200,1,0,0:0:0:0:
36,192,70350,1,0,0:0:0:0:
109,192,70350,1,0,0:0:0:0:
256,192,70350,1,0,0:0:0:0:
256,192,70650,1,0,0:0:0:0:
329,192,70650,1,0,0:0:0:0:
475,192,70650,1,0,0:0:0:0:
402,192,70950,1,0,0:0:0:0:
109,192,70950,1,0,0:0:0:0:
329,192,71025,1,0,0:0:0:0:
36,192,71025,1,0,0:0:0:0:
182,192,71100,1,0,0:0:0:0:
475,192,71100,1,0,0:0:0:0:
109,192,71175,1,0,0:0:0:0:
402,192,71175,1,0,0:0:0:0:
329,192,71250,1,0,0:0:0:0:
36,192,71250,1,0,0:0:0:0:
109,192,71325,1,0,0:0:0:0:
402,192,71325,1,0,0:0:0:0:
256,192,71400,1,0,0:0:0:0:
36,192,71400,1,0,0:0:0:0:
475,192,71400,1,0,0:0:0:0:
329,192,71475,1,0,0:0:0:0:
109,192,71475,1,0,0:0:0:0:
182,192,71550,1,0,0:0:0:0:
402,192,71550,1,0,0:0:0:0:
256,192,71625,1,0,0:0:0:0:
475,192,71625,1,0,0:0:0:0:
36,192,71700,1,0,0:0:0:0:
182,192,71700,1,0,0:0:0:0:
109,192,71775,1,0,0:0:0:0:
256,192,71775,1,0,0:0:0:0:
182,192,71850,1,0,0:0:0:0:
329,192,71850,1,0,0:0:0:0:
402,192,71925,1,0,0:0:0:0:
256,192,71925,1,0,0:0:0:0:
36,192,72000,128,0,72675:0:0:0:0:
475,192,72000,128,0,72675:0:0:0:0:
329,192,72000,1,0,0:0:0:0:
109,192,72000,128,0,72675:0:0:0:0:
182,192,72150,128,0,72675:0:0:0:0:
329,192,72300,128,0,72675:0:0:0:0:
402,192,72450,128,0,72675:0:0:0:0:
109,192,72750,1,0,0:0:0:0:
182,192,72750,1,0,0:0:0:0:
329,192,72750,1,0,0:0:0:0:
402,192,72750,1,0,0:0:0:0:
475,192,72750,1,0,0:0:0:0:
36,192,72750,1,0,0:0:0:0:
109,192,73050,128,0,73875:0:0:0:0:
402,192,73050,128,0,73875:0:0:0:0:
475,192,73050,1,0,0:0:0:0:
36,192,73050,1,0,0:0:0:0:
256,192,73050,1,0,0:0:0:0:
182,192,73350,128,0,73875:0:0:0:0:
256,192,73500,128,0,73875:0:0:0:0:
329,192,73650,128,0,73875:0:0:0:0:
109,192,73950,1,0,0:0:0:0:
182,192,73950,1,0,0:0:0:0:
256,192,73950,1,0,0:0:0:0:
402,192,73950,1,0,0:0:0:0:
329,192,73950,1,0,0:0:0:0:
182,192,74250,128,0,75075:0:0:0:0:
329,192,74250,128,0,75075:0:0:0:0:
475,192,74250,1,0,0:0:0:0:
36,192,74250,1,0,0:0:0:0:
402,192,74250,1,0,0:0:0:0:
36,192,74550,128,0,75075:0:0:0:0:
256,192,74700,128,0,75075:0:0:0:0:
475,192,74850,128,0,75075:0:0:0:0:
256,192,75150,1,0,0:0:0:0:
475,192,75150,1,0,0:0:0:0:
36,192,75150,1,0,0:0:0:0:
402,192,75150,128,0,75525:0:0:0:0:
109,192,75150,128,0,75525:0:0:0:0:
329,192,75600,1,0,0:0:0:0:
182,192,75600,1,0,0:0:0:0:
402,192,75600,1,0,0:0:0:0:
109,192,75600,1,0,0:0:0:0:
256,192,75750,1,0,0:0:0:0:
402,192,75750,1,0,0:0:0:0:
109,192,75750,1,0,0:0:0:0:
36,192,75900,1,0,0:0:0:0:
475,192,75900,1,0,0:0:0:0:
182,192,76050,1,0,0:0:0:0:
256,192,76050,1,0,0:0:0:0:
329,192,76050,1,0,0:0:0:0:
36,192,76350,128,0,76500:0:0:0:0:
109,192,76350,128,0,76500:0:0:0:0:
402,192,76350,128,0,76500:0:0:0:0:
475,192,76350,128,0,76500:0:0:0:0:
182,192,76650,128,0,76950:0:0:0:0:
329,192,76650,128,0,77100:0:0:0:0:
402,192,76650,1,0,0:0:0:0:
109,192,76650,1,0,0:0:0:0:
256,192,76650,1,0,0:0:0:0:
36,192,76950,1,0,0:0:0:0:
109,192,76950,1,0,0:0:0:0:
402,192,77100,1,0,0:0:0:0:
475,192,77100,1,0,0:0:0:0:
256,192,77100,1,0,0:0:0:0:
182,192,77100,1,0,0:0:0:0:
36,192,77175,1,0,0:0:0:0:
109,192,77250,1,0,0:0:0:0:
329,192,77250,1,0,0:0:0:0:
475,192,77250,1,0,0:0:0:0:
182,192,77325,1,0,0:0:0:0:
402,192,77400,1,0,0:0:0:0:
36,192,77400,1,0,0:0:0:0:
109,192,77400,1,0,0:0:0:0:
329,192,77475,1,0,0:0:0:0:
256,192,77550,1,0,0:0:0:0:
402,192,77550,1,0,0:0:0:0:
36,192,77550,1,0,0:0:0:0:
109,192,77625,1,0,0:0:0:0:
182,192,77700,1,0,0:0:0:0:
329,192,77700,1,0,0:0:0:0:
475,192,77700,1,0,0:0:0:0:
402,192,77700,1,0,0:0:0:0:
256,192,77775,1,0,0:0:0:0:
475,192,77850,1,0,0:0:0:0:
36,192,77850,1,0,0:0:0:0:
182,192,77850,1,0,0:0:0:0:
402,192,77925,1,0,0:0:0:0:
329,192,78000,1,0,0:0:0:0:
475,192,78000,1,0,0:0:0:0:
109,192,78000,1,0,0:0:0:0:
182,192,78075,1,0,0:0:0:0:
109,192,78150,1,0,0:0:0:0:
256,192,78150,1,0,0:0:0:0:
402,192,78150,1,0,0:0:0:0:
36,192,78225,1,0,0:0:0:0:
256,192,78300,1,0,0:0:0:0:
402,192,78300,1,0,0:0:0:0:
475,192,78300,1,0,0:0:0:0:
182,192,78300,1,0,0:0:0:0:
329,192,78375,1,0,0:0:0:0:
402,192,78450,1,0,0:0:0:0:
36,192,78450,1,0,0:0:0:0:
256,192,78450,1,0,0:0:0:0:
182,192,78525,1,0,0:0:0:0:
256,192,78600,1,0,0:0:0:0:
36,192,78600,1,0,0:0:0:0:
109,192,78600,1,0,0:0:0:0:
329,192,78675,1,0,0:0:0:0:
182,192,78750,1,0,0:0:0:0:
475,192,78750,1,0,0:0:0:0:
256,192,78750,1,0,0:0:0:0:
109,192,78825,1,0,0:0:0:0:
36,192,78900,1,0,0:0:0:0:
329,192,78900,1,0,0:0:0:0:
256,192,78900,1,0,0:0:0:0:
182,192,78900,1,0,0:0:0:0:
475,192,78975,1,0,0:0:0:0:
402,192,79050,1,0,0:0:0:0:
109,192,79050,1,0,0:0:0:0:
256,192,79050,1,0,0:0:0:0:
329,192,79125,1,0,0:0:0:0:
109,192,79200,1,0,0:0:0:0:
402,192,79200,1,0,0:0:0:0:
475,192,79200,1,0,0:0:0:0:
182,192,79275,1,0,0:0:0:0:
256,192,79350,1,0,0:0:0:0:
36,192,79350,1,0,0:0:0:0:
475,192,79350,1,0,0:0:0:0:
329,192,79425,1,0,0:0:0:0:
475,192,79500,128,0,79800:0:0:0:0:
256,192,79500,1,0,0:0:0:0:
36,192,79500,1,0,0:0:0:0:
109,192,79500,1,0,0:0:0:0:
402,192,79500,1,0,0:0:0:0:
182,192,79575,1,0,0:0:0:0:
36,192,79650,1,0,0:0:0:0:
402,192,79650,1,0,0:0:0:0:
256,192,79650,1,0,0:0:0:0:
109,192,79725,1,0,0:0:0:0:
182,192,79800,1,0,0:0:0:0:
329,192,79800,1,0,0:0:0:0:
256,192,79800,1,0,0:0:0:0:
402,192,79875,1,0,0:0:0:0:
329,192,79950,1,0,0:0:0:0:
182,192,79950,1,0,0:0:0:0:
36,192,79950,1,0,0:0:0:0:
256,192,80025,1,0,0:0:0:0:
36,192,80100,128,0,80400:0:0:0:0:
475,192,80100,1,0,0:0:0:0:
109,192,80100,1,0,0:0:0:0:
182,192,80100,1,0,0:0:0:0:
329,192,80100,1,0,0:0:0:0:
402,192,80175,1,0,0:0:0:0:
329,192,80250,1,0,0:0:0:0:
109,192,80250,1,0,0:0:0:0:
475,192,80250,1,0,0:0:0:0:
182,192,80325,1,0,0:0:0:0:
402,192,80400,128,0,80700:0:0:0:0:
256,192,80400,1,0,0:0:0:0:
109,192,80400,1,0,0:0:0:0:
329,192,80550,128,0,80850:0:0:0:0:
182,192,80550,1,0,0:0:0:0:
36,192,80550,1,0,0:0:0:0:
475,192,80700,128,0,81000:0:0:0:0:
109,192,80700,1,0,0:0:0:0:
182,192,80700,1,0,0:0:0:0:
256,192,80700,1,0,0:0:0:0:
402,192,80850,128,0,81150:0:0:0:0:
36,192,80850,1,0,0:0:0:0:
182,192,80850,1,0,0:0:0:0:
109,192,81000,128,0,81300:0:0:0:0:
256,192,81000,1,0,0:0:0:0:
329,192,81000,1,0,0:0:0:0:
182,192,81150,128,0,81450:0:0:0:0:
329,192,81150,1,0,0:0:0:0:
475,192,81150,1,0,0:0:0:0:
36,192,81300,128,0,81600:0:0:0:0:
256,192,81300,1,0,0:0:0:0:
329,192,81300,1,0,0:0:0:0:
402,192,81300,1,0,0:0:0:0:
109,192,81450,128,0,81600:0:0:0:0:
475,192,81450,1,0,0:0:0:0:
329,192,81450,1,0,0:0:0:0:
256,192,81600,1,0,0:0:0:0:
402,192,81600,1,0,0:0:0:0:
475,192,81600,1,0,0:0:0:0:
329,192,81675,1,0,0:0:0:0:
402,192,81750,1,0,0:0:0:0:
36,192,81750,1,0,0:0:0:0:
256,192,81750,1,0,0:0:0:0:
182,192,81825,1,0,0:0:0:0:
256,192,81900,1,0,0:0:0:0:
36,192,81900,1,0,0:0:0:0:
109,192,81900,1,0,0:0:0:0:
475,192,81900,1,0,0:0:0:0:
329,192,81975,1,0,0:0:0:0:
182,192,82050,1,0,0:0:0:0:
402,192,82050,1,0,0:0:0:0:
36,192,82050,1,0,0:0:0:0:
109,192,82125,1,0,0:0:0:0:
36,192,82200,1,0,0:0:0:0:
256,192,82200,1,0,0:0:0:0:
475,192,82200,1,0,0:0:0:0:
329,192,82275,1,0,0:0:0:0:
256,192,82350,1,0,0:0:0:0:
109,192,82350,1,0,0:0:0:0:
402,192,82350,1,0,0:0:0:0:
182,192,82425,1,0,0:0:0:0:
329,192,82500,1,0,0:0:0:0:
36,192,82500,1,0,0:0:0:0:
109,192,82500,1,0,0:0:0:0:
256,192,82500,1,0,0:0:0:0:
402,192,82575,1,0,0:0:0:0:
475,192,82650,1,0,0:0:0:0:
256,192,82650,1,0,0:0:0:0:
36,192,82650,1,0,0:0:0:0:
109,192,82725,1,0,0:0:0:0:
182,192,82800,1,0,0:0:0:0:
329,192,82800,1,0,0:0:0:0:
475,192,82800,1,0,0:0:0:0:
256,192,82875,1,0,0:0:0:0:
402,192,82950,1,0,0:0:0:0:
36,192,82950,1,0,0:0:0:0:
182,192,82950,1,0,0:0:0:0:
329,192,83025,1,0,0:0:0:0:
256,192,83100,1,0,0:0:0:0:
402,192,83100,1,0,0:0:0:0:
475,192,83100,1,0,0:0:0:0:
182,192,83100,1,0,0:0:0:0:
36,192,83175,1,0,0:0:0:0:
109,192,83250,1,0,0:0:0:0:
329,192,83250,1,0,0:0:0:0:
475,192,83250,1,0,0:0:0:0:
182,192,83325,1,0,0:0:0:0:
475,192,83400,1,0,0:0:0:0:
256,192,83400,1,0,0:0:0:0:
36,192,83400,1,0,0:0:0:0:
402,192,83475,1,0,0:0:0:0:
329,192,83550,1,0,0:0:0:0:
36,192,83550,1,0,0:0:0:0:
475,192,83550,1,0,0:0:0:0:
182,192,83625,1,0,0:0:0:0:
109,192,83700,1,0,0:0:0:0:
256,192,83700,1,0,0:0:0:0:
475,192,83700,1,0,0:0:0:0:
329,192,83700,1,0,0:0:0:0:
36,192,83775,1,0,0:0:0:0:
402,192,83850,1,0,0:0:0:0:
256,192,83850,1,0,0:0:0:0:
109,192,83850,1,0,0:0:0:0:
329,192,83925,1,0,0:0:0:0:
256,192,84000,1,0,0:0:0:0:
475,192,84000,1,0,0:0:0:0:
36,192,84000,1,0,0:0:0:0:
109,192,84075,1,0,0:0:0:0:
182,192,84150,1,0,0:0:0:0:
329,192,84150,1,0,0:0:0:0:
475,192,84150,1,0,0:0:0:0:
256,192,84225,1,0,0:0:0:0:
36,192,84300,1,0,0:0:0:0:
329,192,84300,1,0,0:0:0:0:
402,192,84300,1,0,0:0:0:0:
475,192,84300,1,0,0:0:0:0:
109,192,84375,1,0,0:0:0:0:
182,192,84450,1,0,0:0:0:0:
256,192,84450,1,0,0:0:0:0:
475,192,84450,1,0,0:0:0:0:
402,192,84525,1,0,0:0:0:0:
329,192,84600,1,0,0:0:0:0:
36,192,84600,1,0,0:0:0:0:
109,192,84600,1,0,0:0:0:0:
256,192,84675,1,0,0:0:0:0:
475,192,84750,1,0,0:0:0:0:
182,192,84750,1,0,0:0:0:0:
36,192,84750,1,0,0:0:0:0:
402,192,84825,1,0,0:0:0:0:
329,192,84900,1,0,0:0:0:0:
109,192,84900,1,0,0:0:0:0:
182,192,84900,1,0,0:0:0:0:
475,192,84900,1,0,0:0:0:0:
36,192,84975,1,0,0:0:0:0:
109,192,85050,1,0,0:0:0:0:
256,192,85050,1,0,0:0:0:0:
402,192,85050,1,0,0:0:0:0:
182,192,85125,1,0,0:0:0:0:
256,192,85200,1,0,0:0:0:0:
475,192,85200,1,0,0:0:0:0:
36,192,85200,1,0,0:0:0:0:
329,192,85200,1,0,0:0:0:0:
182,192,85275,1,0,0:0:0:0:
402,192,85275,1,0,0:0:0:0:
329,192,85350,1,0,0:0:0:0:
109,192,85350,1,0,0:0:0:0:
475,192,85350,1,0,0:0:0:0:
36,192,85425,1,0,0:0:0:0:
256,192,85425,1,0,0:0:0:0:
109,192,85500,1,0,0:0:0:0:
329,192,85500,1,0,0:0:0:0:
329,192,85650,1,0,0:0:0:0:
475,192,85650,1,0,0:0:0:0:
36,192,85650,1,0,0:0:0:0:
109,192,85650,1,0,0:0:0:0:
402,192,85725,1,0,0:0:0:0:
256,192,85725,1,0,0:0:0:0:
329,192,85800,1,0,0:0:0:0:
182,192,85800,1,0,0:0:0:0:
256,192,85875,1,0,0:0:0:0:
109,192,85875,1,0,0:0:0:0:
182,192,85950,1,0,0:0:0:0:
36,192,85950,1,0,0:0:0:0:
402,192,86025,1,0,0:0:0:0:
256,192,86025,1,0,0:0:0:0:
329,192,86100,1,0,0:0:0:0:
182,192,86100,1,0,0:0:0:0:
256,192,86175,1,0,0:0:0:0:
109,192,86175,1,0,0:0:0:0:
36,192,86250,1,0,0:0:0:0:
329,192,86250,128,0,86550:0:0:0:0:
182,192,86250,128,0,86700:0:0:0:0:
402,192,86250,1,0,0:0:0:0:
475,192,86250,1,0,0:0:0:0:
402,192,86550,1,0,0:0:0:0:
475,192,86550,1,0,0:0:0:0:
36,192,86700,1,0,0:0:0:0:
109,192,86700,1,0,0:0:0:0:
329,192,86700,1,0,0:0:0:0:
256,192,86700,1,0,0:0:0:0:
475,192,86775,1,0,0:0:0:0:
402,192,86850,1,0,0:0:0:0:
182,192,86850,1,0,0:0:0:0:
36,192,86850,1,0,0:0:0:0:
329,192,86925,1,0,0:0:0:0:
109,192,87000,1,0,0:0:0:0:
475,192,87000,1,0,0:0:0:0:
402,192,87000,1,0,0:0:0:0:
182,192,87075,1,0,0:0:0:0:
256,192,87150,1,0,0:0:0:0:
109,192,87150,1,0,0:0:0:0:
475,192,87150,1,0,0:0:0:0:
402,192,87225,1,0,0:0:0:0:
329,192,87300,1,0,0:0:0:0:
182,192,87300,1,0,0:0:0:0:
36,192,87300,1,0,0:0:0:0:
109,192,87300,1,0,0:0:0:0:
256,192,87375,1,0,0:0:0:0:
36,192,87450,1,0,0:0:0:0:
475,192,87450,1,0,0:0:0:0:
329,192,87450,1,0,0:0:0:0:
109,192,87525,1,0,0:0:0:0:
182,192,87600,1,0,0:0:0:0:
36,192,87600,1,0,0:0:0:0:
402,192,87600,1,0,0:0:0:0:
329,192,87675,1,0,0:0:0:0:
402,192,87750,1,0,0:0:0:0:
256,192,87750,1,0,0:0:0:0:
109,192,87750,1,0,0:0:0:0:
475,192,87825,1,0,0:0:0:0:
256,192,87900,1,0,0:0:0:0:
109,192,87900,1,0,0:0:0:0:
36,192,87900,1,0,0:0:0:0:
329,192,87900,1,0,0:0:0:0:
182,192,87975,1,0,0:0:0:0:
109,192,88050,1,0,0:0:0:0:
475,192,88050,1,0,0:0:0:0:
256,192,88050,1,0,0:0:0:0:
329,192,88125,1,0,0:0:0:0:
256,192,88200,1,0,0:0:0:0:
475,192,88200,1,0,0:0:0:0:
402,192,88200,1,0,0:0:0:0:
182,192,88275,1,0,0:0:0:0:
329,192,88350,1,0,0:0:0:0:
36,192,88350,1,0,0:0:0:0:
256,192,88350,1,0,0:0:0:0:
402,192,88425,1,0,0:0:0:0:
475,192,88500,1,0,0:0:0:0:
182,192,88500,1,0,0:0:0:0:
256,192,88500,1,0,0:0:0:0:
329,192,88500,1,0,0:0:0:0:
36,192,88575,1,0,0:0:0:0:
109,192,88650,1,0,0:0:0:0:
402,192,88650,1,0,0:0:0:0:
256,192,88650,1,0,0:0:0:0:
182,192,88725,1,0,0:0:0:0:
109,192,88800,1,0,0:0:0:0:
36,192,88800,1,0,0:0:0:0:
256,192,88800,1,0,0:0:0:0:
402,192,88800,1,0,0:0:0:0:
329,192,88950,1,0,0:0:0:0:
36,192,88950,1,0,0:0:0:0:
182,192,88950,1,0,0:0:0:0:
36,192,89100,128,0,89325:0:0:0:0:
109,192,89100,128,0,89325:0:0:0:0:
329,192,89100,128,0,89325:0:0:0:0:
256,192,89100,128,0,89325:0:0:0:0:
109,192,89400,1,0,0:0:0:0:
182,192,89400,1,0,0:0:0:0:
329,192,89400,1,0,0:0:0:0:
182,192,89550,1,0,0:0:0:0:
256,192,89550,1,0,0:0:0:0:
402,192,89550,1,0,0:0:0:0:
475,192,89700,128,0,89925:0:0:0:0:
402,192,89700,128,0,89925:0:0:0:0:
256,192,89700,128,0,89925:0:0:0:0:
182,192,89700,128,0,89925:0:0:0:0:
182,192,90000,128,0,90150:0:0:0:0:
109,192,90000,128,0,90300:0:0:0:0:
36,192,90000,1,0,0:0:0:0:
402,192,90000,1,0,0:0:0:0:
329,192,90000,1,0,0:0:0:0:
329,192,90150,128,0,90300:0:0:0:0:
475,192,90150,128,0,90450:0:0:0:0:
256,192,90150,1,0,0:0:0:0:
402,192,90150,1,0,0:0:0:0:
182,192,90300,128,0,90600:0:0:0:0:
36,192,90300,128,0,90450:0:0:0:0:
402,192,90300,1,0,0:0:0:0:
329,192,90450,128,0,90600:0:0:0:0:
402,192,90450,128,0,90750:0:0:0:0:
256,192,90450,1,0,0:0:0:0:
109,192,90450,1,0,0:0:0:0:
36,192,90600,128,0,90750:0:0:0:0:
109,192,90600,128,0,90900:0:0:0:0:
475,192,90600,1,0,0:0:0:0:
329,192,90750,128,0,91050:0:0:0:0:
475,192,90750,128,0,90900:0:0:0:0:
182,192,90750,1,0,0:0:0:0:
256,192,90750,1,0,0:0:0:0:
182,192,90900,128,0,91050:0:0:0:0:
36,192,90900,128,0,91200:0:0:0:0:
402,192,90900,1,0,0:0:0:0:
402,192,91050,128,0,91200:0:0:0:0:
475,192,91050,128,0,91200:0:0:0:0:
256,192,91050,1,0,0:0:0:0:
109,192,91050,1,0,0:0:0:0:
256,192,91200,1,0,0:0:0:0:
256,192,91500,1,0,0:0:0:0:
475,192,91500,1,0,0:0:0:0:
402,192,91500,1,0,0:0:0:0:
36,192,91500,1,0,0:0:0:0:
182,192,91575,1,0,0:0:0:0:
329,192,91650,1,0,0:0:0:0:
109,192,91650,1,0,0:0:0:0:
475,192,91650,1,0,0:0:0:0:
402,192,91725,1,0,0:0:0:0:
475,192,91800,1,0,0:0:0:0:
256,192,91800,1,0,0:0:0:0:
36,192,91800,1,0,0:0:0:0:
182,192,91875,1,0,0:0:0:0:
256,192,91950,1,0,0:0:0:0:
402,192,91950,1,0,0:0:0:0:
109,192,91950,1,0,0:0:0:0:
329,192,92025,1,0,0:0:0:0:
182,192,92100,1,0,0:0:0:0:
475,192,92100,1,0,0:0:0:0:
402,192,92100,1,0,0:0:0:0:
256,192,92100,1,0,0:0:0:0:
109,192,92175,1,0,0:0:0:0:
36,192,92250,1,0,0:0:0:0:
256,192,92250,1,0,0:0:0:0:
475,192,92250,1,0,0:0:0:0:
402,192,92325,1,0,0:0:0:0:
329,192,92400,1,0,0:0:0:0:
182,192,92400,1,0,0:0:0:0:
36,192,92400,1,0,0:0:0:0:
256,192,92475,1,0,0:0:0:0:
109,192,92550,1,0,0:0:0:0:
475,192,92550,1,0,0:0:0:0:
329,192,92550,1,0,0:0:0:0:
182,192,92625,1,0,0:0:0:0:
256,192,92700,1,0,0:0:0:0:
109,192,92700,1,0,0:0:0:0:
36,192,92700,1,0,0:0:0:0:
329,192,92700,1,0,0:0:0:0:
475,192,92775,1,0,0:0:0:0:
402,192,92850,1,0,0:0:0:0:
182,192,92850,1,0,0:0:0:0:
36,192,92850,1,0,0:0:0:0:
329,192,92925,1,0,0:0:0:0:
36,192,93000,1,0,0:0:0:0:
256,192,93000,1,0,0:0:0:0:
402,192,93000,1,0,0:0:0:0:
475,192,93000,1,0,0:0:0:0:
109,192,93075,1,0,0:0:0:0:
329,192,93075,1,0,0:0:0:0:
182,192,93150,1,0,0:0:0:0:
402,192,93150,1,0,0:0:0:0:
36,192,93150,1,0,0:0:0:0:
256,192,93225,1,0,0:0:0:0:
475,192,93225,1,0,0:0:0:0:
402,192,93300,1,0,0:0:0:0:
182,192,93300,1,0,0:0:0:0:
36,192,93300,1,0,0:0:0:0:
109,192,93375,1,0,0:0:0:0:
329,192,93375,1,0,0:0:0:0:
256,192,93450,1,0,0:0:0:0:
36,192,93450,1,0,0:0:0:0:
475,192,93450,1,0,0:0:0:0:
109,192,93525,1,0,0:0:0:0:
329,192,93525,1,0,0:0:0:0:
402,192,93600,128,0,93750:0:0:0:0:
36,192,93600,1,0,0:0:0:0:
182,192,93600,1,0,0:0:0:0:
256,192,93600,1,0,0:0:0:0:
475,192,93750,128,0,93900:0:0:0:0:
109,192,93750,1,0,0:0:0:0:
329,192,93900,128,0,94050:0:0:0:0:
36,192,93900,1,0,0:0:0:0:
182,192,93900,1,0,0:0:0:0:
256,192,94050,1,0,0:0:0:0:
36,192,94200,128,0,94350:0:0:0:0:
109,192,94350,128,0,94500:0:0:0:0:
402,192,94350,1,0,0:0:0:0:
475,192,94350,1,0,0:0:0:0:
182,192,94500,128,0,94650:0:0:0:0:
256,192,94500,1,0,0:0:0:0:
475,192,94500,1,0,0:0:0:0:
329,192,94500,1,0,0:0:0:0:
402,192,94650,1,0,0:0:0:0:
329,192,94800,128,0,94950:0:0:0:0:
36,192,94800,1,0,0:0:0:0:
109,192,94800,1,0,0:0:0:0:
402,192,94950,128,0,95100:0:0:0:0:
182,192,94950,1,0,0:0:0:0:
475,192,95100,128,0,95250:0:0:0:0:
109,192,95100,1,0,0:0:0:0:
36,192,95100,1,0,0:0:0:0:
256,192,95100,1,0,0:0:0:0:
402,192,95250,128,0,95550:0:0:0:0:
329,192,95250,1,0,0:0:0:0:
182,192,95400,128,0,95550:0:0:0:0:
109,192,95550,128,0,95700:0:0:0:0:
329,192,95550,1,0,0:0:0:0:
256,192,95550,1,0,0:0:0:0:
36,192,95700,128,0,95850:0:0:0:0:
329,192,95700,1,0,0:0:0:0:
402,192,95700,1,0,0:0:0:0:
475,192,95700,1,0,0:0:0:0:
109,192,95850,128,0,96150:0:0:0:0:
256,192,95850,1,0,0:0:0:0:
475,192,96000,1,0,0:0:0:0:
182,192,96000,1,0,0:0:0:0:
256,192,96000,1,0,0:0:0:0:
329,192,96150,1,0,0:0:0:0:
36,192,96150,1,0,0:0:0:0:
402,192,96300,1,0,0:0:0:0:
109,192,96300,1,0,0:0:0:0:
182,192,96300,1,0,0:0:0:0:
256,192,96300,1,0,0:0:0:0:
329,192,96450,1,0,0:0:0:0:
36,192,96600,1,0,0:0:0:0:
182,192,96750,1,0,0:0:0:0:
402,192,96750,1,0,0:0:0:0:
475,192,96750,1,0,0:0:0:0:
109,192,96900,1,0,0:0:0:0:
256,192,96900,1,0,0:0:0:0:
329,192,96900,1,0,0:0:0:0:
475,192,96900,1,0,0:0:0:0:
182,192,97050,1,0,0:0:0:0:
402,192,97200,1,0,0:0:0:0:
256,192,97200,1,0,0:0:0:0:
36,192,97200,1,0,0:0:0:0:
109,192,97350,1,0,0:0:0:0:
475,192,97350,1,0,0:0:0:0:
329,192,97500,1,0,0:0:0:0:
256,192,97500,1,0,0:0:0:0:
36,192,97500,1,0,0:0:0:0:
402,192,97500,1,0,0:0:0:0:
182,192,97650,1,0,0:0:0:0:
36,192,97800,1,0,0:0:0:0:
109,192,97800,1,0,0:0:0:0:
402,192,97800,128,0,97875:0:0:0:0:
475,192,97800,128,0,97875:0:0:0:0:
329,192,97800,1,0,0:0:0:0:
402,192,98100,1,0,0:0:0:0:
475,192,98100,1,0,0:0:0:0:
36,192,98100,128,0,98175:0:0:0:0:
109,192,98100,128,0,98175:0:0:0:0:
182,192,98100,1,0,0:0:0:0:
182,192,98400,1,0,0:0:0:0:
256,192,98400,1,0,0:0:0:0:
329,192,98400,1,0,0:0:0:0:
402,192,98400,1,0,0:0:0:0:
256,192,98550,128,0,98700:0:0:0:0:
329,192,98550,128,0,98700:0:0:0:0:
402,192,98550,128,0,98700:0:0:0:0:
475,192,98550,128,0,98700:0:0:0:0:
109,192,98850,1,0,0:0:0:0:
182,192,98850,1,0,0:0:0:0:
256,192,98850,1,0,0:0:0:0:
329,192,98850,1,0,0:0:0:0:
256,192,99000,128,0,99150:0:0:0:0:
182,192,99000,128,0,99150:0:0:0:0:
109,192,99000,128,0,99150:0:0:0:0:
36,192,99000,128,0,99150:0:0:0:0:
109,192,99300,1,0,0:0:0:0:
182,192,99300,1,0,0:0:0:0:
329,192,99300,1,0,0:0:0:0:
402,192,99300,1,0,0:0:0:0:
182,192,99450,128,0,99600:0:0:0:0:
256,192,99450,128,0,99600:0:0:0:0:
402,192,99450,128,0,99600:0:0:0:0:
475,192,99450,128,0,99600:0:0:0:0:
182,192,99750,1,0,0:0:0:0:
109,192,99750,1,0,0:0:0:0:
329,192,99750,1,0,0:0:0:0:
402,192,99750,1,0,0:0:0:0:
36,192,99900,128,0,100050:0:0:0:0:
109,192,99900,128,0,100050:0:0:0:0:
256,192,99900,128,0,100050:0:0:0:0:
329,192,99900,128,0,100050:0:0:0:0:
182,192,100200,1,0,0:0:0:0:
109,192,100200,1,0,0:0:0:0:
329,192,100200,1,0,0:0:0:0:
402,192,100200,1,0,0:0:0:0:
36,192,100350,128,0,100500:0:0:0:0:
329,192,100350,128,0,100500:0:0:0:0:
475,192,100350,128,0,100500:0:0:0:0:
182,192,100350,128,0,100500:0:0:0:0:
36,192,100650,128,0,101625:0:0:0:0:
109,192,100650,128,0,101325:0:0:0:0:
402,192,100650,128,0,101475:0:0:0:0:
475,192,100650,128,0,101775:0:0:0:0:
256,192,100950,128,0,101025:0:0:0:0:
182,192,101100,128,0,101175:0:0:0:0:
329,192,101250,128,0,101325:0:0:0:0:
109,192,101400,128,0,101475:0:0:0:0:
402,192,101550,128,0,101625:0:0:0:0:
36,192,101700,128,0,101775:0:0:0:0:
475,192,101850,128,0,101925:0:0:0:0:
256,192,102000,1,0,0:0:0:0:
182,192,102000,1,0,0:0:0:0:
329,192,102300,128,0,102450:0:0:0:0:
402,192,102300,128,0,102450:0:0:0:0:
109,192,102300,1,0,0:0:0:0:
182,192,102300,1,0,0:0:0:0:
36,192,102450,1,0,0:0:0:0:
256,192,102600,1,0,0:0:0:0:
329,192,102675,1,0,0:0:0:0:
402,192,102750,1,0,0:0:0:0:
475,192,102825,1,0,0:0:0:0:
109,192,102900,1,0,0:0:0:0:
402,192,102900,1,0,0:0:0:0:
36,192,103200,128,0,103350:0:0:0:0:
182,192,103200,128,0,103350:0:0:0:0:
329,192,103200,128,0,103350:0:0:0:0:
475,192,103200,128,0,103350:0:0:0:0:
36,192,103500,1,0,0:0:0:0:
109,192,103575,1,0,0:0:0:0:
182,192,103650,1,0,0:0:0:0:
256,192,103725,1,0,0:0:0:0:
475,192,103800,1,0,0:0:0:0:
402,192,103875,1,0,0:0:0:0:
329,192,103950,1,0,0:0:0:0:
256,192,104025,1,0,0:0:0:0:
109,192,104100,1,0,0:0:0:0:
182,192,104175,1,0,0:0:0:0:
256,192,104250,1,0,0:0:0:0:
329,192,104325,1,0,0:0:0:0:
475,192,104400,1,0,0:0:0:0:
402,192,104450,1,0,0:0:0:0:
329,192,104500,1,0,0:0:0:0:
256,192,104550,1,0,0:0:0:0:
182,192,104600,1,0,0:0:0:0:
109,192,104650,1,0,0:0:0:0:
36,192,104700,1,0,0:0:0:0:
402,192,104750,1,0,0:0:0:0:
329,192,104800,1,0,0:0:0:0:
256,192,104850,1,0,0:0:0:0:
182,192,104900,1,0,0:0:0:0:
109,192,104950,1,0,0:0:0:0:
475,192,105000,1,0,0:0:0:0:
402,192,105037,1,0,0:0:0:0:
329,192,105075,1,0,0:0:0:0:
256,192,105112,1,0,0:0:0:0:
182,192,105150,1,0,0:0:0:0:
109,192,105187,1,0,0:0:0:0:
402,192,105225,1,0,0:0:0:0:
329,192,105262,1,0,0:0:0:0:
256,192,105300,1,0,0:0:0:0:
182,192,105337,1,0,0:0:0:0:
109,192,105375,1,0,0:0:0:0:
36,192,105412,1,0,0:0:0:0:
256,192,105450,1,0,0:0:0:0:
329,192,105487,1,0,0:0:0:0:
402,192,105525,1,0,0:0:0:0:
475,192,105562,1,0,0:0:0:0:
109,192,105600,1,0,0:0:0:0:
182,192,105637,1,0,0:0:0:0:
256,192,105675,1,0,0:0:0:0:
329,192,105712,1,0,0:0:0:0:
36,192,105750,1,0,0:0:0:0:
109,192,105787,1,0,0:0:0:0:
182,192,105825,1,0,0:0:0:0:
256,192,105862,1,0,0:0:0:0:
475,192,105900,1,0,0:0:0:0:
402,192,105937,1,0,0:0:0:0:
329,192,105975,1,0,0:0:0:0:
256,192,106012,1,0,0:0:0:0:
36,192,106050,1,0,0:0:0:0:
109,192,106087,1,0,0:0:0:0:
182,192,106125,1,0,0:0:0:0:
256,192,106162,1,0,0:0:0:0:
475,192,106200,1,0,0:0:0:0:
402,192,106225,1,0,0:0:0:0:
329,192,106250,1,0,0:0:0:0:
256,192,106275,1,0,0:0:0:0:
182,192,106300,1,0,0:0:0:0:
109,192,106325,1,0,0:0:0:0:
402,192,106350,1,0,0:0:0:0:
329,192,106375,1,0,0:0:0:0:
256,192,106400,1,0,0:0:0:0:
182,192,106425,1,0,0:0:0:0:
109,192,106450,1,0,0:0:0:0:
36,192,106475,1,0,0:0:0:0:
475,192,106500,1,0,0:0:0:0:
402,192,106525,1,0,0:0:0:0:
329,192,106550,1,0,0:0:0:0:
256,192,106575,1,0,0:0:0:0:
182,192,106600,1,0,0:0:0:0:
109,192,106625,1,0,0:0:0:0:
402,192,106650,1,0,0:0:0:0:
329,192,106675,1,0,0:0:0:0:
256,192,106700,1,0,0:0:0:0:
182,192,106725,1,0,0:0:0:0:
109,192,106750,1,0,0:0:0:0:
36,192,106775,1,0,0:0:0:0:
329,192,106800,1,0,0:0:0:0:
475,192,106800,1,0,0:0:0:0:
182,192,107100,1,0,0:0:0:0:
402,192,107100,1,0,0:0:0:0:
475,192,107100,1,0,0:0:0:0:
256,192,107200,1,0,0:0:0:0:
329,192,107200,1,0,0:0:0:0:
109,192,107300,1,0,0:0:0:0:
36,192,107300,1,0,0:0:0:0:
475,192,107400,1,0,0:0:0:0:
402,192,107400,1,0,0:0:0:0:
329,192,107400,1,0,0:0:0:0:
109,192,107500,1,0,0:0:0:0:
182,192,107500,1,0,0:0:0:0:
329,192,107600,1,0,0:0:0:0:
256,192,107600,1,0,0:0:0:0:
109,192,107700,1,0,0:0:0:0:
402,192,107700,1,0,0:0:0:0:
36,192,107700,1,0,0:0:0:0:
475,192,107700,1,0,0:0:0:0:
109,192,108000,128,0,108150:0:0:0:0:
329,192,108000,1,0,0:0:0:0:
182,192,108000,1,0,0:0:0:0:
475,192,108000,1,0,0:0:0:0:
402,192,108000,1,0,0:0:0:0:
36,192,108000,1,0,0:0:0:0:
256,192,108150,1,0,0:0:0:0:
402,192,108150,1,0,0:0:0:0:
475,192,108300,128,0,108450:0:0:0:0:
329,192,108300,1,0,0:0:0:0:
256,192,108300,1,0,0:0:0:0:
109,192,108300,1,0,0:0:0:0:
36,192,108300,1,0,0:0:0:0:
182,192,108450,128,0,108600:0:0:0:0:
402,192,108450,1,0,0:0:0:0:
109,192,108450,1,0,0:0:0:0:
475,192,108600,128,0,108750:0:0:0:0:
256,192,108600,1,0,0:0:0:0:
329,192,108750,128,0,108900:0:0:0:0:
109,192,108750,1,0,0:0:0:0:
36,192,108750,1,0,0:0:0:0:
256,192,108750,1,0,0:0:0:0:
182,192,108900,1,0,0:0:0:0:
475,192,108900,1,0,0:0:0:0:
402,192,108900,1,0,0:0:0:0:
109,192,108900,1,0,0:0:0:0:
36,192,109050,128,0,109200:0:0:0:0:
256,192,109050,1,0,0:0:0:0:
475,192,109050,1,0,0:0:0:0:
256,192,109200,1,0,0:0:0:0:
402,192,109200,1,0,0:0:0:0:
182,192,109200,1,0,0:0:0:0:
329,192,109275,1,0,0:0:0:0:
475,192,109275,1,0,0:0:0:0:
182,192,109350,1,0,0:0:0:0:
36,192,109350,1,0,0:0:0:0:
402,192,109350,1,0,0:0:0:0:
256,192,109425,1,0,0:0:0:0:
109,192,109425,1,0,0:0:0:0:
329,192,109500,1,0,0:0:0:0:
182,192,109500,1,0,0:0:0:0:
475,192,109500,1,0,0:0:0:0:
402,192,109500,1,0,0:0:0:0:
256,192,109575,1,0,0:0:0:0:
109,192,109575,1,0,0:0:0:0:
329,192,109650,1,0,0:0:0:0:
182,192,109650,1,0,0:0:0:0:
36,192,109650,1,0,0:0:0:0:
402,192,109725,1,0,0:0:0:0:
256,192,109725,1,0,0:0:0:0:
109,192,109800,128,0,109950:0:0:0:0:
36,192,109800,1,0,0:0:0:0:
329,192,109800,1,0,0:0:0:0:
475,192,109800,1,0,0:0:0:0:
402,192,109950,128,0,110100:0:0:0:0:
329,192,109950,1,0,0:0:0:0:
182,192,109950,1,0,0:0:0:0:
475,192,109950,1,0,0:0:0:0:
36,192,110100,128,0,110250:0:0:0:0:
256,192,110100,1,0,0:0:0:0:
182,192,110100,1,0,0:0:0:0:
109,192,110100,1,0,0:0:0:0:
329,192,110100,1,0,0:0:0:0:
329,192,110250,128,0,110400:0:0:0:0:
475,192,110250,1,0,0:0:0:0:
256,192,110250,1,0,0:0:0:0:
256,192,110400,128,0,110550:0:0:0:0:
109,192,110400,1,0,0:0:0:0:
36,192,110400,1,0,0:0:0:0:
402,192,110400,1,0,0:0:0:0:
402,192,110550,1,0,0:0:0:0:
36,192,110550,1,0,0:0:0:0:
109,192,110700,128,0,110850:0:0:0:0:
182,192,110700,1,0,0:0:0:0:
329,192,110700,1,0,0:0:0:0:
475,192,110700,1,0,0:0:0:0:
256,192,110700,1,0,0:0:0:0:
402,192,110850,128,0,111000:0:0:0:0:
329,192,110850,1,0,0:0:0:0:
36,192,110850,1,0,0:0:0:0:
109,192,111000,128,0,111150:0:0:0:0:
182,192,111000,1,0,0:0:0:0:
329,192,111150,1,0,0:0:0:0:
256,192,111150,1,0,0:0:0:0:
36,192,111150,1,0,0:0:0:0:
475,192,111300,128,0,111450:0:0:0:0:
109,192,111300,1,0,0:0:0:0:
182,192,111300,1,0,0:0:0:0:
329,192,111300,1,0,0:0:0:0:
402,192,111300,1,0,0:0:0:0:
182,192,111450,128,0,111600:0:0:0:0:
36,192,111450,1,0,0:0:0:0:
256,192,111450,1,0,0:0:0:0:
256,192,111600,1,0,0:0:0:0:
402,192,111600,1,0,0:0:0:0:
109,192,111600,1,0,0:0:0:0:
329,192,111675,1,0,0:0:0:0:
475,192,111675,1,0,0:0:0:0:
109,192,111750,1,0,0:0:0:0:
256,192,111750,1,0,0:0:0:0:
402,192,111750,1,0,0:0:0:0:
182,192,111825,1,0,0:0:0:0:
329,192,111825,1,0,0:0:0:0:
256,192,111900,1,0,0:0:0:0:
402,192,111900,1,0,0:0:0:0:
36,192,111900,1,0,0:0:0:0:
109,192,111900,1,0,0:0:0:0:
182,192,111975,1,0,0:0:0:0:
329,192,111975,1,0,0:0:0:0:
109,192,112050,1,0,0:0:0:0:
256,192,112050,1,0,0:0:0:0:
475,192,112050,1,0,0:0:0:0:
36,192,112125,1,0,0:0:0:0:
182,192,112125,1,0,0:0:0:0:
329,192,112200,128,0,112350:0:0:0:0:
402,192,112200,1,0,0:0:0:0:
109,192,112200,1,0,0:0:0:0:
256,192,112200,1,0,0:0:0:0:
36,192,112350,128,0,112500:0:0:0:0:
109,192,112350,1,0,0:0:0:0:
256,192,112350,1,0,0:0:0:0:
475,192,112350,1,0,0:0:0:0:
475,192,112500,128,0,112650:0:0:0:0:
402,192,112500,1,0,0:0:0:0:
256,192,112500,1,0,0:0:0:0:
182,192,112500,1,0,0:0:0:0:
329,192,112500,1,0,0:0:0:0:
182,192,112650,128,0,112800:0:0:0:0:
109,192,112650,1,0,0:0:0:0:
329,192,112650,1,0,0:0:0:0:
109,192,112800,128,0,112950:0:0:0:0:
256,192,112800,1,0,0:0:0:0:
475,192,112800,1,0,0:0:0:0:
402,192,112800,1,0,0:0:0:0:
36,192,112800,1,0,0:0:0:0:
182,192,112950,1,0,0:0:0:0:
402,192,112950,1,0,0:0:0:0:
475,192,113100,128,0,113250:0:0:0:0:
329,192,113100,1,0,0:0:0:0:
256,192,113100,1,0,0:0:0:0:
109,192,113100,1,0,0:0:0:0:
36,192,113100,1,0,0:0:0:0:
182,192,113250,128,0,113400:0:0:0:0:
402,192,113250,1,0,0:0:0:0:
109,192,113250,1,0,0:0:0:0:
475,192,113400,128,0,113550:0:0:0:0:
256,192,113400,1,0,0:0:0:0:
329,192,113550,128,0,113700:0:0:0:0:
109,192,113550,1,0,0:0:0:0:
36,192,113550,1,0,0:0:0:0:
256,192,113550,1,0,0:0:0:0:
182,192,113700,1,0,0:0:0:0:
475,192,113700,1,0,0:0:0:0:
402,192,113700,1,0,0:0:0:0:
109,192,113700,1,0,0:0:0:0:
36,192,113850,128,0,114000:0:0:0:0:
256,192,113850,1,0,0:0:0:0:
475,192,113850,1,0,0:0:0:0:
256,192,114000,1,0,0:0:0:0:
402,192,114000,1,0,0:0:0:0:
182,192,114000,1,0,0:0:0:0:
329,192,114075,1,0,0:0:0:0:
475,192,114075,1,0,0:0:0:0:
182,192,114150,1,0,0:0:0:0:
36,192,114150,1,0,0:0:0:0:
402,192,114150,1,0,0:0:0:0:
256,192,114225,1,0,0:0:0:0:
109,192,114225,1,0,0:0:0:0:
329,192,114300,1,0,0:0:0:0:
182,192,114300,1,0,0:0:0:0:
475,192,114300,1,0,0:0:0:0:
402,192,114300,1,0,0:0:0:0:
256,192,114375,1,0,0:0:0:0:
109,192,114375,1,0,0:0:0:0:
329,192,114450,1,0,0:0:0:0:
182,192,114450,1,0,0:0:0:0:
36,192,114450,1,0,0:0:0:0:
402,192,114525,1,0,0:0:0:0:
256,192,114525,1,0,0:0:0:0:
109,192,114600,128,0,114750:0:0:0:0:
36,192,114600,1,0,0:0:0:0:
329,192,114600,1,0,0:0:0:0:
475,192,114600,1,0,0:0:0:0:
402,192,114750,128,0,114900:0:0:0:0:
329,192,114750,1,0,0:0:0:0:
182,192,114750,1,0,0:0:0:0:
475,192,114750,1,0,0:0:0:0:
36,192,114900,128,0,115050:0:0:0:0:
256,192,114900,1,0,0:0:0:0:
182,192,114900,1,0,0:0:0:0:
109,192,114900,1,0,0:0:0:0:
329,192,114900,1,0,0:0:0:0:
329,192,115050,128,0,115200:0:0:0:0:
475,192,115050,1,0,0:0:0:0:
256,192,115050,1,0,0:0:0:0:
256,192,115200,128,0,115350:0:0:0:0:
109,192,115200,1,0,0:0:0:0:
36,192,115200,1,0,0:0:0:0:
402,192,115200,1,0,0:0:0:0:
402,192,115350,1,0,0:0:0:0:
36,192,115350,1,0,0:0:0:0:
109,192,115500,128,0,115650:0:0:0:0:
182,192,115500,1,0,0:0:0:0:
329,192,115500,1,0,0:0:0:0:
475,192,115500,1,0,0:0:0:0:
256,192,115500,1,0,0:0:0:0:
402,192,115650,128,0,115800:0:0:0:0:
329,192,115650,1,0,0:0:0:0:
36,192,115650,1,0,0:0:0:0:
182,192,115800,1,0,0:0:0:0:
109,192,115800,1,0,0:0:0:0:
329,192,115950,1,0,0:0:0:0:
256,192,115950,128,0,116100:0:0:0:0:
36,192,115950,128,0,116100:0:0:0:0:
109,192,116100,1,0,0:0:0:0:
182,192,116100,1,0,0:0:0:0:
402,192,116100,1,0,0:0:0:0:
475,192,116100,1,0,0:0:0:0:
36,192,116250,1,0,0:0:0:0:
329,192,116250,1,0,0:0:0:0:
182,192,116250,1,0,0:0:0:0:
475,192,116400,128,0,116625:0:0:0:0:
402,192,116400,128,0,116625:0:0:0:0:
329,192,116400,128,0,116625:0:0:0:0:
256,192,116400,128,0,116550:0:0:0:0:
182,192,116475,128,0,116625:0:0:0:0:
109,192,116550,128,0,116700:0:0:0:0:
36,192,116625,128,0,117225:0:0:0:0:
475,192,116700,128,0,116925:0:0:0:0:
402,192,116700,128,0,116925:0:0:0:0:
329,192,116700,128,0,116925:0:0:0:0:
256,192,117000,128,0,117150:0:0:0:0:
182,192,117000,128,0,117225:0:0:0:0:
109,192,117000,128,0,117225:0:0:0:0:
329,192,117075,128,0,117225:0:0:0:0:
402,192,117150,128,0,117300:0:0:0:0:
475,192,117225,128,0,117375:0:0:0:0:
256,192,117225,1,0,0:0:0:0:
182,192,117300,128,0,117525:0:0:0:0:
109,192,117300,128,0,117525:0:0:0:0:
36,192,117300,128,0,117525:0:0:0:0:
329,192,117300,1,0,0:0:0:0:
402,192,117375,1,0,0:0:0:0:
475,192,117450,1,0,0:0:0:0:
402,192,117525,1,0,0:0:0:0:
329,192,117600,128,0,117750:0:0:0:0:
182,192,117600,1,0,0:0:0:0:
256,192,117600,1,0,0:0:0:0:
36,192,117600,1,0,0:0:0:0:
109,192,117600,1,0,0:0:0:0:
475,192,117600,1,0,0:0:0:0:
402,192,117750,1,0,0:0:0:0:
109,192,117750,1,0,0:0:0:0:
36,192,117900,128,0,118050:0:0:0:0:
182,192,117900,1,0,0:0:0:0:
256,192,117900,1,0,0:0:0:0:
402,192,117900,1,0,0:0:0:0:
475,192,117900,1,0,0:0:0:0:
329,192,118050,128,0,118200:0:0:0:0:
109,192,118050,1,0,0:0:0:0:
402,192,118050,1,0,0:0:0:0:
36,192,118200,128,0,118350:0:0:0:0:
256,192,118200,1,0,0:0:0:0:
475,192,118200,1,0,0:0:0:0:
182,192,118200,1,0,0:0:0:0:
182,192,118350,128,0,118500:0:0:0:0:
256,192,118350,1,0,0:0:0:0:
402,192,118350,1,0,0:0:0:0:
329,192,118500,1,0,0:0:0:0:
36,192,118500,1,0,0:0:0:0:
109,192,118500,1,0,0:0:0:0:
402,192,118500,1,0,0:0:0:0:
475,192,118650,128,0,118800:0:0:0:0:
256,192,118650,1,0,0:0:0:0:
36,192,118650,1,0,0:0:0:0:
256,192,118800,1,0,0:0:0:0:
109,192,118800,1,0,0:0:0:0:
329,192,118800,1,0,0:0:0:0:
182,192,118875,1,0,0:0:0:0:
36,192,118875,1,0,0:0:0:0:
329,192,118950,1,0,0:0:0:0:
475,192,118950,1,0,0:0:0:0:
109,192,118950,1,0,0:0:0:0:
256,192,119025,1,0,0:0:0:0:
402,192,119025,1,0,0:0:0:0:
182,192,119100,1,0,0:0:0:0:
329,192,119100,1,0,0:0:0:0:
36,192,119100,1,0,0:0:0:0:
109,192,119100,1,0,0:0:0:0:
256,192,119175,1,0,0:0:0:0:
402,192,119175,1,0,0:0:0:0:
182,192,119250,1,0,0:0:0:0:
329,192,119250,1,0,0:0:0:0:
475,192,119250,1,0,0:0:0:0:
109,192,119325,1,0,0:0:0:0:
256,192,119325,1,0,0:0:0:0:
402,192,119400,128,0,119550:0:0:0:0:
475,192,119400,1,0,0:0:0:0:
36,192,119400,1,0,0:0:0:0:
182,192,119400,1,0,0:0:0:0:
109,192,119550,128,0,119700:0:0:0:0:
36,192,119550,1,0,0:0:0:0:
256,192,119550,1,0,0:0:0:0:
475,192,119700,128,0,119850:0:0:0:0:
256,192,119700,1,0,0:0:0:0:
329,192,119700,1,0,0:0:0:0:
402,192,119700,1,0,0:0:0:0:
182,192,119700,1,0,0:0:0:0:
182,192,119850,128,0,120000:0:0:0:0:
36,192,119850,1,0,0:0:0:0:
329,192,119850,1,0,0:0:0:0:
256,192,120000,128,0,120150:0:0:0:0:
402,192,120000,1,0,0:0:0:0:
475,192,120000,1,0,0:0:0:0:
109,192,120000,1,0,0:0:0:0:
109,192,120150,1,0,0:0:0:0:
475,192,120150,1,0,0:0:0:0:
402,192,120300,128,0,120450:0:0:0:0:
329,192,120300,1,0,0:0:0:0:
182,192,120300,1,0,0:0:0:0:
36,192,120300,1,0,0:0:0:0:
256,192,120300,1,0,0:0:0:0:
109,192,120450,128,0,120600:0:0:0:0:
182,192,120450,1,0,0:0:0:0:
475,192,120450,1,0,0:0:0:0:
402,192,120600,128,0,120750:0:0:0:0:
329,192,120600,1,0,0:0:0:0:
256,192,120600,1,0,0:0:0:0:
36,192,120600,1,0,0:0:0:0:
256,192,120750,1,0,0:0:0:0:
475,192,120750,1,0,0:0:0:0:
36,192,120900,128,0,121050:0:0:0:0:
402,192,120900,1,0,0:0:0:0:
329,192,120900,1,0,0:0:0:0:
182,192,120900,1,0,0:0:0:0:
109,192,120900,1,0,0:0:0:0:
329,192,121050,128,0,121200:0:0:0:0:
475,192,121050,1,0,0:0:0:0:
256,192,121050,1,0,0:0:0:0:
256,192,121200,1,0,0:0:0:0:
109,192,121200,1,0,0:0:0:0:
402,192,121200,1,0,0:0:0:0:
182,192,121275,1,0,0:0:0:0:
36,192,121275,1,0,0:0:0:0:
402,192,121350,1,0,0:0:0:0:
256,192,121350,1,0,0:0:0:0:
109,192,121350,1,0,0:0:0:0:
329,192,121425,1,0,0:0:0:0:
182,192,121425,1,0,0:0:0:0:
256,192,121500,1,0,0:0:0:0:
109,192,121500,1,0,0:0:0:0:
475,192,121500,1,0,0:0:0:0:
402,192,121500,1,0,0:0:0:0:
329,192,121575,1,0,0:0:0:0:
182,192,121575,1,0,0:0:0:0:
402,192,121650,1,0,0:0:0:0:
256,192,121650,1,0,0:0:0:0:
36,192,121650,1,0,0:0:0:0:
475,192,121725,1,0,0:0:0:0:
329,192,121725,1,0,0:0:0:0:
182,192,121800,128,0,121950:0:0:0:0:
109,192,121800,1,0,0:0:0:0:
256,192,121800,1,0,0:0:0:0:
402,192,121800,1,0,0:0:0:0:
475,192,121950,128,0,122100:0:0:0:0:
402,192,121950,1,0,0:0:0:0:
36,192,121950,1,0,0:0:0:0:
36,192,122100,128,0,122250:0:0:0:0:
109,192,122100,1,0,0:0:0:0:
256,192,122100,1,0,0:0:0:0:
329,192,122100,1,0,0:0:0:0:
182,192,122100,1,0,0:0:0:0:
329,192,122250,128,0,122400:0:0:0:0:
402,192,122250,1,0,0:0:0:0:
182,192,122250,1,0,0:0:0:0:
402,192,122400,128,0,122550:0:0:0:0:
475,192,122400,1,0,0:0:0:0:
36,192,122400,1,0,0:0:0:0:
109,192,122450,1,0,0:0:0:0:
182,192,122500,1,0,0:0:0:0:
256,192,122550,1,0,0:0:0:0:
329,192,122625,1,0,0:0:0:0:
36,192,122700,128,0,122850:0:0:0:0:
182,192,122700,1,0,0:0:0:0:
256,192,122700,1,0,0:0:0:0:
402,192,122700,1,0,0:0:0:0:
475,192,122700,1,0,0:0:0:0:
329,192,122850,128,0,123000:0:0:0:0:
109,192,122850,1,0,0:0:0:0:
402,192,122850,1,0,0:0:0:0:
36,192,123000,128,0,123150:0:0:0:0:
256,192,123000,1,0,0:0:0:0:
475,192,123000,1,0,0:0:0:0:
182,192,123000,1,0,0:0:0:0:
182,192,123150,128,0,123300:0:0:0:0:
402,192,123150,1,0,0:0:0:0:
256,192,123150,1,0,0:0:0:0:
329,192,123300,1,0,0:0:0:0:
36,192,123300,1,0,0:0:0:0:
109,192,123300,1,0,0:0:0:0:
402,192,123300,1,0,0:0:0:0:
475,192,123450,128,0,123600:0:0:0:0:
256,192,123450,1,0,0:0:0:0:
36,192,123450,1,0,0:0:0:0:
256,192,123600,1,0,0:0:0:0:
109,192,123600,1,0,0:0:0:0:
329,192,123600,1,0,0:0:0:0:
182,192,123675,1,0,0:0:0:0:
36,192,123675,1,0,0:0:0:0:
329,192,123750,1,0,0:0:0:0:
475,192,123750,1,0,0:0:0:0:
109,192,123750,1,0,0:0:0:0:
256,192,123825,1,0,0:0:0:0:
402,192,123825,1,0,0:0:0:0:
182,192,123900,1,0,0:0:0:0:
329,192,123900,1,0,0:0:0:0:
36,192,123900,1,0,0:0:0:0:
109,192,123900,1,0,0:0:0:0:
256,192,123975,1,0,0:0:0:0:
402,192,123975,1,0,0:0:0:0:
182,192,124050,1,0,0:0:0:0:
329,192,124050,1,0,0:0:0:0:
475,192,124050,1,0,0:0:0:0:
109,192,124125,1,0,0:0:0:0:
256,192,124125,1,0,0:0:0:0:
402,192,124200,128,0,124350:0:0:0:0:
475,192,124200,1,0,0:0:0:0:
182,192,124200,1,0,0:0:0:0:
329,192,124275,1,0,0:0:0:0:
36,192,124275,1,0,0:0:0:0:
109,192,124350,128,0,124500:0:0:0:0:
475,192,124350,1,0,0:0:0:0:
256,192,124350,1,0,0:0:0:0:
182,192,124425,1,0,0:0:0:0:
329,192,124425,1,0,0:0:0:0:
475,192,124500,128,0,124650:0:0:0:0:
256,192,124500,1,0,0:0:0:0:
36,192,124500,1,0,0:0:0:0:
329,192,124575,1,0,0:0:0:0:
402,192,124575,1,0,0:0:0:0:
109,192,124650,1,0,0:0:0:0:
36,192,124650,1,0,0:0:0:0:
182,192,124650,128,0,124800:0:0:0:0:
329,192,124725,1,0,0:0:0:0:
256,192,124725,1,0,0:0:0:0:
109,192,124800,1,0,0:0:0:0:
36,192,124800,1,0,0:0:0:0:
402,192,124875,1,0,0:0:0:0:
475,192,124875,1,0,0:0:0:0:
109,192,124950,1,0,0:0:0:0:
36,192,124950,1,0,0:0:0:0:
475,192,125025,1,0,0:0:0:0:
402,192,125025,1,0,0:0:0:0:
182,192,125100,128,0,125250:0:0:0:0:
109,192,125100,128,0,125250:0:0:0:0:
36,192,125100,128,0,125250:0:0:0:0:
402,192,125250,1,0,0:0:0:0:
329,192,125250,1,0,0:0:0:0:
182,192,125325,1,0,0:0:0:0:
109,192,125325,1,0,0:0:0:0:
402,192,125400,1,0,0:0:0:0:
329,192,125400,1,0,0:0:0:0:
182,192,125475,1,0,0:0:0:0:
109,192,125475,1,0,0:0:0:0:
475,192,125550,128,0,125700:0:0:0:0:
402,192,125550,128,0,125700:0:0:0:0:
329,192,125550,128,0,125700:0:0:0:0:
182,192,125700,1,0,0:0:0:0:
36,192,125700,1,0,0:0:0:0:
329,192,125775,1,0,0:0:0:0:
475,192,125775,1,0,0:0:0:0:
182,192,125850,1,0,0:0:0:0:
36,192,125850,1,0,0:0:0:0:
329,192,125925,1,0,0:0:0:0:
475,192,125925,1,0,0:0:0:0:
256,192,126000,128,0,126150:0:0:0:0:
109,192,126000,128,0,126150:0:0:0:0:
182,192,126000,128,0,126150:0:0:0:0:
402,192,126150,1,0,0:0:0:0:
329,192,126150,1,0,0:0:0:0:
109,192,126225,1,0,0:0:0:0:
36,192,126225,1,0,0:0:0:0:
475,192,126300,1,0,0:0:0:0:
402,192,126300,1,0,0:0:0:0:
182,192,126375,1,0,0:0:0:0:
109,192,126375,1,0,0:0:0:0:
402,192,126450,128,0,126600:0:0:0:0:
329,192,126450,128,0,126600:0:0:0:0:
256,192,126450,128,0,126600:0:0:0:0:
182,192,126600,1,0,0:0:0:0:
36,192,126600,1,0,0:0:0:0:
329,192,126675,1,0,0:0:0:0:
475,192,126675,1,0,0:0:0:0:
256,192,126750,1,0,0:0:0:0:
109,192,126750,1,0,0:0:0:0:
329,192,126825,1,0,0:0:0:0:
475,192,126825,1,0,0:0:0:0:
182,192,126900,128,0,126975:0:0:0:0:
36,192,126900,128,0,126975:0:0:0:0:
256,192,126900,128,0,126975:0:0:0:0:
475,192,127050,128,0,127425:0:0:0:0:
329,192,127050,128,0,127575:0:0:0:0:
182,192,127050,128,0,127800:0:0:0:0:
402,192,127050,128,0,127500:0:0:0:0:
109,192,127050,128,0,127725:0:0:0:0:
36,192,127050,128,0,127650:0:0:0:0:
475,192,127500,1,0,0:0:0:0:
402,192,127575,1,0,0:0:0:0:
329,192,127650,1,0,0:0:0:0:
36,192,127725,1,0,0:0:0:0:
109,192,127800,1,0,0:0:0:0:
256,192,127875,128,0,128025:0:0:0:0:
182,192,127875,1,0,0:0:0:0:
329,192,127950,128,0,128100:0:0:0:0:
402,192,128025,128,0,128175:0:0:0:0:
475,192,128100,128,0,128250:0:0:0:0:
182,192,128175,128,0,128325:0:0:0:0:
109,192,128250,128,0,128400:0:0:0:0:
36,192,128325,128,0,128475:0:0:0:0:
329,192,128400,1,0,0:0:0:0:
475,192,128400,1,0,0:0:0:0:
402,192,128400,1,0,0:0:0:0:
256,192,128550,128,0,128587:0:0:0:0:
329,192,128700,1,0,0:0:0:0:
109,192,128700,1,0,0:0:0:0:
402,192,128700,128,0,128737:0:0:0:0:
182,192,128850,128,0,128887:0:0:0:0:
256,192,129000,1,0,0:0:0:0:
36,192,129000,1,0,0:0:0:0:
329,192,129000,128,0,129037:0:0:0:0:
109,192,129150,128,0,129187:0:0:0:0:
475,192,129300,1,0,0:0:0:0:
402,192,129300,1,0,0:0:0:0:
329,192,129300,1,0,0:0:0:0:
182,192,129300,1,0,0:0:0:0:
256,192,129450,1,0,0:0:0:0:
182,192,129450,1,0,0:0:0:0:
402,192,129450,1,0,0:0:0:0:
36,192,129450,1,0,0:0:0:0:
256,192,129600,1,0,0:0:0:0:
475,192,129600,1,0,0:0:0:0:
36,192,129600,1,0,0:0:0:0:
402,192,129675,1,0,0:0:0:0:
182,192,129675,1,0,0:0:0:0:
109,192,129750,1,0,0:0:0:0:
329,192,129750,1,0,0:0:0:0:
256,192,129825,1,0,0:0:0:0:
36,192,129825,1,0,0:0:0:0:
109,192,129900,1,0,0:0:0:0:
329,192,129900,1,0,0:0:0:0:
329,192,130050,1,0,0:0:0:0:
475,192,130050,1,0,0:0:0:0:
182,192,130050,1,0,0:0:0:0:
256,192,130125,1,0,0:0:0:0:
402,192,130125,1,0,0:0:0:0:
109,192,130125,1,0,0:0:0:0:
36,192,130200,1,0,0:0:0:0:
182,192,130200,1,0,0:0:0:0:
475,192,130200,1,0,0:0:0:0:
109,192,130275,1,0,0:0:0:0:
256,192,130275,1,0,0:0:0:0:
182,192,130350,1,0,0:0:0:0:
329,192,130350,1,0,0:0:0:0:
36,192,130350,1,0,0:0:0:0:
256,192,130425,1,0,0:0:0:0:
402,192,130425,1,0,0:0:0:0:
109,192,130425,1,0,0:0:0:0:
36,192,130500,1,0,0:0:0:0:
329,192,130500,1,0,0:0:0:0:
182,192,130500,1,0,0:0:0:0:
109,192,130575,1,0,0:0:0:0:
402,192,130575,1,0,0:0:0:0:
182,192,130650,1,0,0:0:0:0:
475,192,130650,1,0,0:0:0:0:
329,192,130650,1,0,0:0:0:0:
402,192,130725,1,0,0:0:0:0:
109,192,130725,1,0,0:0:0:0:
256,192,130800,128,0,130950:0:0:0:0:
329,192,130800,128,0,130950:0:0:0:0:
475,192,130800,1,0,0:0:0:0:
182,192,130800,1,0,0:0:0:0:
36,192,130800,1,0,0:0:0:0:
402,192,130950,1,0,0:0:0:0:
182,192,130950,1,0,0:0:0:0:
36,192,131100,1,0,0:0:0:0:
109,192,131100,1,0,0:0:0:0:
256,192,131100,1,0,0:0:0:0:
475,192,131100,1,0,0:0:0:0:
402,192,131250,1,0,0:0:0:0:
329,192,131250,1,0,0:0:0:0:
109,192,131400,128,0,131550:0:0:0:0:
256,192,131400,1,0,0:0:0:0:
182,192,131400,1,0,0:0:0:0:
36,192,131400,1,0,0:0:0:0:
329,192,131550,128,0,131700:0:0:0:0:
402,192,131550,128,0,131700:0:0:0:0:
475,192,131550,1,0,0:0:0:0:
256,192,131550,1,0,0:0:0:0:
256,192,131700,1,0,0:0:0:0:
182,192,131700,1,0,0:0:0:0:
36,192,131700,1,0,0:0:0:0:
109,192,131700,1,0,0:0:0:0:
475,192,131850,1,0,0:0:0:0:
329,192,131850,1,0,0:0:0:0:
36,192,132000,128,0,132150:0:0:0:0:
109,192,132000,1,0,0:0:0:0:
256,192,132000,1,0,0:0:0:0:
475,192,132000,1,0,0:0:0:0:
182,192,132150,128,0,132300:0:0:0:0:
256,192,132150,128,0,132300:0:0:0:0:
402,192,132150,1,0,0:0:0:0:
329,192,132150,1,0,0:0:0:0:
475,192,132300,1,0,0:0:0:0:
329,192,132300,1,0,0:0:0:0:
109,192,132300,1,0,0:0:0:0:
36,192,132300,1,0,0:0:0:0:
256,192,132450,1,0,0:0:0:0:
109,192,132450,1,0,0:0:0:0:
475,192,132600,128,0,132750:0:0:0:0:
329,192,132600,128,0,132750:0:0:0:0:
182,192,132600,1,0,0:0:0:0:
36,192,132600,1,0,0:0:0:0:
402,192,132600,1,0,0:0:0:0:
256,192,132750,1,0,0:0:0:0:
109,192,132750,1,0,0:0:0:0:
256,192,132900,128,0,133050:0:0:0:0:
109,192,132900,128,0,133050:0:0:0:0:
402,192,132900,1,0,0:0:0:0:
329,192,132900,1,0,0:0:0:0:
475,192,132900,1,0,0:0:0:0:
182,192,132900,1,0,0:0:0:0:
329,192,133050,1,0,0:0:0:0:
36,192,133050,1,0,0:0:0:0:
402,192,133200,128,0,133350:0:0:0:0:
182,192,133200,128,0,133350:0:0:0:0:
36,192,133200,1,0,0:0:0:0:
256,192,133200,1,0,0:0:0:0:
475,192,133200,1,0,0:0:0:0:
329,192,133350,1,0,0:0:0:0:
109,192,133350,1,0,0:0:0:0:
182,192,133500,1,0,0:0:0:0:
256,192,133500,1,0,0:0:0:0:
475,192,133500,1,0,0:0:0:0:
402,192,133500,1,0,0:0:0:0:
329,192,133650,1,0,0:0:0:0:
36,192,133650,1,0,0:0:0:0:
256,192,133800,128,0,133950:0:0:0:0:
109,192,133800,1,0,0:0:0:0:
475,192,133800,1,0,0:0:0:0:
402,192,133800,1,0,0:0:0:0:
329,192,133950,128,0,134100:0:0:0:0:
36,192,133950,128,0,134100:0:0:0:0:
182,192,133950,1,0,0:0:0:0:
402,192,133950,1,0,0:0:0:0:
109,192,134100,1,0,0:0:0:0:
182,192,134100,1,0,0:0:0:0:
475,192,134100,1,0,0:0:0:0:
256,192,134100,1,0,0:0:0:0:
182,192,134250,128,0,134400:0:0:0:0:
475,192,134250,128,0,134400:0:0:0:0:
329,192,134250,1,0,0:0:0:0:
36,192,134250,1,0,0:0:0:0:
402,192,134400,1,0,0:0:0:0:
256,192,134400,1,0,0:0:0:0:
36,192,134400,1,0,0:0:0:0:
329,192,134550,1,0,0:0:0:0:
109,192,134550,1,0,0:0:0:0:
402,192,134700,128,0,134737:0:0:0:0:
36,192,134700,128,0,134850:0:0:0:0:
256,192,134700,1,0,0:0:0:0:
182,192,134700,1,0,0:0:0:0:
475,192,134700,1,0,0:0:0:0:
109,192,134700,1,0,0:0:0:0:
329,192,134775,128,0,134812:0:0:0:0:
256,192,134850,128,0,134887:0:0:0:0:
475,192,134850,1,0,0:0:0:0:
109,192,134850,1,0,0:0:0:0:
182,192,134925,128,0,134962:0:0:0:0:
109,192,135000,128,0,135037:0:0:0:0:
402,192,135000,128,0,135150:0:0:0:0:
329,192,135000,1,0,0:0:0:0:
256,192,135000,1,0,0:0:0:0:
475,192,135000,1,0,0:0:0:0:
36,192,135075,128,0,135112:0:0:0:0:
109,192,135150,128,0,135187:0:0:0:0:
329,192,135150,1,0,0:0:0:0:
256,192,135150,1,0,0:0:0:0:
182,192,135225,128,0,135262:0:0:0:0:
256,192,135300,128,0,135337:0:0:0:0:
109,192,135300,128,0,135450:0:0:0:0:
475,192,135300,1,0,0:0:0:0:
402,192,135300,1,0,0:0:0:0:
36,192,135300,1,0,0:0:0:0:
329,192,135375,128,0,135412:0:0:0:0:
402,192,135450,128,0,135487:0:0:0:0:
182,192,135450,1,0,0:0:0:0:
36,192,135450,1,0,0:0:0:0:
475,192,135525,128,0,135562:0:0:0:0:
256,192,135600,128,0,135750:0:0:0:0:
36,192,135600,128,0,135750:0:0:0:0:
182,192,135600,1,0,0:0:0:0:
329,192,135600,1,0,0:0:0:0:
402,192,135600,1,0,0:0:0:0:
475,192,135750,1,0,0:0:0:0:
109,192,135750,1,0,0:0:0:0:
402,192,135900,1,0,0:0:0:0:
182,192,135900,1,0,0:0:0:0:
36,192,135900,1,0,0:0:0:0:
256,192,135900,1,0,0:0:0:0:
109,192,136050,1,0,0:0:0:0:
475,192,136050,1,0,0:0:0:0:
329,192,136200,128,0,136350:0:0:0:0:
182,192,136200,1,0,0:0:0:0:
256,192,136200,1,0,0:0:0:0:
36,192,136200,1,0,0:0:0:0:
475,192,136350,128,0,136500:0:0:0:0:
182,192,136350,128,0,136500:0:0:0:0:
402,192,136350,1,0,0:0:0:0:
109,192,136350,1,0,0:0:0:0:
329,192,136500,1,0,0:0:0:0:
256,192,136500,1,0,0:0:0:0:
109,192,136500,1,0,0:0:0:0:
36,192,136500,1,0,0:0:0:0:
402,192,136650,1,0,0:0:0:0:
182,192,136650,1,0,0:0:0:0:
402,192,136800,128,0,136950:0:0:0:0:
329,192,136800,1,0,0:0:0:0:
36,192,136800,1,0,0:0:0:0:
475,192,136800,1,0,0:0:0:0:
256,192,136950,128,0,137100:0:0:0:0:
109,192,136950,128,0,137100:0:0:0:0:
182,192,136950,1,0,0:0:0:0:
329,192,136950,1,0,0:0:0:0:
475,192,137100,1,0,0:0:0:0:
402,192,137100,1,0,0:0:0:0:
182,192,137100,1,0,0:0:0:0:
36,192,137100,1,0,0:0:0:0:
402,192,137250,1,0,0:0:0:0:
256,192,137250,1,0,0:0:0:0:
182,192,137400,128,0,137550:0:0:0:0:
36,192,137400,128,0,137550:0:0:0:0:
475,192,137400,1,0,0:0:0:0:
329,192,137400,1,0,0:0:0:0:
109,192,137400,1,0,0:0:0:0:
402,192,137550,1,0,0:0:0:0:
256,192,137550,1,0,0:0:0:0:
475,192,137700,128,0,137850:0:0:0:0:
329,192,137700,128,0,137850:0:0:0:0:
256,192,137700,1,0,0:0:0:0:
182,192,137700,1,0,0:0:0:0:
109,192,137700,1,0,0:0:0:0:
36,192,137700,1,0,0:0:0:0:
402,192,137850,1,0,0:0:0:0:
109,192,137850,1,0,0:0:0:0:
402,192,138000,128,0,138150:0:0:0:0:
182,192,138000,128,0,138150:0:0:0:0:
329,192,138000,1,0,0:0:0:0:
256,192,138000,1,0,0:0:0:0:
36,192,138000,1,0,0:0:0:0:
109,192,138150,1,0,0:0:0:0:
475,192,138150,1,0,0:0:0:0:
402,192,138300,1,0,0:0:0:0:
256,192,138300,1,0,0:0:0:0:
182,192,138300,1,0,0:0:0:0:
36,192,138300,1,0,0:0:0:0:
329,192,138450,1,0,0:0:0:0:
475,192,138450,1,0,0:0:0:0:
109,192,138600,128,0,138750:0:0:0:0:
475,192,138600,1,0,0:0:0:0:
256,192,138600,1,0,0:0:0:0:
329,192,138600,1,0,0:0:0:0:
402,192,138675,1,0,0:0:0:0:
182,192,138675,1,0,0:0:0:0:
256,192,138750,128,0,138900:0:0:0:0:
475,192,138750,128,0,138900:0:0:0:0:
329,192,138750,1,0,0:0:0:0:
36,192,138750,1,0,0:0:0:0:
402,192,138900,1,0,0:0:0:0:
182,192,138900,1,0,0:0:0:0:
109,192,138900,1,0,0:0:0:0:
36,192,138900,1,0,0:0:0:0:
329,192,139050,128,0,139275:0:0:0:0:
182,192,139050,128,0,139275:0:0:0:0:
109,192,139050,1,0,0:0:0:0:
402,192,139050,1,0,0:0:0:0:
256,192,139050,1,0,0:0:0:0:
329,192,139350,1,0,0:0:0:0:
182,192,139350,1,0,0:0:0:0:
109,192,139350,128,0,139650:0:0:0:0:
36,192,139350,128,0,139650:0:0:0:0:
475,192,139350,128,0,139650:0:0:0:0:
402,192,139350,128,0,139650:0:0:0:0:
475,192,139800,128,0,139950:0:0:0:0:
329,192,139800,128,0,139950:0:0:0:0:
182,192,139800,128,0,139950:0:0:0:0:
36,192,139800,128,0,139950:0:0:0:0:
256,192,139800,1,0,0:0:0:0:
329,192,140100,128,0,140250:0:0:0:0:
402,192,140100,128,0,140250:0:0:0:0:
182,192,140100,128,0,140250:0:0:0:0:
109,192,140100,128,0,140250:0:0:0:0:
36,192,140100,1,0,0:0:0:0:
475,192,140100,1,0,0:0:0:0:
36,192,140400,1,0,0:0:0:0:
475,192,140400,1,0,0:0:0:0:
402,192,140400,1,0,0:0:0:0:
182,192,140400,128,0,140550:0:0:0:0:
256,192,140400,128,0,140550:0:0:0:0:
329,192,140550,1,0,0:0:0:0:
109,192,140550,1,0,0:0:0:0:
36,192,140700,1,0,0:0:0:0:
256,192,140700,1,0,0:0:0:0:
402,192,140700,1,0,0:0:0:0:
475,192,140700,1,0,0:0:0:0:
109,192,140850,1,0,0:0:0:0:
182,192,140850,1,0,0:0:0:0:
402,192,141000,128,0,141150:0:0:0:0:
256,192,141000,1,0,0:0:0:0:
329,192,141000,1,0,0:0:0:0:
475,192,141000,1,0,0:0:0:0:
182,192,141150,128,0,141300:0:0:0:0:
109,192,141150,128,0,141300:0:0:0:0:
36,192,141150,1,0,0:0:0:0:
256,192,141150,1,0,0:0:0:0:
256,192,141300,1,0,0:0:0:0:
329,192,141300,1,0,0:0:0:0:
475,192,141300,1,0,0:0:0:0:
402,192,141300,1,0,0:0:0:0:
36,192,141450,1,0,0:0:0:0:
182,192,141450,1,0,0:0:0:0:
475,192,141600,128,0,141750:0:0:0:0:
402,192,141600,1,0,0:0:0:0:
256,192,141600,1,0,0:0:0:0:
36,192,141600,128,0,141675:0:0:0:0:
329,192,141750,128,0,141900:0:0:0:0:
256,192,141750,128,0,141900:0:0:0:0:
109,192,141750,1,0,0:0:0:0:
182,192,141750,1,0,0:0:0:0:
36,192,141900,1,0,0:0:0:0:
182,192,141900,1,0,0:0:0:0:
402,192,141900,1,0,0:0:0:0:
475,192,141900,128,0,141937:0:0:0:0:
256,192,142050,1,0,0:0:0:0:
402,192,142050,128,0,142087:0:0:0:0:
36,192,142200,128,0,142350:0:0:0:0:
182,192,142200,128,0,142350:0:0:0:0:
329,192,142200,1,0,0:0:0:0:
475,192,142200,1,0,0:0:0:0:
109,192,142200,128,0,142237:0:0:0:0:
402,192,142350,1,0,0:0:0:0:
256,192,142350,128,0,142387:0:0:0:0:
256,192,142500,128,0,142650:0:0:0:0:
402,192,142500,128,0,142650:0:0:0:0:
182,192,142500,1,0,0:0:0:0:
36,192,142500,1,0,0:0:0:0:
329,192,142500,1,0,0:0:0:0:
109,192,142500,128,0,142537:0:0:0:0:
182,192,142650,1,0,0:0:0:0:
475,192,142650,128,0,142687:0:0:0:0:
109,192,142800,128,0,142950:0:0:0:0:
329,192,142800,128,0,142950:0:0:0:0:
475,192,142800,1,0,0:0:0:0:
256,192,142800,1,0,0:0:0:0:
36,192,142800,1,0,0:0:0:0:
182,192,142950,1,0,0:0:0:0:
402,192,142950,1,0,0:0:0:0:
256,192,143100,1,0,0:0:0:0:
36,192,143100,1,0,0:0:0:0:
109,192,143100,1,0,0:0:0:0:
329,192,143100,128,0,143137:0:0:0:0:
182,192,143250,1,0,0:0:0:0:
475,192,143250,128,0,143287:0:0:0:0:
256,192,143400,128,0,143550:0:0:0:0:
36,192,143400,1,0,0:0:0:0:
109,192,143400,1,0,0:0:0:0:
402,192,143400,128,0,143437:0:0:0:0:
182,192,143550,128,0,143700:0:0:0:0:
475,192,143550,128,0,143700:0:0:0:0:
109,192,143550,1,0,0:0:0:0:
329,192,143550,128,0,143587:0:0:0:0:
402,192,143700,1,0,0:0:0:0:
329,192,143700,1,0,0:0:0:0:
36,192,143700,1,0,0:0:0:0:
256,192,143700,128,0,143737:0:0:0:0:
329,192,143850,128,0,144000:0:0:0:0:
36,192,143850,128,0,144000:0:0:0:0:
475,192,143850,1,0,0:0:0:0:
182,192,143850,128,0,143887:0:0:0:0:
256,192,144000,1,0,0:0:0:0:
475,192,144000,1,0,0:0:0:0:
109,192,144000,128,0,144075:0:0:0:0:
182,192,144150,1,0,0:0:0:0:
402,192,144150,1,0,0:0:0:0:
109,192,144300,128,0,144337:0:0:0:0:
475,192,144300,128,0,144450:0:0:0:0:
256,192,144300,1,0,0:0:0:0:
329,192,144300,1,0,0:0:0:0:
36,192,144300,1,0,0:0:0:0:
402,192,144300,1,0,0:0:0:0:
182,192,144375,128,0,144412:0:0:0:0:
256,192,144450,128,0,144487:0:0:0:0:
36,192,144450,1,0,0:0:0:0:
402,192,144450,1,0,0:0:0:0:
329,192,144525,128,0,144562:0:0:0:0:
402,192,144600,128,0,144637:0:0:0:0:
109,192,144600,128,0,144750:0:0:0:0:
182,192,144600,1,0,0:0:0:0:
256,192,144600,1,0,0:0:0:0:
36,192,144600,1,0,0:0:0:0:
475,192,144675,128,0,144712:0:0:0:0:
402,192,144750,128,0,144787:0:0:0:0:
182,192,144750,1,0,0:0:0:0:
256,192,144750,1,0,0:0:0:0:
329,192,144825,128,0,144862:0:0:0:0:
256,192,144900,128,0,144937:0:0:0:0:
402,192,144900,128,0,145050:0:0:0:0:
36,192,144900,1,0,0:0:0:0:
109,192,144900,1,0,0:0:0:0:
475,192,144900,1,0,0:0:0:0:
182,192,144975,128,0,145012:0:0:0:0:
109,192,145050,128,0,145087:0:0:0:0:
329,192,145050,1,0,0:0:0:0:
475,192,145050,1,0,0:0:0:0:
36,192,145125,128,0,145162:0:0:0:0:
475,192,145200,128,0,145425:0:0:0:0:
329,192,145200,128,0,145425:0:0:0:0:
182,192,145200,128,0,145425:0:0:0:0:
256,192,145200,1,0,0:0:0:0:
109,192,145200,1,0,0:0:0:0:
402,192,145350,1,0,0:0:0:0:
36,192,145500,128,0,145650:0:0:0:0:
182,192,145500,128,0,145650:0:0:0:0:
329,192,145500,128,0,145650:0:0:0:0:
109,192,145500,1,0,0:0:0:0:
256,192,145500,1,0,0:0:0:0:
475,192,145500,1,0,0:0:0:0:
402,192,145650,128,0,145687:0:0:0:0:
109,192,145650,1,0,0:0:0:0:
256,192,145800,128,0,145837:0:0:0:0:
475,192,145800,1,0,0:0:0:0:
329,192,145800,1,0,0:0:0:0:
109,192,145950,128,0,145987:0:0:0:0:
402,192,145950,1,0,0:0:0:0:
182,192,145950,1,0,0:0:0:0:
182,192,146100,128,0,146137:0:0:0:0:
475,192,146100,1,0,0:0:0:0:
329,192,146100,1,0,0:0:0:0:
36,192,146100,1,0,0:0:0:0:
329,192,146250,128,0,146287:0:0:0:0:
109,192,146250,1,0,0:0:0:0:
402,192,146250,1,0,0:0:0:0:
256,192,146400,1,0,0:0:0:0:
36,192,146400,1,0,0:0:0:0:
475,192,146400,1,0,0:0:0:0:
109,192,146475,1,0,0:0:0:0:
329,192,146475,1,0,0:0:0:0:
182,192,146550,1,0,0:0:0:0:
402,192,146550,1,0,0:0:0:0:
256,192,146625,1,0,0:0:0:0:
475,192,146625,1,0,0:0:0:0:
36,192,146700,1,0,0:0:0:0:
329,192,146700,1,0,0:0:0:0:
182,192,146700,1,0,0:0:0:0:
402,192,146775,1,0,0:0:0:0:
109,192,146775,1,0,0:0:0:0:
182,192,146850,1,0,0:0:0:0:
475,192,146850,1,0,0:0:0:0:
256,192,146925,1,0,0:0:0:0:
36,192,146925,1,0,0:0:0:0:
402,192,147000,1,0,0:0:0:0:
182,192,147000,1,0,0:0:0:0:
475,192,147000,1,0,0:0:0:0:
329,192,147075,1,0,0:0:0:0:
109,192,147075,1,0,0:0:0:0:
256,192,147150,1,0,0:0:0:0:
475,192,147150,1,0,0:0:0:0:
36,192,147150,1,0,0:0:0:0:
402,192,147225,1,0,0:0:0:0:
182,192,147225,1,0,0:0:0:0:
329,192,147300,1,0,0:0:0:0:
109,192,147300,1,0,0:0:0:0:
475,192,147300,1,0,0:0:0:0:
256,192,147375,1,0,0:0:0:0:
36,192,147375,1,0,0:0:0:0:
475,192,147450,1,0,0:0:0:0:
182,192,147450,1,0,0:0:0:0:
329,192,147450,1,0,0:0:0:0:
402,192,147525,1,0,0:0:0:0:
109,192,147525,1,0,0:0:0:0:
475,192,147600,128,0,147900:0:0:0:0:
329,192,147600,128,0,147900:0:0:0:0:
182,192,147600,128,0,147900:0:0:0:0:
36,192,147600,128,0,147900:0:0:0:0:
402,192,147900,1,0,0:0:0:0:
256,192,147900,1,0,0:0:0:0:
109,192,147900,1,0,0:0:0:0:
109,192,148200,128,0,148500:0:0:0:0:
36,192,148200,128,0,148500:0:0:0:0:
475,192,148200,128,0,148500:0:0:0:0:
402,192,148200,128,0,148500:0:0:0:0:
329,192,148500,1,0,0:0:0:0:
182,192,148500,1,0,0:0:0:0:
256,192,148500,1,0,0:0:0:0:
329,192,148800,128,0,149100:0:0:0:0:
402,192,148800,128,0,149100:0:0:0:0:
182,192,148800,128,0,149100:0:0:0:0:
109,192,148800,128,0,149100:0:0:0:0:
36,192,149100,1,0,0:0:0:0:
256,192,149100,1,0,0:0:0:0:
475,192,149100,1,0,0:0:0:0:
329,192,149400,1,0,0:0:0:0:
182,192,149400,1,0,0:0:0:0:
402,192,149550,128,0,149700:0:0:0:0:
256,192,149550,128,0,149700:0:0:0:0:
109,192,149550,128,0,149700:0:0:0:0:
36,192,149550,1,0,0:0:0:0:
475,192,149550,1,0,0:0:0:0:
329,192,149850,128,0,150600:0:0:0:0:
256,192,149850,128,0,151200:0:0:0:0:
182,192,149850,128,0,150900:0:0:0:0:
109,192,149850,1,0,0:0:0:0:
402,192,149850,1,0,0:0:0:0:
475,192,150150,1,0,0:0:0:0:
402,192,150150,1,0,0:0:0:0:
109,192,150300,1,0,0:0:0:0:
36,192,150300,1,0,0:0:0:0:
36,192,150450,1,0,0:0:0:0:
475,192,150600,1,0,0:0:0:0:
402,192,150600,1,0,0:0:0:0:
475,192,150750,1,0,0:0:0:0:
109,192,150900,1,0,0:0:0:0:
36,192,150900,1,0,0:0:0:0:
36,192,151050,1,0,0:0:0:0:
402,192,151500,128,0,152100:0:0:0:0:
109,192,151500,128,0,151950:0:0:0:0:
182,192,151500,1,0,0:0:0:0:
329,192,151500,1,0,0:0:0:0:
475,192,151500,1,0,0:0:0:0:
36,192,151500,1,0,0:0:0:0:
182,192,151950,1,0,0:0:0:0:
36,192,151950,1,0,0:0:0:0:
256,192,151950,1,0,0:0:0:0:
329,192,152100,1,0,0:0:0:0:
475,192,152100,1,0,0:0:0:0:
256,192,152100,1,0,0:0:0:0:
256,192,152250,1,0,0:0:0:0:
402,192,152250,1,0,0:0:0:0:
109,192,152250,1,0,0:0:0:0:
36,192,152250,1,0,0:0:0:0:
475,192,152400,1,0,0:0:0:0:
402,192,152400,1,0,0:0:0:0:
256,192,152400,1,0,0:0:0:0:
182,192,152400,1,0,0:0:0:0:
36,192,152400,128,0,152700:0:0:0:0:
329,192,152550,1,0,0:0:0:0:
182,192,152700,1,0,0:0:0:0:
109,192,152700,1,0,0:0:0:0:
256,192,152700,1,0,0:0:0:0:
475,192,152850,1,0,0:0:0:0:
329,192,152850,1,0,0:0:0:0:
475,192,153000,128,0,153300:0:0:0:0:
109,192,153000,1,0,0:0:0:0:
182,192,153150,1,0,0:0:0:0:
256,192,153150,1,0,0:0:0:0:
402,192,153300,1,0,0:0:0:0:
329,192,153300,1,0,0:0:0:0:
36,192,153300,1,0,0:0:0:0:
109,192,153450,1,0,0:0:0:0:
256,192,153450,1,0,0:0:0:0:
109,192,153600,128,0,153900:0:0:0:0:
475,192,153600,128,0,153637:0:0:0:0:
182,192,153600,1,0,0:0:0:0:
36,192,153600,1,0,0:0:0:0:
402,192,153600,1,0,0:0:0:0:
329,192,153750,128,0,153787:0:0:0:0:
256,192,153750,1,0,0:0:0:0:
182,192,153900,128,0,153937:0:0:0:0:
475,192,153900,1,0,0:0:0:0:
256,192,153900,1,0,0:0:0:0:
329,192,153900,1,0,0:0:0:0:
402,192,154050,1,0,0:0:0:0:
36,192,154050,128,0,154087:0:0:0:0:
109,192,154050,1,0,0:0:0:0:
402,192,154200,1,0,0:0:0:0:
182,192,154200,1,0,0:0:0:0:
329,192,154350,1,0,0:0:0:0:
36,192,154350,128,0,154387:0:0:0:0:
256,192,154350,1,0,0:0:0:0:
475,192,154350,1,0,0:0:0:0:
402,192,154500,128,0,154800:0:0:0:0:
109,192,154500,128,0,154537:0:0:0:0:
182,192,154500,1,0,0:0:0:0:
36,192,154500,1,0,0:0:0:0:
329,192,154500,1,0,0:0:0:0:
256,192,154650,128,0,154687:0:0:0:0:
109,192,154650,1,0,0:0:0:0:
182,192,154800,128,0,155100:0:0:0:0:
36,192,154800,1,0,0:0:0:0:
475,192,154800,1,0,0:0:0:0:
329,192,154800,1,0,0:0:0:0:
256,192,154950,1,0,0:0:0:0:
402,192,155100,1,0,0:0:0:0:
329,192,155100,1,0,0:0:0:0:
109,192,155100,1,0,0:0:0:0:
475,192,155250,1,0,0:0:0:0:
256,192,155250,1,0,0:0:0:0:
475,192,155400,128,0,155700:0:0:0:0:
109,192,155400,1,0,0:0:0:0:
329,192,155550,1,0,0:0:0:0:
256,192,155550,1,0,0:0:0:0:
402,192,155700,1,0,0:0:0:0:
182,192,155700,1,0,0:0:0:0:
109,192,155700,1,0,0:0:0:0:
36,192,155850,1,0,0:0:0:0:
329,192,155850,1,0,0:0:0:0:
36,192,156000,128,0,156300:0:0:0:0:
475,192,156000,128,0,156037:0:0:0:0:
256,192,156000,1,0,0:0:0:0:
182,192,156000,1,0,0:0:0:0:
402,192,156150,128,0,156187:0:0:0:0:
109,192,156150,1,0,0:0:0:0:
329,192,156300,128,0,156337:0:0:0:0:
475,192,156300,1,0,0:0:0:0:
182,192,156300,1,0,0:0:0:0:
256,192,156300,1,0,0:0:0:0:
109,192,156450,1,0,0:0:0:0:
256,192,156450,128,0,156487:0:0:0:0:
402,192,156450,1,0,0:0:0:0:
109,192,156600,1,0,0:0:0:0:
475,192,156600,1,0,0:0:0:0:
402,192,156750,1,0,0:0:0:0:
182,192,156750,128,0,156787:0:0:0:0:
36,192,156750,1,0,0:0:0:0:
256,192,156750,1,0,0:0:0:0:
109,192,156900,128,0,157200:0:0:0:0:
256,192,156900,128,0,156937:0:0:0:0:
475,192,156900,1,0,0:0:0:0:
402,192,156900,1,0,0:0:0:0:
36,192,156900,1,0,0:0:0:0:
329,192,157050,128,0,157087:0:0:0:0:
182,192,157050,1,0,0:0:0:0:
36,192,157200,1,0,0:0:0:0:
256,192,157200,1,0,0:0:0:0:
475,192,157200,1,0,0:0:0:0:
402,192,157200,1,0,0:0:0:0:
475,192,157350,1,0,0:0:0:0:
329,192,157350,1,0,0:0:0:0:
182,192,157350,1,0,0:0:0:0:
36,192,157350,1,0,0:0:0:0:
475,192,157650,128,0,158100:0:0:0:0:
402,192,157650,128,0,158100:0:0:0:0:
109,192,157650,128,0,158100:0:0:0:0:
36,192,157650,128,0,158100:0:0:0:0:
182,192,158100,1,0,0:0:0:0:
256,192,158175,1,0,0:0:0:0:
329,192,158175,1,0,0:0:0:0:
475,192,158250,1,0,0:0:0:0:
402,192,158250,1,0,0:0:0:0:
182,192,158400,1,0,0:0:0:0:
109,192,158400,1,0,0:0:0:0:
329,192,158400,1,0,0:0:0:0:
402,192,158400,1,0,0:0:0:0:
475,192,158550,1,0,0:0:0:0:
402,192,158550,1,0,0:0:0:0:
109,192,158550,1,0,0:0:0:0:
36,192,158550,1,0,0:0:0:0:
402,192,158850,128,0,159150:0:0:0:0:
329,192,158850,128,0,159150:0:0:0:0:
182,192,158850,128,0,159150:0:0:0:0:
109,192,158850,128,0,159150:0:0:0:0:
256,192,159150,1,0,0:0:0:0:
182,192,159225,1,0,0:0:0:0:
109,192,159225,1,0,0:0:0:0:
256,192,159300,1,0,0:0:0:0:
329,192,159300,1,0,0:0:0:0:
475,192,159375,1,0,0:0:0:0:
402,192,159375,1,0,0:0:0:0:
256,192,159450,1,0,0:0:0:0:
182,192,159450,1,0,0:0:0:0:
109,192,159525,1,0,0:0:0:0:
36,192,159525,1,0,0:0:0:0:
475,192,159600,128,0,159750:0:0:0:0:
329,192,159600,128,0,159750:0:0:0:0:
256,192,159600,1,0,0:0:0:0:
182,192,159600,1,0,0:0:0:0:
402,192,159600,1,0,0:0:0:0:
109,192,159750,1,0,0:0:0:0:
475,192,159900,128,0,160050:0:0:0:0:
329,192,159900,128,0,160050:0:0:0:0:
36,192,159900,1,0,0:0:0:0:
182,192,159900,1,0,0:0:0:0:
256,192,159900,1,0,0:0:0:0:
109,192,160050,1,0,0:0:0:0:
182,192,160200,128,0,160350:0:0:0:0:
36,192,160200,128,0,160350:0:0:0:0:
402,192,160200,1,0,0:0:0:0:
329,192,160200,1,0,0:0:0:0:
256,192,160350,1,0,0:0:0:0:
182,192,160500,128,0,160650:0:0:0:0:
36,192,160500,128,0,160650:0:0:0:0:
475,192,160500,1,0,0:0:0:0:
402,192,160500,1,0,0:0:0:0:
329,192,160500,1,0,0:0:0:0:
256,192,160650,1,0,0:0:0:0:
402,192,160800,128,0,160950:0:0:0:0:
329,192,160800,128,0,160950:0:0:0:0:
182,192,160800,1,0,0:0:0:0:
36,192,160800,1,0,0:0:0:0:
109,192,160950,1,0,0:0:0:0:
402,192,161100,128,0,161250:0:0:0:0:
329,192,161100,128,0,161250:0:0:0:0:
256,192,161100,1,0,0:0:0:0:
182,192,161100,1,0,0:0:0:0:
36,192,161100,1,0,0:0:0:0:
475,192,161250,1,0,0:0:0:0:
182,192,161400,128,0,161550:0:0:0:0:
109,192,161400,128,0,161550:0:0:0:0:
256,192,161400,1,0,0:0:0:0:
402,192,161400,1,0,0:0:0:0:
475,192,161550,1,0,0:0:0:0:
109,192,161700,128,0,161850:0:0:0:0:
182,192,161700,128,0,161850:0:0:0:0:
402,192,161700,1,0,0:0:0:0:
329,192,161700,1,0,0:0:0:0:
256,192,161700,1,0,0:0:0:0:
36,192,161850,1,0,0:0:0:0:
256,192,162000,128,0,162150:0:0:0:0:
475,192,162000,128,0,162150:0:0:0:0:
109,192,162000,1,0,0:0:0:0:
329,192,162000,1,0,0:0:0:0:
182,192,162150,1,0,0:0:0:0:
475,192,162300,128,0,162450:0:0:0:0:
256,192,162300,128,0,162450:0:0:0:0:
36,192,162300,1,0,0:0:0:0:
109,192,162300,1,0,0:0:0:0:
329,192,162300,1,0,0:0:0:0:
182,192,162450,1,0,0:0:0:0:
329,192,162600,128,0,162750:0:0:0:0:
36,192,162600,128,0,162750:0:0:0:0:
256,192,162600,1,0,0:0:0:0:
402,192,162600,1,0,0:0:0:0:
475,192,162750,1,0,0:0:0:0:
36,192,162900,128,0,163050:0:0:0:0:
329,192,162900,128,0,163050:0:0:0:0:
402,192,162900,1,0,0:0:0:0:
256,192,162900,1,0,0:0:0:0:
109,192,162900,1,0,0:0:0:0:
182,192,163050,1,0,0:0:0:0:
475,192,163200,128,0,163275:0:0:0:0:
182,192,163200,128,0,163275:0:0:0:0:
329,192,163200,1,0,0:0:0:0:
109,192,163200,1,0,0:0:0:0:
256,192,163350,1,0,0:0:0:0:
402,192,163500,128,0,163575:0:0:0:0:
109,192,163500,128,0,163575:0:0:0:0:
329,192,163500,1,0,0:0:0:0:
182,192,163500,1,0,0:0:0:0:
36,192,163500,1,0,0:0:0:0:
256,192,163650,1,0,0:0:0:0:
329,192,163800,128,0,163875:0:0:0:0:
36,192,163800,128,0,163875:0:0:0:0:
475,192,163800,1,0,0:0:0:0:
182,192,163800,1,0,0:0:0:0:
256,192,163950,1,0,0:0:0:0:
109,192,164100,128,0,164250:0:0:0:0:
402,192,164100,128,0,164250:0:0:0:0:
329,192,164100,1,0,0:0:0:0:
475,192,164100,1,0,0:0:0:0:
182,192,164100,1,0,0:0:0:0:
475,192,164400,128,0,164700:0:0:0:0:
36,192,164400,128,0,164700:0:0:0:0:
329,192,164400,1,0,0:0:0:0:
182,192,164400,1,0,0:0:0:0:
256,192,164400,1,0,0:0:0:0:
402,192,164850,1,0,0:0:0:0:
182,192,164850,1,0,0:0:0:0:
329,192,164925,1,0,0:0:0:0:
109,192,164925,1,0,0:0:0:0:
475,192,165000,128,0,165300:0:0:0:0:
256,192,165000,1,0,0:0:0:0:
36,192,165000,1,0,0:0:0:0:
182,192,165000,1,0,0:0:0:0:
182,192,165150,1,0,0:0:0:0:
109,192,165150,1,0,0:0:0:0:
329,192,165150,1,0,0:0:0:0:
256,192,165450,1,0,0:0:0:0:
109,192,165450,1,0,0:0:0:0:
36,192,165450,1,0,0:0:0:0:
475,192,165600,128,0,165900:0:0:0:0:
36,192,165750,1,0,0:0:0:0:
256,192,165750,1,0,0:0:0:0:
109,192,165825,1,0,0:0:0:0:
329,192,165825,1,0,0:0:0:0:
182,192,165900,1,0,0:0:0:0:
256,192,165900,1,0,0:0:0:0:
402,192,165900,1,0,0:0:0:0:
109,192,165975,1,0,0:0:0:0:
329,192,165975,1,0,0:0:0:0:
182,192,166050,1,0,0:0:0:0:
402,192,166050,1,0,0:0:0:0:
256,192,166125,1,0,0:0:0:0:
475,192,166125,1,0,0:0:0:0:
329,192,166200,128,0,166500:0:0:0:0:
109,192,166200,128,0,166500:0:0:0:0:
36,192,166200,128,0,166800:0:0:0:0:
402,192,166200,1,0,0:0:0:0:
182,192,166200,1,0,0:0:0:0:
402,192,166800,128,0,167100:0:0:0:0:
109,192,166800,128,0,167100:0:0:0:0:
329,192,166800,1,0,0:0:0:0:
182,192,166800,1,0,0:0:0:0:
256,192,166800,1,0,0:0:0:0:
329,192,167250,1,0,0:0:0:0:
475,192,167250,1,0,0:0:0:0:
256,192,167325,1,0,0:0:0:0:
402,192,167325,1,0,0:0:0:0:
182,192,167400,1,0,0:0:0:0:
109,192,167400,1,0,0:0:0:0:
36,192,167400,1,0,0:0:0:0:
329,192,167400,1,0,0:0:0:0:
475,192,167550,1,0,0:0:0:0:
402,192,167550,1,0,0:0:0:0:
256,192,167550,1,0,0:0:0:0:
256,192,167850,1,0,0:0:0:0:
182,192,167850,1,0,0:0:0:0:
36,192,167850,1,0,0:0:0:0:
109,192,168150,1,0,0:0:0:0:
402,192,168150,1,0,0:0:0:0:
182,192,168225,1,0,0:0:0:0:
475,192,168225,1,0,0:0:0:0:
329,192,168300,1,0,0:0:0:0:
36,192,168300,1,0,0:0:0:0:
402,192,168375,1,0,0:0:0:0:
109,192,168375,1,0,0:0:0:0:
182,192,168450,1,0,0:0:0:0:
475,192,168450,1,0,0:0:0:0:
402,192,168525,1,0,0:0:0:0:
109,192,168525,1,0,0:0:0:0:
256,192,168600,1,0,0:0:0:0:
475,192,168600,1,0,0:0:0:0:
36,192,168600,1,0,0:0:0:0:
182,192,168675,1,0,0:0:0:0:
402,192,168675,1,0,0:0:0:0:
329,192,168750,1,0,0:0:0:0:
109,192,168750,1,0,0:0:0:0:
256,192,168825,1,0,0:0:0:0:
36,192,168825,1,0,0:0:0:0:
475,192,168900,1,0,0:0:0:0:
329,192,168900,1,0,0:0:0:0:
402,192,168975,1,0,0:0:0:0:
256,192,168975,1,0,0:0:0:0:
329,192,169050,1,0,0:0:0:0:
182,192,169050,1,0,0:0:0:0:
109,192,169125,1,0,0:0:0:0:
256,192,169125,1,0,0:0:0:0:
475,192,169200,128,0,169875:0:0:0:0:
36,192,169200,128,0,169875:0:0:0:0:
182,192,169200,1,0,0:0:0:0:
402,192,169200,128,0,169875:0:0:0:0:
329,192,169350,128,0,169875:0:0:0:0:
182,192,169500,128,0,169875:0:0:0:0:
109,192,169650,128,0,169875:0:0:0:0:
402,192,169950,1,0,0:0:0:0:
329,192,169950,1,0,0:0:0:0:
182,192,169950,1,0,0:0:0:0:
109,192,169950,1,0,0:0:0:0:
36,192,169950,1,0,0:0:0:0:
475,192,169950,1,0,0:0:0:0:
402,192,170250,128,0,171075:0:0:0:0:
109,192,170250,128,0,171075:0:0:0:0:
36,192,170250,1,0,0:0:0:0:
475,192,170250,1,0,0:0:0:0:
256,192,170250,1,0,0:0:0:0:
329,192,170550,128,0,171075:0:0:0:0:
256,192,170700,128,0,171075:0:0:0:0:
182,192,170850,128,0,171075:0:0:0:0:
402,192,171150,1,0,0:0:0:0:
329,192,171150,1,0,0:0:0:0:
256,192,171150,1,0,0:0:0:0:
109,192,171150,1,0,0:0:0:0:
182,192,171150,1,0,0:0:0:0:
329,192,171450,128,0,172275:0:0:0:0:
182,192,171450,128,0,172275:0:0:0:0:
36,192,171450,1,0,0:0:0:0:
475,192,171450,1,0,0:0:0:0:
109,192,171450,1,0,0:0:0:0:
475,192,171750,128,0,172275:0:0:0:0:
256,192,171900,128,0,172275:0:0:0:0:
36,192,172050,128,0,172275:0:0:0:0:
256,192,172350,1,0,0:0:0:0:
36,192,172350,1,0,0:0:0:0:
475,192,172350,1,0,0:0:0:0:
109,192,172350,128,0,172725:0:0:0:0:
402,192,172350,128,0,172725:0:0:0:0:
182,192,172800,1,0,0:0:0:0:
329,192,172800,1,0,0:0:0:0:
109,192,172800,1,0,0:0:0:0:
402,192,172800,1,0,0:0:0:0:
256,192,172950,1,0,0:0:0:0:
109,192,172950,1,0,0:0:0:0:
402,192,172950,1,0,0:0:0:0:
475,192,173100,1,0,0:0:0:0:
36,192,173100,1,0,0:0:0:0:
329,192,173250,1,0,0:0:0:0:
256,192,173250,1,0,0:0:0:0:
182,192,173250,1,0,0:0:0:0:
475,192,173550,128,0,173700:0:0:0:0:
402,192,173550,128,0,173700:0:0:0:0:
109,192,173550,128,0,173700:0:0:0:0:
36,192,173550,128,0,173700:0:0:0:0:
329,192,173850,128,0,174150:0:0:0:0:
182,192,173850,128,0,174300:0:0:0:0:
109,192,173850,1,0,0:0:0:0:
402,192,173850,1,0,0:0:0:0:
256,192,173850,1,0,0:0:0:0:
475,192,174150,1,0,0:0:0:0:
402,192,174150,1,0,0:0:0:0:
109,192,174300,1,0,0:0:0:0:
36,192,174300,1,0,0:0:0:0:
256,192,174300,1,0,0:0:0:0:
329,192,174300,1,0,0:0:0:0:
475,192,174375,1,0,0:0:0:0:
402,192,174450,1,0,0:0:0:0:
182,192,174450,1,0,0:0:0:0:
36,192,174450,1,0,0:0:0:0:
329,192,174525,1,0,0:0:0:0:
109,192,174600,1,0,0:0:0:0:
475,192,174600,1,0,0:0:0:0:
402,192,174600,1,0,0:0:0:0:
182,192,174675,1,0,0:0:0:0:
256,192,174750,1,0,0:0:0:0:
109,192,174750,1,0,0:0:0:0:
475,192,174750,1,0,0:0:0:0:
402,192,174825,1,0,0:0:0:0:
329,192,174900,1,0,0:0:0:0:
182,192,174900,1,0,0:0:0:0:
36,192,174900,1,0,0:0:0:0:
109,192,174900,1,0,0:0:0:0:
256,192,174975,1,0,0:0:0:0:
36,192,175050,1,0,0:0:0:0:
475,192,175050,1,0,0:0:0:0:
329,192,175050,1,0,0:0:0:0:
109,192,175125,1,0,0:0:0:0:
182,192,175200,1,0,0:0:0:0:
36,192,175200,1,0,0:0:0:0:
402,192,175200,1,0,0:0:0:0:
329,192,175275,1,0,0:0:0:0:
402,192,175350,1,0,0:0:0:0:
256,192,175350,1,0,0:0:0:0:
109,192,175350,1,0,0:0:0:0:
475,192,175425,1,0,0:0:0:0:
256,192,175500,1,0,0:0:0:0:
109,192,175500,1,0,0:0:0:0:
36,192,175500,1,0,0:0:0:0:
329,192,175500,1,0,0:0:0:0:
182,192,175575,1,0,0:0:0:0:
109,192,175650,1,0,0:0:0:0:
475,192,175650,1,0,0:0:0:0:
256,192,175650,1,0,0:0:0:0:
329,192,175725,1,0,0:0:0:0:
256,192,175800,1,0,0:0:0:0:
475,192,175800,1,0,0:0:0:0:
402,192,175800,1,0,0:0:0:0:
182,192,175875,1,0,0:0:0:0:
329,192,175950,1,0,0:0:0:0:
36,192,175950,1,0,0:0:0:0:
256,192,175950,1,0,0:0:0:0:
402,192,176025,1,0,0:0:0:0:
475,192,176100,1,0,0:0:0:0:
182,192,176100,1,0,0:0:0:0:
256,192,176100,1,0,0:0:0:0:
329,192,176100,1,0,0:0:0:0:
36,192,176175,1,0,0:0:0:0:
109,192,176250,1,0,0:0:0:0:
402,192,176250,1,0,0:0:0:0:
256,192,176250,1,0,0:0:0:0:
182,192,176325,1,0,0:0:0:0:
402,192,176400,1,0,0:0:0:0:
109,192,176400,1,0,0:0:0:0:
36,192,176400,1,0,0:0:0:0:
329,192,176475,1,0,0:0:0:0:
256,192,176550,1,0,0:0:0:0:
475,192,176550,1,0,0:0:0:0:
36,192,176550,1,0,0:0:0:0:
182,192,176625,1,0,0:0:0:0:
36,192,176700,128,0,177000:0:0:0:0:
256,192,176700,1,0,0:0:0:0:
475,192,176700,1,0,0:0:0:0:
402,192,176700,1,0,0:0:0:0:
109,192,176700,1,0,0:0:0:0:
329,192,176775,1,0,0:0:0:0:
475,192,176850,1,0,0:0:0:0:
109,192,176850,1,0,0:0:0:0:
256,192,176850,1,0,0:0:0:0:
402,192,176925,1,0,0:0:0:0:
329,192,177000,1,0,0:0:0:0:
182,192,177000,1,0,0:0:0:0:
256,192,177000,1,0,0:0:0:0:
109,192,177075,1,0,0:0:0:0:
182,192,177150,1,0,0:0:0:0:
329,192,177150,1,0,0:0:0:0:
475,192,177150,1,0,0:0:0:0:
256,192,177225,1,0,0:0:0:0:
475,192,177300,128,0,177600:0:0:0:0:
36,192,177300,1,0,0:0:0:0:
402,192,177300,1,0,0:0:0:0:
329,192,177300,1,0,0:0:0:0:
182,192,177300,1,0,0:0:0:0:
109,192,177375,1,0,0:0:0:0:
182,192,177450,1,0,0:0:0:0:
402,192,177450,1,0,0:0:0:0:
36,192,177450,1,0,0:0:0:0:
329,192,177525,1,0,0:0:0:0:
109,192,177600,128,0,177900:0:0:0:0:
256,192,177600,1,0,0:0:0:0:
402,192,177600,1,0,0:0:0:0:
182,192,177750,128,0,178050:0:0:0:0:
329,192,177750,1,0,0:0:0:0:
475,192,177750,1,0,0:0:0:0:
36,192,177900,128,0,178200:0:0:0:0:
402,192,177900,1,0,0:0:0:0:
329,192,177900,1,0,0:0:0:0:
256,192,177900,1,0,0:0:0:0:
109,192,178050,128,0,178350:0:0:0:0:
475,192,178050,1,0,0:0:0:0:
329,192,178050,1,0,0:0:0:0:
402,192,178200,128,0,178500:0:0:0:0:
256,192,178200,1,0,0:0:0:0:
182,192,178200,1,0,0:0:0:0:
329,192,178350,128,0,178650:0:0:0:0:
182,192,178350,1,0,0:0:0:0:
36,192,178350,1,0,0:0:0:0:
475,192,178500,128,0,178800:0:0:0:0:
256,192,178500,1,0,0:0:0:0:
182,192,178500,1,0,0:0:0:0:
109,192,178500,1,0,0:0:0:0:
402,192,178650,128,0,178800:0:0:0:0:
36,192,178650,1,0,0:0:0:0:
182,192,178650,1,0,0:0:0:0:
256,192,178800,1,0,0:0:0:0:
109,192,178800,1,0,0:0:0:0:
36,192,178800,1,0,0:0:0:0:
182,192,178875,1,0,0:0:0:0:
109,192,178950,1,0,0:0:0:0:
475,192,178950,1,0,0:0:0:0:
256,192,178950,1,0,0:0:0:0:
329,192,179025,1,0,0:0:0:0:
256,192,179100,1,0,0:0:0:0:
475,192,179100,1,0,0:0:0:0:
402,192,179100,1,0,0:0:0:0:
36,192,179100,1,0,0:0:0:0:
182,192,179175,1,0,0:0:0:0:
329,192,179250,1,0,0:0:0:0:
109,192,179250,1,0,0:0:0:0:
475,192,179250,1,0,0:0:0:0:
402,192,179325,1,0,0:0:0:0:
475,192,179400,1,0,0:0:0:0:
256,192,179400,1,0,0:0:0:0:
36,192,179400,1,0,0:0:0:0:
182,192,179475,1,0,0:0:0:0:
256,192,179550,1,0,0:0:0:0:
402,192,179550,1,0,0:0:0:0:
109,192,179550,1,0,0:0:0:0:
329,192,179625,1,0,0:0:0:0:
182,192,179700,1,0,0:0:0:0:
475,192,179700,1,0,0:0:0:0:
402,192,179700,1,0,0:0:0:0:
256,192,179700,1,0,0:0:0:0:
109,192,179775,1,0,0:0:0:0:
36,192,179850,1,0,0:0:0:0:
256,192,179850,1,0,0:0:0:0:
475,192,179850,1,0,0:0:0:0:
402,192,179925,1,0,0:0:0:0:
329,192,180000,1,0,0:0:0:0:
182,192,180000,1,0,0:0:0:0:
36,192,180000,1,0,0:0:0:0:
256,192,180075,1,0,0:0:0:0:
109,192,180150,1,0,0:0:0:0:
475,192,180150,1,0,0:0:0:0:
329,192,180150,1,0,0:0:0:0:
182,192,180225,1,0,0:0:0:0:
256,192,180300,1,0,0:0:0:0:
109,192,180300,1,0,0:0:0:0:
36,192,180300,1,0,0:0:0:0:
329,192,180300,1,0,0:0:0:0:
475,192,180375,1,0,0:0:0:0:
402,192,180450,1,0,0:0:0:0:
182,192,180450,1,0,0:0:0:0:
36,192,180450,1,0,0:0:0:0:
329,192,180525,1,0,0:0:0:0:
36,192,180600,1,0,0:0:0:0:
256,192,180600,1,0,0:0:0:0:
475,192,180600,1,0,0:0:0:0:
109,192,180675,1,0,0:0:0:0:
182,192,180750,1,0,0:0:0:0:
475,192,180750,1,0,0:0:0:0:
36,192,180750,1,0,0:0:0:0:
329,192,180825,1,0,0:0:0:0:
402,192,180900,1,0,0:0:0:0:
256,192,180900,1,0,0:0:0:0:
36,192,180900,1,0,0:0:0:0:
182,192,180900,1,0,0:0:0:0:
475,192,180975,1,0,0:0:0:0:
109,192,181050,1,0,0:0:0:0:
256,192,181050,1,0,0:0:0:0:
402,192,181050,1,0,0:0:0:0:
182,192,181125,1,0,0:0:0:0:
256,192,181200,1,0,0:0:0:0:
36,192,181200,1,0,0:0:0:0:
475,192,181200,1,0,0:0:0:0:
402,192,181275,1,0,0:0:0:0:
329,192,181350,1,0,0:0:0:0:
182,192,181350,1,0,0:0:0:0:
36,192,181350,1,0,0:0:0:0:
256,192,181425,1,0,0:0:0:0:
475,192,181500,1,0,0:0:0:0:
182,192,181500,1,0,0:0:0:0:
109,192,181500,1,0,0:0:0:0:
36,192,181500,1,0,0:0:0:0:
402,192,181575,1,0,0:0:0:0:
329,192,181650,1,0,0:0:0:0:
256,192,181650,1,0,0:0:0:0:
36,192,181650,1,0,0:0:0:0:
109,192,181725,1,0,0:0:0:0:
182,192,181800,1,0,0:0:0:0:
475,192,181800,1,0,0:0:0:0:
402,192,181800,1,0,0:0:0:0:
256,192,181875,1,0,0:0:0:0:
36,192,181950,1,0,0:0:0:0:
329,192,181950,1,0,0:0:0:0:
475,192,181950,1,0,0:0:0:0:
109,192,182025,1,0,0:0:0:0:
182,192,182100,1,0,0:0:0:0:
402,192,182100,1,0,0:0:0:0:
329,192,182100,1,0,0:0:0:0:
36,192,182100,1,0,0:0:0:0:
475,192,182175,1,0,0:0:0:0:
402,192,182250,1,0,0:0:0:0:
256,192,182250,1,0,0:0:0:0:
109,192,182250,1,0,0:0:0:0:
329,192,182325,1,0,0:0:0:0:
256,192,182400,1,0,0:0:0:0:
36,192,182400,1,0,0:0:0:0:
475,192,182400,1,0,0:0:0:0:
182,192,182400,1,0,0:0:0:0:
329,192,182475,1,0,0:0:0:0:
109,192,182475,1,0,0:0:0:0:
182,192,182550,1,0,0:0:0:0:
402,192,182550,1,0,0:0:0:0:
36,192,182550,1,0,0:0:0:0:
475,192,182625,1,0,0:0:0:0:
256,192,182625,1,0,0:0:0:0:
402,192,182700,1,0,0:0:0:0:
182,192,182700,1,0,0:0:0:0:
182,192,182850,1,0,0:0:0:0:
36,192,182850,1,0,0:0:0:0:
475,192,182850,1,0,0:0:0:0:
402,192,182850,1,0,0:0:0:0:
109,192,182925,1,0,0:0:0:0:
256,192,182925,1,0,0:0:0:0:
182,192,183000,1,0,0:0:0:0:
329,192,183000,1,0,0:0:0:0:
256,192,183075,1,0,0:0:0:0:
402,192,183075,1,0,0:0:0:0:
329,192,183150,1,0,0:0:0:0:
475,192,183150,1,0,0:0:0:0:
109,192,183225,1,0,0:0:0:0:
256,192,183225,1,0,0:0:0:0:
182,192,183300,1,0,0:0:0:0:
329,192,183300,1,0,0:0:0:0:
256,192,183375,1,0,0:0:0:0:
402,192,183375,1,0,0:0:0:0:
475,192,183450,1,0,0:0:0:0:
182,192,183450,128,0,183750:0:0:0:0:
329,192,183450,128,0,183900:0:0:0:0:
109,192,183450,1,0,0:0:0:0:
36,192,183450,1,0,0:0:0:0:
109,192,183750,1,0,0:0:0:0:
36,192,183750,1,0,0:0:0:0:
475,192,183900,1,0,0:0:0:0:
402,192,183900,1,0,0:0:0:0:
182,192,183900,1,0,0:0:0:0:
256,192,183900,1,0,0:0:0:0:
36,192,183975,1,0,0:0:0:0:
109,192,184050,1,0,0:0:0:0:
329,192,184050,1,0,0:0:0:0:
475,192,184050,1,0,0:0:0:0:
182,192,184125,1,0,0:0:0:0:
402,192,184200,1,0,0:0:0:0:
36,192,184200,1,0,0:0:0:0:
109,192,184200,1,0,0:0:0:0:
329,192,184275,1,0,0:0:0:0:
256,192,184350,1,0,0:0:0:0:
402,192,184350,1,0,0:0:0:0:
36,192,184350,1,0,0:0:0:0:
109,192,184425,1,0,0:0:0:0:
182,192,184500,1,0,0:0:0:0:
329,192,184500,1,0,0:0:0:0:
475,192,184500,1,0,0:0:0:0:
402,192,184500,1,0,0:0:0:0:
256,192,184575,1,0,0:0:0:0:
475,192,184650,1,0,0:0:0:0:
36,192,184650,1,0,0:0:0:0:
182,192,184650,1,0,0:0:0:0:
402,192,184725,1,0,0:0:0:0:
329,192,184800,1,0,0:0:0:0:
475,192,184800,1,0,0:0:0:0:
109,192,184800,1,0,0:0:0:0:
182,192,184875,1,0,0:0:0:0:
109,192,184950,1,0,0:0:0:0:
256,192,184950,1,0,0:0:0:0:
402,192,184950,1,0,0:0:0:0:
36,192,185025,1,0,0:0:0:0:
256,192,185100,1,0,0:0:0:0:
402,192,185100,1,0,0:0:0:0:
475,192,185100,1,0,0:0:0:0:
182,192,185100,1,0,0:0:0:0:
329,192,185175,1,0,0:0:0:0:
402,192,185250,1,0,0:0:0:0:
36,192,185250,1,0,0:0:0:0:
256,192,185250,1,0,0:0:0:0:
182,192,185325,1,0,0:0:0:0:
256,192,185400,1,0,0:0:0:0:
36,192,185400,1,0,0:0:0:0:
109,192,185400,1,0,0:0:0:0:
329,192,185475,1,0,0:0:0:0:
182,192,185550,1,0,0:0:0:0:
475,192,185550,1,0,0:0:0:0:
256,192,185550,1,0,0:0:0:0:
109,192,185625,1,0,0:0:0:0:
36,192,185700,1,0,0:0:0:0:
329,192,185700,1,0,0:0:0:0:
256,192,185700,1,0,0:0:0:0:
182,192,185700,1,0,0:0:0:0:
475,192,185775,1,0,0:0:0:0:
402,192,185850,1,0,0:0:0:0:
109,192,185850,1,0,0:0:0:0:
256,192,185850,1,0,0:0:0:0:
329,192,185925,1,0,0:0:0:0:
256,192,186000,1,0,0:0:0:0:
109,192,186000,1,0,0:0:0:0:
402,192,186000,1,0,0:0:0:0:
475,192,186000,1,0,0:0:0:0:
329,192,186150,1,0,0:0:0:0:
475,192,186150,1,0,0:0:0:0:
182,192,186150,1,0,0:0:0:0:
182,192,186300,128,0,186525:0:0:0:0:
256,192,186300,128,0,186525:0:0:0:0:
475,192,186300,128,0,186525:0:0:0:0:
402,192,186300,128,0,186525:0:0:0:0:
182,192,186600,1,0,0:0:0:0:
329,192,186600,1,0,0:0:0:0:
402,192,186600,1,0,0:0:0:0:
109,192,186750,1,0,0:0:0:0:
256,192,186750,1,0,0:0:0:0:
329,192,186750,1,0,0:0:0:0:
256,192,186900,128,0,187125:0:0:0:0:
329,192,186900,128,0,187125:0:0:0:0:
36,192,186900,128,0,187125:0:0:0:0:
109,192,186900,128,0,187125:0:0:0:0:
329,192,187200,128,0,187350:0:0:0:0:
475,192,187200,1,0,0:0:0:0:
109,192,187200,1,0,0:0:0:0:
182,192,187200,1,0,0:0:0:0:
182,192,187350,128,0,187500:0:0:0:0:
36,192,187350,128,0,187650:0:0:0:0:
256,192,187350,1,0,0:0:0:0:
109,192,187350,1,0,0:0:0:0:
329,192,187500,128,0,187800:0:0:0:0:
475,192,187500,128,0,187650:0:0:0:0:
109,192,187500,1,0,0:0:0:0:
182,192,187650,128,0,187800:0:0:0:0:
109,192,187650,128,0,187950:0:0:0:0:
256,192,187650,1,0,0:0:0:0:
402,192,187650,1,0,0:0:0:0:
475,192,187800,128,0,187950:0:0:0:0:
402,192,187800,128,0,188100:0:0:0:0:
36,192,187800,1,0,0:0:0:0:
182,192,187950,128,0,188250:0:0:0:0:
36,192,187950,128,0,188100:0:0:0:0:
329,192,187950,1,0,0:0:0:0:
256,192,187950,1,0,0:0:0:0:
329,192,188100,128,0,188250:0:0:0:0:
475,192,188100,128,0,188400:0:0:0:0:
109,192,188100,1,0,0:0:0:0:
109,192,188250,128,0,188400:0:0:0:0:
36,192,188250,128,0,188400:0:0:0:0:
256,192,188250,1,0,0:0:0:0:
402,192,188250,1,0,0:0:0:0:
256,192,188400,1,0,0:0:0:0:
256,192,188700,1,0,0:0:0:0:
36,192,188700,1,0,0:0:0:0:
109,192,188700,1,0,0:0:0:0:
475,192,188700,1,0,0:0:0:0:
329,192,188775,1,0,0:0:0:0:
182,192,188850,1,0,0:0:0:0:
402,192,188850,1,0,0:0:0:0:
36,192,188850,1,0,0:0:0:0:
109,192,188925,1,0,0:0:0:0:
36,192,189000,1,0,0:0:0:0:
256,192,189000,1,0,0:0:0:0:
475,192,189000,1,0,0:0:0:0:
329,192,189075,1,0,0:0:0:0:
256,192,189150,1,0,0:0:0:0:
109,192,189150,1,0,0:0:0:0:
402,192,189150,1,0,0:0:0:0:
182,192,189225,1,0,0:0:0:0:
329,192,189300,1,0,0:0:0:0:
36,192,189300,1,0,0:0:0:0:
109,192,189300,1,0,0:0:0:0:
256,192,189300,1,0,0:0:0:0:
402,192,189375,1,0,0:0:0:0:
475,192,189450,1,0,0:0:0:0:
256,192,189450,1,0,0:0:0:0:
36,192,189450,1,0,0:0:0:0:
109,192,189525,1,0,0:0:0:0:
182,192,189600,1,0,0:0:0:0:
329,192,189600,1,0,0:0:0:0:
475,192,189600,1,0,0:0:0:0:
256,192,189675,1,0,0:0:0:0:
402,192,189750,1,0,0:0:0:0:
36,192,189750,1,0,0:0:0:0:
182,192,189750,1,0,0:0:0:0:
329,192,189825,1,0,0:0:0:0:
256,192,189900,1,0,0:0:0:0:
402,192,189900,1,0,0:0:0:0:
475,192,189900,1,0,0:0:0:0:
182,192,189900,1,0,0:0:0:0:
36,192,189975,1,0,0:0:0:0:
109,192,190050,1,0,0:0:0:0:
329,192,190050,1,0,0:0:0:0:
475,192,190050,1,0,0:0:0:0:
182,192,190125,1,0,0:0:0:0:
475,192,190200,1,0,0:0:0:0:
256,192,190200,1,0,0:0:0:0:
109,192,190200,1,0,0:0:0:0:
36,192,190200,1,0,0:0:0:0:
402,192,190275,1,0,0:0:0:0:
182,192,190275,1,0,0:0:0:0:
329,192,190350,1,0,0:0:0:0:
109,192,190350,1,0,0:0:0:0:
475,192,190350,1,0,0:0:0:0:
256,192,190425,1,0,0:0:0:0:
36,192,190425,1,0,0:0:0:0:
109,192,190500,1,0,0:0:0:0:
329,192,190500,1,0,0:0:0:0:
475,192,190500,1,0,0:0:0:0:
402,192,190575,1,0,0:0:0:0:
182,192,190575,1,0,0:0:0:0:
256,192,190650,1,0,0:0:0:0:
475,192,190650,1,0,0:0:0:0:
36,192,190650,1,0,0:0:0:0:
402,192,190725,1,0,0:0:0:0:
182,192,190725,1,0,0:0:0:0:
109,192,190800,128,0,190950:0:0:0:0:
475,192,190800,1,0,0:0:0:0:
329,192,190800,1,0,0:0:0:0:
256,192,190800,1,0,0:0:0:0:
36,192,190950,128,0,191100:0:0:0:0:
402,192,190950,1,0,0:0:0:0:
182,192,191100,128,0,191250:0:0:0:0:
475,192,191100,1,0,0:0:0:0:
329,192,191100,1,0,0:0:0:0:
256,192,191250,1,0,0:0:0:0:
475,192,191400,128,0,191550:0:0:0:0:
402,192,191550,128,0,191700:0:0:0:0:
109,192,191550,1,0,0:0:0:0:
36,192,191550,1,0,0:0:0:0:
329,192,191700,128,0,191850:0:0:0:0:
256,192,191700,1,0,0:0:0:0:
36,192,191700,1,0,0:0:0:0:
182,192,191700,1,0,0:0:0:0:
109,192,191850,1,0,0:0:0:0:
182,192,192000,128,0,192150:0:0:0:0:
475,192,192000,1,0,0:0:0:0:
402,192,192000,1,0,0:0:0:0:
109,192,192150,128,0,192300:0:0:0:0:
329,192,192150,1,0,0:0:0:0:
36,192,192300,128,0,192450:0:0:0:0:
402,192,192300,1,0,0:0:0:0:
475,192,192300,1,0,0:0:0:0:
256,192,192300,1,0,0:0:0:0:
109,192,192450,128,0,192750:0:0:0:0:
182,192,192450,1,0,0:0:0:0:
329,192,192600,128,0,192750:0:0:0:0:
402,192,192750,128,0,192900:0:0:0:0:
182,192,192750,1,0,0:0:0:0:
256,192,192750,1,0,0:0:0:0:
475,192,192900,128,0,193050:0:0:0:0:
182,192,192900,1,0,0:0:0:0:
109,192,192900,1,0,0:0:0:0:
36,192,192900,1,0,0:0:0:0:
402,192,193050,128,0,193350:0:0:0:0:
256,192,193050,1,0,0:0:0:0:
36,192,193200,1,0,0:0:0:0:
329,192,193200,1,0,0:0:0:0:
256,192,193200,1,0,0:0:0:0:
182,192,193350,1,0,0:0:0:0:
475,192,193350,1,0,0:0:0:0:
109,192,193500,1,0,0:0:0:0:
402,192,193500,1,0,0:0:0:0:
329,192,193500,1,0,0:0:0:0:
256,192,193500,1,0,0:0:0:0:
182,192,193650,1,0,0:0:0:0:
475,192,193800,1,0,0:0:0:0:
329,192,193950,1,0,0:0:0:0:
109,192,193950,1,0,0:0:0:0:
36,192,193950,1,0,0:0:0:0:
402,192,194100,1,0,0:0:0:0:
256,192,194100,1,0,0:0:0:0:
182,192,194100,1,0,0:0:0:0:
36,192,194100,1,0,0:0:0:0:
329,192,194250,1,0,0:0:0:0:
109,192,194400,1,0,0:0:0:0:
256,192,194400,1,0,0:0:0:0:
475,192,194400,1,0,0:0:0:0:
402,192,194550,1,0,0:0:0:0:
36,192,194550,1,0,0:0:0:0:
182,192,194700,1,0,0:0:0:0:
256,192,194700,1,0,0:0:0:0:
475,192,194700,1,0,0:0:0:0:
109,192,194700,1,0,0:0:0:0:
329,192,194850,1,0,0:0:0:0:
475,192,195000,1,0,0:0:0:0:
402,192,195000,1,0,0:0:0:0:
36,192,195000,128,0,195075:0:0:0:0:
109,192,195000,1,0,0:0:0:0:
182,192,195000,128,0,195075:0:0:0:0:
109,192,195300,1,0,0:0:0:0:
36,192,195300,1,0,0:0:0:0:
475,192,195300,128,0,195375:0:0:0:0:
329,192,195300,128,0,195375:0:0:0:0:
402,192,195300,1,0,0:0:0:0:
329,192,195600,1,0,0:0:0:0:
256,192,195600,1,0,0:0:0:0:
182,192,195600,1,0,0:0:0:0:
109,192,195600,1,0,0:0:0:0:
256,192,195750,128,0,195900:0:0:0:0:
182,192,195750,128,0,195900:0:0:0:0:
109,192,195750,128,0,195900:0:0:0:0:
36,192,195750,128,0,195900:0:0:0:0:
402,192,196050,1,0,0:0:0:0:
329,192,196050,1,0,0:0:0:0:
256,192,196050,1,0,0:0:0:0:
182,192,196050,1,0,0:0:0:0:
256,192,196200,128,0,196350:0:0:0:0:
329,192,196200,128,0,196350:0:0:0:0:
402,192,196200,128,0,196350:0:0:0:0:
475,192,196200,128,0,196350:0:0:0:0:
402,192,196500,1,0,0:0:0:0:
329,192,196500,1,0,0:0:0:0:
182,192,196500,1,0,0:0:0:0:
109,192,196500,1,0,0:0:0:0:
329,192,196650,128,0,196800:0:0:0:0:
256,192,196650,128,0,196800:0:0:0:0:
109,192,196650,128,0,196800:0:0:0:0:
36,192,196650,128,0,196800:0:0:0:0:
329,192,196950,1,0,0:0:0:0:
402,192,196950,1,0,0:0:0:0:
182,192,196950,1,0,0:0:0:0:
109,192,196950,1,0,0:0:0:0:
475,192,197100,128,0,197250:0:0:0:0:
402,192,197100,128,0,197250:0:0:0:0:
256,192,197100,128,0,197250:0:0:0:0:
182,192,197100,128,0,197250:0:0:0:0:
329,192,197400,1,0,0:0:0:0:
402,192,197400,1,0,0:0:0:0:
182,192,197400,1,0,0:0:0:0:
109,192,197400,1,0,0:0:0:0:
475,192,197550,128,0,197700:0:0:0:0:
182,192,197550,128,0,197700:0:0:0:0:
36,192,197550,128,0,197700:0:0:0:0:
329,192,197550,128,0,197700:0:0:0:0:
475,192,197850,128,0,198825:0:0:0:0:
402,192,197850,128,0,198525:0:0:0:0:
109,192,197850,128,0,198675:0:0:0:0:
36,192,197850,128,0,198975:0:0:0:0:
256,192,198150,128,0,198225:0:0:0:0:
329,192,198300,128,0,198375:0:0:0:0:
182,192,198450,128,0,198525:0:0:0:0:
402,192,198600,128,0,198675:0:0:0:0:
109,192,198750,128,0,198825:0:0:0:0:
475,192,198900,128,0,198975:0:0:0:0:
36,192,199050,128,0,199125:0:0:0:0:
256,192,199200,1,0,0:0:0:0:
329,192,199200,1,0,0:0:0:0:
36,192,199500,128,0,199650:0:0:0:0:
109,192,199500,128,0,199650:0:0:0:0:
329,192,199500,1,0,0:0:0:0:
402,192,199500,1,0,0:0:0:0:
475,192,199650,5,0,0:0:0:0:
256,192,199650,1,0,0:0:0:0:
402,192,199700,1,0,0:0:0:0:
182,192,199700,1,0,0:0:0:0:
329,192,199750,1,0,0:0:0:0:
109,192,199750,1,0,0:0:0:0:
256,192,199800,1,0,0:0:0:0:
36,192,199800,1,0,0:0:0:0:
182,192,199875,1,0,0:0:0:0:
109,192,199875,1,0,0:0:0:0:
329,192,199950,1,0,0:0:0:0:
36,192,199950,1,0,0:0:0:0:
182,192,200025,1,0,0:0:0:0:
256,192,200025,1,0,0:0:0:0:
109,192,200100,1,0,0:0:0:0:
402,192,200100,1,0,0:0:0:0:
329,192,200175,1,0,0:0:0:0:
256,192,200175,1,0,0:0:0:0:
182,192,200250,1,0,0:0:0:0:
475,192,200250,1,0,0:0:0:0:
329,192,200325,1,0,0:0:0:0:
402,192,200325,1,0,0:0:0:0:
182,192,200400,1,0,0:0:0:0:
109,192,200400,1,0,0:0:0:0:
36,192,200400,1,0,0:0:0:0:
256,192,200400,1,0,0:0:0:0:
256,192,200550,128,0,200775:0:0:0:0:
182,192,200550,128,0,200775:0:0:0:0:
109,192,200550,128,0,200775:0:0:0:0:
36,192,200550,128,0,200775:0:0:0:0:
402,192,200850,1,0,0:0:0:0:
329,192,200850,1,0,0:0:0:0:
402,192,200925,1,0,0:0:0:0:
329,192,200925,1,0,0:0:0:0:
256,192,201000,128,0,201075:0:0:0:0:
109,192,201000,128,0,201075:0:0:0:0:
475,192,201150,1,0,0:0:0:0:
402,192,201150,1,0,0:0:0:0:
475,192,201225,1,0,0:0:0:0:
402,192,201225,1,0,0:0:0:0:
182,192,201300,128,0,201375:0:0:0:0:
329,192,201300,128,0,201375:0:0:0:0:
36,192,201450,1,0,0:0:0:0:
256,192,201450,1,0,0:0:0:0:
36,192,201525,1,0,0:0:0:0:
256,192,201525,1,0,0:0:0:0:
109,192,201600,128,0,201675:0:0:0:0:
402,192,201600,128,0,201675:0:0:0:0:
329,192,201750,1,0,0:0:0:0:
182,192,201750,1,0,0:0:0:0:
182,192,201825,1,0,0:0:0:0:
329,192,201825,1,0,0:0:0:0:
256,192,201900,128,0,201975:0:0:0:0:
475,192,201900,128,0,201975:0:0:0:0:
109,192,202050,1,0,0:0:0:0:
36,192,202050,1,0,0:0:0:0:
109,192,202125,1,0,0:0:0:0:
36,192,202125,1,0,0:0:0:0:
402,192,202200,128,0,202275:0:0:0:0:
256,192,202200,128,0,202275:0:0:0:0:
475,192,202350,1,0,0:0:0:0:
182,192,202350,1,0,0:0:0:0:
402,192,202425,1,0,0:0:0:0:
109,192,202425,1,0,0:0:0:0:
36,192,202500,1,0,0:0:0:0:
256,192,202500,1,0,0:0:0:0:
182,192,202500,1,0,0:0:0:0:
109,192,202575,1,0,0:0:0:0:
329,192,202575,1,0,0:0:0:0:
475,192,202575,1,0,0:0:0:0:
402,192,202650,1,0,0:0:0:0:
182,192,202650,1,0,0:0:0:0:
36,192,202650,1,0,0:0:0:0:
256,192,202725,1,0,0:0:0:0:
475,192,202725,1,0,0:0:0:0:
109,192,202725,1,0,0:0:0:0:
402,192,202800,1,0,0:0:0:0:
329,192,202800,1,0,0:0:0:0:
182,192,202800,1,0,0:0:0:0:
36,192,202800,1,0,0:0:0:0:
182,192,202950,128,0,203175:0:0:0:0:
329,192,202950,128,0,203175:0:0:0:0:
402,192,202950,128,0,203175:0:0:0:0:
36,192,202950,128,0,203175:0:0:0:0:
256,192,203250,1,0,0:0:0:0:
109,192,203250,1,0,0:0:0:0:
109,192,203325,1,0,0:0:0:0:
256,192,203325,1,0,0:0:0:0:
329,192,203400,128,0,203475:0:0:0:0:
475,192,203400,128,0,203475:0:0:0:0:
182,192,203550,1,0,0:0:0:0:
36,192,203550,1,0,0:0:0:0:
36,192,203625,1,0,0:0:0:0:
182,192,203625,1,0,0:0:0:0:
402,192,203700,128,0,203775:0:0:0:0:
256,192,203700,128,0,203775:0:0:0:0:
182,192,203850,1,0,0:0:0:0:
109,192,203850,1,0,0:0:0:0:
182,192,203925,1,0,0:0:0:0:
109,192,203925,1,0,0:0:0:0:
36,192,204000,1,0,0:0:0:0:
329,192,204000,1,0,0:0:0:0:
402,192,204075,1,0,0:0:0:0:
109,192,204075,1,0,0:0:0:0:
475,192,204150,1,0,0:0:0:0:
182,192,204150,1,0,0:0:0:0:
329,192,204150,1,0,0:0:0:0:
256,192,204225,1,0,0:0:0:0:
36,192,204225,1,0,0:0:0:0:
402,192,204225,1,0,0:0:0:0:
475,192,204300,1,0,0:0:0:0:
182,192,204300,1,0,0:0:0:0:
402,192,204375,1,0,0:0:0:0:
109,192,204375,1,0,0:0:0:0:
329,192,204450,1,0,0:0:0:0:
36,192,204450,1,0,0:0:0:0:
182,192,204450,1,0,0:0:0:0:
475,192,204525,1,0,0:0:0:0:
256,192,204525,1,0,0:0:0:0:
109,192,204525,1,0,0:0:0:0:
36,192,204600,1,0,0:0:0:0:
402,192,204600,1,0,0:0:0:0:
475,192,204675,1,0,0:0:0:0:
182,192,204675,1,0,0:0:0:0:
402,192,204750,1,0,0:0:0:0:
109,192,204750,1,0,0:0:0:0:
329,192,204825,1,0,0:0:0:0:
36,192,204825,1,0,0:0:0:0:
475,192,204825,1,0,0:0:0:0:
109,192,204900,1,0,0:0:0:0:
256,192,204900,1,0,0:0:0:0:
402,192,204900,1,0,0:0:0:0:
182,192,204975,1,0,0:0:0:0:
329,192,204975,1,0,0:0:0:0:
256,192,205050,1,0,0:0:0:0:
402,192,205050,1,0,0:0:0:0:
36,192,205050,1,0,0:0:0:0:
329,192,205125,1,0,0:0:0:0:
475,192,205125,1,0,0:0:0:0:
109,192,205125,1,0,0:0:0:0:
182,192,205200,1,0,0:0:0:0:
36,192,205200,1,0,0:0:0:0:
256,192,205200,1,0,0:0:0:0:
402,192,205200,1,0,0:0:0:0:
182,192,205350,128,0,205575:0:0:0:0:
36,192,205350,128,0,205575:0:0:0:0:
402,192,205350,128,0,205575:0:0:0:0:
256,192,205350,128,0,205575:0:0:0:0:
109,192,205650,1,0,0:0:0:0:
182,192,205650,1,0,0:0:0:0:
182,192,205725,1,0,0:0:0:0:
109,192,205725,1,0,0:0:0:0:
402,192,205800,128,0,205875:0:0:0:0:
256,192,205800,128,0,205875:0:0:0:0:
109,192,205950,1,0,0:0:0:0:
36,192,205950,1,0,0:0:0:0:
36,192,206025,1,0,0:0:0:0:
109,192,206025,1,0,0:0:0:0:
329,192,206100,128,0,206175:0:0:0:0:
182,192,206100,128,0,206175:0:0:0:0:
256,192,206250,1,0,0:0:0:0:
475,192,206250,1,0,0:0:0:0:
256,192,206325,1,0,0:0:0:0:
475,192,206325,1,0,0:0:0:0:
402,192,206400,128,0,206475:0:0:0:0:
109,192,206400,128,0,206475:0:0:0:0:
36,192,206400,1,0,0:0:0:0:
329,192,206550,1,0,0:0:0:0:
182,192,206550,1,0,0:0:0:0:
475,192,206550,1,0,0:0:0:0:
182,192,206625,1,0,0:0:0:0:
329,192,206625,1,0,0:0:0:0:
36,192,206700,128,0,206775:0:0:0:0:
256,192,206700,128,0,206775:0:0:0:0:
475,192,206700,1,0,0:0:0:0:
402,192,206700,1,0,0:0:0:0:
329,192,206850,1,0,0:0:0:0:
475,192,206850,1,0,0:0:0:0:
182,192,206850,1,0,0:0:0:0:
109,192,206900,1,0,0:0:0:0:
329,192,206925,1,0,0:0:0:0:
475,192,206925,1,0,0:0:0:0:
36,192,206950,1,0,0:0:0:0:
109,192,207000,1,0,0:0:0:0:
402,192,207000,1,0,0:0:0:0:
256,192,207000,1,0,0:0:0:0:
182,192,207100,1,0,0:0:0:0:
329,192,207100,1,0,0:0:0:0:
36,192,207100,1,0,0:0:0:0:
256,192,207200,1,0,0:0:0:0:
475,192,207200,1,0,0:0:0:0:
109,192,207200,1,0,0:0:0:0:
329,192,207300,1,0,0:0:0:0:
36,192,207300,1,0,0:0:0:0:
182,192,207300,1,0,0:0:0:0:
109,192,207400,1,0,0:0:0:0:
402,192,207400,1,0,0:0:0:0:
256,192,207400,1,0,0:0:0:0:
36,192,207500,1,0,0:0:0:0:
475,192,207500,1,0,0:0:0:0:
182,192,207500,1,0,0:0:0:0:
402,192,207600,1,0,0:0:0:0:
329,192,207600,1,0,0:0:0:0:
256,192,207600,1,0,0:0:0:0:
109,192,207600,1,0,0:0:0:0:
402,192,207750,128,0,207975:0:0:0:0:
329,192,207750,128,0,207975:0:0:0:0:
256,192,207750,128,0,207975:0:0:0:0:
109,192,207750,128,0,207975:0:0:0:0:
109,192,208050,1,0,0:0:0:0:
182,192,208050,1,0,0:0:0:0:
256,192,208050,1,0,0:0:0:0:
402,192,208050,1,0,0:0:0:0:
256,192,208200,128,0,208425:0:0:0:0:
402,192,208200,128,0,208425:0:0:0:0:
182,192,208200,128,0,208425:0:0:0:0:
109,192,208200,128,0,208425:0:0:0:0:
109,192,208500,1,0,0:0:0:0:
182,192,208500,1,0,0:0:0:0:
329,192,208500,1,0,0:0:0:0:
402,192,208500,1,0,0:0:0:0:
256,192,208500,1,0,0:0:0:0:
182,192,208650,128,0,209000:0:0:0:0:
329,192,208650,128,0,209100:0:0:0:0:
109,192,208650,128,0,209000:0:0:0:0:
402,192,208650,128,0,209100:0:0:0:0:
36,192,208650,128,0,209200:0:0:0:0:
475,192,208650,128,0,209300:0:0:0:0:
182,192,209100,1,0,0:0:0:0:
109,192,209100,1,0,0:0:0:0:
329,192,209200,1,0,0:0:0:0:
402,192,209200,1,0,0:0:0:0:
36,192,209300,1,0,0:0:0:0:
109,192,209300,1,0,0:0:0:0:
182,192,209300,1,0,0:0:0:0:
402,192,209400,1,0,0:0:0:0:
475,192,209400,1,0,0:0:0:0:
329,192,209400,1,0,0:0:0:0:
182,192,209500,1,0,0:0:0:0:
109,192,209500,1,0,0:0:0:0:
256,192,209500,1,0,0:0:0:0:
329,192,209600,1,0,0:0:0:0:
402,192,209600,1,0,0:0:0:0:
475,192,209600,1,0,0:0:0:0:
182,192,209700,1,0,0:0:0:0:
256,192,209700,1,0,0:0:0:0:
36,192,209700,1,0,0:0:0:0:
109,192,209700,1,0,0:0:0:0:
402,192,210000,128,0,210300:0:0:0:0:
109,192,210000,128,0,210300:0:0:0:0:
182,192,210000,128,0,210300:0:0:0:0:
329,192,210000,1,0,0:0:0:0:
475,192,210000,1,0,0:0:0:0:
36,192,210000,1,0,0:0:0:0:
329,192,210300,128,0,210450:0:0:0:0:
36,192,210300,1,0,0:0:0:0:
256,192,210300,1,0,0:0:0:0:
402,192,210450,128,0,210600:0:0:0:0:
36,192,210600,128,0,210900:0:0:0:0:
109,192,210600,128,0,210900:0:0:0:0:
475,192,210750,128,0,210900:0:0:0:0:
256,192,210750,1,0,0:0:0:0:
182,192,210900,1,0,0:0:0:0:
402,192,210900,1,0,0:0:0:0:
329,192,211050,128,0,211500:0:0:0:0:
182,192,211200,128,0,211500:0:0:0:0:
36,192,211200,128,0,211500:0:0:0:0:
475,192,211200,1,0,0:0:0:0:
109,192,211500,128,0,211950:0:0:0:0:
475,192,211500,1,0,0:0:0:0:
256,192,211500,1,0,0:0:0:0:
475,192,211800,128,0,212100:0:0:0:0:
402,192,211800,128,0,212100:0:0:0:0:
36,192,211950,128,0,212100:0:0:0:0:
182,192,211950,1,0,0:0:0:0:
109,192,212100,128,0,212250:0:0:0:0:
256,192,212100,1,0,0:0:0:0:
329,192,212100,1,0,0:0:0:0:
182,192,212250,128,0,212400:0:0:0:0:
109,192,212400,128,0,212700:0:0:0:0:
329,192,212400,128,0,212700:0:0:0:0:
402,192,212400,128,0,212700:0:0:0:0:
36,192,212400,1,0,0:0:0:0:
182,192,212700,128,0,212850:0:0:0:0:
256,192,212700,1,0,0:0:0:0:
475,192,212700,1,0,0:0:0:0:
109,192,212850,128,0,213000:0:0:0:0:
329,192,213000,128,0,213300:0:0:0:0:
475,192,213000,128,0,213300:0:0:0:0:
256,192,213150,128,0,213300:0:0:0:0:
36,192,213150,1,0,0:0:0:0:
109,192,213300,1,0,0:0:0:0:
182,192,213300,1,0,0:0:0:0:
256,192,213450,128,0,213750:0:0:0:0:
36,192,213600,128,0,213900:0:0:0:0:
475,192,213600,1,0,0:0:0:0:
182,192,213750,128,0,213900:0:0:0:0:
329,192,213900,128,0,214050:0:0:0:0:
475,192,213900,128,0,214200:0:0:0:0:
109,192,213900,1,0,0:0:0:0:
402,192,213900,1,0,0:0:0:0:
256,192,214050,128,0,214500:0:0:0:0:
109,192,214200,128,0,214500:0:0:0:0:
182,192,214350,1,0,0:0:0:0:
475,192,214500,128,0,214800:0:0:0:0:
402,192,214500,128,0,214800:0:0:0:0:
36,192,214500,1,0,0:0:0:0:
329,192,214500,1,0,0:0:0:0:
36,192,214800,128,0,214950:0:0:0:0:
256,192,214800,128,0,215100:0:0:0:0:
329,192,214800,128,0,215100:0:0:0:0:
182,192,214800,1,0,0:0:0:0:
109,192,214950,128,0,215100:0:0:0:0:
182,192,215100,128,0,215250:0:0:0:0:
402,192,215100,1,0,0:0:0:0:
475,192,215100,1,0,0:0:0:0:
109,192,215250,128,0,215400:0:0:0:0:
182,192,215400,128,0,215700:0:0:0:0:
256,192,215400,128,0,215700:0:0:0:0:
36,192,215400,1,0,0:0:0:0:
402,192,215550,128,0,215700:0:0:0:0:
109,192,215700,1,0,0:0:0:0:
475,192,215700,1,0,0:0:0:0:
329,192,215850,128,0,216150:0:0:0:0:
36,192,216000,128,0,216300:0:0:0:0:
109,192,216000,128,0,216300:0:0:0:0:
256,192,216000,1,0,0:0:0:0:
475,192,216150,128,0,216300:0:0:0:0:
402,192,216300,128,0,216450:0:0:0:0:
182,192,216300,1,0,0:0:0:0:
329,192,216300,1,0,0:0:0:0:
475,192,216450,128,0,216750:0:0:0:0:
182,192,216600,128,0,216900:0:0:0:0:
256,192,216600,128,0,216900:0:0:0:0:
36,192,216750,128,0,217200:0:0:0:0:
329,192,216750,1,0,0:0:0:0:
402,192,216900,1,0,0:0:0:0:
475,192,216900,1,0,0:0:0:0:
256,192,217200,128,0,217350:0:0:0:0:
475,192,217200,128,0,217500:0:0:0:0:
402,192,217200,128,0,217500:0:0:0:0:
182,192,217200,1,0,0:0:0:0:
329,192,217350,128,0,217500:0:0:0:0:
182,192,217500,128,0,217650:0:0:0:0:
36,192,217500,1,0,0:0:0:0:
109,192,217500,1,0,0:0:0:0:
256,192,217650,128,0,217800:0:0:0:0:
36,192,217800,128,0,218100:0:0:0:0:
109,192,217800,128,0,218100:0:0:0:0:
256,192,217950,128,0,218100:0:0:0:0:
329,192,217950,1,0,0:0:0:0:
402,192,218100,1,0,0:0:0:0:
475,192,218100,1,0,0:0:0:0:
36,192,218250,128,0,218325:0:0:0:0:
109,192,218250,128,0,218325:0:0:0:0:
402,192,218400,128,0,218625:0:0:0:0:
475,192,218400,128,0,219000:0:0:0:0:
329,192,218400,128,0,218475:0:0:0:0:
256,192,218400,128,0,218475:0:0:0:0:
329,192,218700,128,0,219075:0:0:0:0:
402,192,218700,128,0,219375:0:0:0:0:
256,192,218700,128,0,218775:0:0:0:0:
182,192,218700,128,0,218775:0:0:0:0:
36,192,219000,128,0,219525:0:0:0:0:
256,192,219000,128,0,219075:0:0:0:0:
182,192,219000,128,0,219075:0:0:0:0:
109,192,219000,128,0,219150:0:0:0:0:
109,192,219300,128,0,219525:0:0:0:0:
182,192,219300,128,0,219525:0:0:0:0:
256,192,219300,128,0,219375:0:0:0:0:
329,192,219300,128,0,219375:0:0:0:0:
109,192,219600,128,0,219900:0:0:0:0:
402,192,219600,128,0,219900:0:0:0:0:
329,192,219600,128,0,219900:0:0:0:0:
36,192,219600,1,0,0:0:0:0:
475,192,219600,1,0,0:0:0:0:
182,192,219600,1,0,0:0:0:0:
182,192,219900,128,0,220050:0:0:0:0:
475,192,219900,1,0,0:0:0:0:
256,192,219900,1,0,0:0:0:0:
109,192,220050,128,0,220200:0:0:0:0:
475,192,220200,128,0,220500:0:0:0:0:
402,192,220200,128,0,220500:0:0:0:0:
256,192,220200,1,0,0:0:0:0:
36,192,220350,128,0,220500:0:0:0:0:
329,192,220500,1,0,0:0:0:0:
109,192,220500,1,0,0:0:0:0:
182,192,220650,128,0,221100:0:0:0:0:
329,192,220800,128,0,221100:0:0:0:0:
475,192,220800,128,0,221100:0:0:0:0:
36,192,220800,1,0,0:0:0:0:
402,192,221100,128,0,221550:0:0:0:0:
36,192,221100,1,0,0:0:0:0:
256,192,221100,1,0,0:0:0:0:
36,192,221400,128,0,221700:0:0:0:0:
109,192,221400,128,0,221700:0:0:0:0:
329,192,221400,1,0,0:0:0:0:
475,192,221550,128,0,221700:0:0:0:0:
402,192,221700,128,0,221850:0:0:0:0:
256,192,221700,1,0,0:0:0:0:
182,192,221700,1,0,0:0:0:0:
329,192,221850,128,0,222000:0:0:0:0:
402,192,222000,128,0,222300:0:0:0:0:
182,192,222000,128,0,222300:0:0:0:0:
109,192,222000,128,0,222300:0:0:0:0:
475,192,222000,1,0,0:0:0:0:
329,192,222300,128,0,222450:0:0:0:0:
256,192,222300,1,0,0:0:0:0:
36,192,222300,1,0,0:0:0:0:
402,192,222450,128,0,222600:0:0:0:0:
182,192,222600,128,0,222900:0:0:0:0:
36,192,222600,128,0,222900:0:0:0:0:
109,192,222600,1,0,0:0:0:0:
256,192,222750,128,0,222900:0:0:0:0:
402,192,222900,1,0,0:0:0:0:
329,192,222900,1,0,0:0:0:0:
256,192,223050,128,0,223350:0:0:0:0:
475,192,223200,128,0,223500:0:0:0:0:
36,192,223200,1,0,0:0:0:0:
329,192,223350,128,0,223500:0:0:0:0:
182,192,223500,128,0,223650:0:0:0:0:
36,192,223500,128,0,223800:0:0:0:0:
402,192,223500,1,0,0:0:0:0:
109,192,223500,1,0,0:0:0:0:
256,192,223650,128,0,224100:0:0:0:0:
402,192,223800,128,0,224100:0:0:0:0:
329,192,223800,1,0,0:0:0:0:
109,192,224100,128,0,224400:0:0:0:0:
182,192,224100,1,0,0:0:0:0:
36,192,224100,128,0,224400:0:0:0:0:
475,192,224100,1,0,0:0:0:0:
182,192,224400,1,0,0:0:0:0:
256,192,224400,1,0,0:0:0:0:
475,192,224400,1,0,0:0:0:0:
329,192,224400,1,0,0:0:0:0:
402,192,224475,1,0,0:0:0:0:
329,192,224550,1,0,0:0:0:0:
256,192,224625,1,0,0:0:0:0:
182,192,224700,1,0,0:0:0:0:
36,192,224850,128,0,225300:0:0:0:0:
109,192,224850,128,0,225300:0:0:0:0:
329,192,224850,1,0,0:0:0:0:
402,192,224850,1,0,0:0:0:0:
182,192,225000,1,0,0:0:0:0:
256,192,225075,1,0,0:0:0:0:
329,192,225150,1,0,0:0:0:0:
182,192,225150,1,0,0:0:0:0:
402,192,225225,1,0,0:0:0:0:
475,192,225300,1,0,0:0:0:0:
256,192,225300,1,0,0:0:0:0:
402,192,225375,1,0,0:0:0:0:
329,192,225450,1,0,0:0:0:0:
109,192,225450,1,0,0:0:0:0:
256,192,225525,1,0,0:0:0:0:
402,192,225600,1,0,0:0:0:0:
475,192,225600,1,0,0:0:0:0:
109,192,225600,1,0,0:0:0:0:
182,192,225600,1,0,0:0:0:0:
36,192,225750,1,0,0:0:0:0:
182,192,225750,1,0,0:0:0:0:
402,192,225750,1,0,0:0:0:0:
109,192,225825,1,0,0:0:0:0:
256,192,225825,1,0,0:0:0:0:
182,192,225900,1,0,0:0:0:0:
329,192,225900,1,0,0:0:0:0:
475,192,225900,1,0,0:0:0:0:
402,192,226050,128,0,226500:0:0:0:0:
475,192,226050,128,0,226500:0:0:0:0:
109,192,226050,1,0,0:0:0:0:
36,192,226050,1,0,0:0:0:0:
329,192,226200,1,0,0:0:0:0:
256,192,226250,1,0,0:0:0:0:
182,192,226300,1,0,0:0:0:0:
109,192,226350,1,0,0:0:0:0:
36,192,226350,1,0,0:0:0:0:
256,192,226400,1,0,0:0:0:0:
182,192,226450,1,0,0:0:0:0:
109,192,226500,1,0,0:0:0:0:
329,192,226500,1,0,0:0:0:0:
36,192,226550,1,0,0:0:0:0:
182,192,226600,1,0,0:0:0:0:
256,192,226650,1,0,0:0:0:0:
475,192,226650,1,0,0:0:0:0:
329,192,226700,1,0,0:0:0:0:
402,192,226750,1,0,0:0:0:0:
36,192,226800,1,0,0:0:0:0:
182,192,226800,1,0,0:0:0:0:
256,192,226800,1,0,0:0:0:0:
109,192,226800,1,0,0:0:0:0:
475,192,226950,1,0,0:0:0:0:
402,192,226987,1,0,0:0:0:0:
329,192,227025,1,0,0:0:0:0:
256,192,227062,1,0,0:0:0:0:
36,192,227100,1,0,0:0:0:0:
109,192,227137,1,0,0:0:0:0:
182,192,227175,1,0,0:0:0:0:
256,192,227212,1,0,0:0:0:0:
36,192,227250,128,0,227700:0:0:0:0:
475,192,227250,128,0,227700:0:0:0:0:
402,192,227250,1,0,0:0:0:0:
329,192,227250,1,0,0:0:0:0:
109,192,227400,1,0,0:0:0:0:
182,192,227437,1,0,0:0:0:0:
256,192,227475,1,0,0:0:0:0:
329,192,227512,1,0,0:0:0:0:
182,192,227550,1,0,0:0:0:0:
109,192,227550,1,0,0:0:0:0:
256,192,227587,1,0,0:0:0:0:
329,192,227625,1,0,0:0:0:0:
402,192,227662,1,0,0:0:0:0:
109,192,227700,1,0,0:0:0:0:
329,192,227700,1,0,0:0:0:0:
182,192,227737,1,0,0:0:0:0:
256,192,227775,1,0,0:0:0:0:
329,192,227812,1,0,0:0:0:0:
475,192,227850,1,0,0:0:0:0:
109,192,227850,1,0,0:0:0:0:
402,192,227887,1,0,0:0:0:0:
329,192,227925,1,0,0:0:0:0:
256,192,227962,1,0,0:0:0:0:
36,192,228000,1,0,0:0:0:0:
109,192,228000,1,0,0:0:0:0:
182,192,228000,1,0,0:0:0:0:
256,192,228150,128,0,228225:0:0:0:0:
329,192,228150,1,0,0:0:0:0:
475,192,228300,128,0,228375:0:0:0:0:
402,192,228300,1,0,0:0:0:0:
182,192,228450,128,0,228525:0:0:0:0:
256,192,228450,1,0,0:0:0:0:
402,192,228600,128,0,228675:0:0:0:0:
329,192,228600,1,0,0:0:0:0:
109,192,228750,128,0,228825:0:0:0:0:
182,192,228750,1,0,0:0:0:0:
329,192,228900,128,0,228975:0:0:0:0:
256,192,228900,1,0,0:0:0:0:
36,192,229050,128,0,229125:0:0:0:0:
109,192,229050,1,0,0:0:0:0:
36,192,229200,128,0,229875:0:0:0:0:
475,192,229200,128,0,229875:0:0:0:0:
329,192,229200,1,0,0:0:0:0:
109,192,229200,128,0,229875:0:0:0:0:
182,192,229350,128,0,229875:0:0:0:0:
329,192,229500,128,0,229875:0:0:0:0:
402,192,229650,128,0,229875:0:0:0:0:
109,192,229950,1,0,0:0:0:0:
182,192,229950,1,0,0:0:0:0:
329,192,229950,1,0,0:0:0:0:
402,192,229950,1,0,0:0:0:0:
475,192,229950,1,0,0:0:0:0:
36,192,229950,1,0,0:0:0:0:
109,192,230250,128,0,231075:0:0:0:0:
402,192,230250,128,0,231075:0:0:0:0:
475,192,230250,1,0,0:0:0:0:
36,192,230250,1,0,0:0:0:0:
256,192,230250,1,0,0:0:0:0:
182,192,230550,128,0,231075:0:0:0:0:
256,192,230700,128,0,231075:0:0:0:0:
329,192,230850,128,0,231075:0:0:0:0:
109,192,231150,1,0,0:0:0:0:
182,192,231150,1,0,0:0:0:0:
256,192,231150,1,0,0:0:0:0:
402,192,231150,1,0,0:0:0:0:
329,192,231150,1,0,0:0:0:0:
182,192,231450,128,0,232275:0:0:0:0:
329,192,231450,128,0,232275:0:0:0:0:
475,192,231450,1,0,0:0:0:0:
36,192,231450,1,0,0:0:0:0:
402,192,231450,1,0,0:0:0:0:
36,192,231750,128,0,232275:0:0:0:0:
256,192,231900,128,0,232275:0:0:0:0:
475,192,232050,128,0,232275:0:0:0:0:
256,192,232350,1,0,0:0:0:0:
475,192,232350,1,0,0:0:0:0:
36,192,232350,1,0,0:0:0:0:
402,192,232350,128,0,232725:0:0:0:0:
109,192,232350,128,0,232725:0:0:0:0:
329,192,232800,1,0,0:0:0:0:
182,192,232800,1,0,0:0:0:0:
402,192,232800,1,0,0:0:0:0:
109,192,232800,1,0,0:0:0:0:
256,192,232950,1,0,0:0:0:0:
402,192,232950,1,0,0:0:0:0:
109,192,232950,1,0,0:0:0:0:
36,192,233100,1,0,0:0:0:0:
475,192,233100,1,0,0:0:0:0:
182,192,233250,1,0,0:0:0:0:
256,192,233250,1,0,0:0:0:0:
329,192,233250,1,0,0:0:0:0:
36,192,233550,128,0,233700:0:0:0:0:
109,192,233550,128,0,233700:0:0:0:0:
402,192,233550,128,0,233700:0:0:0:0:
475,192,233550,128,0,233700:0:0:0:0:
182,192,233850,128,0,234150:0:0:0:0:
329,192,233850,128,0,234300:0:0:0:0:
402,192,233850,1,0,0:0:0:0:
109,192,233850,1,0,0:0:0:0:
256,192,233850,1,0,0:0:0:0:
36,192,234150,1,0,0:0:0:0:
109,192,234150,1,0,0:0:0:0:
402,192,234300,1,0,0:0:0:0:
475,192,234300,1,0,0:0:0:0:
256,192,234300,1,0,0:0:0:0:
182,192,234300,1,0,0:0:0:0:
36,192,234375,1,0,0:0:0:0:
109,192,234450,1,0,0:0:0:0:
329,192,234450,1,0,0:0:0:0:
475,192,234450,1,0,0:0:0:0:
182,192,234525,1,0,0:0:0:0:
402,192,234600,1,0,0:0:0:0:
36,192,234600,1,0,0:0:0:0:
109,192,234600,1,0,0:0:0:0:
329,192,234675,1,0,0:0:0:0:
256,192,234750,1,0,0:0:0:0:
402,192,234750,1,0,0:0:0:0:
36,192,234750,1,0,0:0:0:0:
109,192,234825,1,0,0:0:0:0:
182,192,234900,1,0,0:0:0:0:
329,192,234900,1,0,0:0:0:0:
475,192,234900,1,0,0:0:0:0:
402,192,234900,1,0,0:0:0:0:
256,192,234975,1,0,0:0:0:0:
475,192,235050,1,0,0:0:0:0:
36,192,235050,1,0,0:0:0:0:
182,192,235050,1,0,0:0:0:0:
402,192,235125,1,0,0:0:0:0:
329,192,235200,1,0,0:0:0:0:
475,192,235200,1,0,0:0:0:0:
109,192,235200,1,0,0:0:0:0:
182,192,235275,1,0,0:0:0:0:
109,192,235350,1,0,0:0:0:0:
256,192,235350,1,0,0:0:0:0:
402,192,235350,1,0,0:0:0:0:
36,192,235425,1,0,0:0:0:0:
256,192,235500,1,0,0:0:0:0:
402,192,235500,1,0,0:0:0:0:
475,192,235500,1,0,0:0:0:0:
182,192,235500,1,0,0:0:0:0:
329,192,235575,1,0,0:0:0:0:
402,192,235650,1,0,0:0:0:0:
36,192,235650,1,0,0:0:0:0:
256,192,235650,1,0,0:0:0:0:
182,192,235725,1,0,0:0:0:0:
256,192,235800,1,0,0:0:0:0:
36,192,235800,1,0,0:0:0:0:
109,192,235800,1,0,0:0:0:0:
329,192,235875,1,0,0:0:0:0:
182,192,235950,1,0,0:0:0:0:
475,192,235950,1,0,0:0:0:0:
256,192,235950,1,0,0:0:0:0:
109,192,236025,1,0,0:0:0:0:
36,192,236100,1,0,0:0:0:0:
329,192,236100,1,0,0:0:0:0:
256,192,236100,1,0,0:0:0:0:
182,192,236100,1,0,0:0:0:0:
475,192,236175,1,0,0:0:0:0:
402,192,236250,1,0,0:0:0:0:
109,192,236250,1,0,0:0:0:0:
256,192,236250,1,0,0:0:0:0:
329,192,236325,1,0,0:0:0:0:
109,192,236400,1,0,0:0:0:0:
402,192,236400,1,0,0:0:0:0:
475,192,236400,1,0,0:0:0:0:
182,192,236475,1,0,0:0:0:0:
256,192,236550,1,0,0:0:0:0:
36,192,236550,1,0,0:0:0:0:
475,192,236550,1,0,0:0:0:0:
329,192,236625,1,0,0:0:0:0:
475,192,236700,128,0,237000:0:0:0:0:
256,192,236700,1,0,0:0:0:0:
36,192,236700,1,0,0:0:0:0:
109,192,236700,1,0,0:0:0:0:
402,192,236700,1,0,0:0:0:0:
182,192,236775,1,0,0:0:0:0:
36,192,236850,1,0,0:0:0:0:
402,192,236850,1,0,0:0:0:0:
256,192,236850,1,0,0:0:0:0:
109,192,236925,1,0,0:0:0:0:
182,192,237000,1,0,0:0:0:0:
329,192,237000,1,0,0:0:0:0:
256,192,237000,1,0,0:0:0:0:
402,192,237075,1,0,0:0:0:0:
329,192,237150,1,0,0:0:0:0:
182,192,237150,1,0,0:0:0:0:
36,192,237150,1,0,0:0:0:0:
256,192,237225,1,0,0:0:0:0:
36,192,237300,128,0,237600:0:0:0:0:
475,192,237300,1,0,0:0:0:0:
109,192,237300,1,0,0:0:0:0:
182,192,237300,1,0,0:0:0:0:
329,192,237300,1,0,0:0:0:0:
402,192,237375,1,0,0:0:0:0:
329,192,237450,1,0,0:0:0:0:
109,192,237450,1,0,0:0:0:0:
475,192,237450,1,0,0:0:0:0:
182,192,237525,1,0,0:0:0:0:
402,192,237600,128,0,237900:0:0:0:0:
256,192,237600,1,0,0:0:0:0:
109,192,237600,1,0,0:0:0:0:
329,192,237750,128,0,238050:0:0:0:0:
182,192,237750,1,0,0:0:0:0:
36,192,237750,1,0,0:0:0:0:
475,192,237900,128,0,238200:0:0:0:0:
109,192,237900,1,0,0:0:0:0:
182,192,237900,1,0,0:0:0:0:
256,192,237900,1,0,0:0:0:0:
402,192,238050,128,0,238350:0:0:0:0:
36,192,238050,1,0,0:0:0:0:
182,192,238050,1,0,0:0:0:0:
109,192,238200,128,0,238500:0:0:0:0:
256,192,238200,1,0,0:0:0:0:
329,192,238200,1,0,0:0:0:0:
182,192,238350,128,0,238650:0:0:0:0:
329,192,238350,1,0,0:0:0:0:
475,192,238350,1,0,0:0:0:0:
36,192,238500,128,0,238800:0:0:0:0:
256,192,238500,1,0,0:0:0:0:
329,192,238500,1,0,0:0:0:0:
402,192,238500,1,0,0:0:0:0:
109,192,238650,128,0,238800:0:0:0:0:
475,192,238650,1,0,0:0:0:0:
329,192,238650,1,0,0:0:0:0:
256,192,238800,1,0,0:0:0:0:
402,192,238800,1,0,0:0:0:0:
475,192,238800,1,0,0:0:0:0:
329,192,238875,1,0,0:0:0:0:
402,192,238950,1,0,0:0:0:0:
36,192,238950,1,0,0:0:0:0:
256,192,238950,1,0,0:0:0:0:
182,192,239025,1,0,0:0:0:0:
256,192,239100,1,0,0:0:0:0:
36,192,239100,1,0,0:0:0:0:
109,192,239100,1,0,0:0:0:0:
475,192,239100,1,0,0:0:0:0:
329,192,239175,1,0,0:0:0:0:
182,192,239250,1,0,0:0:0:0:
402,192,239250,1,0,0:0:0:0:
36,192,239250,1,0,0:0:0:0:
109,192,239325,1,0,0:0:0:0:
36,192,239400,1,0,0:0:0:0:
256,192,239400,1,0,0:0:0:0:
475,192,239400,1,0,0:0:0:0:
329,192,239475,1,0,0:0:0:0:
256,192,239550,1,0,0:0:0:0:
109,192,239550,1,0,0:0:0:0:
402,192,239550,1,0,0:0:0:0:
182,192,239625,1,0,0:0:0:0:
329,192,239700,1,0,0:0:0:0:
36,192,239700,1,0,0:0:0:0:
109,192,239700,1,0,0:0:0:0:
256,192,239700,1,0,0:0:0:0:
402,192,239775,1,0,0:0:0:0:
475,192,239850,1,0,0:0:0:0:
256,192,239850,1,0,0:0:0:0:
36,192,239850,1,0,0:0:0:0:
109,192,239925,1,0,0:0:0:0:
182,192,240000,1,0,0:0:0:0:
329,192,240000,1,0,0:0:0:0:
475,192,240000,1,0,0:0:0:0:
256,192,240075,1,0,0:0:0:0:
402,192,240150,1,0,0:0:0:0:
36,192,240150,1,0,0:0:0:0:
182,192,240150,1,0,0:0:0:0:
329,192,240225,1,0,0:0:0:0:
256,192,240300,1,0,0:0:0:0:
402,192,240300,1,0,0:0:0:0:
475,192,240300,1,0,0:0:0:0:
182,192,240300,1,0,0:0:0:0:
36,192,240375,1,0,0:0:0:0:
109,192,240450,1,0,0:0:0:0:
329,192,240450,1,0,0:0:0:0:
475,192,240450,1,0,0:0:0:0:
182,192,240525,1,0,0:0:0:0:
475,192,240600,1,0,0:0:0:0:
256,192,240600,1,0,0:0:0:0:
36,192,240600,1,0,0:0:0:0:
402,192,240675,1,0,0:0:0:0:
329,192,240750,1,0,0:0:0:0:
36,192,240750,1,0,0:0:0:0:
475,192,240750,1,0,0:0:0:0:
182,192,240825,1,0,0:0:0:0:
109,192,240900,1,0,0:0:0:0:
256,192,240900,1,0,0:0:0:0:
475,192,240900,1,0,0:0:0:0:
329,192,240900,1,0,0:0:0:0:
36,192,240975,1,0,0:0:0:0:
402,192,241050,1,0,0:0:0:0:
256,192,241050,1,0,0:0:0:0:
109,192,241050,1,0,0:0:0:0:
329,192,241125,1,0,0:0:0:0:
256,192,241200,1,0,0:0:0:0:
475,192,241200,1,0,0:0:0:0:
36,192,241200,1,0,0:0:0:0:
109,192,241275,1,0,0:0:0:0:
182,192,241350,1,0,0:0:0:0:
329,192,241350,1,0,0:0:0:0:
475,192,241350,1,0,0:0:0:0:
256,192,241425,1,0,0:0:0:0:
36,192,241500,1,0,0:0:0:0:
329,192,241500,1,0,0:0:0:0:
402,192,241500,1,0,0:0:0:0:
475,192,241500,1,0,0:0:0:0:
109,192,241575,1,0,0:0:0:0:
182,192,241650,1,0,0:0:0:0:
256,192,241650,1,0,0:0:0:0:
475,192,241650,1,0,0:0:0:0:
402,192,241725,1,0,0:0:0:0:
329,192,241800,1,0,0:0:0:0:
36,192,241800,1,0,0:0:0:0:
109,192,241800,1,0,0:0:0:0:
256,192,241875,1,0,0:0:0:0:
475,192,241950,1,0,0:0:0:0:
182,192,241950,1,0,0:0:0:0:
36,192,241950,1,0,0:0:0:0:
402,192,242025,1,0,0:0:0:0:
329,192,242100,1,0,0:0:0:0:
109,192,242100,1,0,0:0:0:0:
182,192,242100,1,0,0:0:0:0:
475,192,242100,1,0,0:0:0:0:
36,192,242175,1,0,0:0:0:0:
109,192,242250,1,0,0:0:0:0:
256,192,242250,1,0,0:0:0:0:
402,192,242250,1,0,0:0:0:0:
182,192,242325,1,0,0:0:0:0:
256,192,242400,1,0,0:0:0:0:
475,192,242400,1,0,0:0:0:0:
36,192,242400,1,0,0:0:0:0:
329,192,242400,1,0,0:0:0:0:
182,192,242475,1,0,0:0:0:0:
402,192,242475,1,0,0:0:0:0:
329,192,242550,1,0,0:0:0:0:
109,192,242550,1,0,0:0:0:0:
475,192,242550,1,0,0:0:0:0:
36,192,242625,1,0,0:0:0:0:
256,192,242625,1,0,0:0:0:0:
109,192,242700,1,0,0:0:0:0:
329,192,242700,1,0,0:0:0:0:
329,192,242850,1,0,0:0:0:0:
475,192,242850,1,0,0:0:0:0:
36,192,242850,1,0,0:0:0:0:
109,192,242850,1,0,0:0:0:0:
402,192,242925,1,0,0:0:0:0:
256,192,242925,1,0,0:0:0:0:
329,192,243000,1,0,0:0:0:0:
182,192,243000,1,0,0:0:0:0:
256,192,243075,1,0,0:0:0:0:
109,192,243075,1,0,0:0:0:0:
182,192,243150,1,0,0:0:0:0:
36,192,243150,1,0,0:0:0:0:
402,192,243225,1,0,0:0:0:0:
256,192,243225,1,0,0:0:0:0:
329,192,243300,1,0,0:0:0:0:
182,192,243300,1,0,0:0:0:0:
256,192,243375,1,0,0:0:0:0:
109,192,243375,1,0,0:0:0:0:
36,192,243450,1,0,0:0:0:0:
329,192,243450,128,0,243750:0:0:0:0:
182,192,243450,128,0,243900:0:0:0:0:
402,192,243450,1,0,0:0:0:0:
475,192,243450,1,0,0:0:0:0:
402,192,243750,1,0,0:0:0:0:
475,192,243750,1,0,0:0:0:0:
36,192,243900,1,0,0:0:0:0:
109,192,243900,1,0,0:0:0:0:
329,192,243900,1,0,0:0:0:0:
256,192,243900,1,0,0:0:0:0:
475,192,243975,1,0,0:0:0:0:
402,192,244050,1,0,0:0:0:0:
182,192,244050,1,0,0:0:0:0:
36,192,244050,1,0,0:0:0:0:
329,192,244125,1,0,0:0:0:0:
109,192,244200,1,0,0:0:0:0:
475,192,244200,1,0,0:0:0:0:
402,192,244200,1,0,0:0:0:0:
182,192,244275,1,0,0:0:0:0:
256,192,244350,1,0,0:0:0:0:
109,192,244350,1,0,0:0:0:0:
475,192,244350,1,0,0:0:0:0:
402,192,244425,1,0,0:0:0:0:
329,192,244500,1,0,0:0:0:0:
182,192,244500,1,0,0:0:0:0:
36,192,244500,1,0,0:0:0:0:
109,192,244500,1,0,0:0:0:0:
256,192,244575,1,0,0:0:0:0:
36,192,244650,1,0,0:0:0:0:
475,192,244650,1,0,0:0:0:0:
329,192,244650,1,0,0:0:0:0:
109,192,244725,1,0,0:0:0:0:
182,192,244800,1,0,0:0:0:0:
36,192,244800,1,0,0:0:0:0:
402,192,244800,1,0,0:0:0:0:
329,192,244875,1,0,0:0:0:0:
402,192,244950,1,0,0:0:0:0:
256,192,244950,1,0,0:0:0:0:
109,192,244950,1,0,0:0:0:0:
475,192,245025,1,0,0:0:0:0:
256,192,245100,1,0,0:0:0:0:
109,192,245100,1,0,0:0:0:0:
36,192,245100,1,0,0:0:0:0:
329,192,245100,1,0,0:0:0:0:
182,192,245175,1,0,0:0:0:0:
109,192,245250,1,0,0:0:0:0:
475,192,245250,1,0,0:0:0:0:
256,192,245250,1,0,0:0:0:0:
329,192,245325,1,0,0:0:0:0:
256,192,245400,1,0,0:0:0:0:
475,192,245400,1,0,0:0:0:0:
402,192,245400,1,0,0:0:0:0:
182,192,245475,1,0,0:0:0:0:
329,192,245550,1,0,0:0:0:0:
36,192,245550,1,0,0:0:0:0:
256,192,245550,1,0,0:0:0:0:
402,192,245625,1,0,0:0:0:0:
475,192,245700,1,0,0:0:0:0:
182,192,245700,1,0,0:0:0:0:
256,192,245700,1,0,0:0:0:0:
329,192,245700,1,0,0:0:0:0:
36,192,245775,1,0,0:0:0:0:
109,192,245850,1,0,0:0:0:0:
402,192,245850,1,0,0:0:0:0:
256,192,245850,1,0,0:0:0:0:
182,192,245925,1,0,0:0:0:0:
109,192,246000,1,0,0:0:0:0:
36,192,246000,1,0,0:0:0:0:
256,192,246000,1,0,0:0:0:0:
402,192,246000,1,0,0:0:0:0:
329,192,246150,1,0,0:0:0:0:
36,192,246150,1,0,0:0:0:0:
182,192,246150,1,0,0:0:0:0:
36,192,246300,128,0,246525:0:0:0:0:
109,192,246300,128,0,246525:0:0:0:0:
329,192,246300,128,0,246525:0:0:0:0:
256,192,246300,128,0,246525:0:0:0:0:
109,192,246600,1,0,0:0:0:0:
182,192,246600,1,0,0:0:0:0:
329,192,246600,1,0,0:0:0:0:
182,192,246750,1,0,0:0:0:0:
256,192,246750,1,0,0:0:0:0:
402,192,246750,1,0,0:0:0:0:
475,192,246900,128,0,247125:0:0:0:0:
402,192,246900,128,0,247125:0:0:0:0:
256,192,246900,128,0,247125:0:0:0:0:
182,192,246900,128,0,247125:0:0:0:0:
182,192,247200,128,0,247350:0:0:0:0:
109,192,247200,128,0,247500:0:0:0:0:
36,192,247200,1,0,0:0:0:0:
402,192,247200,1,0,0:0:0:0:
329,192,247200,1,0,0:0:0:0:
329,192,247350,128,0,247500:0:0:0:0:
475,192,247350,128,0,247650:0:0:0:0:
256,192,247350,1,0,0:0:0:0:
402,192,247350,1,0,0:0:0:0:
182,192,247500,128,0,247800:0:0:0:0:
36,192,247500,128,0,247650:0:0:0:0:
402,192,247500,1,0,0:0:0:0:
329,192,247650,128,0,247800:0:0:0:0:
402,192,247650,128,0,247950:0:0:0:0:
256,192,247650,1,0,0:0:0:0:
109,192,247650,1,0,0:0:0:0:
36,192,247800,128,0,247950:0:0:0:0:
109,192,247800,128,0,248100:0:0:0:0:
475,192,247800,1,0,0:0:0:0:
329,192,247950,128,0,248250:0:0:0:0:
475,192,247950,128,0,248100:0:0:0:0:
182,192,247950,1,0,0:0:0:0:
256,192,247950,1,0,0:0:0:0:
182,192,248100,128,0,248250:0:0:0:0:
36,192,248100,128,0,248400:0:0:0:0:
402,192,248100,1,0,0:0:0:0:
402,192,248250,128,0,248400:0:0:0:0:
475,192,248250,128,0,248400:0:0:0:0:
256,192,248250,1,0,0:0:0:0:
109,192,248250,1,0,0:0:0:0:
256,192,248400,1,0,0:0:0:0:
256,192,248700,1,0,0:0:0:0:
475,192,248700,1,0,0:0:0:0:
402,192,248700,1,0,0:0:0:0:
36,192,248700,1,0,0:0:0:0:
182,192,248775,1,0,0:0:0:0:
329,192,248850,1,0,0:0:0:0:
109,192,248850,1,0,0:0:0:0:
475,192,248850,1,0,0:0:0:0:
402,192,248925,1,0,0:0:0:0:
475,192,249000,1,0,0:0:0:0:
256,192,249000,1,0,0:0:0:0:
36,192,249000,1,0,0:0:0:0:
182,192,249075,1,0,0:0:0:0:
256,192,249150,1,0,0:0:0:0:
402,192,249150,1,0,0:0:0:0:
109,192,249150,1,0,0:0:0:0:
329,192,249225,1,0,0:0:0:0:
182,192,249300,1,0,0:0:0:0:
475,192,249300,1,0,0:0:0:0:
402,192,249300,1,0,0:0:0:0:
256,192,249300,1,0,0:0:0:0:
109,192,249375,1,0,0:0:0:0:
36,192,249450,1,0,0:0:0:0:
256,192,249450,1,0,0:0:0:0:
475,192,249450,1,0,0:0:0:0:
402,192,249525,1,0,0:0:0:0:
329,192,249600,1,0,0:0:0:0:
182,192,249600,1,0,0:0:0:0:
36,192,249600,1,0,0:0:0:0:
256,192,249675,1,0,0:0:0:0:
109,192,249750,1,0,0:0:0:0:
475,192,249750,1,0,0:0:0:0:
329,192,249750,1,0,0:0:0:0:
182,192,249825,1,0,0:0:0:0:
256,192,249900,1,0,0:0:0:0:
109,192,249900,1,0,0:0:0:0:
36,192,249900,1,0,0:0:0:0:
329,192,249900,1,0,0:0:0:0:
475,192,249975,1,0,0:0:0:0:
402,192,250050,1,0,0:0:0:0:
182,192,250050,1,0,0:0:0:0:
36,192,250050,1,0,0:0:0:0:
329,192,250125,1,0,0:0:0:0:
36,192,250200,1,0,0:0:0:0:
256,192,250200,1,0,0:0:0:0:
402,192,250200,1,0,0:0:0:0:
475,192,250200,1,0,0:0:0:0:
109,192,250275,1,0,0:0:0:0:
329,192,250275,1,0,0:0:0:0:
182,192,250350,1,0,0:0:0:0:
402,192,250350,1,0,0:0:0:0:
36,192,250350,1,0,0:0:0:0:
256,192,250425,1,0,0:0:0:0:
475,192,250425,1,0,0:0:0:0:
402,192,250500,1,0,0:0:0:0:
182,192,250500,1,0,0:0:0:0:
36,192,250500,1,0,0:0:0:0:
109,192,250575,1,0,0:0:0:0:
329,192,250575,1,0,0:0:0:0:
256,192,250650,1,0,0:0:0:0:
36,192,250650,1,0,0:0:0:0:
475,192,250650,1,0,0:0:0:0:
109,192,250725,1,0,0:0:0:0:
329,192,250725,1,0,0:0:0:0:
402,192,250800,128,0,250950:0:0:0:0:
36,192,250800,1,0,0:0:0:0:
182,192,250800,1,0,0:0:0:0:
256,192,250800,1,0,0:0:0:0:
475,192,250950,128,0,251100:0:0:0:0:
109,192,250950,1,0,0:0:0:0:
329,192,251100,128,0,251250:0:0:0:0:
36,192,251100,1,0,0:0:0:0:
182,192,251100,1,0,0:0:0:0:
256,192,251250,1,0,0:0:0:0:
36,192,251400,128,0,251550:0:0:0:0:
109,192,251550,128,0,251700:0:0:0:0:
402,192,251550,1,0,0:0:0:0:
475,192,251550,1,0,0:0:0:0:
182,192,251700,128,0,251850:0:0:0:0:
256,192,251700,1,0,0:0:0:0:
475,192,251700,1,0,0:0:0:0:
329,192,251700,1,0,0:0:0:0:
402,192,251850,1,0,0:0:0:0:
329,192,252000,128,0,252150:0:0:0:0:
36,192,252000,1,0,0:0:0:0:
109,192,252000,1,0,0:0:0:0:
402,192,252150,128,0,252300:0:0:0:0:
182,192,252150,1,0,0:0:0:0:
475,192,252300,128,0,252450:0:0:0:0:
109,192,252300,1,0,0:0:0:0:
36,192,252300,1,0,0:0:0:0:
256,192,252300,1,0,0:0:0:0:
402,192,252450,128,0,252750:0:0:0:0:
329,192,252450,1,0,0:0:0:0:
182,192,252600,128,0,252750:0:0:0:0:
109,192,252750,128,0,252900:0:0:0:0:
329,192,252750,1,0,0:0:0:0:
256,192,252750,1,0,0:0:0:0:
36,192,252900,128,0,253050:0:0:0:0:
329,192,252900,1,0,0:0:0:0:
402,192,252900,1,0,0:0:0:0:
475,192,252900,1,0,0:0:0:0:
109,192,253050,128,0,253350:0:0:0:0:
256,192,253050,1,0,0:0:0:0:
475,192,253200,1,0,0:0:0:0:
182,192,253200,1,0,0:0:0:0:
256,192,253200,1,0,0:0:0:0:
329,192,253350,1,0,0:0:0:0:
36,192,253350,1,0,0:0:0:0:
402,192,253500,1,0,0:0:0:0:
109,192,253500,1,0,0:0:0:0:
182,192,253500,1,0,0:0:0:0:
256,192,253500,1,0,0:0:0:0:
329,192,253650,1,0,0:0:0:0:
36,192,253800,1,0,0:0:0:0:
182,192,253950,1,0,0:0:0:0:
402,192,253950,1,0,0:0:0:0:
475,192,253950,1,0,0:0:0:0:
109,192,254100,1,0,0:0:0:0:
256,192,254100,1,0,0:0:0:0:
329,192,254100,1,0,0:0:0:0:
475,192,254100,1,0,0:0:0:0:
182,192,254250,1,0,0:0:0:0:
402,192,254400,1,0,0:0:0:0:
256,192,254400,1,0,0:0:0:0:
36,192,254400,1,0,0:0:0:0:
109,192,254550,1,0,0:0:0:0:
475,192,254550,1,0,0:0:0:0:
329,192,254700,1,0,0:0:0:0:
256,192,254700,1,0,0:0:0:0:
36,192,254700,1,0,0:0:0:0:
402,192,254700,1,0,0:0:0:0:
182,192,254850,1,0,0:0:0:0:
36,192,255000,1,0,0:0:0:0:
109,192,255000,1,0,0:0:0:0:
329,192,255000,128,0,255075:0:0:0:0:
402,192,255000,128,0,255075:0:0:0:0:
475,192,255000,1,0,0:0:0:0:
36,192,255300,1,0,0:0:0:0:
402,192,255300,1,0,0:0:0:0:
475,192,255300,1,0,0:0:0:0:
182,192,255300,128,0,255375:0:0:0:0:
109,192,255300,128,0,255375:0:0:0:0:
182,192,255600,1,0,0:0:0:0:
256,192,255600,1,0,0:0:0:0:
329,192,255600,1,0,0:0:0:0:
402,192,255600,1,0,0:0:0:0:
256,192,255750,128,0,255900:0:0:0:0:
329,192,255750,128,0,255900:0:0:0:0:
402,192,255750,128,0,255900:0:0:0:0:
475,192,255750,128,0,255900:0:0:0:0:
109,192,256050,1,0,0:0:0:0:
182,192,256050,1,0,0:0:0:0:
256,192,256050,1,0,0:0:0:0:
329,192,256050,1,0,0:0:0:0:
256,192,256200,128,0,256350:0:0:0:0:
182,192,256200,128,0,256350:0:0:0:0:
109,192,256200,128,0,256350:0:0:0:0:
36,192,256200,128,0,256350:0:0:0:0:
109,192,256500,1,0,0:0:0:0:
182,192,256500,1,0,0:0:0:0:
329,192,256500,1,0,0:0:0:0:
402,192,256500,1,0,0:0:0:0:
182,192,256650,128,0,256800:0:0:0:0:
256,192,256650,128,0,256800:0:0:0:0:
402,192,256650,128,0,256800:0:0:0:0:
475,192,256650,128,0,256800:0:0:0:0:
182,192,256950,1,0,0:0:0:0:
109,192,256950,1,0,0:0:0:0:
329,192,256950,1,0,0:0:0:0:
402,192,256950,1,0,0:0:0:0:
36,192,257100,128,0,257250:0:0:0:0:
109,192,257100,128,0,257250:0:0:0:0:
256,192,257100,128,0,257250:0:0:0:0:
329,192,257100,128,0,257250:0:0:0:0:
182,192,257400,1,0,0:0:0:0:
109,192,257400,1,0,0:0:0:0:
329,192,257400,1,0,0:0:0:0:
402,192,257400,1,0,0:0:0:0:
36,192,257550,128,0,257700:0:0:0:0:
329,192,257550,128,0,257700:0:0:0:0:
475,192,257550,128,0,257700:0:0:0:0:
182,192,257550,128,0,257700:0:0:0:0:
36,192,257850,128,0,258825:0:0:0:0:
109,192,257850,128,0,258525:0:0:0:0:
402,192,257850,128,0,258675:0:0:0:0:
475,192,257850,128,0,258975:0:0:0:0:
256,192,258150,128,0,258225:0:0:0:0:
182,192,258300,128,0,258375:0:0:0:0:
329,192,258450,128,0,258525:0:0:0:0:
109,192,258600,128,0,258675:0:0:0:0:
402,192,258750,128,0,258825:0:0:0:0:
36,192,258900,128,0,258975:0:0:0:0:
475,192,259050,128,0,259125:0:0:0:0:
256,192,259200,1,0,0:0:0:0:
182,192,259200,1,0,0:0:0:0:
36,192,259500,1,0,0:0:0:0:
109,192,259500,1,0,0:0:0:0:
256,192,259500,1,0,0:0:0:0:
329,192,259500,1,0,0:0:0:0:
402,192,259650,1,0,0:0:0:0:
475,192,259650,1,0,0:0:0:0:
182,192,259650,1,0,0:0:0:0:
256,192,259650,1,0,0:0:0:0:
36,192,259800,1,0,0:0:0:0:
329,192,259800,1,0,0:0:0:0:
109,192,259800,1,0,0:0:0:0:
256,192,259800,1,0,0:0:0:0:
182,192,259875,1,0,0:0:0:0:
475,192,259875,1,0,0:0:0:0:
402,192,259875,1,0,0:0:0:0:
36,192,259950,1,0,0:0:0:0:
329,192,259950,1,0,0:0:0:0:
109,192,259950,1,0,0:0:0:0:
182,192,260025,1,0,0:0:0:0:
475,192,260025,1,0,0:0:0:0:
256,192,260025,1,0,0:0:0:0:
402,192,260025,1,0,0:0:0:0:
36,192,260100,128,0,260400:0:0:0:0:
109,192,260100,128,0,260400:0:0:0:0:
329,192,260100,128,0,260400:0:0:0:0:
182,192,260400,1,0,0:0:0:0:
402,192,260400,1,0,0:0:0:0:
475,192,260400,1,0,0:0:0:0:
256,192,260700,1,0,0:0:0:0:
402,192,261000,128,0,261150:0:0:0:0:
182,192,261000,1,0,0:0:0:0:
329,192,261000,1,0,0:0:0:0:
36,192,261000,1,0,0:0:0:0:
109,192,261000,1,0,0:0:0:0:
475,192,261000,1,0,0:0:0:0:
256,192,261150,1,0,0:0:0:0:
109,192,261150,1,0,0:0:0:0:
36,192,261300,128,0,261450:0:0:0:0:
182,192,261300,1,0,0:0:0:0:
256,192,261300,1,0,0:0:0:0:
402,192,261300,1,0,0:0:0:0:
475,192,261300,1,0,0:0:0:0:
329,192,261450,128,0,261600:0:0:0:0:
109,192,261450,1,0,0:0:0:0:
402,192,261450,1,0,0:0:0:0:
36,192,261600,128,0,261750:0:0:0:0:
256,192,261600,1,0,0:0:0:0:
182,192,261750,128,0,261900:0:0:0:0:
402,192,261750,1,0,0:0:0:0:
475,192,261750,1,0,0:0:0:0:
256,192,261750,1,0,0:0:0:0:
329,192,261900,1,0,0:0:0:0:
36,192,261900,1,0,0:0:0:0:
109,192,261900,1,0,0:0:0:0:
402,192,261900,1,0,0:0:0:0:
475,192,262050,128,0,262200:0:0:0:0:
256,192,262050,1,0,0:0:0:0:
36,192,262050,1,0,0:0:0:0:
256,192,262200,1,0,0:0:0:0:
109,192,262200,1,0,0:0:0:0:
329,192,262200,1,0,0:0:0:0:
182,192,262275,1,0,0:0:0:0:
36,192,262275,1,0,0:0:0:0:
329,192,262350,1,0,0:0:0:0:
475,192,262350,1,0,0:0:0:0:
109,192,262350,1,0,0:0:0:0:
256,192,262425,1,0,0:0:0:0:
402,192,262425,1,0,0:0:0:0:
182,192,262500,1,0,0:0:0:0:
329,192,262500,1,0,0:0:0:0:
36,192,262500,1,0,0:0:0:0:
109,192,262500,1,0,0:0:0:0:
256,192,262575,1,0,0:0:0:0:
402,192,262575,1,0,0:0:0:0:
182,192,262650,1,0,0:0:0:0:
329,192,262650,1,0,0:0:0:0:
475,192,262650,1,0,0:0:0:0:
109,192,262725,1,0,0:0:0:0:
256,192,262725,1,0,0:0:0:0:
402,192,262800,128,0,262950:0:0:0:0:
475,192,262800,1,0,0:0:0:0:
182,192,262800,1,0,0:0:0:0:
36,192,262800,1,0,0:0:0:0:
109,192,262950,128,0,263100:0:0:0:0:
182,192,262950,1,0,0:0:0:0:
329,192,262950,1,0,0:0:0:0:
36,192,262950,1,0,0:0:0:0:
475,192,263100,128,0,263250:0:0:0:0:
256,192,263100,1,0,0:0:0:0:
329,192,263100,1,0,0:0:0:0:
402,192,263100,1,0,0:0:0:0:
182,192,263100,1,0,0:0:0:0:
182,192,263250,128,0,263400:0:0:0:0:
36,192,263250,1,0,0:0:0:0:
256,192,263250,1,0,0:0:0:0:
256,192,263400,128,0,263550:0:0:0:0:
402,192,263400,1,0,0:0:0:0:
475,192,263400,1,0,0:0:0:0:
109,192,263400,1,0,0:0:0:0:
109,192,263550,1,0,0:0:0:0:
475,192,263550,1,0,0:0:0:0:
402,192,263700,128,0,263850:0:0:0:0:
329,192,263700,1,0,0:0:0:0:
182,192,263700,1,0,0:0:0:0:
36,192,263700,1,0,0:0:0:0:
256,192,263700,1,0,0:0:0:0:
109,192,263850,128,0,264000:0:0:0:0:
182,192,263850,1,0,0:0:0:0:
475,192,263850,1,0,0:0:0:0:
402,192,264000,128,0,264150:0:0:0:0:
329,192,264000,1,0,0:0:0:0:
182,192,264150,1,0,0:0:0:0:
256,192,264150,1,0,0:0:0:0:
475,192,264150,1,0,0:0:0:0:
36,192,264300,128,0,264450:0:0:0:0:
402,192,264300,1,0,0:0:0:0:
329,192,264300,1,0,0:0:0:0:
182,192,264300,1,0,0:0:0:0:
109,192,264300,1,0,0:0:0:0:
329,192,264450,128,0,264600:0:0:0:0:
475,192,264450,1,0,0:0:0:0:
256,192,264450,1,0,0:0:0:0:
256,192,264600,1,0,0:0:0:0:
109,192,264600,1,0,0:0:0:0:
402,192,264600,1,0,0:0:0:0:
182,192,264675,1,0,0:0:0:0:
36,192,264675,1,0,0:0:0:0:
402,192,264750,1,0,0:0:0:0:
256,192,264750,1,0,0:0:0:0:
109,192,264750,1,0,0:0:0:0:
329,192,264825,1,0,0:0:0:0:
182,192,264825,1,0,0:0:0:0:
256,192,264900,1,0,0:0:0:0:
109,192,264900,1,0,0:0:0:0:
475,192,264900,1,0,0:0:0:0:
402,192,264900,1,0,0:0:0:0:
329,192,264975,1,0,0:0:0:0:
182,192,264975,1,0,0:0:0:0:
402,192,265050,1,0,0:0:0:0:
256,192,265050,1,0,0:0:0:0:
36,192,265050,1,0,0:0:0:0:
475,192,265125,1,0,0:0:0:0:
329,192,265125,1,0,0:0:0:0:
182,192,265200,128,0,265350:0:0:0:0:
109,192,265200,1,0,0:0:0:0:
402,192,265200,1,0,0:0:0:0:
256,192,265200,1,0,0:0:0:0:
475,192,265350,128,0,265500:0:0:0:0:
402,192,265350,1,0,0:0:0:0:
256,192,265350,1,0,0:0:0:0:
36,192,265350,1,0,0:0:0:0:
36,192,265500,128,0,265650:0:0:0:0:
109,192,265500,1,0,0:0:0:0:
256,192,265500,1,0,0:0:0:0:
329,192,265500,1,0,0:0:0:0:
182,192,265500,1,0,0:0:0:0:
329,192,265650,128,0,265800:0:0:0:0:
402,192,265650,1,0,0:0:0:0:
182,192,265650,1,0,0:0:0:0:
402,192,265800,128,0,265950:0:0:0:0:
256,192,265800,1,0,0:0:0:0:
36,192,265800,1,0,0:0:0:0:
109,192,265800,1,0,0:0:0:0:
475,192,265800,1,0,0:0:0:0:
329,192,265950,1,0,0:0:0:0:
109,192,265950,1,0,0:0:0:0:
36,192,266100,128,0,266250:0:0:0:0:
182,192,266100,1,0,0:0:0:0:
256,192,266100,1,0,0:0:0:0:
402,192,266100,1,0,0:0:0:0:
475,192,266100,1,0,0:0:0:0:
329,192,266250,128,0,266400:0:0:0:0:
109,192,266250,1,0,0:0:0:0:
402,192,266250,1,0,0:0:0:0:
36,192,266400,128,0,266550:0:0:0:0:
256,192,266400,1,0,0:0:0:0:
182,192,266550,128,0,266700:0:0:0:0:
402,192,266550,1,0,0:0:0:0:
475,192,266550,1,0,0:0:0:0:
256,192,266550,1,0,0:0:0:0:
329,192,266700,1,0,0:0:0:0:
36,192,266700,1,0,0:0:0:0:
109,192,266700,1,0,0:0:0:0:
402,192,266700,1,0,0:0:0:0:
475,192,266850,128,0,267000:0:0:0:0:
256,192,266850,1,0,0:0:0:0:
36,192,266850,1,0,0:0:0:0:
256,192,267000,1,0,0:0:0:0:
109,192,267000,1,0,0:0:0:0:
329,192,267000,1,0,0:0:0:0:
182,192,267075,1,0,0:0:0:0:
36,192,267075,1,0,0:0:0:0:
329,192,267150,1,0,0:0:0:0:
475,192,267150,1,0,0:0:0:0:
109,192,267150,1,0,0:0:0:0:
256,192,267225,1,0,0:0:0:0:
402,192,267225,1,0,0:0:0:0:
182,192,267300,1,0,0:0:0:0:
329,192,267300,1,0,0:0:0:0:
36,192,267300,1,0,0:0:0:0:
109,192,267300,1,0,0:0:0:0:
256,192,267375,1,0,0:0:0:0:
402,192,267375,1,0,0:0:0:0:
182,192,267450,1,0,0:0:0:0:
329,192,267450,1,0,0:0:0:0:
475,192,267450,1,0,0:0:0:0:
109,192,267525,1,0,0:0:0:0:
256,192,267525,1,0,0:0:0:0:
402,192,267600,128,0,267750:0:0:0:0:
475,192,267600,1,0,0:0:0:0:
182,192,267600,1,0,0:0:0:0:
36,192,267600,1,0,0:0:0:0:
109,192,267750,128,0,267900:0:0:0:0:
182,192,267750,1,0,0:0:0:0:
329,192,267750,1,0,0:0:0:0:
36,192,267750,1,0,0:0:0:0:
475,192,267900,128,0,268050:0:0:0:0:
256,192,267900,1,0,0:0:0:0:
329,192,267900,1,0,0:0:0:0:
402,192,267900,1,0,0:0:0:0:
182,192,267900,1,0,0:0:0:0:
182,192,268050,128,0,268200:0:0:0:0:
36,192,268050,1,0,0:0:0:0:
256,192,268050,1,0,0:0:0:0:
256,192,268200,128,0,268350:0:0:0:0:
402,192,268200,1,0,0:0:0:0:
475,192,268200,1,0,0:0:0:0:
109,192,268200,1,0,0:0:0:0:
109,192,268350,1,0,0:0:0:0:
475,192,268350,1,0,0:0:0:0:
402,192,268500,128,0,268650:0:0:0:0:
329,192,268500,1,0,0:0:0:0:
182,192,268500,1,0,0:0:0:0:
36,192,268500,1,0,0:0:0:0:
256,192,268500,1,0,0:0:0:0:
109,192,268650,128,0,268800:0:0:0:0:
182,192,268650,1,0,0:0:0:0:
475,192,268650,1,0,0:0:0:0:
329,192,268800,1,0,0:0:0:0:
402,192,268800,1,0,0:0:0:0:
182,192,268950,1,0,0:0:0:0:
256,192,268950,128,0,269100:0:0:0:0:
475,192,268950,128,0,269100:0:0:0:0:
402,192,269100,1,0,0:0:0:0:
329,192,269100,1,0,0:0:0:0:
109,192,269100,1,0,0:0:0:0:
36,192,269100,1,0,0:0:0:0:
475,192,269250,1,0,0:0:0:0:
182,192,269250,1,0,0:0:0:0:
329,192,269250,1,0,0:0:0:0:
36,192,269400,128,0,269625:0:0:0:0:
109,192,269400,128,0,269625:0:0:0:0:
182,192,269400,128,0,269625:0:0:0:0:
256,192,269400,128,0,269550:0:0:0:0:
329,192,269475,128,0,269625:0:0:0:0:
402,192,269550,128,0,269700:0:0:0:0:
475,192,269625,128,0,270225:0:0:0:0:
36,192,269700,128,0,269925:0:0:0:0:
109,192,269700,128,0,269925:0:0:0:0:
182,192,269700,128,0,269925:0:0:0:0:
256,192,270000,128,0,270150:0:0:0:0:
329,192,270000,128,0,270225:0:0:0:0:
402,192,270000,128,0,270225:0:0:0:0:
182,192,270075,128,0,270225:0:0:0:0:
109,192,270150,128,0,270300:0:0:0:0:
36,192,270225,128,0,270375:0:0:0:0:
256,192,270225,1,0,0:0:0:0:
329,192,270300,128,0,270525:0:0:0:0:
402,192,270300,128,0,270525:0:0:0:0:
475,192,270300,128,0,270525:0:0:0:0:
182,192,270300,1,0,0:0:0:0:
109,192,270375,1,0,0:0:0:0:
36,192,270450,1,0,0:0:0:0:
109,192,270525,1,0,0:0:0:0:
182,192,270600,128,0,270750:0:0:0:0:
329,192,270600,1,0,0:0:0:0:
256,192,270600,1,0,0:0:0:0:
475,192,270600,1,0,0:0:0:0:
402,192,270600,1,0,0:0:0:0:
36,192,270600,1,0,0:0:0:0:
109,192,270750,1,0,0:0:0:0:
402,192,270750,1,0,0:0:0:0:
475,192,270900,128,0,271050:0:0:0:0:
329,192,270900,1,0,0:0:0:0:
256,192,270900,1,0,0:0:0:0:
109,192,270900,1,0,0:0:0:0:
36,192,270900,1,0,0:0:0:0:
182,192,271050,128,0,271200:0:0:0:0:
402,192,271050,1,0,0:0:0:0:
109,192,271050,1,0,0:0:0:0:
475,192,271200,128,0,271350:0:0:0:0:
256,192,271200,1,0,0:0:0:0:
36,192,271200,1,0,0:0:0:0:
329,192,271200,1,0,0:0:0:0:
329,192,271350,128,0,271500:0:0:0:0:
256,192,271350,1,0,0:0:0:0:
109,192,271350,1,0,0:0:0:0:
182,192,271500,1,0,0:0:0:0:
475,192,271500,1,0,0:0:0:0:
402,192,271500,1,0,0:0:0:0:
109,192,271500,1,0,0:0:0:0:
36,192,271650,128,0,271800:0:0:0:0:
256,192,271650,1,0,0:0:0:0:
475,192,271650,1,0,0:0:0:0:
256,192,271800,1,0,0:0:0:0:
402,192,271800,1,0,0:0:0:0:
182,192,271800,1,0,0:0:0:0:
329,192,271875,1,0,0:0:0:0:
475,192,271875,1,0,0:0:0:0:
182,192,271950,1,0,0:0:0:0:
36,192,271950,1,0,0:0:0:0:
402,192,271950,1,0,0:0:0:0:
256,192,272025,1,0,0:0:0:0:
109,192,272025,1,0,0:0:0:0:
329,192,272100,1,0,0:0:0:0:
182,192,272100,1,0,0:0:0:0:
475,192,272100,1,0,0:0:0:0:
402,192,272100,1,0,0:0:0:0:
256,192,272175,1,0,0:0:0:0:
109,192,272175,1,0,0:0:0:0:
329,192,272250,1,0,0:0:0:0:
182,192,272250,1,0,0:0:0:0:
36,192,272250,1,0,0:0:0:0:
402,192,272325,1,0,0:0:0:0:
256,192,272325,1,0,0:0:0:0:
109,192,272400,128,0,272550:0:0:0:0:
36,192,272400,1,0,0:0:0:0:
329,192,272400,1,0,0:0:0:0:
475,192,272400,1,0,0:0:0:0:
402,192,272550,128,0,272700:0:0:0:0:
475,192,272550,1,0,0:0:0:0:
256,192,272550,1,0,0:0:0:0:
36,192,272700,128,0,272850:0:0:0:0:
256,192,272700,1,0,0:0:0:0:
182,192,272700,1,0,0:0:0:0:
109,192,272700,1,0,0:0:0:0:
329,192,272700,1,0,0:0:0:0:
329,192,272850,128,0,273000:0:0:0:0:
475,192,272850,1,0,0:0:0:0:
182,192,272850,1,0,0:0:0:0:
256,192,273000,128,0,273150:0:0:0:0:
109,192,273000,1,0,0:0:0:0:
36,192,273000,1,0,0:0:0:0:
402,192,273000,1,0,0:0:0:0:
402,192,273150,1,0,0:0:0:0:
36,192,273150,1,0,0:0:0:0:
109,192,273300,128,0,273450:0:0:0:0:
182,192,273300,1,0,0:0:0:0:
329,192,273300,1,0,0:0:0:0:
475,192,273300,1,0,0:0:0:0:
256,192,273300,1,0,0:0:0:0:
402,192,273450,128,0,273600:0:0:0:0:
329,192,273450,1,0,0:0:0:0:
36,192,273450,1,0,0:0:0:0:
109,192,273600,128,0,273750:0:0:0:0:
182,192,273600,1,0,0:0:0:0:
256,192,273600,1,0,0:0:0:0:
475,192,273600,1,0,0:0:0:0:
256,192,273750,1,0,0:0:0:0:
36,192,273750,1,0,0:0:0:0:
475,192,273900,128,0,274050:0:0:0:0:
109,192,273900,1,0,0:0:0:0:
182,192,273900,1,0,0:0:0:0:
329,192,273900,1,0,0:0:0:0:
402,192,273900,1,0,0:0:0:0:
182,192,274050,128,0,274200:0:0:0:0:
36,192,274050,1,0,0:0:0:0:
256,192,274050,1,0,0:0:0:0:
256,192,274200,1,0,0:0:0:0:
402,192,274200,1,0,0:0:0:0:
109,192,274200,1,0,0:0:0:0:
329,192,274275,1,0,0:0:0:0:
475,192,274275,1,0,0:0:0:0:
109,192,274350,1,0,0:0:0:0:
256,192,274350,1,0,0:0:0:0:
402,192,274350,1,0,0:0:0:0:
182,192,274425,1,0,0:0:0:0:
329,192,274425,1,0,0:0:0:0:
256,192,274500,1,0,0:0:0:0:
402,192,274500,1,0,0:0:0:0:
36,192,274500,1,0,0:0:0:0:
109,192,274500,1,0,0:0:0:0:
182,192,274575,1,0,0:0:0:0:
329,192,274575,1,0,0:0:0:0:
109,192,274650,1,0,0:0:0:0:
256,192,274650,1,0,0:0:0:0:
475,192,274650,1,0,0:0:0:0:
36,192,274725,1,0,0:0:0:0:
182,192,274725,1,0,0:0:0:0:
329,192,274800,128,0,274950:0:0:0:0:
402,192,274800,1,0,0:0:0:0:
256,192,274800,1,0,0:0:0:0:
109,192,274800,1,0,0:0:0:0:
36,192,274950,128,0,275100:0:0:0:0:
109,192,274950,1,0,0:0:0:0:
475,192,274950,1,0,0:0:0:0:
475,192,275100,128,0,275250:0:0:0:0:
402,192,275100,1,0,0:0:0:0:
256,192,275100,1,0,0:0:0:0:
182,192,275100,1,0,0:0:0:0:
329,192,275100,1,0,0:0:0:0:
182,192,275250,128,0,275400:0:0:0:0:
109,192,275250,1,0,0:0:0:0:
329,192,275250,1,0,0:0:0:0:
109,192,275400,128,0,275550:0:0:0:0:
475,192,275400,1,0,0:0:0:0:
36,192,275400,1,0,0:0:0:0:
402,192,275450,1,0,0:0:0:0:
329,192,275500,1,0,0:0:0:0:
256,192,275550,1,0,0:0:0:0:
182,192,275625,1,0,0:0:0:0:
475,192,275700,128,0,275850:0:0:0:0:
329,192,275700,1,0,0:0:0:0:
256,192,275700,1,0,0:0:0:0:
109,192,275700,1,0,0:0:0:0:
36,192,275700,1,0,0:0:0:0:
182,192,275850,128,0,276000:0:0:0:0:
402,192,275850,1,0,0:0:0:0:
109,192,275850,1,0,0:0:0:0:
475,192,276000,128,0,276150:0:0:0:0:
256,192,276000,1,0,0:0:0:0:
36,192,276000,1,0,0:0:0:0:
329,192,276000,1,0,0:0:0:0:
329,192,276150,128,0,276300:0:0:0:0:
109,192,276150,1,0,0:0:0:0:
256,192,276150,1,0,0:0:0:0:
182,192,276300,1,0,0:0:0:0:
475,192,276300,1,0,0:0:0:0:
402,192,276300,1,0,0:0:0:0:
109,192,276300,1,0,0:0:0:0:
36,192,276450,128,0,276600:0:0:0:0:
256,192,276450,1,0,0:0:0:0:
475,192,276450,1,0,0:0:0:0:
256,192,276600,1,0,0:0:0:0:
402,192,276600,1,0,0:0:0:0:
182,192,276600,1,0,0:0:0:0:
329,192,276675,1,0,0:0:0:0:
475,192,276675,1,0,0:0:0:0:
182,192,276750,1,0,0:0:0:0:
36,192,276750,1,0,0:0:0:0:
402,192,276750,1,0,0:0:0:0:
256,192,276825,1,0,0:0:0:0:
109,192,276825,1,0,0:0:0:0:
329,192,276900,1,0,0:0:0:0:
182,192,276900,1,0,0:0:0:0:
475,192,276900,1,0,0:0:0:0:
402,192,276900,1,0,0:0:0:0:
256,192,276975,1,0,0:0:0:0:
109,192,276975,1,0,0:0:0:0:
329,192,277050,1,0,0:0:0:0:
182,192,277050,1,0,0:0:0:0:
36,192,277050,1,0,0:0:0:0:
402,192,277125,1,0,0:0:0:0:
256,192,277125,1,0,0:0:0:0:
109,192,277200,128,0,277350:0:0:0:0:
36,192,277200,1,0,0:0:0:0:
329,192,277200,1,0,0:0:0:0:
182,192,277275,1,0,0:0:0:0:
475,192,277275,1,0,0:0:0:0:
402,192,277350,128,0,277500:0:0:0:0:
36,192,277350,1,0,0:0:0:0:
256,192,277350,1,0,0:0:0:0:
329,192,277425,1,0,0:0:0:0:
182,192,277425,1,0,0:0:0:0:
36,192,277500,128,0,277650:0:0:0:0:
256,192,277500,1,0,0:0:0:0:
475,192,277500,1,0,0:0:0:0:
182,192,277575,1,0,0:0:0:0:
109,192,277575,1,0,0:0:0:0:
402,192,277650,1,0,0:0:0:0:
475,192,277650,1,0,0:0:0:0:
329,192,277650,128,0,277800:0:0:0:0:
182,192,277725,1,0,0:0:0:0:
256,192,277725,1,0,0:0:0:0:
402,192,277800,1,0,0:0:0:0:
475,192,277800,1,0,0:0:0:0:
109,192,277875,1,0,0:0:0:0:
36,192,277875,1,0,0:0:0:0:
402,192,277950,1,0,0:0:0:0:
475,192,277950,1,0,0:0:0:0:
36,192,278025,1,0,0:0:0:0:
109,192,278025,1,0,0:0:0:0:
329,192,278100,128,0,278250:0:0:0:0:
402,192,278100,128,0,278250:0:0:0:0:
475,192,278100,128,0,278250:0:0:0:0:
109,192,278250,1,0,0:0:0:0:
182,192,278250,1,0,0:0:0:0:
329,192,278325,1,0,0:0:0:0:
402,192,278325,1,0,0:0:0:0:
109,192,278400,1,0,0:0:0:0:
182,192,278400,1,0,0:0:0:0:
329,192,278475,1,0,0:0:0:0:
402,192,278475,1,0,0:0:0:0:
36,192,278550,128,0,278700:0:0:0:0:
109,192,278550,128,0,278700:0:0:0:0:
182,192,278550,128,0,278700:0:0:0:0:
329,192,278700,1,0,0:0:0:0:
475,192,278700,1,0,0:0:0:0:
182,192,278775,1,0,0:0:0:0:
36,192,278775,1,0,0:0:0:0:
329,192,278850,1,0,0:0:0:0:
475,192,278850,1,0,0:0:0:0:
182,192,278925,1,0,0:0:0:0:
36,192,278925,1,0,0:0:0:0:
256,192,279000,128,0,279150:0:0:0:0:
402,192,279000,128,0,279150:0:0:0:0:
329,192,279000,128,0,279150:0:0:0:0:
109,192,279150,1,0,0:0:0:0:
182,192,279150,1,0,0:0:0:0:
402,192,279225,1,0,0:0:0:0:
475,192,279225,1,0,0:0:0:0:
36,192,279300,1,0,0:0:0:0:
109,192,279300,1,0,0:0:0:0:
329,192,279375,1,0,0:0:0:0:
402,192,279375,1,0,0:0:0:0:
109,192,279450,128,0,279600:0:0:0:0:
182,192,279450,128,0,279600:0:0:0:0:
256,192,279450,128,0,279600:0:0:0:0:
329,192,279600,1,0,0:0:0:0:
475,192,279600,1,0,0:0:0:0:
182,192,279675,1,0,0:0:0:0:
36,192,279675,1,0,0:0:0:0:
256,192,279750,1,0,0:0:0:0:
402,192,279750,1,0,0:0:0:0:
182,192,279825,1,0,0:0:0:0:
36,192,279825,1,0,0:0:0:0:
329,192,279900,128,0,279975:0:0:0:0:
475,192,279900,128,0,279975:0:0:0:0:
256,192,279900,128,0,279975:0:0:0:0:
36,192,280050,128,0,280425:0:0:0:0:
182,192,280050,128,0,280575:0:0:0:0:
329,192,280050,128,0,280800:0:0:0:0:
109,192,280050,128,0,280500:0:0:0:0:
402,192,280050,128,0,280725:0:0:0:0:
475,192,280050,128,0,280650:0:0:0:0:
36,192,280500,1,0,0:0:0:0:
109,192,280575,1,0,0:0:0:0:
182,192,280650,1,0,0:0:0:0:
475,192,280725,1,0,0:0:0:0:
402,192,280800,1,0,0:0:0:0:
256,192,280875,128,0,281025:0:0:0:0:
329,192,280875,1,0,0:0:0:0:
182,192,280950,128,0,281100:0:0:0:0:
109,192,281025,128,0,281175:0:0:0:0:
36,192,281100,128,0,281250:0:0:0:0:
329,192,281175,128,0,281325:0:0:0:0:
402,192,281250,128,0,281400:0:0:0:0:
475,192,281325,128,0,281475:0:0:0:0:
182,192,281400,1,0,0:0:0:0:
36,192,281400,1,0,0:0:0:0:
109,192,281400,1,0,0:0:0:0:
256,192,281550,128,0,281587:0:0:0:0:
182,192,281700,1,0,0:0:0:0:
402,192,281700,1,0,0:0:0:0:
109,192,281700,128,0,281737:0:0:0:0:
329,192,281850,128,0,281887:0:0:0:0:
256,192,282000,1,0,0:0:0:0:
475,192,282000,1,0,0:0:0:0:
182,192,282000,128,0,282037:0:0:0:0:
402,192,282150,128,0,282187:0:0:0:0:
36,192,282300,1,0,0:0:0:0:
109,192,282300,1,0,0:0:0:0:
182,192,282300,1,0,0:0:0:0:
329,192,282300,1,0,0:0:0:0:
256,192,282450,1,0,0:0:0:0:
329,192,282450,1,0,0:0:0:0:
109,192,282450,1,0,0:0:0:0:
475,192,282450,1,0,0:0:0:0:
36,192,282600,128,0,282900:0:0:0:0:
109,192,282600,128,0,282900:0:0:0:0:
402,192,282600,128,0,282900:0:0:0:0:
475,192,282600,128,0,282900:0:0:0:0:
182,192,282600,1,0,0:0:0:0:
329,192,282600,1,0,0:0:0:0:
109,192,283050,128,0,283350:0:0:0:0:
182,192,283050,128,0,283350:0:0:0:0:
329,192,283050,128,0,283350:0:0:0:0:
402,192,283050,128,0,283350:0:0:0:0:
256,192,283050,1,0,0:0:0:0:
36,192,283650,128,0,283950:0:0:0:0:
182,192,283650,128,0,283950:0:0:0:0:
329,192,283650,128,0,283950:0:0:0:0:
475,192,283650,128,0,283950:0:0:0:0:
402,192,283650,1,0,0:0:0:0:
109,192,283650,1,0,0:0:0:0:
182,192,284250,128,0,284550:0:0:0:0:
256,192,284250,128,0,284550:0:0:0:0:
329,192,284250,128,0,284550:0:0:0:0:
475,192,284250,1,0,0:0:0:0:
36,192,284250,1,0,0:0:0:0:
109,192,284550,1,0,0:0:0:0:
402,192,284550,1,0,0:0:0:0:
36,192,284625,1,0,0:0:0:0:
329,192,284625,1,0,0:0:0:0:
109,192,284700,1,0,0:0:0:0:
402,192,284700,1,0,0:0:0:0:
182,192,284775,1,0,0:0:0:0:
475,192,284775,1,0,0:0:0:0:
36,192,284850,1,0,0:0:0:0:
256,192,284850,1,0,0:0:0:0:
109,192,284925,1,0,0:0:0:0:
329,192,284925,1,0,0:0:0:0:
36,192,285000,128,0,285300:0:0:0:0:
182,192,285000,128,0,285300:0:0:0:0:
402,192,285000,128,0,285300:0:0:0:0:
475,192,285000,128,0,285300:0:0:0:0:
256,192,285000,1,0,0:0:0:0:
36,192,285450,128,0,285750:0:0:0:0:
109,192,285450,128,0,285750:0:0:0:0:
329,192,285450,128,0,285750:0:0:0:0:
402,192,285450,128,0,285750:0:0:0:0:
182,192,285450,1,0,0:0:0:0:
475,192,285450,1,0,0:0:0:0:
256,192,286050,128,0,286350:0:0:0:0:
329,192,286050,128,0,286350:0:0:0:0:
475,192,286050,128,0,286350:0:0:0:0:
109,192,286050,128,0,286350:0:0:0:0:
36,192,286050,1,0,0:0:0:0:
109,192,286650,128,0,286950:0:0:0:0:
402,192,286650,128,0,286950:0:0:0:0:
256,192,286650,128,0,286950:0:0:0:0:
182,192,286650,1,0,0:0:0:0:
329,192,286650,1,0,0:0:0:0:
475,192,286950,1,0,0:0:0:0:
182,192,286950,1,0,0:0:0:0:
109,192,287025,1,0,0:0:0:0:
402,192,287025,1,0,0:0:0:0:
329,192,287100,1,0,0:0:0:0:
36,192,287100,1,0,0:0:0:0:
182,192,287100,128,0,287325:0:0:0:0:
475,192,287100,128,0,287325:0:0:0:0:
402,192,287175,1,0,0:0:0:0:
256,192,287175,1,0,0:0:0:0:
329,192,287250,1,0,0:0:0:0:
109,192,287250,1,0,0:0:0:0:
256,192,287325,1,0,0:0:0:0:
36,192,287325,1,0,0:0:0:0:
109,192,287400,128,0,287587:0:0:0:0:
182,192,287400,128,0,287737:0:0:0:0:
329,192,287400,128,0,287887:0:0:0:0:
402,192,287400,128,0,288037:0:0:0:0:
475,192,287400,128,0,288187:0:0:0:0:
36,192,287550,128,0,287587:0:0:0:0:
109,192,287700,128,0,287737:0:0:0:0:
256,192,287850,128,0,287887:0:0:0:0:
182,192,287925,1,0,0:0:0:0:
36,192,288000,1,0,0:0:0:0:
109,192,288000,1,0,0:0:0:0:
329,192,288000,128,0,288037:0:0:0:0:
402,192,288150,128,0,288187:0:0:0:0:
109,192,288225,1,0,0:0:0:0:
36,192,288225,1,0,0:0:0:0:
182,192,288300,1,0,0:0:0:0:
256,192,288300,1,0,0:0:0:0:
475,192,288300,128,0,288337:0:0:0:0:
109,192,288450,128,0,289087:0:0:0:0:
36,192,288450,128,0,289237:0:0:0:0:
182,192,288450,128,0,288937:0:0:0:0:
402,192,288450,128,0,288637:0:0:0:0:
329,192,288450,128,0,288787:0:0:0:0:
475,192,288600,128,0,288637:0:0:0:0:
402,192,288750,128,0,288787:0:0:0:0:
256,192,288900,128,0,288937:0:0:0:0:
475,192,289050,1,0,0:0:0:0:
182,192,289050,128,0,289087:0:0:0:0:
402,192,289050,1,0,0:0:0:0:
329,192,289125,1,0,0:0:0:0:
109,192,289200,128,0,289237:0:0:0:0:
256,192,289200,1,0,0:0:0:0:
475,192,289200,1,0,0:0:0:0:
402,192,289275,1,0,0:0:0:0:
182,192,289275,1,0,0:0:0:0:
36,192,289350,128,0,289387:0:0:0:0:
329,192,289350,1,0,0:0:0:0:
256,192,289425,1,0,0:0:0:0:
109,192,289500,128,0,289537:0:0:0:0:
475,192,289500,1,0,0:0:0:0:
402,192,289500,1,0,0:0:0:0:
329,192,289575,1,0,0:0:0:0:
36,192,289650,128,0,289950:0:0:0:0:
109,192,289650,128,0,289950:0:0:0:0:
182,192,289650,128,0,289950:0:0:0:0:
256,192,289650,128,0,289950:0:0:0:0:
402,192,289650,128,0,289950:0:0:0:0:
109,192,290100,128,0,290400:0:0:0:0:
256,192,290100,128,0,290400:0:0:0:0:
329,192,290100,128,0,290400:0:0:0:0:
402,192,290100,128,0,290400:0:0:0:0:
475,192,290100,128,0,290400:0:0:0:0:
36,192,290550,128,0,290850:0:0:0:0:
109,192,290550,128,0,290850:0:0:0:0:
182,192,290550,128,0,290850:0:0:0:0:
256,192,290550,128,0,290850:0:0:0:0:
475,192,290550,128,0,290850:0:0:0:0:
329,192,290550,128,0,290850:0:0:0:0:
36,192,291000,128,0,292800:0:0:0:0:
109,192,291000,128,0,292200:0:0:0:0:
182,192,291000,128,0,292200:0:0:0:0:
329,192,291000,128,0,292200:0:0:0:0:
402,192,291000,128,0,292200:0:0:0:0:
475,192,291000,128,0,292800:0:0:0:0:
