osu file format v14

[General]
AudioFilename: audio.mp3
AudioLeadIn: 0
PreviewTime: 52096
Countdown: 0
SampleSet: None
StackLeniency: 0.7
Mode: 1
LetterboxInBreaks: 0
WidescreenStoryboard: 0

[Editor]
Bookmarks: 689,5589,16443,26091,35739,42976,47800,50212,52624,62272,71920,74332,81569,91217,100865,108101,112925,115337,117674,127398,139458,149106,158754,165991,170815,173227,175639,176845,178051,187699,197347,204584,206996
DistanceSpacing: 0.8
BeatDivisor: 4
GridSize: 4
TimelineZoom: 1.9

[Metadata]
Title:Shinchoku Doudesuka?
TitleUnicode:Shinchoku Doudesuka?
Artist:Nanahira
ArtistUnicode:Nanahira
Creator:Volta
Version:Inner Oni
Source:
Tags:
BeatmapID:1634667
BeatmapSetID:778281

[Difficulty]
HPDrainRate:6
CircleSize:5
OverallDifficulty:6
ApproachRate:5
SliderMultiplier:1.4
SliderTickRate:1

[Events]
//Background and Video events
0,0,"a2e1a1cb-e5aa-487a-8a6f-4084fe59b0fe.png",0,0
//Break Periods
2,74231,79162
//Storyboard Layer 0 (Background)
//Storyboard Layer 1 (Fail)
//Storyboard Layer 2 (Pass)
//Storyboard Layer 3 (Foreground)
//Storyboard Sound Samples

[TimingPoints]
765,301.507537688442,4,1,0,95,1,0
15237,-125,4,1,0,95,0,0
16443,-117.647058823529,4,1,0,95,0,0
26091,-105.263157894737,4,1,0,95,0,0
35739,-125,4,1,0,95,0,0
42976,-156.25,4,1,0,95,0,0
47197,-151.515151515152,4,1,0,95,0,0
47800,-147.058823529412,4,1,0,95,0,0
50513,-138.888888888889,4,1,0,95,0,0
50815,-131.578947368421,4,1,0,95,0,0
51116,-125,4,1,0,95,0,0
51418,-119.047619047619,4,1,0,95,0,0
51493,-117.647058823529,4,1,0,95,0,0
51569,-116.279069767442,4,1,0,95,0,0
51644,-114.942528735632,4,1,0,95,0,0
51719,-113.636363636364,4,1,0,95,0,0
51795,-112.359550561798,4,1,0,95,0,0
51870,-111.111111111111,4,1,0,95,0,0
51945,-109.89010989011,4,1,0,95,0,0
52021,-108.695652173913,4,1,0,95,0,0
52172,-106.382978723404,4,1,0,95,0,0
52322,-104.166666666667,4,1,0,95,0,0
52398,-103.092783505155,4,1,0,95,0,0
52473,-102.040816326531,4,1,0,95,0,0
52548,-101.010101010101,4,1,0,95,0,0
52624,-100,4,1,0,95,0,1
74483,-142.857142857143,4,1,0,95,0,0
81569,-111.111111111111,4,1,0,95,0,0
91217,-105.263157894737,4,1,0,95,0,0
100865,-125,4,1,0,95,0,0
108101,-156.25,4,1,0,95,0,0
112322,-151.515151515152,4,1,0,95,0,0
112925,-147.058823529412,4,1,0,95,0,0
115638,-138.888888888889,4,1,0,95,0,0
115940,-131.578947368421,4,1,0,95,0,0
116241,-125,4,1,0,95,0,0
116543,-119.047619047619,4,1,0,95,0,0
116618,-117.647058823529,4,1,0,95,0,0
116694,-116.279069767442,4,1,0,95,0,0
116769,-114.942528735632,4,1,0,95,0,0
116844,-113.636363636364,4,1,0,95,0,0
116920,-112.359550561798,4,1,0,95,0,0
116995,-111.111111111111,4,1,0,95,0,0
117070,-109.89010989011,4,1,0,95,0,0
117146,-108.695652173913,4,1,0,95,0,0
117297,-106.382978723404,4,1,0,95,0,0
117447,-104.166666666667,4,1,0,95,0,0
117448,-104.166666666667,4,1,0,95,0,0
117523,-103.092783505155,4,1,0,95,0,0
117599,-102.040816326531,4,1,0,95,0,0
117674,-101.010101010101,4,1,0,95,0,0
117749,-100,4,1,0,95,0,1
139458,-100,4,1,0,95,0,0
159056,-125,4,1,0,95,0,0
165990,-156.25,4,1,0,95,0,0
170211,-151.515151515152,4,1,0,95,0,0
170814,-147.058823529412,4,1,0,95,0,0
173527,-138.888888888889,4,1,0,95,0,0
173829,-131.578947368421,4,1,0,95,0,0
174130,-125,4,1,0,95,0,0
174432,-119.047619047619,4,1,0,95,0,0
174507,-117.647058823529,4,1,0,95,0,0
174583,-116.279069767442,4,1,0,95,0,0
174658,-114.942528735632,4,1,0,95,0,0
174733,-113.636363636364,4,1,0,95,0,0
174809,-112.359550561798,4,1,0,95,0,0
174884,-111.111111111111,4,1,0,95,0,0
174959,-109.89010989011,4,1,0,95,0,0
175035,-108.695652173913,4,1,0,95,0,0
175639,-128.205128205128,4,1,0,95,0,0
176920,-125,4,1,0,95,0,0
176996,-121.951219512195,4,1,0,95,0,0
177071,-119.047619047619,4,1,0,95,0,0
177146,-116.279069767442,4,1,0,95,0,0
177222,-113.636363636364,4,1,0,95,0,0
177297,-111.111111111111,4,1,0,95,0,0
177373,-108.695652173913,4,1,0,95,0,0
177448,-106.382978723404,4,1,0,95,0,0
177523,-104.166666666667,4,1,0,95,0,0
177599,-102.040816326531,4,1,0,95,0,0
177674,-100,4,1,0,95,0,0
177749,-98.0392156862745,4,1,0,95,0,0
177825,-96.1538461538461,4,1,0,95,0,0
177900,-94.3396226415094,4,1,0,95,0,0
177976,-92.5925925925926,4,1,0,95,0,0
178051,-90.9090909090909,4,1,0,95,0,1
197347,-66.6666666666667,4,1,0,95,0,0
204056,-66.6666666666667,4,1,0,30,0,0
205714,-133.333333333333,4,1,0,70,0,0
206694,-25,4,1,0,70,0,0

[HitObjects]
248,196,765,5,12,0:0:0:0:
276,180,1217,1,0,0:0:0:0:
248,196,1368,1,12,0:0:0:0:
276,180,1820,1,0,0:0:0:0:
248,196,1971,1,12,0:0:0:0:
256,184,2121,1,0,0:0:0:0:
256,192,2272,1,0,0:0:0:0:
256,196,2423,1,0,0:0:0:0:
256,196,2574,1,12,0:0:0:0:
256,196,2875,1,8,0:0:0:0:
160,140,3026,1,0,0:0:0:0:
256,196,3177,1,12,0:0:0:0:
276,180,3629,1,0,0:0:0:0:
256,196,3780,1,12,0:0:0:0:
276,180,4232,1,0,0:0:0:0:
256,196,4383,1,12,0:0:0:0:
256,196,4533,1,0,0:0:0:0:
256,196,4684,1,0,0:0:0:0:
256,196,4835,1,0,0:0:0:0:
256,196,4986,1,12,0:0:0:0:
296,220,5136,1,8,0:0:0:0:
296,220,5212,1,8,0:0:0:0:
296,220,5287,1,8,0:0:0:0:
296,220,5362,1,8,0:0:0:0:
296,220,5438,1,8,0:0:0:0:
352,124,5513,1,8,0:0:0:0:
296,220,5589,1,0,0:0:0:0:
216,132,5739,1,0,0:0:0:0:
216,132,5890,1,8,0:0:0:0:
216,136,5966,1,0,0:0:0:0:
216,132,6041,1,8,0:0:0:0:
216,136,6116,1,8,0:0:0:0:
216,136,6192,1,8,0:0:0:0:
220,140,6267,1,0,0:0:0:0:
224,140,6342,1,8,0:0:0:0:
224,140,6493,1,0,0:0:0:0:
152,108,6569,1,8,0:0:0:0:
152,108,6644,1,0,0:0:0:0:
152,108,6719,1,0,0:0:0:0:
152,108,6795,1,8,0:0:0:0:
184,216,6945,1,0,0:0:0:0:
216,132,7096,1,8,0:0:0:0:
216,136,7172,1,0,0:0:0:0:
216,132,7247,1,8,0:0:0:0:
216,136,7322,1,8,0:0:0:0:
216,136,7398,1,0,0:0:0:0:
220,140,7473,1,0,0:0:0:0:
224,140,7548,1,8,0:0:0:0:
128,148,7699,1,8,0:0:0:0:
128,148,7775,1,8,0:0:0:0:
128,148,7850,1,0,0:0:0:0:
144,144,7925,1,0,0:0:0:0:
144,148,8001,1,8,0:0:0:0:
196,176,8151,1,0,0:0:0:0:
304,156,8302,1,8,0:0:0:0:
304,156,8378,1,8,0:0:0:0:
304,156,8453,1,0,0:0:0:0:
304,156,8528,1,8,0:0:0:0:
304,156,8604,1,8,0:0:0:0:
304,156,8679,1,0,0:0:0:0:
304,156,8754,1,0,0:0:0:0:
304,156,8905,1,8,0:0:0:0:
188,92,8981,1,0,0:0:0:0:
192,96,9056,1,0,0:0:0:0:
192,96,9131,1,0,0:0:0:0:
192,96,9207,1,8,0:0:0:0:
132,104,9357,1,0,0:0:0:0:
176,164,9508,1,8,0:0:0:0:
96,176,9584,1,0,0:0:0:0:
96,176,9659,1,0,0:0:0:0:
96,176,9734,1,8,0:0:0:0:
96,176,9810,1,8,0:0:0:0:
96,176,9885,1,0,0:0:0:0:
96,176,9960,1,0,0:0:0:0:
224,224,10111,1,8,0:0:0:0:
224,224,10187,1,8,0:0:0:0:
224,224,10262,1,0,0:0:0:0:
84,144,10563,1,0,0:0:0:0:
216,132,10714,1,8,0:0:0:0:
216,136,10790,1,0,0:0:0:0:
216,132,10865,1,8,0:0:0:0:
216,136,10940,1,8,0:0:0:0:
216,136,11016,1,8,0:0:0:0:
220,140,11091,1,0,0:0:0:0:
224,140,11166,1,8,0:0:0:0:
224,140,11317,1,0,0:0:0:0:
152,108,11393,1,8,0:0:0:0:
152,108,11468,1,0,0:0:0:0:
152,108,11543,1,0,0:0:0:0:
152,108,11619,1,8,0:0:0:0:
184,216,11769,1,0,0:0:0:0:
216,132,11920,1,8,0:0:0:0:
216,136,11996,1,0,0:0:0:0:
216,132,12071,1,8,0:0:0:0:
216,136,12146,1,8,0:0:0:0:
216,136,12222,1,0,0:0:0:0:
220,140,12297,1,0,0:0:0:0:
224,140,12372,1,8,0:0:0:0:
128,148,12523,1,8,0:0:0:0:
128,148,12599,5,8,0:0:0:0:
128,148,12674,1,0,0:0:0:0:
144,144,12749,1,0,0:0:0:0:
144,148,12825,1,8,0:0:0:0:
196,176,12975,1,0,0:0:0:0:
304,156,13126,1,8,0:0:0:0:
304,156,13202,1,8,0:0:0:0:
304,156,13277,1,0,0:0:0:0:
304,156,13352,1,8,0:0:0:0:
304,156,13428,1,8,0:0:0:0:
304,156,13503,1,0,0:0:0:0:
304,156,13578,1,0,0:0:0:0:
164,128,13729,5,8,0:0:0:0:
220,88,13805,1,0,0:0:0:0:
164,120,13880,5,0,0:0:0:0:
260,208,14031,5,12,0:0:0:0:
260,208,14182,1,12,0:0:0:0:
260,208,14332,1,12,0:0:0:0:
260,208,14483,1,12,0:0:0:0:
260,208,14634,1,12,0:0:0:0:
192,124,14935,1,8,0:0:0:0:
200,148,15237,1,0,0:0:0:0:
200,148,15538,1,0,0:0:0:0:
196,144,15840,1,8,0:0:0:0:
200,148,15991,1,0,1:0:0:0:
200,148,16141,1,8,1:0:0:0:
200,124,16443,1,0,0:0:0:0:
232,187,16744,5,8,0:0:0:0:
170,166,16895,1,8,0:0:0:0:
170,166,17046,1,0,0:0:0:0:
170,174,17197,1,0,0:0:0:0:
241,140,17347,1,8,0:0:0:0:
224,132,17498,1,0,0:0:0:0:
214,148,17649,1,0,0:0:0:0:
215,153,17950,5,8,0:0:0:0:
63,164,18101,1,0,0:0:0:0:
89,151,18252,1,8,0:0:0:0:
63,164,18403,1,0,0:0:0:0:
96,151,18553,1,8,0:0:0:0:
95,155,18704,1,8,0:0:0:0:
92,161,18855,1,0,0:0:0:0:
163,154,19156,5,8,0:0:0:0:
163,156,19307,1,8,0:0:0:0:
165,170,19458,1,0,0:0:0:0:
172,160,19609,1,0,0:0:0:0:
173,168,19759,1,8,0:0:0:0:
173,169,19910,1,0,0:0:0:0:
222,143,20212,5,0,0:0:0:0:
224,151,20362,1,8,0:0:0:0:
224,151,20513,1,0,0:0:0:0:
224,151,20664,1,8,0:0:0:0:
143,167,20966,1,8,0:0:0:0:
200,124,21267,1,0,0:0:0:0:
232,187,21568,5,8,0:0:0:0:
170,166,21719,1,8,0:0:0:0:
170,166,21870,1,0,0:0:0:0:
170,174,22021,1,0,0:0:0:0:
241,140,22171,1,8,0:0:0:0:
224,132,22322,1,0,0:0:0:0:
214,148,22473,1,0,0:0:0:0:
215,153,22774,5,8,0:0:0:0:
63,164,22925,1,0,0:0:0:0:
89,151,23076,1,8,0:0:0:0:
63,164,23227,1,0,0:0:0:0:
96,151,23377,1,8,0:0:0:0:
95,155,23528,1,8,0:0:0:0:
92,161,23679,1,0,0:0:0:0:
163,154,23981,5,8,0:0:0:0:
163,156,24131,1,8,0:0:0:0:
165,170,24282,1,0,0:0:0:0:
172,160,24433,1,0,0:0:0:0:
173,168,24583,1,8,0:0:0:0:
173,169,24734,1,0,0:0:0:0:
228,110,25036,1,0,0:0:0:0:
227,117,25187,1,8,0:0:0:0:
224,122,25337,1,0,0:0:0:0:
179,193,25488,1,0,0:0:0:0:
196,174,25790,1,12,0:0:0:0:
199,115,26091,1,0,0:0:0:0:
273,174,26242,1,0,0:0:0:0:
273,174,26393,1,8,0:0:0:0:
254,146,26468,1,8,0:0:0:0:
246,158,26543,1,0,0:0:0:0:
230,151,26694,1,8,0:0:0:0:
235,104,26845,1,0,0:0:0:0:
228,199,26920,1,0,0:0:0:0:
225,195,26996,1,8,0:0:0:0:
225,195,27071,1,8,0:0:0:0:
228,199,27146,1,0,0:0:0:0:
228,199,27297,1,8,0:0:0:0:
117,160,27448,1,0,0:0:0:0:
85,151,27599,1,8,0:0:0:0:
103,145,27749,1,0,0:0:0:0:
99,146,27825,1,8,0:0:0:0:
99,150,27900,1,0,0:0:0:0:
128,115,28051,1,0,0:0:0:0:
123,120,28126,1,0,0:0:0:0:
125,126,28202,1,8,0:0:0:0:
192,120,28352,1,8,0:0:0:0:
186,155,28503,1,0,0:0:0:0:
195,154,28654,1,0,0:0:0:0:
194,157,28729,1,0,0:0:0:0:
194,161,28805,1,8,0:0:0:0:
190,164,28955,1,0,0:0:0:0:
190,168,29106,1,8,0:0:0:0:
190,168,29182,1,0,0:0:0:0:
191,169,29257,1,8,0:0:0:0:
191,169,29332,1,8,0:0:0:0:
245,126,29408,1,0,0:0:0:0:
173,169,29558,1,0,0:0:0:0:
120,162,29634,1,0,0:0:0:0:
120,168,29709,1,0,0:0:0:0:
222,143,29860,1,0,0:0:0:0:
224,151,30010,1,8,0:0:0:0:
224,151,30161,1,0,0:0:0:0:
224,151,30237,1,0,0:0:0:0:
224,151,30312,1,8,0:0:0:0:
224,151,30463,1,0,0:0:0:0:
143,167,30614,1,8,0:0:0:0:
199,115,30915,1,0,0:0:0:0:
273,174,31066,1,0,0:0:0:0:
273,174,31217,1,8,0:0:0:0:
254,146,31292,1,8,0:0:0:0:
246,158,31367,1,0,0:0:0:0:
230,151,31518,1,8,0:0:0:0:
235,104,31669,1,0,0:0:0:0:
228,199,31744,1,0,0:0:0:0:
225,195,31820,1,8,0:0:0:0:
225,195,31895,1,8,0:0:0:0:
228,199,31970,1,0,0:0:0:0:
228,199,32121,1,8,0:0:0:0:
117,160,32272,1,0,0:0:0:0:
85,151,32423,1,8,0:0:0:0:
103,145,32573,1,0,0:0:0:0:
99,146,32649,1,8,0:0:0:0:
99,150,32724,1,0,0:0:0:0:
128,115,32875,1,0,0:0:0:0:
123,120,32950,1,0,0:0:0:0:
125,126,33026,1,8,0:0:0:0:
192,120,33176,1,8,0:0:0:0:
186,155,33327,1,0,0:0:0:0:
195,154,33478,1,8,0:0:0:0:
194,157,33553,1,8,0:0:0:0:
194,161,33629,1,8,0:0:0:0:
190,164,33779,1,0,0:0:0:0:
190,168,33930,1,8,0:0:0:0:
190,168,34006,1,8,0:0:0:0:
191,169,34081,1,0,0:0:0:0:
191,169,34156,1,0,0:0:0:0:
245,126,34232,1,8,0:0:0:0:
176,109,34383,1,0,0:0:0:0:
166,96,34684,1,0,0:0:0:0:
166,98,34835,1,8,0:0:0:0:
166,97,34986,1,0,0:0:0:0:
166,97,35136,1,0,0:0:0:0:
170,101,35438,1,12,0:0:0:0:
334,183,35739,1,4,0:0:0:0:
310,188,36342,1,8,0:0:0:0:
250,136,36418,1,8,0:0:0:0:
250,97,36493,1,8,0:0:0:0:
224,114,36644,1,0,0:0:0:0:
224,114,36795,1,8,0:0:0:0:
241,138,37247,1,0,0:0:0:0:
257,138,37548,1,8,0:0:0:0:
257,138,37699,1,8,0:0:0:0:
257,139,37850,1,0,0:0:0:0:
257,129,38151,1,12,0:0:0:0:
166,157,38453,1,8,0:0:0:0:
165,162,38604,1,4,0:0:0:0:
137,152,38905,1,8,0:0:0:0:
137,152,38981,1,8,0:0:0:0:
137,152,39056,1,8,0:0:0:0:
137,152,39207,1,4,0:0:0:0:
243,124,39508,1,0,0:0:0:0:
240,135,39584,1,8,0:0:0:0:
239,138,39659,1,8,0:0:0:0:
152,175,39810,1,0,0:0:0:0:
152,175,39960,1,8,0:0:0:0:
152,175,40111,1,8,0:0:0:0:
152,175,40187,1,0,0:0:0:0:
152,175,40262,1,8,0:0:0:0:
152,175,40337,1,8,0:0:0:0:
152,175,40413,1,0,0:0:0:0:
152,175,40563,1,4,0:0:0:0:
253,152,41167,1,8,0:0:0:0:
253,152,41242,1,8,0:0:0:0:
253,152,41317,1,8,0:0:0:0:
255,162,41468,1,0,0:0:0:0:
255,166,41619,1,8,0:0:0:0:
150,178,42071,1,0,0:0:0:0:
168,148,42373,1,8,0:0:0:0:
168,148,42523,1,8,0:0:0:0:
168,148,42674,1,0,0:0:0:0:
247,157,42976,1,8,0:0:0:0:
250,153,44182,1,8,0:0:0:0:
250,153,45388,1,8,0:0:0:0:
250,153,46594,1,8,0:0:0:0:
283,122,47197,1,0,0:0:0:0:
250,153,47800,5,4,0:0:0:0:
184,161,48101,1,8,0:0:0:0:
184,161,48403,1,0,0:0:0:0:
57,193,48704,1,8,0:0:0:0:
125,148,49006,1,0,0:0:0:0:
63,190,49307,1,8,0:0:0:0:
125,148,49609,1,0,0:0:0:0:
210,132,49759,1,0,0:0:0:0:
63,190,49910,1,8,0:0:0:0:
173,120,50061,1,8,0:0:0:0:
210,195,50212,1,4,0:0:0:0:
210,195,50513,1,4,0:0:0:0:
210,195,50815,1,4,0:0:0:0:
203,182,51116,1,4,0:0:0:0:
274,143,51418,1,0,0:0:0:0:
274,143,51493,1,0,0:0:0:0:
274,143,51569,1,0,0:0:0:0:
274,148,51644,1,0,0:0:0:0:
274,148,51719,1,0,0:0:0:0:
274,148,51795,1,0,0:0:0:0:
274,149,51870,1,0,0:0:0:0:
274,149,51945,1,0,0:0:0:0:
274,143,52021,1,8,0:0:0:0:
267,90,52172,1,0,0:0:0:0:
94,179,52322,1,8,0:0:0:0:
94,179,52398,1,8,0:0:0:0:
94,179,52473,1,0,0:0:0:0:
94,179,52548,1,0,0:0:0:0:
94,179,52624,1,0,0:0:0:0:
240,249,52775,1,0,0:0:0:0:
152,161,52850,1,0,0:0:0:0:
192,123,52925,1,8,0:0:0:0:
303,171,53076,1,0,0:0:0:0:
283,111,53151,1,8,0:0:0:0:
283,111,53227,1,0,0:0:0:0:
214,173,53378,1,0,0:0:0:0:
214,173,53453,1,0,0:0:0:0:
214,173,53528,1,8,0:0:0:0:
214,173,53604,1,8,0:0:0:0:
214,173,53679,1,0,0:0:0:0:
214,173,53830,1,8,0:0:0:0:
155,57,53905,1,0,0:0:0:0:
214,125,53981,1,8,0:0:0:0:
214,125,54131,1,8,0:0:0:0:
214,125,54207,1,8,0:0:0:0:
214,132,54282,1,0,0:0:0:0:
214,132,54433,1,8,0:0:0:0:
192,140,54584,1,0,0:0:0:0:
192,144,54659,1,0,0:0:0:0:
192,144,54734,1,8,0:0:0:0:
25,153,54885,1,8,0:0:0:0:
103,133,55036,1,0,0:0:0:0:
157,91,55187,1,0,0:0:0:0:
159,101,55262,1,8,0:0:0:0:
159,103,55337,1,8,0:0:0:0:
159,103,55413,1,8,0:0:0:0:
161,109,55488,1,0,0:0:0:0:
205,100,55639,1,8,0:0:0:0:
188,169,55790,1,0,0:0:0:0:
189,173,55940,1,8,0:0:0:0:
189,175,56016,1,0,0:0:0:0:
189,180,56091,1,8,0:0:0:0:
183,188,56167,1,8,0:0:0:0:
183,188,56242,1,0,0:0:0:0:
248,144,56393,1,8,0:0:0:0:
253,135,56468,1,8,0:0:0:0:
248,144,56543,1,8,0:0:0:0:
67,155,56694,1,0,0:0:0:0:
64,161,56845,1,8,0:0:0:0:
63,162,56920,1,0,0:0:0:0:
172,108,56996,1,0,0:0:0:0:
165,113,57071,1,0,0:0:0:0:
165,114,57146,1,8,0:0:0:0:
199,163,57297,1,0,0:0:0:0:
169,130,57674,1,0,0:0:0:0:
214,87,57749,1,8,0:0:0:0:
234,166,57900,1,8,0:0:0:0:
168,72,58051,1,0,0:0:0:0:
167,79,58126,1,0,0:0:0:0:
167,80,58202,1,8,0:0:0:0:
167,80,58277,1,8,0:0:0:0:
167,80,58352,1,0,0:0:0:0:
66,151,58503,1,8,0:0:0:0:
306,166,58729,1,8,0:0:0:0:
127,132,58805,1,0,0:0:0:0:
127,132,58955,1,8,0:0:0:0:
127,132,59031,1,8,0:0:0:0:
127,132,59106,1,0,0:0:0:0:
126,138,59182,1,0,0:0:0:0:
126,138,59257,1,8,0:0:0:0:
155,119,59408,1,8,0:0:0:0:
155,119,59483,1,0,0:0:0:0:
155,119,59558,1,8,0:0:0:0:
199,86,59709,1,0,0:0:0:0:
201,91,59860,1,8,0:0:0:0:
199,91,59935,1,0,0:0:0:0:
199,91,60011,1,0,0:0:0:0:
199,91,60086,1,0,0:0:0:0:
200,93,60161,1,8,0:0:0:0:
148,90,60237,1,0,0:0:0:0:
199,86,60312,1,8,0:0:0:0:
199,86,60463,1,8,0:0:0:0:
199,86,60538,1,0,0:0:0:0:
199,86,60614,1,8,0:0:0:0:
199,86,60689,1,8,0:0:0:0:
201,91,60764,1,0,0:0:0:0:
201,91,60840,1,0,0:0:0:0:
199,91,60915,1,8,0:0:0:0:
232,158,61066,1,4,0:0:0:0:
232,158,61368,1,4,0:0:0:0:
232,158,61669,1,12,0:0:0:0:
152,177,61820,1,0,0:0:0:0:
152,177,61895,1,0,0:0:0:0:
152,177,61971,1,0,0:0:0:0:
152,177,62046,1,8,0:0:0:0:
152,177,62121,1,8,0:0:0:0:
152,177,62197,1,8,0:0:0:0:
152,177,62272,1,0,0:0:0:0:
40,148,62498,1,0,0:0:0:0:
205,110,62574,1,8,0:0:0:0:
303,171,62724,1,8,0:0:0:0:
283,111,62799,1,0,0:0:0:0:
283,111,62875,1,8,0:0:0:0:
214,173,63026,1,0,0:0:0:0:
214,173,63101,1,0,0:0:0:0:
214,173,63176,1,8,0:0:0:0:
214,173,63252,1,8,0:0:0:0:
214,173,63327,1,0,0:0:0:0:
214,173,63478,1,8,0:0:0:0:
155,57,63553,1,8,0:0:0:0:
214,125,63629,1,0,0:0:0:0:
214,125,63779,1,8,0:0:0:0:
214,125,63855,1,8,0:0:0:0:
214,132,63930,1,8,0:0:0:0:
214,132,64081,1,0,0:0:0:0:
192,140,64232,1,0,0:0:0:0:
192,144,64307,1,0,0:0:0:0:
192,144,64383,1,8,0:0:0:0:
25,153,64533,1,0,0:0:0:0:
103,133,64684,1,8,0:0:0:0:
157,91,64835,1,0,0:0:0:0:
159,101,64910,1,8,0:0:0:0:
159,103,64986,1,0,0:0:0:0:
159,103,65061,1,0,0:0:0:0:
161,109,65136,1,8,0:0:0:0:
205,100,65287,1,0,0:0:0:0:
188,169,65438,1,8,0:0:0:0:
189,173,65589,1,0,0:0:0:0:
189,175,65664,1,0,0:0:0:0:
189,180,65739,1,0,0:0:0:0:
183,188,65815,1,8,0:0:0:0:
183,188,65890,1,0,0:0:0:0:
248,144,66041,1,8,0:0:0:0:
253,135,66116,1,8,0:0:0:0:
248,144,66192,1,8,0:0:0:0:
67,155,66342,1,0,0:0:0:0:
64,161,66493,1,8,0:0:0:0:
63,162,66569,1,0,0:0:0:0:
172,108,66644,1,8,0:0:0:0:
165,113,66719,1,8,0:0:0:0:
165,114,66795,1,0,0:0:0:0:
199,163,66945,1,0,0:0:0:0:
169,130,67322,1,0,0:0:0:0:
214,87,67397,1,8,0:0:0:0:
234,166,67548,1,8,0:0:0:0:
168,72,67699,1,0,0:0:0:0:
167,79,67774,1,0,0:0:0:0:
167,80,67850,1,8,0:0:0:0:
167,80,67925,1,8,0:0:0:0:
167,80,68000,1,0,0:0:0:0:
66,151,68151,1,8,0:0:0:0:
306,166,68377,1,8,0:0:0:0:
127,132,68453,1,0,0:0:0:0:
127,132,68603,1,8,0:0:0:0:
127,132,68679,1,8,0:0:0:0:
127,132,68754,1,0,0:0:0:0:
126,138,68830,1,8,0:0:0:0:
126,138,68905,1,0,0:0:0:0:
155,119,69056,1,0,0:0:0:0:
155,119,69131,1,0,0:0:0:0:
155,119,69207,1,8,0:0:0:0:
199,86,69357,1,0,0:0:0:0:
201,91,69508,1,8,0:0:0:0:
199,91,69583,1,0,0:0:0:0:
199,91,69659,1,0,0:0:0:0:
199,91,69734,1,0,0:0:0:0:
200,93,69810,1,8,0:0:0:0:
148,90,69885,1,0,0:0:0:0:
199,86,69960,1,8,0:0:0:0:
199,86,70111,1,8,0:0:0:0:
199,86,70186,1,0,0:0:0:0:
199,86,70262,1,8,0:0:0:0:
199,86,70337,1,8,0:0:0:0:
201,91,70412,1,0,0:0:0:0:
201,91,70488,1,0,0:0:0:0:
199,91,70563,1,8,0:0:0:0:
179,166,70714,5,0,0:0:0:0:
179,166,70790,1,8,0:0:0:0:
179,166,70865,1,8,0:0:0:0:
179,166,70940,1,0,0:0:0:0:
184,166,71016,1,8,0:0:0:0:
184,166,71091,1,8,0:0:0:0:
185,168,71167,1,8,0:0:0:0:
185,168,71242,1,0,0:0:0:0:
125,178,71317,5,8,0:0:0:0:
172,162,71393,1,8,0:0:0:0:
172,162,71468,1,8,0:0:0:0:
172,162,71543,1,8,0:0:0:0:
172,162,71619,1,0,0:0:0:0:
172,162,71770,1,0,0:0:0:0:
181,147,71920,5,12,0:0:0:0:
204,103,72373,1,0,0:0:0:0:
214,126,72523,1,12,0:0:0:0:
204,103,72976,1,0,0:0:0:0:
214,126,73126,1,12,0:0:0:0:
204,103,73277,1,0,0:0:0:0:
206,102,73428,1,0,0:0:0:0:
204,103,73579,1,0,0:0:0:0:
214,126,73729,1,12,0:0:0:0:
214,163,74031,5,8,0:0:0:0:
205,209,80362,5,8,0:0:0:0:
205,209,80664,1,8,0:0:0:0:
205,209,80966,1,8,0:0:0:0:
205,209,81116,1,0,0:0:0:0:
205,209,81267,1,8,0:0:0:0:
200,124,81569,1,0,0:0:0:0:
232,187,81870,1,8,0:0:0:0:
170,166,82021,1,0,0:0:0:0:
170,166,82097,1,0,0:0:0:0:
170,166,82172,1,0,0:0:0:0:
170,174,82323,1,0,0:0:0:0:
241,140,82473,1,8,0:0:0:0:
224,132,82624,1,0,0:0:0:0:
230,149,82700,1,8,0:0:0:0:
214,148,82775,1,0,0:0:0:0:
215,151,82926,1,0,0:0:0:0:
221,169,83001,1,0,0:0:0:0:
215,153,83076,1,8,0:0:0:0:
63,164,83227,1,0,0:0:0:0:
89,151,83378,1,8,0:0:0:0:
63,164,83529,1,0,0:0:0:0:
96,151,83679,1,8,0:0:0:0:
95,155,83830,1,8,0:0:0:0:
225,122,83906,1,8,0:0:0:0:
92,161,83981,1,0,0:0:0:0:
159,149,84132,1,0,0:0:0:0:
163,154,84207,1,0,0:0:0:0:
163,154,84282,1,8,0:0:0:0:
163,156,84433,1,8,0:0:0:0:
165,170,84584,1,0,0:0:0:0:
172,160,84735,1,0,0:0:0:0:
173,168,84885,1,8,0:0:0:0:
173,169,85036,1,0,0:0:0:0:
120,162,85111,1,0,0:0:0:0:
120,168,85187,1,0,0:0:0:0:
222,143,85338,1,0,0:0:0:0:
224,151,85488,1,8,0:0:0:0:
224,151,85639,1,0,0:0:0:0:
224,151,85715,1,0,0:0:0:0:
224,151,85790,1,8,0:0:0:0:
224,151,85941,1,0,0:0:0:0:
143,167,86092,1,8,0:0:0:0:
200,124,86393,1,0,0:0:0:0:
232,187,86694,1,8,0:0:0:0:
170,166,86845,1,0,0:0:0:0:
170,166,86921,1,0,0:0:0:0:
170,166,86996,1,0,0:0:0:0:
170,174,87147,1,0,0:0:0:0:
241,140,87297,1,8,0:0:0:0:
224,132,87448,1,0,0:0:0:0:
230,149,87524,1,8,0:0:0:0:
214,148,87599,1,0,0:0:0:0:
215,151,87750,1,0,0:0:0:0:
221,169,87825,1,0,0:0:0:0:
215,153,87900,1,8,0:0:0:0:
63,164,88051,1,0,0:0:0:0:
89,151,88202,1,8,0:0:0:0:
63,164,88353,1,0,0:0:0:0:
96,151,88503,1,8,0:0:0:0:
95,155,88654,1,8,0:0:0:0:
225,122,88730,1,8,0:0:0:0:
92,161,88805,1,0,0:0:0:0:
159,149,88955,1,0,0:0:0:0:
163,154,89031,1,8,0:0:0:0:
163,154,89106,1,8,0:0:0:0:
163,156,89257,1,0,0:0:0:0:
165,170,89408,1,8,0:0:0:0:
172,160,89559,1,0,0:0:0:0:
173,168,89709,1,8,0:0:0:0:
128,172,89860,2,0,L|456:104,1,314.999990386963
234,143,90915,5,12,0:0:0:0:
216,132,91217,1,0,0:0:0:0:
172,124,91368,1,0,0:0:0:0:
164,96,91518,1,8,0:0:0:0:
168,112,91594,1,8,0:0:0:0:
168,112,91669,1,0,0:0:0:0:
168,112,91744,1,0,0:0:0:0:
168,116,91820,1,8,0:0:0:0:
192,80,91971,1,0,0:0:0:0:
196,88,92121,1,8,0:0:0:0:
196,88,92272,1,0,0:0:0:0:
196,88,92347,1,0,0:0:0:0:
196,92,92423,1,0,0:0:0:0:
184,120,92574,1,0,0:0:0:0:
288,104,92724,1,8,0:0:0:0:
132,104,92800,1,0,0:0:0:0:
136,112,92875,1,8,0:0:0:0:
140,132,93026,1,0,0:0:0:0:
140,136,93101,1,0,0:0:0:0:
140,140,93177,1,8,0:0:0:0:
260,120,93327,1,8,0:0:0:0:
184,164,93478,1,0,0:0:0:0:
188,168,93629,1,8,0:0:0:0:
188,124,93780,1,0,0:0:0:0:
188,128,93855,1,0,0:0:0:0:
188,128,93930,1,8,0:0:0:0:
188,128,94081,1,0,0:0:0:0:
188,128,94232,1,8,0:0:0:0:
260,120,94307,1,0,0:0:0:0:
184,128,94383,1,8,0:0:0:0:
144,104,94458,1,8,0:0:0:0:
184,128,94533,1,0,0:0:0:0:
184,136,94684,1,8,0:0:0:0:
188,132,94835,1,0,0:0:0:0:
176,164,94986,1,0,0:0:0:0:
228,92,95061,1,0,0:0:0:0:
176,176,95136,1,8,0:0:0:0:
176,172,95287,1,0,0:0:0:0:
128,120,95362,1,8,0:0:0:0:
176,176,95438,1,0,0:0:0:0:
176,176,95589,1,0,0:0:0:0:
176,176,95739,1,8,0:0:0:0:
160,196,96041,1,0,0:0:0:0:
168,144,96192,1,0,0:0:0:0:
168,124,96342,1,8,0:0:0:0:
168,128,96418,1,8,0:0:0:0:
164,132,96493,1,0,0:0:0:0:
160,136,96569,1,0,0:0:0:0:
164,140,96644,1,8,0:0:0:0:
192,80,96795,1,0,0:0:0:0:
196,88,96945,1,8,0:0:0:0:
196,88,97096,1,0,0:0:0:0:
196,88,97171,1,0,0:0:0:0:
196,92,97247,1,8,0:0:0:0:
184,120,97398,1,0,0:0:0:0:
288,104,97548,1,8,0:0:0:0:
136,112,97699,1,8,0:0:0:0:
132,104,97775,1,8,0:0:0:0:
140,132,97850,1,0,0:0:0:0:
140,140,98001,1,0,0:0:0:0:
96,184,98151,1,8,0:0:0:0:
220,112,98302,1,0,0:0:0:0:
188,132,98378,1,8,0:0:0:0:
192,136,98453,1,0,0:0:0:0:
196,136,98604,1,0,0:0:0:0:
104,164,98754,1,8,0:0:0:0:
104,168,98830,1,8,0:0:0:0:
104,168,98905,1,0,0:0:0:0:
100,172,98981,1,0,0:0:0:0:
100,172,99056,1,8,0:0:0:0:
112,176,99207,1,0,0:0:0:0:
224,152,99357,1,8,0:0:0:0:
192,144,99508,5,0,0:0:0:0:
228,176,99810,5,0,0:0:0:0:
228,176,99960,1,8,0:0:0:0:
228,176,100111,1,0,0:0:0:0:
228,176,100262,1,0,0:0:0:0:
334,183,100865,1,4,0:0:0:0:
310,188,101468,1,8,0:0:0:0:
250,136,101544,1,8,0:0:0:0:
250,97,101619,1,8,0:0:0:0:
224,114,101770,1,0,0:0:0:0:
224,114,101921,1,8,0:0:0:0:
241,138,102373,1,0,0:0:0:0:
257,138,102674,1,8,0:0:0:0:
257,138,102825,1,8,0:0:0:0:
257,139,102976,1,0,0:0:0:0:
257,129,103277,1,12,0:0:0:0:
166,157,103579,1,8,0:0:0:0:
165,162,103730,1,4,0:0:0:0:
137,152,104031,1,8,0:0:0:0:
137,152,104107,1,8,0:0:0:0:
137,152,104182,1,8,0:0:0:0:
137,152,104333,1,4,0:0:0:0:
243,124,104634,1,0,0:0:0:0:
240,135,104710,1,8,0:0:0:0:
239,138,104785,1,8,0:0:0:0:
152,175,104936,1,0,0:0:0:0:
152,175,105086,1,8,0:0:0:0:
152,175,105237,1,8,0:0:0:0:
152,175,105313,1,0,0:0:0:0:
152,175,105388,1,8,0:0:0:0:
152,175,105463,1,8,0:0:0:0:
152,175,105539,1,0,0:0:0:0:
152,175,105689,1,4,0:0:0:0:
224,132,105991,1,0,0:0:0:0:
253,152,106293,1,8,0:0:0:0:
253,152,106368,1,8,0:0:0:0:
253,152,106443,1,8,0:0:0:0:
255,162,106594,1,0,0:0:0:0:
255,166,106745,1,8,0:0:0:0:
296,88,107046,1,8,0:0:0:0:
150,178,107197,1,0,0:0:0:0:
168,148,107499,1,8,0:0:0:0:
168,148,107649,1,8,0:0:0:0:
168,148,107800,1,0,0:0:0:0:
247,157,108102,1,8,0:0:0:0:
152,208,108553,1,0,0:0:0:0:
250,153,109308,1,8,0:0:0:0:
152,208,109759,1,0,0:0:0:0:
250,153,110514,1,8,0:0:0:0:
152,208,110966,1,0,0:0:0:0:
250,153,111720,1,8,0:0:0:0:
283,122,112323,1,0,0:0:0:0:
250,153,112925,5,4,0:0:0:0:
232,144,113227,1,8,0:0:0:0:
232,152,113528,1,0,0:0:0:0:
232,152,113679,1,0,0:0:0:0:
228,160,113830,1,8,0:0:0:0:
224,152,114131,1,0,0:0:0:0:
224,140,114433,1,8,0:0:0:0:
220,144,114734,1,0,0:0:0:0:
220,144,114885,1,0,0:0:0:0:
220,148,115036,1,8,0:0:0:0:
220,148,115187,1,8,0:0:0:0:
220,148,115337,1,4,0:0:0:0:
164,128,115639,1,4,0:0:0:0:
164,128,115940,1,4,0:0:0:0:
168,136,116242,1,4,0:0:0:0:
220,136,116543,5,8,0:0:0:0:
176,180,116619,1,0,0:0:0:0:
176,176,116694,1,8,0:0:0:0:
176,176,116770,1,8,0:0:0:0:
176,176,116845,1,8,0:0:0:0:
172,176,116920,1,0,0:0:0:0:
176,168,116996,1,8,0:0:0:0:
176,172,117071,1,0,0:0:0:0:
176,176,117146,1,0,0:0:0:0:
168,128,117297,1,0,0:0:0:0:
396,216,117448,1,8,0:0:0:0:
264,208,117749,1,4,0:0:0:0:
240,249,117900,1,0,0:0:0:0:
152,161,117975,1,0,0:0:0:0:
192,123,118050,1,8,0:0:0:0:
303,171,118202,1,8,0:0:0:0:
283,111,118276,1,0,0:0:0:0:
283,111,118352,1,8,0:0:0:0:
214,173,118503,1,0,0:0:0:0:
214,173,118578,1,0,0:0:0:0:
214,173,118653,1,8,0:0:0:0:
214,173,118729,1,8,0:0:0:0:
214,173,118804,1,0,0:0:0:0:
214,173,118955,1,0,0:0:0:0:
155,57,119030,1,8,0:0:0:0:
214,125,119106,1,0,0:0:0:0:
214,125,119256,1,8,0:0:0:0:
214,125,119332,1,8,0:0:0:0:
214,132,119407,1,0,0:0:0:0:
214,132,119558,1,8,0:0:0:0:
192,140,119709,1,0,0:0:0:0:
192,144,119784,1,0,0:0:0:0:
192,144,119859,1,8,0:0:0:0:
25,153,120010,1,8,0:0:0:0:
103,133,120161,1,0,0:0:0:0:
157,91,120312,1,0,0:0:0:0:
159,101,120387,1,0,0:0:0:0:
159,103,120462,1,8,0:0:0:0:
159,103,120538,1,0,0:0:0:0:
161,109,120613,1,0,0:0:0:0:
288,188,120764,1,8,0:0:0:0:
188,169,120915,1,0,0:0:0:0:
189,173,121065,1,8,0:0:0:0:
189,175,121141,1,0,0:0:0:0:
189,180,121216,1,8,0:0:0:0:
183,188,121292,1,8,0:0:0:0:
183,188,121367,1,8,0:0:0:0:
248,144,121518,1,0,0:0:0:0:
253,135,121593,1,0,0:0:0:0:
248,144,121668,1,8,0:0:0:0:
67,155,121819,1,8,0:0:0:0:
64,161,121970,1,0,0:0:0:0:
63,162,122046,1,0,0:0:0:0:
172,108,122121,1,8,0:0:0:0:
165,113,122196,1,0,0:0:0:0:
165,114,122271,1,8,0:0:0:0:
199,163,122422,1,0,0:0:0:0:
320,168,122724,1,0,0:0:0:0:
169,130,122799,1,0,0:0:0:0:
214,87,122874,1,8,0:0:0:0:
234,166,123025,1,8,0:0:0:0:
168,72,123176,1,0,0:0:0:0:
167,79,123251,1,0,0:0:0:0:
167,80,123327,1,8,0:0:0:0:
167,80,123402,1,8,0:0:0:0:
167,80,123477,1,0,0:0:0:0:
66,151,123628,1,8,0:0:0:0:
306,166,123855,1,0,0:0:0:0:
127,132,123930,1,8,0:0:0:0:
127,132,124080,1,8,0:0:0:0:
127,132,124156,1,0,0:0:0:0:
127,132,124231,1,0,0:0:0:0:
126,138,124307,1,8,0:0:0:0:
126,138,124382,1,8,0:0:0:0:
155,119,124533,1,0,0:0:0:0:
155,119,124608,1,0,0:0:0:0:
155,119,124683,1,8,0:0:0:0:
199,86,124834,1,0,0:0:0:0:
201,91,124985,1,8,0:0:0:0:
199,91,125060,1,0,0:0:0:0:
199,91,125136,1,0,0:0:0:0:
199,91,125211,1,0,0:0:0:0:
200,93,125286,1,8,0:0:0:0:
148,90,125362,1,0,0:0:0:0:
199,86,125437,1,8,0:0:0:0:
199,86,125589,1,8,0:0:0:0:
199,86,125664,1,0,0:0:0:0:
199,86,125739,1,8,0:0:0:0:
199,86,125814,1,8,0:0:0:0:
201,91,125890,1,0,0:0:0:0:
201,91,125966,1,0,0:0:0:0:
199,91,126041,1,8,0:0:0:0:
232,158,126191,1,4,0:0:0:0:
232,158,126493,1,4,0:0:0:0:
232,158,126794,1,12,0:0:0:0:
152,177,126945,1,0,0:0:0:0:
152,177,127020,1,0,0:0:0:0:
152,177,127096,1,0,0:0:0:0:
152,177,127171,1,8,0:0:0:0:
152,177,127246,1,8,0:0:0:0:
116,188,127322,1,8,0:0:0:0:
128,164,127398,1,0,0:0:0:0:
252,144,127699,1,12,0:0:0:0:
224,176,127850,1,0,0:0:0:0:
224,192,127925,1,8,0:0:0:0:
224,192,128001,1,0,0:0:0:0:
224,196,128151,1,0,0:0:0:0:
220,196,128227,1,0,0:0:0:0:
224,196,128302,1,8,0:0:0:0:
176,176,128378,1,8,0:0:0:0:
264,152,128453,1,0,0:0:0:0:
176,176,128604,1,8,0:0:0:0:
168,176,128679,1,8,0:0:0:0:
168,176,128754,1,0,0:0:0:0:
168,176,128905,1,8,0:0:0:0:
168,176,128981,1,8,0:0:0:0:
172,176,129056,1,8,0:0:0:0:
172,180,129207,1,0,0:0:0:0:
192,140,129357,1,0,0:0:0:0:
192,144,129432,1,0,0:0:0:0:
192,144,129507,1,8,0:0:0:0:
25,153,129658,1,8,0:0:0:0:
103,133,129810,1,0,0:0:0:0:
157,91,129960,1,0,0:0:0:0:
159,101,130036,1,8,0:0:0:0:
159,103,130111,1,8,0:0:0:0:
159,103,130187,1,0,0:0:0:0:
161,109,130261,1,0,0:0:0:0:
205,100,130412,1,8,0:0:0:0:
188,169,130563,1,0,0:0:0:0:
189,173,130714,1,8,0:0:0:0:
189,175,130789,1,8,0:0:0:0:
189,180,130864,1,0,0:0:0:0:
183,188,130940,1,8,0:0:0:0:
183,188,131016,1,8,0:0:0:0:
248,144,131166,1,0,0:0:0:0:
253,135,131241,1,0,0:0:0:0:
248,144,131317,1,8,0:0:0:0:
67,155,131467,1,8,0:0:0:0:
64,161,131618,1,0,0:0:0:0:
63,162,131694,1,0,0:0:0:0:
172,108,131769,1,0,0:0:0:0:
165,113,131845,1,8,0:0:0:0:
165,114,131920,1,0,0:0:0:0:
199,163,132070,1,0,0:0:0:0:
169,130,132447,1,0,0:0:0:0:
214,87,132522,1,8,0:0:0:0:
234,166,132673,1,8,0:0:0:0:
168,72,132824,1,0,0:0:0:0:
167,79,132899,1,0,0:0:0:0:
167,80,132975,1,8,0:0:0:0:
167,80,133050,1,8,0:0:0:0:
167,80,133125,1,0,0:0:0:0:
66,151,133276,1,8,0:0:0:0:
306,166,133503,1,0,0:0:0:0:
127,132,133579,1,8,0:0:0:0:
127,132,133729,1,8,0:0:0:0:
127,132,133805,1,0,0:0:0:0:
127,132,133880,1,0,0:0:0:0:
126,138,133956,1,8,0:0:0:0:
126,138,134031,1,0,0:0:0:0:
155,119,134182,1,0,0:0:0:0:
155,119,134257,1,0,0:0:0:0:
155,119,134333,1,8,0:0:0:0:
199,86,134483,1,0,0:0:0:0:
201,91,134634,1,8,0:0:0:0:
199,91,134709,1,8,0:0:0:0:
199,91,134785,1,8,0:0:0:0:
199,91,134860,1,0,0:0:0:0:
200,93,134936,1,0,0:0:0:0:
148,90,135011,1,0,0:0:0:0:
199,86,135086,1,8,0:0:0:0:
199,86,135237,1,8,0:0:0:0:
199,86,135312,1,0,0:0:0:0:
199,86,135388,1,8,0:0:0:0:
199,86,135463,1,8,0:0:0:0:
201,91,135538,1,0,0:0:0:0:
201,91,135614,1,0,0:0:0:0:
199,91,135689,1,8,0:0:0:0:
179,166,135840,5,0,0:0:0:0:
179,166,135916,1,8,0:0:0:0:
179,166,135991,1,8,0:0:0:0:
179,166,136066,1,0,0:0:0:0:
184,166,136142,1,8,0:0:0:0:
184,166,136217,1,8,0:0:0:0:
185,168,136293,1,8,0:0:0:0:
185,168,136368,1,0,0:0:0:0:
125,178,136443,5,8,0:0:0:0:
172,162,136519,1,8,0:0:0:0:
172,162,136594,1,8,0:0:0:0:
172,162,136669,1,8,0:0:0:0:
172,162,136745,1,0,0:0:0:0:
172,162,136896,1,0,0:0:0:0:
181,147,137046,5,12,0:0:0:0:
204,103,137498,1,0,0:0:0:0:
214,126,137648,1,12,0:0:0:0:
204,103,138101,1,0,0:0:0:0:
214,126,138251,1,12,0:0:0:0:
204,103,138402,1,0,0:0:0:0:
206,102,138553,1,0,0:0:0:0:
204,103,138704,1,0,0:0:0:0:
214,126,138854,1,12,0:0:0:0:
200,132,139006,1,8,0:0:0:0:
196,136,139081,1,8,0:0:0:0:
196,136,139156,1,8,0:0:0:0:
196,140,139232,1,8,0:0:0:0:
192,140,139307,1,8,0:0:0:0:
192,140,139383,1,8,0:0:0:0:
192,140,139458,1,0,0:0:0:0:
124,192,139609,1,8,0:0:0:0:
200,208,139759,1,0,0:0:0:0:
200,208,139835,1,0,0:0:0:0:
208,220,139910,1,8,0:0:0:0:
208,224,139986,1,0,0:0:0:0:
212,224,140061,1,8,0:0:0:0:
200,152,140212,1,0,0:0:0:0:
200,160,140362,1,8,0:0:0:0:
200,160,140438,1,0,0:0:0:0:
200,160,140513,1,8,0:0:0:0:
200,160,140589,1,8,0:0:0:0:
200,160,140664,1,0,0:0:0:0:
184,112,140815,1,8,0:0:0:0:
184,116,140966,1,0,0:0:0:0:
188,116,141041,1,0,0:0:0:0:
192,120,141116,1,0,0:0:0:0:
204,136,141267,1,8,0:0:0:0:
184,92,141418,1,8,0:0:0:0:
144,176,141468,1,0,0:0:0:0:
228,120,141518,1,0,0:0:0:0:
228,116,141569,1,8,0:0:0:0:
228,120,141719,1,8,0:0:0:0:
216,136,141870,1,0,0:0:0:0:
228,120,142021,1,8,0:0:0:0:
144,164,142096,1,8,0:0:0:0:
220,128,142172,1,0,0:0:0:0:
220,128,142247,1,0,0:0:0:0:
220,128,142322,1,8,0:0:0:0:
220,128,142473,1,0,0:0:0:0:
240,72,142624,1,8,0:0:0:0:
208,184,142699,1,0,0:0:0:0:
240,96,142775,1,8,0:0:0:0:
240,96,142850,1,8,0:0:0:0:
240,92,142925,1,0,0:0:0:0:
240,96,143076,1,8,0:0:0:0:
236,96,143227,1,0,0:0:0:0:
192,144,143378,1,8,0:0:0:0:
192,144,143453,1,8,0:0:0:0:
192,144,143528,1,8,0:0:0:0:
192,144,143679,1,0,0:0:0:0:
252,160,143830,1,8,0:0:0:0:
252,168,143981,1,8,0:0:0:0:
260,176,144131,1,0,0:0:0:0:
124,192,144433,1,8,0:0:0:0:
200,208,144583,1,0,0:0:0:0:
200,208,144659,1,0,0:0:0:0:
208,220,144734,1,8,0:0:0:0:
208,224,144810,1,0,0:0:0:0:
212,224,144885,1,8,0:0:0:0:
200,152,145036,1,0,0:0:0:0:
200,160,145186,1,8,0:0:0:0:
200,160,145262,1,0,0:0:0:0:
200,160,145337,1,8,0:0:0:0:
200,160,145413,1,8,0:0:0:0:
200,160,145488,1,0,0:0:0:0:
184,112,145639,1,8,0:0:0:0:
184,116,145790,1,0,0:0:0:0:
188,116,145865,1,0,0:0:0:0:
188,84,145940,1,0,0:0:0:0:
220,88,146091,1,8,0:0:0:0:
256,144,146242,1,0,0:0:0:0:
256,144,146292,1,8,0:0:0:0:
156,84,146342,1,8,0:0:0:0:
256,152,146393,1,0,0:0:0:0:
136,168,146543,1,0,0:0:0:0:
132,172,146694,1,8,0:0:0:0:
228,120,146845,1,8,0:0:0:0:
144,164,146920,1,0,0:0:0:0:
220,128,146996,1,0,0:0:0:0:
220,128,147071,1,0,0:0:0:0:
220,128,147146,1,0,0:0:0:0:
220,128,147297,1,8,0:0:0:0:
240,72,147448,1,0,0:0:0:0:
240,96,147599,1,0,0:0:0:0:
240,96,147674,1,0,0:0:0:0:
240,92,147749,1,8,0:0:0:0:
224,136,147825,1,8,0:0:0:0:
240,96,147900,1,0,0:0:0:0:
184,156,148051,1,0,0:0:0:0:
184,156,148202,1,0,0:0:0:0:
184,156,148352,1,0,0:0:0:0:
184,156,148503,1,8,0:0:0:0:
260,120,148805,1,12,0:0:0:0:
244,152,149106,1,4,0:0:0:0:
240,184,149408,1,8,0:0:0:0:
240,184,149558,1,0,0:0:0:0:
240,184,149634,1,0,0:0:0:0:
228,184,149709,1,8,0:0:0:0:
228,184,149785,1,0,0:0:0:0:
228,184,149860,1,8,0:0:0:0:
228,184,149935,1,8,0:0:0:0:
228,184,150011,1,8,0:0:0:0:
228,188,150161,1,0,0:0:0:0:
240,196,150463,1,0,0:0:0:0:
240,196,150614,1,8,0:0:0:0:
204,156,150764,1,0,0:0:0:0:
204,156,150840,1,8,0:0:0:0:
204,156,150915,1,8,0:0:0:0:
200,164,150991,1,0,0:0:0:0:
200,164,151066,1,8,0:0:0:0:
200,168,151141,1,8,0:0:0:0:
196,172,151217,1,0,0:0:0:0:
196,172,151368,1,8,0:0:0:0:
284,144,151518,1,0,0:0:0:0:
220,128,151820,1,8,0:0:0:0:
228,136,151971,1,0,0:0:0:0:
256,156,152046,1,8,0:0:0:0:
220,132,152121,1,8,0:0:0:0:
220,136,152197,1,8,0:0:0:0:
220,140,152272,1,0,0:0:0:0:
220,160,152347,1,0,0:0:0:0:
220,160,152423,1,8,0:0:0:0:
220,160,152574,1,0,0:0:0:0:
280,124,152875,1,0,0:0:0:0:
280,140,153026,1,8,0:0:0:0:
224,216,153177,1,0,0:0:0:0:
224,216,153252,1,0,0:0:0:0:
224,224,153327,1,8,0:0:0:0:
224,232,153403,1,8,0:0:0:0:
224,236,153478,1,8,0:0:0:0:
224,236,153553,1,0,0:0:0:0:
224,236,153629,1,0,0:0:0:0:
288,164,153780,1,8,0:0:0:0:
204,144,154232,1,8,0:0:0:0:
240,240,154383,1,0,0:0:0:0:
236,232,154458,1,0,0:0:0:0:
212,144,154533,1,0,0:0:0:0:
236,232,154684,1,0,0:0:0:0:
212,172,154835,1,8,0:0:0:0:
236,232,154910,1,0,0:0:0:0:
240,240,154986,1,0,0:0:0:0:
240,240,155061,1,8,0:0:0:0:
216,168,155136,1,0,0:0:0:0:
168,128,155287,1,8,0:0:0:0:
212,172,155438,1,0,0:0:0:0:
176,160,155589,1,8,0:0:0:0:
172,152,155664,1,8,0:0:0:0:
216,168,155739,1,0,0:0:0:0:
176,160,155890,1,0,0:0:0:0:
212,172,156041,1,8,0:0:0:0:
176,160,156192,1,0,0:0:0:0:
64,148,156267,1,0,0:0:0:0:
216,168,156342,1,0,0:0:0:0:
172,160,156493,1,8,0:0:0:0:
144,124,156569,1,0,0:0:0:0:
112,128,156644,1,0,0:0:0:0:
156,128,156795,1,8,0:0:0:0:
156,128,156870,1,8,0:0:0:0:
156,128,156945,1,8,0:0:0:0:
272,112,157096,1,0,0:0:0:0:
268,108,157247,1,8,0:0:0:0:
268,108,157322,1,0,0:0:0:0:
272,104,157398,1,0,0:0:0:0:
240,80,157473,1,8,0:0:0:0:
300,152,157548,1,8,0:0:0:0:
292,164,157699,1,0,0:0:0:0:
292,164,157850,1,0,0:0:0:0:
296,160,158001,1,0,0:0:0:0:
296,160,158151,1,8,0:0:0:0:
184,160,158453,1,12,0:0:0:0:
334,183,158754,1,4,0:0:0:0:
310,188,159357,1,8,0:0:0:0:
250,136,159433,1,8,0:0:0:0:
250,97,159508,1,8,0:0:0:0:
224,114,159659,1,0,0:0:0:0:
224,114,159810,1,8,0:0:0:0:
241,138,160262,1,0,0:0:0:0:
257,138,160563,1,8,0:0:0:0:
257,138,160714,1,8,0:0:0:0:
257,139,160865,1,0,0:0:0:0:
257,129,161166,1,12,0:0:0:0:
166,157,161468,1,8,0:0:0:0:
165,162,161619,1,4,0:0:0:0:
137,152,161920,1,8,0:0:0:0:
137,152,161996,1,8,0:0:0:0:
137,152,162071,1,8,0:0:0:0:
137,152,162222,1,4,0:0:0:0:
243,124,162523,1,0,0:0:0:0:
240,135,162599,1,8,0:0:0:0:
239,138,162674,1,8,0:0:0:0:
152,175,162825,1,0,0:0:0:0:
152,175,162975,1,8,0:0:0:0:
152,175,163126,1,8,0:0:0:0:
152,175,163202,1,0,0:0:0:0:
152,175,163277,1,8,0:0:0:0:
152,175,163352,1,8,0:0:0:0:
152,175,163428,1,0,0:0:0:0:
152,175,163578,1,4,0:0:0:0:
224,132,163880,1,0,0:0:0:0:
253,152,164182,1,8,0:0:0:0:
253,152,164257,1,8,0:0:0:0:
253,152,164332,1,8,0:0:0:0:
255,162,164483,1,0,0:0:0:0:
255,166,164634,1,8,0:0:0:0:
296,88,164935,1,8,0:0:0:0:
150,178,165086,1,0,0:0:0:0:
168,148,165388,1,8,0:0:0:0:
168,148,165538,1,8,0:0:0:0:
168,148,165689,1,0,0:0:0:0:
247,157,165991,1,8,0:0:0:0:
152,208,166442,1,0,0:0:0:0:
60,168,166744,1,0,0:0:0:0:
250,153,167197,1,8,0:0:0:0:
152,208,167648,1,0,0:0:0:0:
60,168,167950,1,0,0:0:0:0:
250,153,168403,1,8,0:0:0:0:
152,208,168855,1,0,0:0:0:0:
60,168,169156,1,0,0:0:0:0:
60,168,169458,1,0,0:0:0:0:
250,153,169609,1,8,0:0:0:0:
283,122,170212,1,0,0:0:0:0:
250,153,170815,5,4,0:0:0:0:
232,144,171117,1,8,0:0:0:0:
232,152,171418,1,0,0:0:0:0:
232,152,171569,1,0,0:0:0:0:
228,160,171720,1,8,0:0:0:0:
160,64,171870,1,0,0:0:0:0:
224,152,172021,1,0,0:0:0:0:
224,140,172323,1,8,0:0:0:0:
220,144,172624,1,0,0:0:0:0:
220,144,172775,1,0,0:0:0:0:
220,148,172926,1,8,0:0:0:0:
220,148,173077,1,8,0:0:0:0:
220,148,173227,1,4,0:0:0:0:
164,128,173529,1,4,0:0:0:0:
164,128,173830,1,4,0:0:0:0:
168,136,174132,1,4,0:0:0:0:
232,116,174433,1,0,0:0:0:0:
232,116,174508,1,0,0:0:0:0:
232,116,174584,1,0,0:0:0:0:
232,116,174659,1,0,0:0:0:0:
232,116,174734,1,0,0:0:0:0:
232,116,174810,1,0,0:0:0:0:
232,116,174885,1,0,0:0:0:0:
232,116,174960,1,0,0:0:0:0:
232,116,175036,1,8,0:0:0:0:
272,176,175639,5,8,0:0:0:0:
272,176,175940,1,8,0:0:0:0:
280,176,176242,1,8,0:0:0:0:
88,128,176845,1,0,0:0:0:0:
96,112,176920,1,8,0:0:0:0:
96,112,176996,1,8,0:0:0:0:
96,112,177071,1,8,0:0:0:0:
216,176,177146,1,0,0:0:0:0:
236,120,177222,1,0,0:0:0:0:
236,120,177297,1,8,0:0:0:0:
236,120,177373,1,8,0:0:0:0:
236,120,177448,1,0,0:0:0:0:
236,120,177523,1,8,0:0:0:0:
236,120,177599,1,0,0:0:0:0:
248,104,177674,1,0,0:0:0:0:
216,176,177749,1,8,0:0:0:0:
332,136,177825,1,8,0:0:0:0:
332,136,177900,1,8,0:0:0:0:
332,136,177976,1,8,0:0:0:0:
332,136,178051,1,0,0:0:0:0:
152,161,178277,1,0,0:0:0:0:
192,123,178352,1,8,0:0:0:0:
303,171,178503,1,0,0:0:0:0:
283,111,178578,1,8,0:0:0:0:
283,111,178654,1,0,0:0:0:0:
214,173,178805,1,0,0:0:0:0:
214,173,178880,1,0,0:0:0:0:
214,173,178955,1,8,0:0:0:0:
214,173,179031,1,8,0:0:0:0:
214,173,179106,1,0,0:0:0:0:
214,173,179257,1,8,0:0:0:0:
155,57,179332,1,0,0:0:0:0:
214,125,179408,1,8,0:0:0:0:
152,188,179483,1,8,0:0:0:0:
214,125,179558,1,0,0:0:0:0:
214,125,179634,1,8,0:0:0:0:
214,132,179709,1,0,0:0:0:0:
214,132,179860,1,8,0:0:0:0:
192,140,180011,1,0,0:0:0:0:
192,144,180086,1,0,0:0:0:0:
192,144,180161,1,8,0:0:0:0:
25,153,180312,1,8,0:0:0:0:
184,188,180388,1,8,0:0:0:0:
103,133,180463,1,0,0:0:0:0:
157,91,180614,1,0,0:0:0:0:
159,101,180689,1,8,0:0:0:0:
159,103,180764,1,8,0:0:0:0:
159,103,180840,1,8,0:0:0:0:
161,109,180915,1,0,0:0:0:0:
205,100,181066,1,8,0:0:0:0:
188,169,181217,1,0,0:0:0:0:
320,240,181292,1,0,0:0:0:0:
189,173,181367,1,8,0:0:0:0:
189,175,181443,1,0,0:0:0:0:
189,180,181518,1,8,0:0:0:0:
183,188,181594,1,8,0:0:0:0:
183,188,181669,1,0,0:0:0:0:
248,144,181820,1,8,0:0:0:0:
253,135,181895,1,8,0:0:0:0:
248,144,181970,1,8,0:0:0:0:
67,155,182121,1,0,0:0:0:0:
64,161,182272,1,8,0:0:0:0:
63,162,182347,1,0,0:0:0:0:
172,108,182423,1,0,0:0:0:0:
165,113,182498,1,0,0:0:0:0:
165,114,182573,1,8,0:0:0:0:
199,163,182724,1,0,0:0:0:0:
248,152,183026,1,0,0:0:0:0:
169,130,183101,1,8,0:0:0:0:
214,87,183176,1,0,0:0:0:0:
234,166,183327,1,8,0:0:0:0:
168,72,183478,1,0,0:0:0:0:
167,79,183553,1,0,0:0:0:0:
167,80,183629,1,8,0:0:0:0:
167,80,183704,1,8,0:0:0:0:
167,80,183779,1,0,0:0:0:0:
66,151,183930,1,8,0:0:0:0:
306,166,184156,1,0,0:0:0:0:
127,132,184232,1,8,0:0:0:0:
127,132,184382,1,8,0:0:0:0:
127,132,184458,1,8,0:0:0:0:
127,132,184533,1,0,0:0:0:0:
126,138,184609,1,0,0:0:0:0:
126,138,184684,1,8,0:0:0:0:
155,119,184835,1,8,0:0:0:0:
155,119,184910,1,0,0:0:0:0:
155,119,184985,1,8,0:0:0:0:
176,224,185061,1,8,0:0:0:0:
199,86,185136,1,0,0:0:0:0:
201,91,185287,1,8,0:0:0:0:
199,91,185362,1,0,0:0:0:0:
199,91,185438,1,0,0:0:0:0:
199,91,185513,1,0,0:0:0:0:
200,93,185588,1,8,0:0:0:0:
148,90,185664,1,0,0:0:0:0:
199,86,185739,1,8,0:0:0:0:
199,86,185890,1,8,0:0:0:0:
199,86,185965,1,0,0:0:0:0:
199,86,186041,1,8,0:0:0:0:
199,86,186116,1,8,0:0:0:0:
201,91,186191,1,0,0:0:0:0:
201,91,186267,1,0,0:0:0:0:
199,91,186342,1,8,0:0:0:0:
232,158,186493,1,4,0:0:0:0:
232,158,186795,1,4,0:0:0:0:
232,158,187096,1,12,0:0:0:0:
152,177,187247,1,0,0:0:0:0:
152,177,187322,1,0,0:0:0:0:
152,177,187398,1,0,0:0:0:0:
152,177,187473,1,8,0:0:0:0:
152,177,187548,1,8,0:0:0:0:
152,177,187624,1,8,0:0:0:0:
152,177,187699,1,0,0:0:0:0:
224,160,188001,1,8,0:0:0:0:
276,204,188151,1,0,0:0:0:0:
276,204,188227,1,8,0:0:0:0:
276,204,188302,1,0,0:0:0:0:
144,164,188378,1,0,0:0:0:0:
144,164,188453,1,8,0:0:0:0:
92,132,188604,1,0,0:0:0:0:
112,128,188679,1,0,0:0:0:0:
92,132,188754,1,8,0:0:0:0:
112,128,188905,1,0,0:0:0:0:
184,152,189056,1,8,0:0:0:0:
184,152,189131,1,8,0:0:0:0:
184,152,189207,1,0,0:0:0:0:
260,192,189282,1,0,0:0:0:0:
196,144,189357,1,8,0:0:0:0:
88,108,189433,1,0,0:0:0:0:
196,144,189508,1,0,0:0:0:0:
116,144,189659,1,8,0:0:0:0:
116,144,189810,1,0,0:0:0:0:
116,144,189885,1,0,0:0:0:0:
240,96,189960,1,8,0:0:0:0:
464,212,190036,1,0,0:0:0:0:
116,144,190111,1,0,0:0:0:0:
204,140,190262,1,8,0:0:0:0:
252,200,190413,1,0,0:0:0:0:
176,60,190488,1,0,0:0:0:0:
252,200,190563,1,8,0:0:0:0:
240,100,190639,1,8,0:0:0:0:
252,200,190714,1,0,0:0:0:0:
212,136,190865,1,8,0:0:0:0:
212,136,191016,1,0,0:0:0:0:
296,200,191091,1,0,0:0:0:0:
212,136,191167,1,8,0:0:0:0:
184,116,191317,1,8,0:0:0:0:
188,168,191393,1,0,0:0:0:0:
212,136,191468,1,8,0:0:0:0:
284,240,191543,1,8,0:0:0:0:
212,136,191619,1,0,0:0:0:0:
284,240,191694,1,0,0:0:0:0:
212,136,191770,1,8,0:0:0:0:
156,184,191920,5,0,0:0:0:0:
156,184,191996,1,0,0:0:0:0:
156,184,192071,1,0,0:0:0:0:
156,184,192146,1,0,0:0:0:0:
156,184,192222,1,8,0:0:0:0:
164,176,192373,1,0,0:0:0:0:
169,130,192749,1,0,0:0:0:0:
214,87,192824,1,8,0:0:0:0:
234,166,192975,1,8,0:0:0:0:
168,72,193126,1,0,0:0:0:0:
167,79,193201,1,0,0:0:0:0:
167,80,193277,1,8,0:0:0:0:
167,80,193352,1,8,0:0:0:0:
167,80,193427,1,0,0:0:0:0:
66,151,193578,1,8,0:0:0:0:
306,166,193805,1,8,0:0:0:0:
127,132,193880,1,0,0:0:0:0:
127,132,194030,1,8,0:0:0:0:
127,132,194106,1,8,0:0:0:0:
127,132,194181,1,0,0:0:0:0:
126,138,194257,1,8,0:0:0:0:
126,138,194332,1,0,0:0:0:0:
155,119,194483,1,0,0:0:0:0:
155,119,194558,1,0,0:0:0:0:
155,119,194634,1,8,0:0:0:0:
199,86,194784,1,0,0:0:0:0:
201,91,194935,1,8,0:0:0:0:
199,91,195010,1,0,0:0:0:0:
199,91,195086,1,0,0:0:0:0:
199,91,195161,1,0,0:0:0:0:
200,93,195237,1,8,0:0:0:0:
148,90,195312,1,0,0:0:0:0:
199,86,195387,1,8,0:0:0:0:
199,86,195538,1,8,0:0:0:0:
199,86,195613,1,0,0:0:0:0:
199,86,195689,1,8,0:0:0:0:
199,86,195764,1,8,0:0:0:0:
201,91,195839,1,0,0:0:0:0:
201,91,195915,1,0,0:0:0:0:
199,91,195990,1,8,0:0:0:0:
244,244,196141,1,0,0:0:0:0:
244,244,196217,1,8,0:0:0:0:
244,244,196292,1,8,0:0:0:0:
244,244,196368,1,0,0:0:0:0:
244,244,196443,1,8,0:0:0:0:
244,244,196518,1,8,0:0:0:0:
244,244,196594,1,8,0:0:0:0:
244,244,196669,1,0,0:0:0:0:
264,152,196744,1,8,0:0:0:0:
264,152,196820,1,8,0:0:0:0:
276,148,196895,1,8,0:0:0:0:
276,148,196971,1,8,0:0:0:0:
276,148,197046,1,0,0:0:0:0:
248,196,197347,5,12,0:0:0:0:
276,180,197799,1,0,0:0:0:0:
248,196,197950,1,12,0:0:0:0:
276,180,198402,1,0,0:0:0:0:
248,196,198553,1,12,0:0:0:0:
256,184,198703,1,0,0:0:0:0:
156,132,198780,1,0,0:0:0:0:
256,192,198854,1,0,0:0:0:0:
256,196,199005,1,0,0:0:0:0:
256,196,199156,1,12,0:0:0:0:
256,196,199457,1,8,0:0:0:0:
160,140,199608,1,0,0:0:0:0:
256,196,199759,1,12,0:0:0:0:
276,180,200211,1,0,0:0:0:0:
256,196,200362,1,12,0:0:0:0:
276,180,200814,1,0,0:0:0:0:
256,196,200965,1,12,0:0:0:0:
256,196,201115,1,0,0:0:0:0:
240,160,201192,1,0,0:0:0:0:
256,196,201266,1,0,0:0:0:0:
256,196,201417,1,0,0:0:0:0:
256,196,201568,1,12,0:0:0:0:
256,196,201870,1,8,0:0:0:0:
160,140,202021,1,0,0:0:0:0:
256,196,202172,1,12,0:0:0:0:
276,180,202624,1,0,0:0:0:0:
256,196,202775,1,12,0:0:0:0:
276,180,203227,1,0,0:0:0:0:
256,196,203378,1,12,0:0:0:0:
256,196,203528,1,0,0:0:0:0:
228,168,203604,1,0,0:0:0:0:
256,196,203679,1,0,0:0:0:0:
256,196,203830,1,0,0:0:0:0:
256,196,203981,1,12,0:0:0:0:
256,192,204131,12,0,205639,0:0:0:0:
236,156,205790,5,0,0:0:0:0:
232,160,206091,1,0,0:0:0:0:
232,160,206393,1,8,0:0:0:0:
216,160,206694,5,8,0:0:0:0:
