osu file format v14

[General]
AudioFilename: audio.mp3
AudioLeadIn: 0
PreviewTime: 51355
Countdown: 0
SampleSet: None
StackLeniency: 0.7
Mode: 3
LetterboxInBreaks: 0
SpecialStyle: 0
WidescreenStoryboard: 1

[Editor]
DistanceSpacing: 1.7
BeatDivisor: 4
GridSize: 4
TimelineZoom: 3

[Metadata]
Title:Shinchoku Doudesuka?
TitleUnicode:進捗どうですか?
Artist:Nanahira
ArtistUnicode:ななひら
Creator:ExNeko
Version:KafuuNeko
Source:
Tags:touhou KafuuChino
BeatmapID:1597159
BeatmapSetID:759421

[Difficulty]
HPDrainRate:8
CircleSize:7
OverallDifficulty:9
ApproachRate:5
SliderMultiplier:1.4
SliderTickRate:1

[Events]
//Background and Video events
0,0,"264884.jpg",0,0
//Break Periods
//Storyboard Layer 0 (Background)
//Storyboard Layer 1 (Fail)
//Storyboard Layer 2 (Pass)
//Storyboard Layer 3 (Foreground)
//Storyboard Sound Samples

[TimingPoints]
99,301.507537688442,4,2,1,0,1,0
249,-20,4,2,1,0,0,0
400,-1000,4,2,1,0,0,0
475,-200,4,2,1,0,0,0
551,-100,4,2,1,0,0,0
852,-20,4,2,1,0,0,0
1003,-1000,4,2,1,0,0,0
1078,-200,4,2,1,0,0,0
1154,-100,4,2,1,0,0,0
1305,-40,4,2,1,0,0,0
1342,-200,4,2,1,0,0,0
1455,-40,4,2,1,0,0,0
1492,-200,4,2,1,0,0,0
1606,-40,4,2,1,0,0,0
1643,-200,4,2,1,0,0,0
1757,-40,4,2,1,0,0,0
1794,-200,4,2,1,0,0,0
1908,-40,4,2,1,0,0,0
1983,-200,4,2,1,0,0,0
2209,-100,4,2,1,0,0,0
2661,-20,4,2,1,0,0,0
2812,-1000,4,2,1,0,0,0
2887,-200,4,2,1,0,0,0
2963,-100,4,2,1,0,0,0
3264,-20,4,2,1,0,0,0
3415,-1000,4,2,1,0,0,0
3490,-200,4,2,1,0,0,0
3566,-100,4,2,1,0,0,0
3717,-40,4,2,1,0,0,0
3754,-200,4,2,1,0,0,0
3867,-40,4,2,1,0,0,0
3904,-200,4,2,1,0,0,0
4018,-40,4,2,1,0,0,0
4055,-200,4,2,1,0,0,0
4169,-40,4,2,1,0,0,0
4206,-200,4,2,1,0,0,0
4320,-50,4,2,1,0,0,0
4338,-200,4,2,1,0,0,0
4395,-50,4,2,1,0,0,0
4413,-200,4,2,1,0,0,0
4470,-50,4,2,1,0,0,0
4488,-200,4,2,1,0,0,0
4546,-50,4,2,1,0,0,0
4564,-200,4,2,1,0,0,0
4621,-50,4,2,1,0,0,0
4639,-200,4,2,1,0,0,0
4696,-50,4,2,1,0,0,0
4714,-200,4,2,1,0,0,0
4772,-50,4,2,1,0,0,0
4790,-200,4,2,1,0,0,0
4847,-50,4,2,1,0,0,0
4865,-200,4,2,1,0,0,0
4923,-100,4,2,1,0,0,0
9596,-20,4,2,1,0,0,0
9747,-1000,4,2,1,0,0,0
9973,-66.6666666666667,4,2,1,0,0,0
10048,-100,4,2,1,0,0,0
13365,-40,4,2,1,0,0,0
13402,-200,4,2,1,0,0,0
13515,-40,4,2,1,0,0,0
13552,-200,4,2,1,0,0,0
13666,-40,4,2,1,0,0,0
13703,-200,4,2,1,0,0,0
13817,-40,4,2,1,0,0,0
13854,-200,4,2,1,0,0,0
13968,-40,4,2,1,0,0,0
14043,-200,4,2,1,0,0,0
14269,-100,4,2,1,0,0,0
14571,-10,4,2,1,0,0,0
14646,-200,4,2,1,0,0,0
14722,-66.6666666666667,4,2,1,0,0,0
14797,-100,4,2,1,0,0,0
14872,-10,4,2,1,0,0,0
14947,-200,4,2,1,0,0,0
15023,-66.6666666666667,4,2,1,0,0,0
15098,-100,4,2,1,0,0,0
15174,-66.6666666666667,4,2,1,0,0,0
15212,-200,4,2,1,0,0,0
15249,-66.6666666666667,4,2,1,0,0,0
15287,-100,4,2,1,0,0,0
15325,-66.6666666666667,4,2,1,0,0,0
15363,-200,4,2,1,0,0,0
15400,-66.6666666666667,4,2,1,0,0,0
15438,-100,4,2,1,0,0,0
15475,-66.6666666666667,4,2,1,0,0,0
15626,-200,4,2,1,0,0,0
15777,-100,4,2,1,0,0,0
24897,-66.6666666666667,4,2,1,0,0,0
25011,-200,4,2,1,0,0,0
25124,-100,4,2,1,0,0,0
35676,-40,4,2,1,0,0,0
35713,-200,4,2,1,0,0,0
35827,-40,4,2,1,0,0,0
35864,-200,4,2,1,0,0,0
35978,-40,4,2,1,0,0,0
36015,-200,4,2,1,0,0,0
36129,-100,4,2,1,0,0,0
36882,-40,4,2,1,0,0,0
36919,-200,4,2,1,0,0,0
37033,-40,4,2,1,0,0,0
37070,-200,4,2,1,0,0,0
37184,-100,4,2,1,0,0,0
37787,-40,4,2,1,0,0,0
37824,-200,4,2,1,0,0,0
37938,-100,4,2,1,0,0,0
38239,-50,4,2,1,0,0,0
38257,-200,4,2,1,0,0,0
38315,-50,4,2,1,0,0,0
38333,-200,4,2,1,0,0,0
38390,-40,4,2,1,0,0,0
38427,-200,4,2,1,0,0,0
38541,-100,4,2,1,0,0,0
38842,-50,4,2,1,0,0,0
38860,-200,4,2,1,0,0,0
38918,-50,4,2,1,0,0,0
38936,-200,4,2,1,0,0,0
38993,-40,4,2,1,0,0,0
39030,-200,4,2,1,0,0,0
39144,-40,4,2,1,0,0,0
39181,-200,4,2,1,0,0,0
39294,-40,4,2,1,0,0,0
39331,-200,4,2,1,0,0,0
39445,-40,4,2,1,0,0,0
39482,-200,4,2,1,0,0,0
39596,-40,4,2,1,0,0,0
39633,-200,4,2,1,0,0,0
39747,-40,4,2,1,0,0,0
39784,-200,4,2,1,0,0,0
39897,-100,4,2,1,0,0,0
40501,-40,4,2,1,0,0,0
40538,-200,4,2,1,0,0,0
40651,-40,4,2,1,0,0,0
40688,-200,4,2,1,0,0,0
40802,-40,4,2,1,0,0,0
40839,-200,4,2,1,0,0,0
40953,-100,4,2,1,0,0,0
41707,-40,4,2,1,0,0,0
41744,-200,4,2,1,0,0,0
41857,-40,4,2,1,0,0,0
41894,-200,4,2,1,0,0,0
42008,-10,4,2,1,0,0,0
42159,-1000,4,2,1,0,0,0
42234,-333.333333333333,4,2,1,0,0,0
42310,-200,4,2,1,0,0,0
43214,-10,4,2,1,0,0,0
43365,-1000,4,2,1,0,0,0
43440,-333.333333333333,4,2,1,0,0,0
43516,-200,4,2,1,0,0,0
44420,-10,4,2,1,0,0,0
44571,-1000,4,2,1,0,0,0
44646,-333.333333333333,4,2,1,0,0,0
44722,-200,4,2,1,0,0,0
45626,-10,4,2,1,0,0,0
45777,-1000,4,2,1,0,0,0
45852,-333.333333333333,4,2,1,0,0,0
45928,-200,4,2,1,0,0,0
46531,-18.1818181818182,4,2,1,0,0,0
46606,-200,4,2,1,0,0,0
47134,-50,4,2,1,0,0,0
47171,-200,4,2,1,0,0,0
47247,-100,4,2,1,0,0,0
47435,-50,4,2,1,0,0,0
47472,-200,4,2,1,0,0,0
47548,-100,4,2,1,0,0,0
47737,-50,4,2,1,0,0,0
47774,-200,4,2,1,0,0,0
47850,-100,4,2,1,0,0,0
48038,-50,4,2,1,0,0,0
48075,-200,4,2,1,0,0,0
48151,-100,4,2,1,0,0,0
48340,-50,4,2,1,0,0,0
48377,-200,4,2,1,0,0,0
48453,-100,4,2,1,0,0,0
48641,-50,4,2,1,0,0,0
48678,-200,4,2,1,0,0,0
48754,-100,4,2,1,0,0,0
48943,-50,4,2,1,0,0,0
48980,-200,4,2,1,0,0,0
49056,-100,4,2,1,0,0,0
49244,-50,4,2,1,0,0,0
49281,-200,4,2,1,0,0,0
49357,-100,4,2,1,0,0,0
49546,-40,4,2,1,0,0,0
49583,-200,4,2,1,0,0,0
49696,-50,4,2,1,0,0,0
49734,-200,4,2,1,0,0,0
49810,-100,4,2,1,0,0,0
49847,-40,4,2,1,0,0,0
49884,-200,4,2,1,0,0,0
49997,-50,4,2,1,0,0,0
50035,-200,4,2,1,0,0,0
50111,-100,4,2,1,0,0,0
50149,-40,4,2,1,0,0,0
50186,-200,4,2,1,0,0,0
50299,-50,4,2,1,0,0,0
50337,-200,4,2,1,0,0,0
50413,-100,4,2,1,0,0,0
50450,-40,4,2,1,0,0,0
50487,-200,4,2,1,0,0,0
50600,-50,4,2,1,0,0,0
50638,-200,4,2,1,0,0,0
50714,-100,4,2,1,0,0,0
50752,-100,4,2,1,0,0,0
60400,-29.4117647058824,4,2,1,0,0,0
60475,-500,4,2,1,0,0,0
60702,-29.4117647058824,4,2,1,0,0,0
60777,-500,4,2,1,0,0,0
61003,-100,4,2,1,0,0,0
61606,-10,4,2,1,0,0,0
61757,-1000,4,2,1,0,0,0
61832,-66.6666666666667,4,2,1,0,0,0
61908,-100,4,2,1,0,0,0
71405,-20,4,2,1,0,0,0
71556,-1000,4,2,1,0,0,0
71631,-200,4,2,1,0,0,0
71707,-100,4,2,1,0,0,0
72008,-20,4,2,1,0,0,0
72159,-1000,4,2,1,0,0,0
72234,-200,4,2,1,0,0,0
72310,-100,4,2,1,0,0,0
72460,1,4,2,1,0,1,0
72470,301.507537688442,4,2,1,0,1,0
72611,1,4,2,1,0,1,0
72621,301.507537688442,4,2,1,0,1,0
72762,1,4,2,1,0,1,0
72772,301.507537688442,4,2,1,0,1,0
72913,1,4,2,1,0,1,0
72923,301.507537688442,4,2,1,0,1,0
73063,301.507537688442,4,2,1,0,1,0
73817,-20,4,2,1,0,0,0
73968,-1000,4,2,1,0,0,0
74043,-200,4,2,1,0,0,0
74119,-100,4,2,1,0,0,0
74420,-20,4,2,1,0,0,0
74571,-1000,4,2,1,0,0,0
74646,-200,4,2,1,0,0,0
74722,-100,4,2,1,0,0,0
74872,1,4,2,1,0,1,0
74882,301.507537688442,4,2,1,0,1,0
75023,1,4,2,1,0,1,0
75033,301.507537688442,4,2,1,0,1,0
75174,1,4,2,1,0,1,0
75184,301.507537688442,4,2,1,0,1,0
75325,1,4,2,1,0,1,0
75335,301.507537688442,4,2,1,0,1,0
75475,301.507537688442,4,2,1,0,1,0
76229,-20,4,2,1,0,0,0
76380,-1000,4,2,1,0,0,0
76455,-200,4,2,1,0,0,0
76531,-100,4,2,1,0,0,0
76832,-20,4,2,1,0,0,0
76983,-1000,4,2,1,0,0,0
77058,-200,4,2,1,0,0,0
77134,-100,4,2,1,0,0,0
77284,1,4,2,1,0,1,0
77294,301.507537688442,4,2,1,0,1,0
77435,1,4,2,1,0,1,0
77445,301.507537688442,4,2,1,0,1,0
77586,1,4,2,1,0,1,0
77596,301.507537688442,4,2,1,0,1,0
77737,1,4,2,1,0,1,0
77747,301.507537688442,4,2,1,0,1,0
77887,301.507537688442,4,2,1,0,1,0
79091,9.9E+99,4,2,1,0,1,0
79092,-9.9E+99,4,2,1,0,1,0
79093,301.507537688442,4,2,1,0,1,0

[HitObjects]
36,192,99,5,0,0:0:0:0:
256,192,99,1,0,0:0:0:0:
475,192,99,1,0,0:0:0:0:
182,192,551,128,0,702:0:0:0:0:
36,192,702,1,0,0:0:0:0:
475,192,702,1,0,0:0:0:0:
256,192,702,1,0,0:0:0:0:
329,192,1154,128,0,1305:0:0:0:0:
36,192,1305,1,0,0:0:0:0:
256,192,1305,1,0,0:0:0:0:
475,192,1305,1,0,0:0:0:0:
109,192,1455,1,0,0:0:0:0:
329,192,1455,1,0,0:0:0:0:
475,192,1455,1,0,0:0:0:0:
36,192,1606,1,0,0:0:0:0:
256,192,1606,1,0,0:0:0:0:
402,192,1606,1,0,0:0:0:0:
109,192,1757,1,0,0:0:0:0:
329,192,1757,1,0,0:0:0:0:
475,192,1757,1,0,0:0:0:0:
36,192,1908,1,0,0:0:0:0:
256,192,1908,1,0,0:0:0:0:
475,192,1908,1,0,0:0:0:0:
36,192,2209,1,0,0:0:0:0:
182,192,2209,1,0,0:0:0:0:
329,192,2209,1,0,0:0:0:0:
475,192,2209,1,0,0:0:0:0:
256,192,2360,128,0,2511:0:0:0:0:
36,192,2511,1,0,0:0:0:0:
475,192,2511,1,0,0:0:0:0:
182,192,2511,1,0,0:0:0:0:
256,192,2963,128,0,3114:0:0:0:0:
36,192,3114,1,0,0:0:0:0:
329,192,3114,1,0,0:0:0:0:
475,192,3114,1,0,0:0:0:0:
256,192,3566,128,0,3717:0:0:0:0:
36,192,3717,1,0,0:0:0:0:
182,192,3717,1,0,0:0:0:0:
402,192,3717,1,0,0:0:0:0:
109,192,3867,1,0,0:0:0:0:
329,192,3867,1,0,0:0:0:0:
475,192,3867,1,0,0:0:0:0:
256,192,4018,1,0,0:0:0:0:
402,192,4018,1,0,0:0:0:0:
36,192,4018,1,0,0:0:0:0:
109,192,4169,1,0,0:0:0:0:
329,192,4169,1,0,0:0:0:0:
475,192,4169,1,0,0:0:0:0:
36,192,4320,1,0,0:0:0:0:
182,192,4320,1,0,0:0:0:0:
402,192,4320,1,0,0:0:0:0:
256,192,4395,1,0,0:0:0:0:
109,192,4470,1,0,0:0:0:0:
475,192,4470,1,0,0:0:0:0:
256,192,4546,1,0,0:0:0:0:
36,192,4621,1,0,0:0:0:0:
402,192,4621,1,0,0:0:0:0:
256,192,4696,1,0,0:0:0:0:
109,192,4772,1,0,0:0:0:0:
475,192,4772,1,0,0:0:0:0:
256,192,4847,1,0,0:0:0:0:
36,192,4923,1,0,0:0:0:0:
329,192,4923,1,0,0:0:0:0:
475,192,4923,1,0,0:0:0:0:
182,192,4998,1,0,0:0:0:0:
256,192,5073,1,0,0:0:0:0:
329,192,5149,1,0,0:0:0:0:
36,192,5224,1,0,0:0:0:0:
182,192,5224,1,0,0:0:0:0:
402,192,5224,1,0,0:0:0:0:
475,192,5300,1,0,0:0:0:0:
182,192,5375,1,0,0:0:0:0:
256,192,5450,1,0,0:0:0:0:
36,192,5526,1,0,0:0:0:0:
329,192,5526,1,0,0:0:0:0:
402,192,5601,1,0,0:0:0:0:
182,192,5676,1,0,0:0:0:0:
256,192,5752,1,0,0:0:0:0:
36,192,5827,1,0,0:0:0:0:
329,192,5827,1,0,0:0:0:0:
475,192,5827,1,0,0:0:0:0:
256,192,5903,1,0,0:0:0:0:
109,192,5978,1,0,0:0:0:0:
329,192,6053,1,0,0:0:0:0:
36,192,6129,1,0,0:0:0:0:
475,192,6129,1,0,0:0:0:0:
329,192,6204,1,0,0:0:0:0:
256,192,6279,1,0,0:0:0:0:
182,192,6355,1,0,0:0:0:0:
36,192,6430,1,0,0:0:0:0:
329,192,6430,1,0,0:0:0:0:
475,192,6430,1,0,0:0:0:0:
256,192,6506,1,0,0:0:0:0:
182,192,6581,1,0,0:0:0:0:
109,192,6656,1,0,0:0:0:0:
256,192,6732,1,0,0:0:0:0:
36,192,6732,1,0,0:0:0:0:
402,192,6807,1,0,0:0:0:0:
182,192,6882,1,0,0:0:0:0:
329,192,6958,1,0,0:0:0:0:
36,192,7033,1,0,0:0:0:0:
256,192,7033,1,0,0:0:0:0:
475,192,7033,1,0,0:0:0:0:
182,192,7109,1,0,0:0:0:0:
329,192,7184,1,0,0:0:0:0:
256,192,7259,1,0,0:0:0:0:
36,192,7335,1,0,0:0:0:0:
475,192,7335,1,0,0:0:0:0:
329,192,7410,1,0,0:0:0:0:
182,192,7485,1,0,0:0:0:0:
256,192,7561,1,0,0:0:0:0:
329,192,7636,1,0,0:0:0:0:
475,192,7636,1,0,0:0:0:0:
36,192,7636,1,0,0:0:0:0:
256,192,7712,1,0,0:0:0:0:
182,192,7787,1,0,0:0:0:0:
256,192,7862,1,0,0:0:0:0:
329,192,7938,1,0,0:0:0:0:
36,192,7938,1,0,0:0:0:0:
402,192,8013,1,0,0:0:0:0:
256,192,8088,1,0,0:0:0:0:
109,192,8164,1,0,0:0:0:0:
329,192,8239,1,0,0:0:0:0:
36,192,8239,1,0,0:0:0:0:
475,192,8239,1,0,0:0:0:0:
182,192,8315,1,0,0:0:0:0:
402,192,8390,1,0,0:0:0:0:
256,192,8465,1,0,0:0:0:0:
329,192,8541,1,0,0:0:0:0:
36,192,8541,1,0,0:0:0:0:
182,192,8616,1,0,0:0:0:0:
329,192,8691,1,0,0:0:0:0:
402,192,8767,1,0,0:0:0:0:
182,192,8842,1,0,0:0:0:0:
36,192,8842,1,0,0:0:0:0:
475,192,8842,1,0,0:0:0:0:
256,192,8918,1,0,0:0:0:0:
329,192,8993,1,0,0:0:0:0:
256,192,9068,1,0,0:0:0:0:
182,192,9144,1,0,0:0:0:0:
475,192,9144,1,0,0:0:0:0:
36,192,9144,1,0,0:0:0:0:
256,192,9219,1,0,0:0:0:0:
36,192,9294,1,0,0:0:0:0:
402,192,9294,1,0,0:0:0:0:
182,192,9294,1,0,0:0:0:0:
109,192,9370,1,0,0:0:0:0:
475,192,9370,1,0,0:0:0:0:
256,192,9370,1,0,0:0:0:0:
36,192,9445,1,0,0:0:0:0:
329,192,9445,1,0,0:0:0:0:
182,192,9445,1,0,0:0:0:0:
402,192,9521,1,0,0:0:0:0:
109,192,9521,1,0,0:0:0:0:
256,192,9521,1,0,0:0:0:0:
475,192,9596,1,0,0:0:0:0:
182,192,9596,1,0,0:0:0:0:
329,192,9596,1,0,0:0:0:0:
36,192,10048,1,0,0:0:0:0:
329,192,10048,1,0,0:0:0:0:
475,192,10048,1,0,0:0:0:0:
182,192,10124,1,0,0:0:0:0:
256,192,10199,1,0,0:0:0:0:
402,192,10274,1,0,0:0:0:0:
36,192,10350,1,0,0:0:0:0:
329,192,10350,1,0,0:0:0:0:
182,192,10425,1,0,0:0:0:0:
256,192,10501,1,0,0:0:0:0:
329,192,10576,1,0,0:0:0:0:
475,192,10651,1,0,0:0:0:0:
36,192,10651,1,0,0:0:0:0:
182,192,10651,1,0,0:0:0:0:
256,192,10727,1,0,0:0:0:0:
402,192,10802,1,0,0:0:0:0:
182,192,10877,1,0,0:0:0:0:
329,192,10953,1,0,0:0:0:0:
36,192,10953,1,0,0:0:0:0:
256,192,11028,1,0,0:0:0:0:
182,192,11104,1,0,0:0:0:0:
109,192,11179,1,0,0:0:0:0:
475,192,11254,1,0,0:0:0:0:
329,192,11254,1,0,0:0:0:0:
36,192,11254,1,0,0:0:0:0:
256,192,11330,1,0,0:0:0:0:
182,192,11405,1,0,0:0:0:0:
402,192,11480,1,0,0:0:0:0:
329,192,11556,1,0,0:0:0:0:
36,192,11556,1,0,0:0:0:0:
256,192,11631,1,0,0:0:0:0:
329,192,11707,1,0,0:0:0:0:
402,192,11782,1,0,0:0:0:0:
182,192,11857,1,0,0:0:0:0:
475,192,11857,1,0,0:0:0:0:
36,192,11857,1,0,0:0:0:0:
329,192,11933,1,0,0:0:0:0:
109,192,12008,1,0,0:0:0:0:
256,192,12083,1,0,0:0:0:0:
329,192,12159,1,0,0:0:0:0:
36,192,12159,1,0,0:0:0:0:
182,192,12234,1,0,0:0:0:0:
402,192,12310,1,0,0:0:0:0:
256,192,12385,1,0,0:0:0:0:
475,192,12460,1,0,0:0:0:0:
36,192,12460,1,0,0:0:0:0:
182,192,12460,1,0,0:0:0:0:
329,192,12536,1,0,0:0:0:0:
109,192,12611,1,0,0:0:0:0:
256,192,12686,1,0,0:0:0:0:
36,192,12762,1,0,0:0:0:0:
402,192,12762,1,0,0:0:0:0:
329,192,12837,1,0,0:0:0:0:
256,192,12913,1,0,0:0:0:0:
182,192,12988,1,0,0:0:0:0:
475,192,13063,1,0,0:0:0:0:
36,192,13063,1,0,0:0:0:0:
329,192,13063,1,0,0:0:0:0:
109,192,13139,1,0,0:0:0:0:
402,192,13214,1,0,0:0:0:0:
182,192,13289,1,0,0:0:0:0:
256,192,13365,1,0,0:0:0:0:
36,192,13365,1,0,0:0:0:0:
475,192,13365,1,0,0:0:0:0:
36,192,13516,1,0,0:0:0:0:
256,192,13516,1,0,0:0:0:0:
475,192,13516,1,0,0:0:0:0:
475,192,13666,1,0,0:0:0:0:
256,192,13666,1,0,0:0:0:0:
36,192,13666,1,0,0:0:0:0:
36,192,13817,1,0,0:0:0:0:
256,192,13817,1,0,0:0:0:0:
475,192,13817,1,0,0:0:0:0:
256,192,13968,128,0,14269:0:0:0:0:
36,192,13968,1,0,0:0:0:0:
475,192,13968,1,0,0:0:0:0:
109,192,14269,1,0,0:0:0:0:
36,192,14269,1,0,0:0:0:0:
402,192,14269,1,0,0:0:0:0:
475,192,14269,1,0,0:0:0:0:
256,192,14571,1,0,0:0:0:0:
256,192,14872,1,0,0:0:0:0:
256,192,15174,1,0,0:0:0:0:
36,192,15325,1,0,0:0:0:0:
475,192,15325,1,0,0:0:0:0:
36,192,15475,1,0,0:0:0:0:
256,192,15475,1,0,0:0:0:0:
475,192,15475,1,0,0:0:0:0:
182,192,15475,1,0,0:0:0:0:
329,192,15475,1,0,0:0:0:0:
36,192,15777,128,0,16003:0:0:0:0:
256,192,15777,1,0,0:0:0:0:
475,192,15777,1,0,0:0:0:0:
36,192,16078,128,0,16305:0:0:0:0:
182,192,16078,1,0,0:0:0:0:
475,192,16078,1,0,0:0:0:0:
36,192,16380,128,0,16455:0:0:0:0:
256,192,16380,1,0,0:0:0:0:
475,192,16380,1,0,0:0:0:0:
36,192,16531,128,0,16606:0:0:0:0:
256,192,16531,1,0,0:0:0:0:
182,192,16681,1,0,0:0:0:0:
475,192,16681,1,0,0:0:0:0:
36,192,16832,128,0,17058:0:0:0:0:
256,192,16983,1,0,0:0:0:0:
475,192,16983,1,0,0:0:0:0:
36,192,17134,128,0,17360:0:0:0:0:
182,192,17284,1,0,0:0:0:0:
475,192,17284,1,0,0:0:0:0:
36,192,17435,128,0,17511:0:0:0:0:
36,192,17586,128,0,17661:0:0:0:0:
256,192,17586,1,0,0:0:0:0:
475,192,17586,1,0,0:0:0:0:
256,192,17737,1,0,0:0:0:0:
36,192,17887,128,0,17963:0:0:0:0:
182,192,17887,1,0,0:0:0:0:
475,192,17887,1,0,0:0:0:0:
36,192,18038,128,0,18114:0:0:0:0:
182,192,18189,128,0,18415:0:0:0:0:
256,192,18189,1,0,0:0:0:0:
475,192,18189,1,0,0:0:0:0:
182,192,18490,128,0,18717:0:0:0:0:
36,192,18490,1,0,0:0:0:0:
475,192,18490,1,0,0:0:0:0:
256,192,18792,1,0,0:0:0:0:
182,192,18792,128,0,18867:0:0:0:0:
475,192,18792,1,0,0:0:0:0:
182,192,18943,128,0,19018:0:0:0:0:
256,192,18943,1,0,0:0:0:0:
475,192,19093,1,0,0:0:0:0:
36,192,19093,1,0,0:0:0:0:
329,192,19244,128,0,19470:0:0:0:0:
36,192,19395,1,0,0:0:0:0:
256,192,19395,1,0,0:0:0:0:
329,192,19546,128,0,19772:0:0:0:0:
36,192,19696,1,0,0:0:0:0:
475,192,19696,1,0,0:0:0:0:
329,192,19847,128,0,19923:0:0:0:0:
256,192,19847,1,0,0:0:0:0:
329,192,19998,128,0,20073:0:0:0:0:
256,192,19998,1,0,0:0:0:0:
256,192,20149,1,0,0:0:0:0:
36,192,20300,1,0,0:0:0:0:
475,192,20300,1,0,0:0:0:0:
329,192,20300,128,0,20375:0:0:0:0:
329,192,20450,128,0,20526:0:0:0:0:
475,192,20601,128,0,20827:0:0:0:0:
256,192,20601,1,0,0:0:0:0:
36,192,20601,1,0,0:0:0:0:
475,192,20903,128,0,21129:0:0:0:0:
36,192,20903,1,0,0:0:0:0:
329,192,20903,1,0,0:0:0:0:
475,192,21204,128,0,21279:0:0:0:0:
256,192,21204,1,0,0:0:0:0:
36,192,21204,1,0,0:0:0:0:
475,192,21355,128,0,21430:0:0:0:0:
256,192,21355,1,0,0:0:0:0:
36,192,21506,1,0,0:0:0:0:
329,192,21506,1,0,0:0:0:0:
475,192,21656,128,0,21882:0:0:0:0:
256,192,21807,1,0,0:0:0:0:
36,192,21807,1,0,0:0:0:0:
475,192,21958,128,0,22184:0:0:0:0:
36,192,22109,1,0,0:0:0:0:
329,192,22109,1,0,0:0:0:0:
475,192,22259,128,0,22335:0:0:0:0:
475,192,22410,128,0,22485:0:0:0:0:
256,192,22410,1,0,0:0:0:0:
36,192,22410,1,0,0:0:0:0:
256,192,22561,1,0,0:0:0:0:
475,192,22712,128,0,22787:0:0:0:0:
329,192,22712,1,0,0:0:0:0:
36,192,22712,1,0,0:0:0:0:
475,192,22862,128,0,22938:0:0:0:0:
329,192,23013,128,0,23239:0:0:0:0:
36,192,23013,1,0,0:0:0:0:
256,192,23013,1,0,0:0:0:0:
329,192,23315,128,0,23541:0:0:0:0:
36,192,23315,1,0,0:0:0:0:
475,192,23315,1,0,0:0:0:0:
329,192,23616,128,0,23691:0:0:0:0:
256,192,23616,1,0,0:0:0:0:
36,192,23616,1,0,0:0:0:0:
329,192,23767,128,0,23842:0:0:0:0:
256,192,23767,1,0,0:0:0:0:
36,192,23918,1,0,0:0:0:0:
475,192,23918,1,0,0:0:0:0:
256,192,24068,128,0,24294:0:0:0:0:
475,192,24219,1,0,0:0:0:0:
36,192,24219,1,0,0:0:0:0:
256,192,24370,128,0,24596:0:0:0:0:
475,192,24370,1,0,0:0:0:0:
36,192,24370,1,0,0:0:0:0:
475,192,24521,1,0,0:0:0:0:
36,192,24521,1,0,0:0:0:0:
256,192,24671,128,0,24747:0:0:0:0:
475,192,24671,1,0,0:0:0:0:
36,192,24671,1,0,0:0:0:0:
256,192,24822,128,0,24897:0:0:0:0:
475,192,24822,1,0,0:0:0:0:
36,192,24822,1,0,0:0:0:0:
182,192,25124,1,0,0:0:0:0:
36,192,25124,1,0,0:0:0:0:
256,192,25124,1,0,0:0:0:0:
329,192,25124,1,0,0:0:0:0:
475,192,25124,1,0,0:0:0:0:
36,192,25425,1,0,0:0:0:0:
475,192,25425,1,0,0:0:0:0:
256,192,25425,1,0,0:0:0:0:
256,192,25576,1,0,0:0:0:0:
182,192,25651,1,0,0:0:0:0:
329,192,25727,1,0,0:0:0:0:
36,192,25727,1,0,0:0:0:0:
475,192,25727,1,0,0:0:0:0:
256,192,25802,1,0,0:0:0:0:
109,192,25877,1,0,0:0:0:0:
329,192,25953,1,0,0:0:0:0:
475,192,26028,1,0,0:0:0:0:
182,192,26028,1,0,0:0:0:0:
256,192,26179,1,0,0:0:0:0:
109,192,26179,1,0,0:0:0:0:
329,192,26254,1,0,0:0:0:0:
182,192,26330,1,0,0:0:0:0:
36,192,26330,1,0,0:0:0:0:
475,192,26330,1,0,0:0:0:0:
256,192,26405,1,0,0:0:0:0:
109,192,26480,1,0,0:0:0:0:
182,192,26556,1,0,0:0:0:0:
36,192,26631,1,0,0:0:0:0:
329,192,26631,1,0,0:0:0:0:
402,192,26782,1,0,0:0:0:0:
109,192,26782,1,0,0:0:0:0:
256,192,26857,1,0,0:0:0:0:
475,192,26933,1,0,0:0:0:0:
36,192,26933,1,0,0:0:0:0:
329,192,26933,1,0,0:0:0:0:
182,192,27008,1,0,0:0:0:0:
402,192,27083,1,0,0:0:0:0:
36,192,27234,1,0,0:0:0:0:
329,192,27234,1,0,0:0:0:0:
256,192,27310,1,0,0:0:0:0:
109,192,27385,1,0,0:0:0:0:
402,192,27385,1,0,0:0:0:0:
182,192,27536,1,0,0:0:0:0:
36,192,27536,1,0,0:0:0:0:
475,192,27536,1,0,0:0:0:0:
329,192,27611,1,0,0:0:0:0:
182,192,27686,1,0,0:0:0:0:
256,192,27762,1,0,0:0:0:0:
402,192,27837,1,0,0:0:0:0:
109,192,27837,1,0,0:0:0:0:
256,192,27988,1,0,0:0:0:0:
182,192,28139,1,0,0:0:0:0:
36,192,28139,1,0,0:0:0:0:
475,192,28139,1,0,0:0:0:0:
256,192,28289,1,0,0:0:0:0:
182,192,28365,1,0,0:0:0:0:
329,192,28440,1,0,0:0:0:0:
36,192,28440,1,0,0:0:0:0:
329,192,28591,1,0,0:0:0:0:
109,192,28591,1,0,0:0:0:0:
256,192,28742,1,0,0:0:0:0:
36,192,28742,1,0,0:0:0:0:
475,192,28742,1,0,0:0:0:0:
182,192,28817,1,0,0:0:0:0:
329,192,28892,1,0,0:0:0:0:
36,192,29043,1,0,0:0:0:0:
329,192,29043,1,0,0:0:0:0:
109,192,29194,1,0,0:0:0:0:
36,192,29345,1,0,0:0:0:0:
256,192,29345,1,0,0:0:0:0:
475,192,29345,1,0,0:0:0:0:
109,192,29495,1,0,0:0:0:0:
36,192,29646,1,0,0:0:0:0:
329,192,29646,1,0,0:0:0:0:
36,192,29797,1,0,0:0:0:0:
329,192,29797,1,0,0:0:0:0:
36,192,29948,1,0,0:0:0:0:
256,192,29948,1,0,0:0:0:0:
475,192,29948,1,0,0:0:0:0:
36,192,30249,1,0,0:0:0:0:
329,192,30249,1,0,0:0:0:0:
475,192,30249,1,0,0:0:0:0:
256,192,30325,1,0,0:0:0:0:
182,192,30400,1,0,0:0:0:0:
329,192,30475,1,0,0:0:0:0:
36,192,30551,1,0,0:0:0:0:
256,192,30551,1,0,0:0:0:0:
475,192,30551,1,0,0:0:0:0:
182,192,30626,1,0,0:0:0:0:
109,192,30702,1,0,0:0:0:0:
256,192,30777,1,0,0:0:0:0:
329,192,30852,1,0,0:0:0:0:
36,192,30852,1,0,0:0:0:0:
329,192,31003,1,0,0:0:0:0:
109,192,31003,1,0,0:0:0:0:
256,192,31154,1,0,0:0:0:0:
36,192,31154,1,0,0:0:0:0:
475,192,31154,1,0,0:0:0:0:
329,192,31229,1,0,0:0:0:0:
182,192,31305,1,0,0:0:0:0:
256,192,31380,1,0,0:0:0:0:
109,192,31455,1,0,0:0:0:0:
402,192,31455,1,0,0:0:0:0:
256,192,31606,1,0,0:0:0:0:
329,192,31757,1,0,0:0:0:0:
36,192,31757,1,0,0:0:0:0:
475,192,31757,1,0,0:0:0:0:
256,192,31832,1,0,0:0:0:0:
182,192,31908,1,0,0:0:0:0:
256,192,31983,1,0,0:0:0:0:
402,192,32058,1,0,0:0:0:0:
36,192,32058,1,0,0:0:0:0:
256,192,32134,1,0,0:0:0:0:
329,192,32209,1,0,0:0:0:0:
109,192,32209,1,0,0:0:0:0:
182,192,32284,1,0,0:0:0:0:
475,192,32360,1,0,0:0:0:0:
36,192,32360,1,0,0:0:0:0:
256,192,32360,1,0,0:0:0:0:
256,192,32511,1,0,0:0:0:0:
36,192,32661,1,0,0:0:0:0:
329,192,32661,1,0,0:0:0:0:
182,192,32812,1,0,0:0:0:0:
256,192,32963,1,0,0:0:0:0:
36,192,32963,1,0,0:0:0:0:
475,192,32963,1,0,0:0:0:0:
329,192,33114,1,0,0:0:0:0:
109,192,33114,1,0,0:0:0:0:
36,192,33264,1,0,0:0:0:0:
329,192,33264,1,0,0:0:0:0:
256,192,33340,1,0,0:0:0:0:
182,192,33415,1,0,0:0:0:0:
109,192,33566,1,0,0:0:0:0:
402,192,33566,1,0,0:0:0:0:
256,192,33717,1,0,0:0:0:0:
475,192,33717,1,0,0:0:0:0:
36,192,33717,1,0,0:0:0:0:
256,192,33867,1,0,0:0:0:0:
36,192,34018,1,0,0:0:0:0:
475,192,34018,1,0,0:0:0:0:
256,192,34169,1,0,0:0:0:0:
36,192,34320,1,0,0:0:0:0:
475,192,34320,1,0,0:0:0:0:
475,192,34470,1,0,0:0:0:0:
256,192,34470,1,0,0:0:0:0:
36,192,34470,1,0,0:0:0:0:
109,192,34546,1,0,0:0:0:0:
402,192,34621,1,0,0:0:0:0:
256,192,34696,1,0,0:0:0:0:
36,192,34772,1,0,0:0:0:0:
182,192,34772,1,0,0:0:0:0:
329,192,34772,1,0,0:0:0:0:
475,192,34772,1,0,0:0:0:0:
256,192,35073,1,0,0:0:0:0:
475,192,35073,1,0,0:0:0:0:
36,192,35073,128,0,35676:0:0:0:0:
329,192,35073,128,0,35375:0:0:0:0:
182,192,35073,1,0,0:0:0:0:
256,192,35375,128,0,35676:0:0:0:0:
182,192,35676,1,0,0:0:0:0:
475,192,35676,1,0,0:0:0:0:
329,192,35676,1,0,0:0:0:0:
475,192,35827,1,0,0:0:0:0:
329,192,35827,1,0,0:0:0:0:
182,192,35827,1,0,0:0:0:0:
402,192,35978,1,0,0:0:0:0:
256,192,35978,1,0,0:0:0:0:
109,192,35978,1,0,0:0:0:0:
182,192,36129,128,0,36581:0:0:0:0:
475,192,36129,128,0,36882:0:0:0:0:
36,192,36129,1,0,0:0:0:0:
329,192,36129,1,0,0:0:0:0:
256,192,36581,128,0,36882:0:0:0:0:
36,192,36581,1,0,0:0:0:0:
36,192,36882,1,0,0:0:0:0:
182,192,36882,1,0,0:0:0:0:
329,192,36882,1,0,0:0:0:0:
182,192,37033,1,0,0:0:0:0:
36,192,37033,1,0,0:0:0:0:
329,192,37033,1,0,0:0:0:0:
475,192,37184,1,0,0:0:0:0:
256,192,37184,1,0,0:0:0:0:
109,192,37184,1,0,0:0:0:0:
36,192,37485,128,0,37787:0:0:0:0:
182,192,37485,1,0,0:0:0:0:
256,192,37485,128,0,37787:0:0:0:0:
402,192,37485,1,0,0:0:0:0:
475,192,37485,1,0,0:0:0:0:
329,192,37787,1,0,0:0:0:0:
109,192,37787,1,0,0:0:0:0:
329,192,37938,128,0,38239:0:0:0:0:
109,192,37938,128,0,38239:0:0:0:0:
182,192,37938,1,0,0:0:0:0:
402,192,37938,1,0,0:0:0:0:
182,192,38239,1,0,0:0:0:0:
402,192,38239,1,0,0:0:0:0:
256,192,38315,1,0,0:0:0:0:
475,192,38315,1,0,0:0:0:0:
402,192,38390,1,0,0:0:0:0:
182,192,38390,1,0,0:0:0:0:
182,192,38541,128,0,38842:0:0:0:0:
402,192,38541,128,0,38842:0:0:0:0:
256,192,38541,1,0,0:0:0:0:
475,192,38541,1,0,0:0:0:0:
475,192,38842,1,0,0:0:0:0:
256,192,38842,1,0,0:0:0:0:
182,192,38918,1,0,0:0:0:0:
402,192,38918,1,0,0:0:0:0:
256,192,38993,1,0,0:0:0:0:
475,192,38993,1,0,0:0:0:0:
36,192,38993,1,0,0:0:0:0:
182,192,39144,1,0,0:0:0:0:
402,192,39144,1,0,0:0:0:0:
36,192,39294,1,0,0:0:0:0:
475,192,39294,1,0,0:0:0:0:
256,192,39294,1,0,0:0:0:0:
329,192,39445,1,0,0:0:0:0:
475,192,39445,1,0,0:0:0:0:
109,192,39445,1,0,0:0:0:0:
36,192,39596,1,0,0:0:0:0:
182,192,39596,1,0,0:0:0:0:
402,192,39596,1,0,0:0:0:0:
109,192,39747,1,0,0:0:0:0:
256,192,39747,1,0,0:0:0:0:
475,192,39747,1,0,0:0:0:0:
36,192,39897,1,0,0:0:0:0:
329,192,39897,1,0,0:0:0:0:
182,192,39897,1,0,0:0:0:0:
256,192,39897,128,0,40501:0:0:0:0:
475,192,39897,128,0,40501:0:0:0:0:
329,192,40501,1,0,0:0:0:0:
36,192,40501,1,0,0:0:0:0:
182,192,40501,1,0,0:0:0:0:
329,192,40651,1,0,0:0:0:0:
36,192,40651,1,0,0:0:0:0:
182,192,40651,1,0,0:0:0:0:
109,192,40802,1,0,0:0:0:0:
256,192,40802,1,0,0:0:0:0:
475,192,40802,1,0,0:0:0:0:
36,192,40953,128,0,41405:0:0:0:0:
329,192,40953,128,0,41405:0:0:0:0:
182,192,40953,1,0,0:0:0:0:
475,192,40953,1,0,0:0:0:0:
109,192,41405,1,0,0:0:0:0:
256,192,41405,1,0,0:0:0:0:
475,192,41405,1,0,0:0:0:0:
36,192,41707,1,0,0:0:0:0:
256,192,41707,1,0,0:0:0:0:
475,192,41707,1,0,0:0:0:0:
36,192,41857,1,0,0:0:0:0:
256,192,41857,1,0,0:0:0:0:
475,192,41857,1,0,0:0:0:0:
182,192,42008,1,0,0:0:0:0:
402,192,42008,1,0,0:0:0:0:
36,192,42008,1,0,0:0:0:0:
182,192,42310,1,0,0:0:0:0:
329,192,42611,1,0,0:0:0:0:
109,192,42762,1,0,0:0:0:0:
256,192,43516,1,0,0:0:0:0:
402,192,43817,1,0,0:0:0:0:
182,192,43968,1,0,0:0:0:0:
329,192,44722,1,0,0:0:0:0:
475,192,45023,1,0,0:0:0:0:
256,192,45174,1,0,0:0:0:0:
402,192,45928,1,0,0:0:0:0:
109,192,46229,1,0,0:0:0:0:
256,192,46531,128,0,47134:0:0:0:0:
475,192,46531,1,0,0:0:0:0:
36,192,46531,1,0,0:0:0:0:
36,192,47134,1,0,0:0:0:0:
475,192,47134,1,0,0:0:0:0:
182,192,47134,1,0,0:0:0:0:
329,192,47134,1,0,0:0:0:0:
109,192,47134,1,0,0:0:0:0:
182,192,47435,1,0,0:0:0:0:
256,192,47435,1,0,0:0:0:0:
475,192,47435,1,0,0:0:0:0:
36,192,47435,1,0,0:0:0:0:
36,192,47737,1,0,0:0:0:0:
256,192,47737,1,0,0:0:0:0:
475,192,47737,1,0,0:0:0:0:
329,192,47737,1,0,0:0:0:0:
109,192,47737,1,0,0:0:0:0:
36,192,48038,1,0,0:0:0:0:
402,192,48038,1,0,0:0:0:0:
182,192,48038,1,0,0:0:0:0:
475,192,48038,1,0,0:0:0:0:
36,192,48340,1,0,0:0:0:0:
256,192,48340,1,0,0:0:0:0:
475,192,48340,1,0,0:0:0:0:
402,192,48340,1,0,0:0:0:0:
109,192,48340,1,0,0:0:0:0:
329,192,48641,1,0,0:0:0:0:
475,192,48641,1,0,0:0:0:0:
182,192,48641,1,0,0:0:0:0:
36,192,48641,1,0,0:0:0:0:
36,192,48943,1,0,0:0:0:0:
182,192,48943,1,0,0:0:0:0:
329,192,48943,1,0,0:0:0:0:
475,192,48943,1,0,0:0:0:0:
256,192,48943,1,0,0:0:0:0:
109,192,49244,1,0,0:0:0:0:
36,192,49244,1,0,0:0:0:0:
402,192,49244,1,0,0:0:0:0:
475,192,49244,1,0,0:0:0:0:
36,192,49546,1,0,0:0:0:0:
182,192,49546,1,0,0:0:0:0:
256,192,49546,1,0,0:0:0:0:
402,192,49546,1,0,0:0:0:0:
475,192,49546,1,0,0:0:0:0:
182,192,49696,1,0,0:0:0:0:
329,192,49696,1,0,0:0:0:0:
329,192,49847,1,0,0:0:0:0:
36,192,49847,1,0,0:0:0:0:
256,192,49847,1,0,0:0:0:0:
475,192,49847,1,0,0:0:0:0:
109,192,49847,1,0,0:0:0:0:
329,192,49998,1,0,0:0:0:0:
182,192,49998,1,0,0:0:0:0:
109,192,50149,1,0,0:0:0:0:
36,192,50149,1,0,0:0:0:0:
256,192,50149,1,0,0:0:0:0:
402,192,50149,1,0,0:0:0:0:
475,192,50149,1,0,0:0:0:0:
109,192,50300,1,0,0:0:0:0:
329,192,50300,1,0,0:0:0:0:
256,192,50450,1,0,0:0:0:0:
402,192,50450,1,0,0:0:0:0:
36,192,50450,1,0,0:0:0:0:
182,192,50450,1,0,0:0:0:0:
475,192,50450,1,0,0:0:0:0:
402,192,50601,1,0,0:0:0:0:
109,192,50601,1,0,0:0:0:0:
36,192,50752,1,0,0:0:0:0:
256,192,50752,1,0,0:0:0:0:
475,192,50752,1,0,0:0:0:0:
109,192,50827,1,0,0:0:0:0:
329,192,50827,1,0,0:0:0:0:
182,192,50903,1,0,0:0:0:0:
402,192,50903,1,0,0:0:0:0:
256,192,50978,1,0,0:0:0:0:
475,192,50978,1,0,0:0:0:0:
36,192,51053,1,0,0:0:0:0:
329,192,51053,1,0,0:0:0:0:
109,192,51129,1,0,0:0:0:0:
402,192,51129,1,0,0:0:0:0:
182,192,51204,1,0,0:0:0:0:
475,192,51204,1,0,0:0:0:0:
256,192,51279,1,0,0:0:0:0:
329,192,51279,1,0,0:0:0:0:
109,192,51355,1,0,0:0:0:0:
36,192,51355,1,0,0:0:0:0:
475,192,51355,1,0,0:0:0:0:
402,192,51355,1,0,0:0:0:0:
182,192,51392,1,0,0:0:0:0:
256,192,51430,1,0,0:0:0:0:
329,192,51468,1,0,0:0:0:0:
109,192,51506,1,0,0:0:0:0:
402,192,51506,1,0,0:0:0:0:
182,192,51543,1,0,0:0:0:0:
256,192,51581,1,0,0:0:0:0:
329,192,51619,1,0,0:0:0:0:
402,192,51656,1,0,0:0:0:0:
475,192,51656,1,0,0:0:0:0:
109,192,51656,1,0,0:0:0:0:
36,192,51656,1,0,0:0:0:0:
256,192,51732,1,0,0:0:0:0:
182,192,51807,1,0,0:0:0:0:
329,192,51882,1,0,0:0:0:0:
475,192,51958,1,0,0:0:0:0:
256,192,51958,1,0,0:0:0:0:
36,192,51958,1,0,0:0:0:0:
109,192,51958,1,0,0:0:0:0:
402,192,51958,1,0,0:0:0:0:
109,192,52109,128,0,52259:0:0:0:0:
36,192,52259,1,0,0:0:0:0:
402,192,52259,1,0,0:0:0:0:
256,192,52259,1,0,0:0:0:0:
182,192,52259,1,0,0:0:0:0:
475,192,52259,1,0,0:0:0:0:
329,192,52410,128,0,52561:0:0:0:0:
36,192,52561,1,0,0:0:0:0:
182,192,52561,1,0,0:0:0:0:
256,192,52561,1,0,0:0:0:0:
475,192,52561,1,0,0:0:0:0:
36,192,52712,128,0,52862:0:0:0:0:
256,192,52862,1,0,0:0:0:0:
109,192,52862,1,0,0:0:0:0:
402,192,52862,1,0,0:0:0:0:
182,192,52862,1,0,0:0:0:0:
475,192,52862,1,0,0:0:0:0:
182,192,53013,128,0,53164:0:0:0:0:
256,192,53164,1,0,0:0:0:0:
36,192,53164,1,0,0:0:0:0:
329,192,53164,1,0,0:0:0:0:
475,192,53164,1,0,0:0:0:0:
329,192,53315,128,0,53465:0:0:0:0:
36,192,53465,128,0,53616:0:0:0:0:
109,192,53465,1,0,0:0:0:0:
182,192,53465,1,0,0:0:0:0:
256,192,53465,1,0,0:0:0:0:
402,192,53465,1,0,0:0:0:0:
475,192,53465,1,0,0:0:0:0:
402,192,53616,128,0,53767:0:0:0:0:
109,192,53767,128,0,53918:0:0:0:0:
36,192,53767,1,0,0:0:0:0:
256,192,53767,1,0,0:0:0:0:
475,192,53767,1,0,0:0:0:0:
329,192,53767,1,0,0:0:0:0:
475,192,53918,128,0,54068:0:0:0:0:
36,192,54068,1,0,0:0:0:0:
109,192,54068,1,0,0:0:0:0:
402,192,54068,128,0,54370:0:0:0:0:
256,192,54068,1,0,0:0:0:0:
182,192,54068,1,0,0:0:0:0:
329,192,54144,128,0,54370:0:0:0:0:
109,192,54219,128,0,54370:0:0:0:0:
182,192,54294,128,0,54370:0:0:0:0:
36,192,54370,1,0,0:0:0:0:
475,192,54370,1,0,0:0:0:0:
256,192,54370,1,0,0:0:0:0:
329,192,54521,128,0,54671:0:0:0:0:
36,192,54671,1,0,0:0:0:0:
182,192,54671,1,0,0:0:0:0:
256,192,54671,1,0,0:0:0:0:
402,192,54671,1,0,0:0:0:0:
475,192,54671,1,0,0:0:0:0:
182,192,54822,128,0,54973:0:0:0:0:
36,192,54973,1,0,0:0:0:0:
109,192,54973,1,0,0:0:0:0:
329,192,54973,1,0,0:0:0:0:
475,192,54973,1,0,0:0:0:0:
329,192,55124,128,0,55274:0:0:0:0:
475,192,55274,1,0,0:0:0:0:
402,192,55274,1,0,0:0:0:0:
256,192,55274,1,0,0:0:0:0:
36,192,55274,1,0,0:0:0:0:
182,192,55274,1,0,0:0:0:0:
36,192,55425,128,0,55576:0:0:0:0:
329,192,55576,128,0,55727:0:0:0:0:
109,192,55576,1,0,0:0:0:0:
256,192,55576,1,0,0:0:0:0:
402,192,55576,1,0,0:0:0:0:
475,192,55576,1,0,0:0:0:0:
109,192,55727,128,0,55877:0:0:0:0:
402,192,55877,128,0,56028:0:0:0:0:
36,192,55877,1,0,0:0:0:0:
256,192,55877,1,0,0:0:0:0:
329,192,55877,1,0,0:0:0:0:
475,192,55877,1,0,0:0:0:0:
182,192,55877,1,0,0:0:0:0:
182,192,56028,128,0,56179:0:0:0:0:
36,192,56179,1,0,0:0:0:0:
329,192,56179,1,0,0:0:0:0:
256,192,56179,1,0,0:0:0:0:
475,192,56179,1,0,0:0:0:0:
182,192,56330,128,0,56631:0:0:0:0:
36,192,56480,1,0,0:0:0:0:
402,192,56480,1,0,0:0:0:0:
109,192,56480,1,0,0:0:0:0:
475,192,56480,1,0,0:0:0:0:
329,192,56480,128,0,56631:0:0:0:0:
36,192,56631,1,0,0:0:0:0:
109,192,56631,1,0,0:0:0:0:
402,192,56631,1,0,0:0:0:0:
475,192,56631,1,0,0:0:0:0:
182,192,56669,1,0,0:0:0:0:
256,192,56707,1,0,0:0:0:0:
109,192,56744,1,0,0:0:0:0:
182,192,56782,1,0,0:0:0:0:
256,192,56820,1,0,0:0:0:0:
109,192,56857,1,0,0:0:0:0:
182,192,56895,1,0,0:0:0:0:
256,192,56933,1,0,0:0:0:0:
36,192,57083,1,0,0:0:0:0:
329,192,57083,1,0,0:0:0:0:
182,192,57083,1,0,0:0:0:0:
475,192,57083,1,0,0:0:0:0:
109,192,57234,1,0,0:0:0:0:
402,192,57234,1,0,0:0:0:0:
256,192,57234,1,0,0:0:0:0:
329,192,57385,1,0,0:0:0:0:
36,192,57385,128,0,57460:0:0:0:0:
475,192,57385,1,0,0:0:0:0:
182,192,57385,128,0,57460:0:0:0:0:
36,192,57536,128,0,57611:0:0:0:0:
182,192,57536,128,0,57611:0:0:0:0:
36,192,57686,1,0,0:0:0:0:
475,192,57686,1,0,0:0:0:0:
182,192,57686,1,0,0:0:0:0:
256,192,57686,1,0,0:0:0:0:
329,192,57686,1,0,0:0:0:0:
36,192,57837,1,0,0:0:0:0:
256,192,57837,1,0,0:0:0:0:
475,192,57837,1,0,0:0:0:0:
329,192,57875,1,0,0:0:0:0:
402,192,57913,1,0,0:0:0:0:
256,192,57950,1,0,0:0:0:0:
329,192,57988,1,0,0:0:0:0:
402,192,58026,1,0,0:0:0:0:
256,192,58063,1,0,0:0:0:0:
329,192,58101,1,0,0:0:0:0:
402,192,58139,1,0,0:0:0:0:
109,192,58139,1,0,0:0:0:0:
36,192,58289,1,0,0:0:0:0:
182,192,58289,1,0,0:0:0:0:
329,192,58289,1,0,0:0:0:0:
475,192,58289,1,0,0:0:0:0:
256,192,58440,1,0,0:0:0:0:
402,192,58440,1,0,0:0:0:0:
36,192,58440,1,0,0:0:0:0:
36,192,58591,1,0,0:0:0:0:
182,192,58591,1,0,0:0:0:0:
256,192,58591,1,0,0:0:0:0:
475,192,58591,1,0,0:0:0:0:
402,192,58591,1,0,0:0:0:0:
182,192,58742,1,0,0:0:0:0:
36,192,58892,1,0,0:0:0:0:
109,192,58892,1,0,0:0:0:0:
256,192,58892,1,0,0:0:0:0:
402,192,58892,1,0,0:0:0:0:
475,192,58892,1,0,0:0:0:0:
329,192,59043,1,0,0:0:0:0:
36,192,59194,1,0,0:0:0:0:
182,192,59194,1,0,0:0:0:0:
256,192,59194,1,0,0:0:0:0:
402,192,59194,1,0,0:0:0:0:
475,192,59194,1,0,0:0:0:0:
256,192,59345,1,0,0:0:0:0:
36,192,59495,1,0,0:0:0:0:
182,192,59495,1,0,0:0:0:0:
329,192,59495,1,0,0:0:0:0:
475,192,59495,1,0,0:0:0:0:
36,192,59646,1,0,0:0:0:0:
256,192,59646,1,0,0:0:0:0:
402,192,59646,1,0,0:0:0:0:
36,192,59797,1,0,0:0:0:0:
182,192,59797,1,0,0:0:0:0:
256,192,59797,1,0,0:0:0:0:
402,192,59797,1,0,0:0:0:0:
475,192,59797,1,0,0:0:0:0:
109,192,59948,1,0,0:0:0:0:
256,192,60098,1,0,0:0:0:0:
36,192,60098,1,0,0:0:0:0:
329,192,60098,1,0,0:0:0:0:
475,192,60098,1,0,0:0:0:0:
402,192,60249,1,0,0:0:0:0:
402,192,60400,128,0,61003:0:0:0:0:
36,192,60400,1,0,0:0:0:0:
182,192,60400,1,0,0:0:0:0:
256,192,60400,1,0,0:0:0:0:
475,192,60400,1,0,0:0:0:0:
109,192,60702,128,0,61003:0:0:0:0:
36,192,60702,1,0,0:0:0:0:
256,192,60702,1,0,0:0:0:0:
329,192,60702,1,0,0:0:0:0:
475,192,60702,1,0,0:0:0:0:
36,192,61003,1,0,0:0:0:0:
182,192,61003,1,0,0:0:0:0:
475,192,61003,1,0,0:0:0:0:
256,192,61003,128,0,61606:0:0:0:0:
329,192,61003,1,0,0:0:0:0:
36,192,61154,1,0,0:0:0:0:
475,192,61154,1,0,0:0:0:0:
109,192,61229,1,0,0:0:0:0:
402,192,61229,1,0,0:0:0:0:
182,192,61305,1,0,0:0:0:0:
329,192,61305,1,0,0:0:0:0:
109,192,61380,1,0,0:0:0:0:
402,192,61380,1,0,0:0:0:0:
36,192,61455,1,0,0:0:0:0:
475,192,61455,1,0,0:0:0:0:
182,192,61531,1,0,0:0:0:0:
329,192,61531,1,0,0:0:0:0:
36,192,61606,1,0,0:0:0:0:
109,192,61606,1,0,0:0:0:0:
402,192,61606,1,0,0:0:0:0:
475,192,61606,1,0,0:0:0:0:
182,192,61908,1,0,0:0:0:0:
36,192,61908,1,0,0:0:0:0:
109,192,61908,1,0,0:0:0:0:
256,192,61908,1,0,0:0:0:0:
402,192,61908,1,0,0:0:0:0:
475,192,61908,1,0,0:0:0:0:
329,192,62058,1,0,0:0:0:0:
182,192,62058,1,0,0:0:0:0:
109,192,62209,1,0,0:0:0:0:
36,192,62209,1,0,0:0:0:0:
256,192,62209,1,0,0:0:0:0:
402,192,62209,1,0,0:0:0:0:
329,192,62209,1,0,0:0:0:0:
475,192,62209,1,0,0:0:0:0:
402,192,62360,1,0,0:0:0:0:
182,192,62360,1,0,0:0:0:0:
36,192,62511,1,0,0:0:0:0:
109,192,62511,1,0,0:0:0:0:
182,192,62511,1,0,0:0:0:0:
256,192,62511,1,0,0:0:0:0:
329,192,62511,1,0,0:0:0:0:
475,192,62511,1,0,0:0:0:0:
256,192,62661,1,0,0:0:0:0:
402,192,62661,1,0,0:0:0:0:
109,192,62812,1,0,0:0:0:0:
182,192,62812,1,0,0:0:0:0:
36,192,62812,1,0,0:0:0:0:
329,192,62812,1,0,0:0:0:0:
402,192,62812,1,0,0:0:0:0:
475,192,62812,1,0,0:0:0:0:
109,192,62963,1,0,0:0:0:0:
256,192,62963,1,0,0:0:0:0:
36,192,63114,1,0,0:0:0:0:
182,192,63114,1,0,0:0:0:0:
256,192,63114,1,0,0:0:0:0:
329,192,63114,1,0,0:0:0:0:
402,192,63114,1,0,0:0:0:0:
475,192,63114,1,0,0:0:0:0:
329,192,63264,1,0,0:0:0:0:
109,192,63264,1,0,0:0:0:0:
36,192,63415,1,0,0:0:0:0:
109,192,63415,1,0,0:0:0:0:
256,192,63415,1,0,0:0:0:0:
182,192,63415,1,0,0:0:0:0:
402,192,63415,1,0,0:0:0:0:
475,192,63415,1,0,0:0:0:0:
329,192,63566,1,0,0:0:0:0:
182,192,63566,1,0,0:0:0:0:
329,192,63717,1,0,0:0:0:0:
475,192,63717,1,0,0:0:0:0:
402,192,63717,1,0,0:0:0:0:
109,192,63717,128,0,63867:0:0:0:0:
36,192,63717,1,0,0:0:0:0:
256,192,63717,1,0,0:0:0:0:
182,192,63792,128,0,63943:0:0:0:0:
256,192,63867,128,0,64018:0:0:0:0:
402,192,63867,1,0,0:0:0:0:
329,192,63943,128,0,64018:0:0:0:0:
109,192,64018,1,0,0:0:0:0:
36,192,64018,1,0,0:0:0:0:
402,192,64018,1,0,0:0:0:0:
475,192,64018,1,0,0:0:0:0:
182,192,64018,1,0,0:0:0:0:
256,192,64169,1,0,0:0:0:0:
402,192,64169,1,0,0:0:0:0:
36,192,64320,1,0,0:0:0:0:
109,192,64320,1,0,0:0:0:0:
329,192,64320,1,0,0:0:0:0:
256,192,64320,1,0,0:0:0:0:
182,192,64320,1,0,0:0:0:0:
475,192,64320,1,0,0:0:0:0:
182,192,64470,1,0,0:0:0:0:
402,192,64470,1,0,0:0:0:0:
36,192,64621,1,0,0:0:0:0:
329,192,64621,1,0,0:0:0:0:
109,192,64621,1,0,0:0:0:0:
256,192,64621,1,0,0:0:0:0:
402,192,64621,1,0,0:0:0:0:
475,192,64621,1,0,0:0:0:0:
182,192,64772,1,0,0:0:0:0:
329,192,64772,1,0,0:0:0:0:
36,192,64923,1,0,0:0:0:0:
109,192,64923,1,0,0:0:0:0:
182,192,64923,1,0,0:0:0:0:
256,192,64923,1,0,0:0:0:0:
402,192,64923,1,0,0:0:0:0:
475,192,64923,1,0,0:0:0:0:
109,192,65073,1,0,0:0:0:0:
329,192,65073,1,0,0:0:0:0:
36,192,65224,1,0,0:0:0:0:
402,192,65224,1,0,0:0:0:0:
182,192,65224,1,0,0:0:0:0:
256,192,65224,1,0,0:0:0:0:
329,192,65224,1,0,0:0:0:0:
475,192,65224,1,0,0:0:0:0:
109,192,65375,1,0,0:0:0:0:
256,192,65375,1,0,0:0:0:0:
36,192,65526,1,0,0:0:0:0:
109,192,65526,1,0,0:0:0:0:
182,192,65526,1,0,0:0:0:0:
329,192,65526,1,0,0:0:0:0:
402,192,65526,1,0,0:0:0:0:
475,192,65526,1,0,0:0:0:0:
256,192,65676,1,0,0:0:0:0:
402,192,65676,1,0,0:0:0:0:
36,192,65827,1,0,0:0:0:0:
109,192,65827,1,0,0:0:0:0:
182,192,65827,1,0,0:0:0:0:
475,192,65903,1,0,0:0:0:0:
329,192,65903,1,0,0:0:0:0:
402,192,65903,1,0,0:0:0:0:
182,192,65978,1,0,0:0:0:0:
109,192,65978,1,0,0:0:0:0:
36,192,65978,1,0,0:0:0:0:
475,192,66053,1,0,0:0:0:0:
402,192,66053,1,0,0:0:0:0:
329,192,66053,1,0,0:0:0:0:
36,192,66129,1,0,0:0:0:0:
109,192,66129,1,0,0:0:0:0:
182,192,66129,1,0,0:0:0:0:
256,192,66279,1,0,0:0:0:0:
329,192,66317,1,0,0:0:0:0:
402,192,66355,1,0,0:0:0:0:
256,192,66392,1,0,0:0:0:0:
329,192,66430,1,0,0:0:0:0:
402,192,66468,1,0,0:0:0:0:
256,192,66506,1,0,0:0:0:0:
329,192,66543,1,0,0:0:0:0:
402,192,66581,1,0,0:0:0:0:
182,192,66732,1,0,0:0:0:0:
475,192,66732,1,0,0:0:0:0:
36,192,66732,1,0,0:0:0:0:
256,192,66732,1,0,0:0:0:0:
182,192,66882,1,0,0:0:0:0:
402,192,66882,1,0,0:0:0:0:
109,192,66882,1,0,0:0:0:0:
36,192,67033,1,0,0:0:0:0:
182,192,67033,128,0,67109:0:0:0:0:
329,192,67033,1,0,0:0:0:0:
475,192,67033,128,0,67109:0:0:0:0:
182,192,67184,128,0,67259:0:0:0:0:
475,192,67184,128,0,67259:0:0:0:0:
256,192,67335,1,0,0:0:0:0:
329,192,67335,1,0,0:0:0:0:
182,192,67335,1,0,0:0:0:0:
36,192,67335,1,0,0:0:0:0:
475,192,67335,1,0,0:0:0:0:
256,192,67485,1,0,0:0:0:0:
36,192,67485,1,0,0:0:0:0:
475,192,67485,1,0,0:0:0:0:
182,192,67523,1,0,0:0:0:0:
109,192,67561,1,0,0:0:0:0:
256,192,67598,1,0,0:0:0:0:
182,192,67636,1,0,0:0:0:0:
109,192,67674,1,0,0:0:0:0:
256,192,67712,1,0,0:0:0:0:
182,192,67749,1,0,0:0:0:0:
109,192,67787,1,0,0:0:0:0:
402,192,67787,1,0,0:0:0:0:
329,192,67938,1,0,0:0:0:0:
475,192,67938,1,0,0:0:0:0:
36,192,67938,1,0,0:0:0:0:
256,192,67938,1,0,0:0:0:0:
36,192,68088,1,0,0:0:0:0:
402,192,68088,1,0,0:0:0:0:
182,192,68088,1,0,0:0:0:0:
475,192,68239,1,0,0:0:0:0:
256,192,68239,1,0,0:0:0:0:
329,192,68239,1,0,0:0:0:0:
36,192,68239,1,0,0:0:0:0:
109,192,68239,1,0,0:0:0:0:
182,192,68390,1,0,0:0:0:0:
402,192,68541,1,0,0:0:0:0:
475,192,68541,1,0,0:0:0:0:
256,192,68541,1,0,0:0:0:0:
36,192,68541,1,0,0:0:0:0:
109,192,68541,1,0,0:0:0:0:
329,192,68691,1,0,0:0:0:0:
402,192,68842,1,0,0:0:0:0:
475,192,68842,1,0,0:0:0:0:
256,192,68842,1,0,0:0:0:0:
36,192,68842,1,0,0:0:0:0:
182,192,68842,1,0,0:0:0:0:
256,192,68993,1,0,0:0:0:0:
329,192,69144,1,0,0:0:0:0:
475,192,69144,1,0,0:0:0:0:
36,192,69144,1,0,0:0:0:0:
182,192,69144,1,0,0:0:0:0:
402,192,69294,1,0,0:0:0:0:
256,192,69294,1,0,0:0:0:0:
109,192,69294,1,0,0:0:0:0:
402,192,69445,1,0,0:0:0:0:
475,192,69445,1,0,0:0:0:0:
256,192,69445,1,0,0:0:0:0:
36,192,69445,1,0,0:0:0:0:
182,192,69445,1,0,0:0:0:0:
182,192,69596,1,0,0:0:0:0:
329,192,69747,1,0,0:0:0:0:
475,192,69747,1,0,0:0:0:0:
256,192,69747,1,0,0:0:0:0:
36,192,69747,1,0,0:0:0:0:
329,192,69897,1,0,0:0:0:0:
329,192,70048,1,0,0:0:0:0:
36,192,70048,1,0,0:0:0:0:
109,192,70048,1,0,0:0:0:0:
475,192,70048,1,0,0:0:0:0:
402,192,70048,1,0,0:0:0:0:
182,192,70124,1,0,0:0:0:0:
256,192,70199,1,0,0:0:0:0:
329,192,70274,1,0,0:0:0:0:
402,192,70350,1,0,0:0:0:0:
36,192,70350,1,0,0:0:0:0:
182,192,70350,1,0,0:0:0:0:
475,192,70350,1,0,0:0:0:0:
109,192,70350,1,0,0:0:0:0:
256,192,70425,1,0,0:0:0:0:
329,192,70501,1,0,0:0:0:0:
402,192,70576,1,0,0:0:0:0:
109,192,70651,1,0,0:0:0:0:
36,192,70651,1,0,0:0:0:0:
182,192,70651,1,0,0:0:0:0:
329,192,70727,1,0,0:0:0:0:
402,192,70727,1,0,0:0:0:0:
475,192,70727,1,0,0:0:0:0:
182,192,70802,1,0,0:0:0:0:
109,192,70802,1,0,0:0:0:0:
36,192,70802,1,0,0:0:0:0:
329,192,70877,1,0,0:0:0:0:
402,192,70877,1,0,0:0:0:0:
475,192,70877,1,0,0:0:0:0:
182,192,70953,1,0,0:0:0:0:
36,192,70953,1,0,0:0:0:0:
109,192,70953,1,0,0:0:0:0:
256,192,71104,1,0,0:0:0:0:
109,192,71254,1,0,0:0:0:0:
182,192,71254,1,0,0:0:0:0:
36,192,71254,1,0,0:0:0:0:
329,192,71254,1,0,0:0:0:0:
402,192,71254,1,0,0:0:0:0:
475,192,71254,1,0,0:0:0:0:
256,192,71707,128,0,71857:0:0:0:0:
402,192,71857,1,0,0:0:0:0:
329,192,71857,1,0,0:0:0:0:
475,192,71857,1,0,0:0:0:0:
109,192,71857,1,0,0:0:0:0:
36,192,71857,1,0,0:0:0:0:
182,192,71857,1,0,0:0:0:0:
256,192,72310,128,0,72460:0:0:0:0:
182,192,72460,1,0,0:0:0:0:
109,192,72460,1,0,0:0:0:0:
329,192,72460,1,0,0:0:0:0:
402,192,72460,1,0,0:0:0:0:
109,192,72611,1,0,0:0:0:0:
182,192,72611,1,0,0:0:0:0:
402,192,72611,1,0,0:0:0:0:
329,192,72611,1,0,0:0:0:0:
109,192,72762,1,0,0:0:0:0:
182,192,72762,1,0,0:0:0:0:
329,192,72762,1,0,0:0:0:0:
402,192,72762,1,0,0:0:0:0:
329,192,72913,1,0,0:0:0:0:
402,192,72913,1,0,0:0:0:0:
109,192,72913,1,0,0:0:0:0:
182,192,72913,1,0,0:0:0:0:
109,192,73063,1,0,0:0:0:0:
182,192,73063,1,0,0:0:0:0:
329,192,73063,1,0,0:0:0:0:
402,192,73063,1,0,0:0:0:0:
182,192,73365,1,0,0:0:0:0:
36,192,73365,1,0,0:0:0:0:
329,192,73365,1,0,0:0:0:0:
475,192,73365,1,0,0:0:0:0:
256,192,73365,1,0,0:0:0:0:
256,192,73516,128,0,73666:0:0:0:0:
182,192,73666,1,0,0:0:0:0:
109,192,73666,1,0,0:0:0:0:
36,192,73666,1,0,0:0:0:0:
329,192,73666,1,0,0:0:0:0:
402,192,73666,1,0,0:0:0:0:
475,192,73666,1,0,0:0:0:0:
256,192,74119,128,0,74269:0:0:0:0:
182,192,74269,1,0,0:0:0:0:
109,192,74269,1,0,0:0:0:0:
36,192,74269,1,0,0:0:0:0:
329,192,74269,1,0,0:0:0:0:
402,192,74269,1,0,0:0:0:0:
475,192,74269,1,0,0:0:0:0:
256,192,74722,128,0,74872:0:0:0:0:
402,192,74872,1,0,0:0:0:0:
475,192,74872,1,0,0:0:0:0:
109,192,74872,1,0,0:0:0:0:
36,192,74872,1,0,0:0:0:0:
475,192,75023,1,0,0:0:0:0:
109,192,75023,1,0,0:0:0:0:
36,192,75023,1,0,0:0:0:0:
402,192,75023,1,0,0:0:0:0:
36,192,75174,1,0,0:0:0:0:
402,192,75174,1,0,0:0:0:0:
475,192,75174,1,0,0:0:0:0:
109,192,75174,1,0,0:0:0:0:
475,192,75325,1,0,0:0:0:0:
109,192,75325,1,0,0:0:0:0:
36,192,75325,1,0,0:0:0:0:
402,192,75325,1,0,0:0:0:0:
36,192,75475,1,0,0:0:0:0:
402,192,75475,1,0,0:0:0:0:
475,192,75475,1,0,0:0:0:0:
109,192,75475,1,0,0:0:0:0:
256,192,75777,1,0,0:0:0:0:
182,192,75777,1,0,0:0:0:0:
36,192,75777,1,0,0:0:0:0:
329,192,75777,1,0,0:0:0:0:
475,192,75777,1,0,0:0:0:0:
256,192,75928,128,0,76078:0:0:0:0:
182,192,76078,1,0,0:0:0:0:
109,192,76078,1,0,0:0:0:0:
36,192,76078,1,0,0:0:0:0:
329,192,76078,1,0,0:0:0:0:
402,192,76078,1,0,0:0:0:0:
475,192,76078,1,0,0:0:0:0:
256,192,76531,128,0,76681:0:0:0:0:
329,192,76681,1,0,0:0:0:0:
475,192,76681,1,0,0:0:0:0:
109,192,76681,1,0,0:0:0:0:
36,192,76681,1,0,0:0:0:0:
182,192,76681,1,0,0:0:0:0:
402,192,76681,1,0,0:0:0:0:
256,192,77134,128,0,77284:0:0:0:0:
182,192,77284,1,0,0:0:0:0:
475,192,77284,1,0,0:0:0:0:
329,192,77284,1,0,0:0:0:0:
36,192,77284,1,0,0:0:0:0:
329,192,77435,1,0,0:0:0:0:
36,192,77435,1,0,0:0:0:0:
182,192,77435,1,0,0:0:0:0:
475,192,77435,1,0,0:0:0:0:
182,192,77586,1,0,0:0:0:0:
475,192,77586,1,0,0:0:0:0:
329,192,77586,1,0,0:0:0:0:
36,192,77586,1,0,0:0:0:0:
329,192,77737,1,0,0:0:0:0:
36,192,77737,1,0,0:0:0:0:
182,192,77737,1,0,0:0:0:0:
475,192,77737,1,0,0:0:0:0:
182,192,77887,128,0,79470:0:0:0:0:
36,192,77887,1,0,0:0:0:0:
329,192,77887,128,0,79546:0:0:0:0:
475,192,77887,1,0,0:0:0:0:
256,192,79696,1,0,0:0:0:0:
256,192,79998,1,0,0:0:0:0:
256,192,80300,1,0,0:0:0:0:
109,192,80582,1,0,0:0:0:0:
256,192,80601,1,0,0:0:0:0:
402,192,80620,1,0,0:0:0:0:
