osu file format v14

[General]
AudioFilename: audio.mp3
AudioLeadIn: 0
PreviewTime: 52223
Countdown: 0
SampleSet: Soft
StackLeniency: 0.7
Mode: 3
LetterboxInBreaks: 0
SpecialStyle: 0
WidescreenStoryboard: 1

[Editor]
DistanceSpacing: 1.5
BeatDivisor: 2
GridSize: 4
TimelineZoom: 1.1

[Metadata]
Title:Shinchoku Doudesu ka?
TitleUnicode:進捗どうですか?
Artist:Nanahira
ArtistUnicode:ななひら
Creator:Crystalys-
Version:Lunatic
Source:東方妖々夢 ~ Perfect Cherry Blossom.
Tags:Youyoumu はいぱぁ電波これくしょん! フリーダム★東方編 Hyper Denpa Collection! Freedom * Touhou hen 遠野幻想物語 gensou monogatari オンゲキ ongeki Touhou 7 IOSYS イオシス Confetto sumijun Halozy ZUN The Fantastic Legend of Touno Chen Electronic Video Rhythm Game Japanese Syadow- RiP46 angki
BeatmapID:2165726
BeatmapSetID:1035888

[Difficulty]
HPDrainRate:8
CircleSize:4
OverallDifficulty:8
ApproachRate:5
SliderMultiplier:1.4
SliderTickRate:1

[Events]
//Background and Video events
0,0,"LDiy.jpg",0,0
//Break Periods
//Storyboard Layer 0 (Background)
//Storyboard Layer 1 (Fail)
//Storyboard Layer 2 (Pass)
//Storyboard Layer 3 (Foreground)
//Storyboard Layer 4 (Overlay)
//Storyboard Sound Samples

[TimingPoints]
816,301.507537688442,4,2,1,40,1,0
52675,-100,4,2,1,40,0,1
57348,-100,4,2,1,40,0,0
62323,-100,4,2,1,40,0,1
66996,-100,4,2,1,40,0,0
75589,-100,4,2,1,40,0,1
80263,-100,4,2,1,40,0,0
85539,-100,4,2,1,40,0,1
89911,-100,4,2,1,40,0,0

[HitObjects]
64,192,816,128,2,1117:0:0:0:30:soft-hitwhistle.wav
192,192,816,128,0,1117:0:0:0:40:soft-hitfinish.wav
448,192,1117,1,0,0:0:0:50:LR_HiHat Synth Fast.wav
320,192,1268,128,0,1419:0:0:0:50:LR_HiHat Synth Fast.wav
192,192,1419,128,2,1720:0:0:0:30:soft-hitwhistle.wav
448,192,1419,128,0,1720:0:0:0:40:soft-hitfinish.wav
64,192,1720,1,0,0:0:0:50:LR_HiHat Synth Fast.wav
320,192,1871,128,0,2022:0:0:0:50:LR_HiHat Synth Fast.wav
64,192,2022,128,2,2172:0:0:0:30:soft-hitwhistle.wav
192,192,2022,128,0,2172:0:0:0:40:soft-hitfinish.wav
320,192,2172,128,2,2323:0:0:0:30:soft-hitwhistle.wav
448,192,2172,128,0,2323:0:0:0:40:soft-hitfinish.wav
64,192,2323,128,2,2474:0:0:0:30:soft-hitwhistle.wav
192,192,2323,128,0,2474:0:0:0:40:soft-hitfinish.wav
320,192,2474,128,2,2625:0:0:0:30:soft-hitwhistle.wav
448,192,2474,128,0,2625:0:0:0:40:soft-hitfinish.wav
64,192,2625,128,2,2926:0:0:0:30:soft-hitwhistle.wav
192,192,2625,128,0,2926:0:0:0:40:soft-hitfinish.wav
320,192,2926,1,0,0:0:0:30:soft-hitclaps.wav
448,192,2926,1,0,0:0:0:0:
192,192,3077,128,0,3228:0:0:0:50:LR_HiHat Synth Fast.wav
448,192,3228,128,0,3529:0:0:0:40:soft-hitfinish.wav
64,192,3228,1,0,0:0:0:0:
320,192,3529,1,0,0:0:0:50:LR_HiHat Synth Fast.wav
192,192,3680,128,0,3831:0:0:0:50:LR_HiHat Synth Fast.wav
64,192,3831,1,2,0:0:0:30:soft-hitwhistle.wav
448,192,3831,128,0,4132:0:0:0:0:
192,192,4132,1,0,0:0:0:50:LR_HiHat Synth Fast.wav
64,192,4283,128,0,4434:0:0:0:50:LR_HiHat Synth Fast.wav
320,192,4434,128,2,4584:0:0:0:30:soft-hitwhistle.wav
448,192,4434,128,0,4584:0:0:0:40:soft-hitfinish.wav
64,192,4584,128,2,4735:0:0:0:30:soft-hitwhistle.wav
192,192,4584,128,0,4735:0:0:0:40:soft-hitfinish.wav
320,192,4735,128,2,4886:0:0:0:30:soft-hitwhistle.wav
448,192,4735,128,0,4886:0:0:0:40:soft-hitfinish.wav
64,192,4886,128,2,5037:0:0:0:30:soft-hitwhistle.wav
192,192,4886,128,0,5037:0:0:0:40:soft-hitfinish.wav
320,192,5037,128,2,5187:0:0:0:30:soft-hitwhistle.wav
448,192,5037,128,0,5187:0:0:0:40:soft-hitfinish.wav
64,192,5187,1,0,0:0:0:40:LR5_DrumSnare Sn Dr Ws.wav
192,192,5263,1,0,0:0:0:40:LR5_DrumSnare Sn Dr Ws.wav
320,192,5338,1,0,0:0:0:40:LR5_DrumSnare Sn Dr Ws.wav
448,192,5338,1,0,0:0:0:0:
64,192,5413,1,0,0:0:0:40:LR5_DrumSnare Sn Dr Ws.wav
192,192,5413,1,0,0:0:0:0:
320,192,5489,1,0,0:0:0:40:LR5_DrumSnare Sn Dr Ws.wav
448,192,5489,1,0,0:0:0:0:
192,192,5564,1,0,0:0:0:40:LR5_DrumSnare Sn Dr Ws.wav
64,192,5640,1,2,0:0:0:30:soft-hitwhistle.wav
320,192,5640,1,0,0:0:0:40:LR_Ride FInish.wav
448,192,5640,1,0,0:0:0:0:
192,192,5790,1,0,0:0:0:50:LR_HiHat Synth Fast.wav
320,192,5866,1,0,0:0:0:0:
64,192,5941,1,0,0:0:0:40:LR5_DrumSnare Sn Dr Ws.wav
448,192,5941,1,0,0:0:0:0:
192,192,6017,1,0,0:0:0:0:
320,192,6092,1,0,0:0:0:50:LR_HiHat Synth Fast.wav
448,192,6167,1,0,0:0:0:0:
64,192,6243,1,2,0:0:0:30:soft-hitwhistle.wav
192,192,6243,1,0,0:0:0:0:
320,192,6318,1,0,0:0:0:0:
448,192,6393,1,0,0:0:0:50:LR_HiHat Synth Fast.wav
192,192,6469,1,0,0:0:0:0:
64,192,6544,1,0,0:0:0:40:LR5_DrumSnare Sn Dr Ws.wav
320,192,6544,1,0,0:0:0:0:
448,192,6620,1,0,0:0:0:0:
64,192,6695,1,0,0:0:0:50:LR_HiHat Synth Fast.wav
192,192,6770,1,0,0:0:0:0:
320,192,6846,1,2,0:0:0:30:soft-hitwhistle.wav
448,192,6846,1,0,0:0:0:0:
64,192,6921,1,0,0:0:0:0:
192,192,6996,1,0,0:0:0:50:LR_HiHat Synth Fast.wav
320,192,7072,1,0,0:0:0:0:
192,192,7147,1,0,0:0:0:40:LR5_DrumSnare Sn Dr Ws.wav
448,192,7147,1,0,0:0:0:0:
64,192,7223,1,0,0:0:0:0:
448,192,7298,1,0,0:0:0:50:LR_HiHat Synth Fast.wav
320,192,7373,1,0,0:0:0:0:
64,192,7449,1,2,0:0:0:30:soft-hitwhistle.wav
192,192,7449,1,0,0:0:0:0:
448,192,7524,1,0,0:0:0:0:
64,192,7599,1,0,0:0:0:40:LR5_DrumSnare Sn Dr Ws.wav
320,192,7599,1,0,0:0:0:0:
192,192,7675,1,0,0:0:0:0:
320,192,7750,1,0,0:0:0:40:LR5_DrumSnare Sn Dr Ws.wav
448,192,7750,1,0,0:0:0:0:
192,192,7826,1,0,0:0:0:0:
64,192,7901,1,0,0:0:0:50:LR_HiHat Synth Fast.wav
320,192,7976,1,0,0:0:0:0:
192,192,8052,1,2,0:0:0:30:soft-hitwhistle.wav
448,192,8052,1,0,0:0:0:0:
64,192,8127,1,0,0:0:0:0:
320,192,8202,1,0,0:0:0:50:LR_HiHat Synth Fast.wav
192,192,8278,1,0,0:0:0:0:
64,192,8353,1,0,0:0:0:40:LR5_DrumSnare Sn Dr Ws.wav
448,192,8353,1,0,0:0:0:0:
320,192,8429,1,0,0:0:0:0:
192,192,8504,1,0,0:0:0:50:LR_HiHat Synth Fast.wav
64,192,8579,1,0,0:0:0:0:
320,192,8655,1,2,0:0:0:30:soft-hitwhistle.wav
448,192,8655,1,0,0:0:0:0:
64,192,8730,1,0,0:0:0:0:
192,192,8805,1,0,0:0:0:50:LR_HiHat Synth Fast.wav
320,192,8881,1,0,0:0:0:0:
192,192,8956,1,0,0:0:0:40:LR5_DrumSnare Sn Dr Ws.wav
448,192,8956,1,0,0:0:0:0:
64,192,9032,1,0,0:0:0:0:
320,192,9107,1,0,0:0:0:50:LR_HiHat Synth Fast.wav
192,192,9182,1,0,0:0:0:0:
64,192,9258,1,2,0:0:0:30:soft-hitwhistle.wav
448,192,9258,1,0,0:0:0:0:
320,192,9333,1,0,0:0:0:0:
192,192,9408,1,0,0:0:0:50:LR_HiHat Synth Fast.wav
64,192,9484,1,0,0:0:0:0:
320,192,9559,1,0,0:0:0:40:LR5_DrumSnare Sn Dr Ws.wav
448,192,9559,1,0,0:0:0:0:
64,192,9635,1,0,0:0:0:0:
320,192,9710,1,0,0:0:0:50:LR_HiHat Synth Fast.wav
192,192,9785,1,0,0:0:0:0:
64,192,9861,1,2,0:0:0:30:soft-hitwhistle.wav
448,192,9861,1,0,0:0:0:0:
320,192,9936,1,0,0:0:0:0:
64,192,10011,1,0,0:0:0:40:LR5_DrumSnare Sn Dr Ws.wav
192,192,10011,1,0,0:0:0:0:
320,192,10087,1,0,0:0:0:40:LR5_DrumSnare Sn Dr Ws.wav
448,192,10087,1,0,0:0:0:0:
64,192,10162,1,2,0:0:0:30:soft-hitwhistle.wav
192,192,10162,1,0,0:0:0:0:
448,192,10238,1,0,0:0:0:0:
192,192,10313,1,2,0:0:0:30:soft-hitwhistle.wav
320,192,10313,1,0,0:0:0:40:LR_Ride FInish.wav
64,192,10388,1,0,0:0:0:0:
448,192,10464,1,0,0:0:0:0:
320,192,10539,1,0,0:0:0:0:
64,192,10614,1,0,0:0:0:50:LR_HiHat Synth Fast.wav
192,192,10690,1,0,0:0:0:0:
320,192,10765,1,0,0:0:0:40:LR5_DrumSnare Sn Dr Ws.wav
448,192,10765,1,0,0:0:0:0:
192,192,10841,1,0,0:0:0:0:
64,192,10916,1,0,0:0:0:50:LR_HiHat Synth Fast.wav
448,192,10991,1,0,0:0:0:0:
192,192,11067,1,2,0:0:0:30:soft-hitwhistle.wav
320,192,11067,1,0,0:0:0:0:
64,192,11142,1,0,0:0:0:0:
320,192,11218,1,0,0:0:0:50:LR_HiHat Synth Fast.wav
448,192,11293,1,0,0:0:0:0:
64,192,11368,1,0,0:0:0:40:LR5_DrumSnare Sn Dr Ws.wav
192,192,11368,1,0,0:0:0:0:
320,192,11444,1,0,0:0:0:0:
448,192,11519,1,0,0:0:0:50:LR_HiHat Synth Fast.wav
192,192,11594,1,0,0:0:0:0:
64,192,11670,1,2,0:0:0:30:soft-hitwhistle.wav
320,192,11670,1,0,0:0:0:0:
448,192,11745,1,0,0:0:0:0:
64,192,11821,1,0,0:0:0:50:LR_HiHat Synth Fast.wav
192,192,11896,1,0,0:0:0:0:
320,192,11971,1,0,0:0:0:40:LR5_DrumSnare Sn Dr Ws.wav
448,192,11971,1,0,0:0:0:0:
64,192,12047,1,0,0:0:0:0:
192,192,12122,1,0,0:0:0:50:LR_HiHat Synth Fast.wav
320,192,12197,1,0,0:0:0:0:
64,192,12273,1,2,0:0:0:30:soft-hitwhistle.wav
448,192,12273,1,0,0:0:0:0:
192,192,12348,1,0,0:0:0:0:
320,192,12424,1,0,0:0:0:40:LR5_DrumSnare Sn Dr Ws.wav
448,192,12424,1,0,0:0:0:0:
64,192,12499,1,0,0:0:0:0:
192,192,12574,1,0,0:0:0:40:LR5_DrumSnare Sn Dr Ws.wav
320,192,12574,1,0,0:0:0:0:
448,192,12650,1,0,0:0:0:0:
64,192,12725,1,0,0:0:0:50:LR_HiHat Synth Fast.wav
192,192,12800,1,0,0:0:0:0:
320,192,12876,1,2,0:0:0:30:soft-hitwhistle.wav
448,192,12876,1,0,0:0:0:0:
64,192,12951,1,0,0:0:0:0:
448,192,13027,1,0,0:0:0:50:LR_HiHat Synth Fast.wav
320,192,13102,1,0,0:0:0:0:
64,192,13177,1,0,0:0:0:40:LR5_DrumSnare Sn Dr Ws.wav
192,192,13177,1,0,0:0:0:0:
448,192,13253,1,0,0:0:0:0:
320,192,13328,1,0,0:0:0:50:LR_HiHat Synth Fast.wav
192,192,13403,1,0,0:0:0:0:
64,192,13479,1,2,0:0:0:30:soft-hitwhistle.wav
448,192,13479,1,0,0:0:0:0:
320,192,13554,1,0,0:0:0:0:
192,192,13630,1,0,0:0:0:50:LR_HiHat Synth Fast.wav
64,192,13705,1,0,0:0:0:0:
320,192,13780,1,0,0:0:0:40:LR5_DrumSnare Sn Dr Ws.wav
448,192,13780,1,0,0:0:0:0:
64,192,13856,1,0,0:0:0:0:
192,192,13931,1,0,0:0:0:50:LR_HiHat Synth Fast.wav
320,192,14006,1,0,0:0:0:0:
64,192,14082,128,0,14233:0:0:0:30:soft-hitwhistle.wav
448,192,14082,128,0,14233:0:0:0:40:soft-hitfinish.wav
192,192,14233,128,0,14383:0:0:0:30:soft-hitwhistle.wav
320,192,14233,128,0,14383:0:0:0:40:soft-hitfinish.wav
64,192,14383,128,0,14534:0:0:0:30:soft-hitwhistle.wav
448,192,14383,128,0,14534:0:0:0:40:soft-hitfinish.wav
192,192,14534,128,0,14685:0:0:0:30:soft-hitwhistle.wav
320,192,14534,128,0,14685:0:0:0:40:soft-hitfinish.wav
64,192,14685,128,0,14986:0:0:0:30:soft-hitwhistle.wav
448,192,14685,128,0,14986:0:0:0:40:soft-hitfinish.wav
192,192,14986,1,0,0:0:0:40:soft-hitclaps.wav
320,192,14986,1,0,0:0:0:0:
192,192,15288,1,0,0:0:0:40:LR_Drum Rim Fast.wav
192,192,15589,1,0,0:0:0:40:LR_Drum Rim Fast.wav
192,192,15891,1,0,0:0:0:40:LR_Drum Rim Fast.wav
320,192,16042,1,2,0:0:0:30:soft-hitwhistle.wav
448,192,16042,1,0,0:0:0:0:
64,192,16192,1,0,0:0:0:40:LR5_DrumSnare Sn Dr Ws.wav
192,192,16192,128,0,16494:0:0:0:0:
448,192,16192,1,0,0:0:0:0:
64,192,16494,1,2,0:0:0:30:soft-hitwhistle.wav
320,192,16494,1,0,0:0:0:40:LR_Ride FInish.wav
448,192,16494,1,0,0:0:0:0:
320,192,16645,1,0,0:0:0:50:LR_HiHat Synth Fast.wav
64,192,16795,1,0,0:0:0:40:LR5_DrumSnare Sn Dr Ws.wav
192,192,16795,1,0,0:0:0:0:
448,192,16795,1,0,0:0:0:0:
192,192,16946,1,0,0:0:0:50:LR_HiHat Synth Fast.wav
320,192,17097,1,2,0:0:0:30:soft-hitwhistle.wav
448,192,17097,1,0,0:0:0:0:
192,192,17248,1,2,0:0:0:30:soft-hitwhistle.wav
320,192,17248,1,0,0:0:0:0:
64,192,17398,1,0,0:0:0:40:LR5_DrumSnare Sn Dr Ws.wav
192,192,17398,1,0,0:0:0:0:
448,192,17398,1,0,0:0:0:0:
320,192,17549,1,0,0:0:0:50:LR_HiHat Synth Fast.wav
64,192,17700,1,2,0:0:0:30:soft-hitwhistle.wav
192,192,17700,1,0,0:0:0:0:
320,192,17851,1,0,0:0:0:50:LR_HiHat Synth Fast.wav
64,192,18001,1,0,0:0:0:40:LR5_DrumSnare Sn Dr Ws.wav
192,192,18001,1,0,0:0:0:0:
448,192,18001,1,0,0:0:0:0:
192,192,18152,1,0,0:0:0:50:LR_HiHat Synth Fast.wav
320,192,18303,1,2,0:0:0:30:soft-hitwhistle.wav
448,192,18303,1,0,0:0:0:0:
64,192,18454,1,2,0:0:0:30:soft-hitwhistle.wav
192,192,18454,1,0,0:0:0:0:
64,192,18604,1,0,0:0:0:40:LR5_DrumSnare Sn Dr Ws.wav
320,192,18604,1,0,0:0:0:0:
448,192,18604,1,0,0:0:0:0:
192,192,18755,1,0,0:0:0:50:LR_HiHat Synth Fast.wav
64,192,18906,1,2,0:0:0:30:soft-hitwhistle.wav
448,192,18906,1,0,0:0:0:0:
192,192,19057,1,0,0:0:0:50:LR_HiHat Synth Fast.wav
64,192,19207,1,0,0:0:0:40:LR5_DrumSnare Sn Dr Ws.wav
320,192,19207,1,0,0:0:0:0:
448,192,19207,1,0,0:0:0:0:
320,192,19358,1,0,0:0:0:50:LR_HiHat Synth Fast.wav
192,192,19509,1,2,0:0:0:30:soft-hitwhistle.wav
448,192,19509,1,0,0:0:0:0:
64,192,19660,1,2,0:0:0:30:soft-hitwhistle.wav
320,192,19660,1,0,0:0:0:0:
64,192,19810,1,0,0:0:0:40:LR5_DrumSnare Sn Dr Ws.wav
192,192,19810,1,0,0:0:0:0:
448,192,19810,1,0,0:0:0:0:
320,192,19961,128,0,20112:0:0:0:50:LR_HiHat Synth Fast.wav
192,192,20112,1,2,0:0:0:30:soft-hitwhistle.wav
448,192,20112,1,0,0:0:0:0:
64,192,20263,128,0,20413:0:0:0:50:LR_HiHat Synth Fast.wav
192,192,20413,1,0,0:0:0:40:LR5_DrumSnare Sn Dr Ws.wav
448,192,20413,1,0,0:0:0:0:
320,192,20413,1,0,0:0:0:0:
64,192,20564,128,2,20715:0:0:0:30:soft-hitwhistle.wav
320,192,20564,1,0,0:0:0:0:
192,192,20715,128,0,20866:0:0:0:50:LR_HiHat Synth Fast.wav
320,192,20866,1,2,0:0:0:30:soft-hitwhistle.wav
448,192,20866,1,0,0:0:0:0:
64,192,21017,128,0,21318:0:0:0:40:LR5_DrumSnare Sn Dr Ws.wav
320,192,21017,1,0,0:0:0:0:
448,192,21017,1,0,0:0:0:0:
192,192,21318,1,2,0:0:0:30:soft-hitwhistle.wav
448,192,21318,1,0,0:0:0:0:
320,192,21469,1,0,0:0:0:50:LR_HiHat Synth Fast.wav
64,192,21620,1,0,0:0:0:40:LR5_DrumSnare Sn Dr Ws.wav
192,192,21620,1,0,0:0:0:0:
448,192,21620,1,0,0:0:0:0:
64,192,21770,1,0,0:0:0:50:LR_HiHat Synth Fast.wav
192,192,21921,1,2,0:0:0:30:soft-hitwhistle.wav
320,192,21921,1,0,0:0:0:0:
64,192,22072,1,2,0:0:0:30:soft-hitwhistle.wav
448,192,22072,1,0,0:0:0:0:
192,192,22223,1,0,0:0:0:40:LR5_DrumSnare Sn Dr Ws.wav
320,192,22223,1,0,0:0:0:0:
448,192,22223,1,0,0:0:0:0:
64,192,22373,1,0,0:0:0:50:LR_HiHat Synth Fast.wav
192,192,22524,1,2,0:0:0:30:soft-hitwhistle.wav
448,192,22524,1,0,0:0:0:0:
320,192,22675,1,0,0:0:0:50:LR_HiHat Synth Fast.wav
64,192,22826,1,0,0:0:0:40:LR5_DrumSnare Sn Dr Ws.wav
192,192,22826,1,0,0:0:0:0:
448,192,22826,1,0,0:0:0:0:
192,192,22976,1,0,0:0:0:50:LR_HiHat Synth Fast.wav
320,192,23127,1,2,0:0:0:30:soft-hitwhistle.wav
448,192,23127,1,0,0:0:0:0:
64,192,23278,1,2,0:0:0:30:soft-hitwhistle.wav
192,192,23278,1,0,0:0:0:0:
64,192,23429,1,0,0:0:0:40:LR5_DrumSnare Sn Dr Ws.wav
320,192,23429,1,0,0:0:0:0:
448,192,23429,1,0,0:0:0:0:
448,192,23579,1,0,0:0:0:50:LR_HiHat Synth Fast.wav
64,192,23730,1,2,0:0:0:30:soft-hitwhistle.wav
320,192,23730,1,0,0:0:0:0:
192,192,23881,1,0,0:0:0:50:LR_HiHat Synth Fast.wav
64,192,24032,1,0,0:0:0:40:LR5_DrumSnare Sn Dr Ws.wav
320,192,24032,1,0,0:0:0:0:
448,192,24032,1,0,0:0:0:0:
448,192,24182,1,0,0:0:0:50:LR_HiHat Synth Fast.wav
64,192,24333,1,2,0:0:0:30:soft-hitwhistle.wav
320,192,24333,1,0,0:0:0:0:
64,192,24484,1,2,0:0:0:30:soft-hitwhistle.wav
192,192,24484,1,0,0:0:0:0:
192,192,24635,1,0,0:0:0:40:LR5_DrumSnare Sn Dr Ws.wav
320,192,24635,1,0,0:0:0:0:
448,192,24635,1,0,0:0:0:0:
320,192,24785,1,0,0:0:0:50:LR_HiHat Synth Fast.wav
64,192,24936,1,2,0:0:0:30:soft-hitwhistle.wav
192,192,24936,1,0,0:0:0:0:
320,192,25087,1,2,0:0:0:30:soft-hitwhistle.wav
448,192,25087,1,0,0:0:0:0:
192,192,25238,1,2,0:0:0:30:soft-hitwhistle.wav
320,192,25238,1,0,0:0:0:0:
64,192,25388,1,2,0:0:0:30:soft-hitwhistle.wav
192,192,25388,1,0,0:0:0:0:
320,192,25539,1,2,0:0:0:30:soft-hitwhistle.wav
448,192,25539,128,0,25841:0:0:0:0:
64,192,25841,128,0,26142:0:0:0:40:soft-hitclaps.wav
192,192,25841,1,0,0:0:0:0:
320,192,25841,1,0,0:0:0:0:
192,192,26142,1,2,0:0:0:30:soft-hitwhistle.wav
320,192,26142,1,0,0:0:0:40:LR_Ride FInish.wav
448,192,26142,1,0,0:0:0:0:
192,192,26293,1,0,0:0:0:50:LR_HiHat Synth Fast.wav
64,192,26444,1,0,0:0:0:40:LR5_DrumSnare Sn Dr Ws.wav
320,192,26444,1,0,0:0:0:0:
448,192,26444,1,0,0:0:0:0:
320,192,26594,1,0,0:0:0:50:LR_HiHat Synth Fast.wav
64,192,26745,1,2,0:0:0:30:soft-hitwhistle.wav
192,192,26745,1,0,0:0:0:0:
192,192,26896,1,2,0:0:0:30:soft-hitwhistle.wav
320,192,26896,1,0,0:0:0:0:
64,192,27047,1,0,0:0:0:40:LR5_DrumSnare Sn Dr Ws.wav
320,192,27047,1,0,0:0:0:0:
448,192,27047,1,0,0:0:0:0:
64,192,27197,1,0,0:0:0:50:LR_HiHat Synth Fast.wav
320,192,27348,1,2,0:0:0:30:soft-hitwhistle.wav
448,192,27348,1,0,0:0:0:0:
192,192,27499,1,0,0:0:0:50:LR_HiHat Synth Fast.wav
64,192,27650,1,0,0:0:0:40:LR5_DrumSnare Sn Dr Ws.wav
320,192,27650,1,0,0:0:0:0:
448,192,27650,1,0,0:0:0:0:
320,192,27800,1,0,0:0:0:50:LR_HiHat Synth Fast.wav
64,192,27951,1,2,0:0:0:30:soft-hitwhistle.wav
192,192,27951,1,0,0:0:0:0:
320,192,28102,1,2,0:0:0:30:soft-hitwhistle.wav
448,192,28102,1,0,0:0:0:0:
64,192,28253,1,0,0:0:0:40:LR5_DrumSnare Sn Dr Ws.wav
192,192,28253,1,0,0:0:0:0:
448,192,28253,1,0,0:0:0:0:
192,192,28403,1,0,0:0:0:50:LR_HiHat Synth Fast.wav
192,192,28554,1,2,0:0:0:30:soft-hitwhistle.wav
448,192,28554,1,0,0:0:0:0:
64,192,28705,1,0,0:0:0:50:LR_HiHat Synth Fast.wav
64,192,28856,1,0,0:0:0:40:LR5_DrumSnare Sn Dr Ws.wav
320,192,28856,1,0,0:0:0:0:
448,192,28856,1,0,0:0:0:0:
448,192,29006,1,0,0:0:0:50:LR_HiHat Synth Fast.wav
64,192,29157,1,2,0:0:0:30:soft-hitwhistle.wav
320,192,29157,1,0,0:0:0:0:
192,192,29308,1,2,0:0:0:30:soft-hitwhistle.wav
448,192,29308,1,0,0:0:0:0:
64,192,29459,1,0,0:0:0:40:LR5_DrumSnare Sn Dr Ws.wav
320,192,29459,1,0,0:0:0:0:
448,192,29459,1,0,0:0:0:0:
192,192,29609,128,0,29760:0:0:0:50:LR_HiHat Synth Fast.wav
64,192,29760,1,2,0:0:0:30:soft-hitwhistle.wav
320,192,29760,1,0,0:0:0:0:
448,192,29911,128,0,30062:0:0:0:50:LR_HiHat Synth Fast.wav
64,192,30062,1,0,0:0:0:40:LR5_DrumSnare Sn Dr Ws.wav
192,192,30062,1,0,0:0:0:0:
192,192,30212,128,2,30363:0:0:0:30:soft-hitwhistle.wav
320,192,30212,1,0,0:0:0:0:
448,192,30363,128,0,30514:0:0:0:50:LR_HiHat Synth Fast.wav
64,192,30514,1,2,0:0:0:30:soft-hitwhistle.wav
320,192,30514,1,0,0:0:0:0:
64,192,30665,1,0,0:0:0:40:LR5_DrumSnare Sn Dr Ws.wav
192,192,30665,128,0,30966:0:0:0:40:soft-hitfinish.wav
448,192,30665,1,0,0:0:0:0:
64,192,30966,1,2,0:0:0:30:soft-hitwhistle.wav
320,192,30966,1,0,0:0:0:40:soft-hitfinish.wav
448,192,30966,1,0,0:0:0:0:
192,192,31117,1,0,0:0:0:50:LR_HiHat Synth Fast.wav
64,192,31268,1,0,0:0:0:40:LR5_DrumSnare Sn Dr Ws.wav
320,192,31268,1,0,0:0:0:0:
448,192,31268,1,0,0:0:0:0:
448,192,31419,1,0,0:0:0:50:LR_HiHat Synth Fast.wav
192,192,31569,1,2,0:0:0:30:soft-hitwhistle.wav
320,192,31569,1,0,0:0:0:0:
64,192,31720,1,2,0:0:0:30:soft-hitwhistle.wav
448,192,31720,1,0,0:0:0:0:
64,192,31871,1,0,0:0:0:40:LR5_DrumSnare Sn Dr Ws.wav
192,192,31871,1,0,0:0:0:0:
320,192,31871,1,0,0:0:0:0:
320,192,32022,1,0,0:0:0:50:LR_HiHat Synth Fast.wav
64,192,32172,1,2,0:0:0:30:soft-hitwhistle.wav
448,192,32172,1,0,0:0:0:0:
192,192,32323,1,0,0:0:0:50:LR_HiHat Synth Fast.wav
64,192,32474,1,0,0:0:0:40:LR5_DrumSnare Sn Dr Ws.wav
320,192,32474,1,0,0:0:0:0:
448,192,32474,1,0,0:0:0:0:
320,192,32625,1,0,0:0:0:50:LR_HiHat Synth Fast.wav
64,192,32775,1,2,0:0:0:30:soft-hitwhistle.wav
192,192,32775,1,0,0:0:0:0:
320,192,32926,1,2,0:0:0:30:soft-hitwhistle.wav
448,192,32926,1,0,0:0:0:0:
64,192,33077,1,0,0:0:0:40:LR5_DrumSnare Sn Dr Ws.wav
192,192,33077,1,0,0:0:0:0:
448,192,33077,1,0,0:0:0:0:
192,192,33228,1,0,0:0:0:50:LR_HiHat Synth Fast.wav
192,192,33378,1,2,0:0:0:30:soft-hitwhistle.wav
448,192,33378,1,0,0:0:0:0:
320,192,33529,1,0,0:0:0:50:LR_HiHat Synth Fast.wav
64,192,33680,1,0,0:0:0:40:LR5_DrumSnare Sn Dr Ws.wav
192,192,33680,1,0,0:0:0:0:
448,192,33680,1,0,0:0:0:0:
64,192,33831,1,2,0:0:0:30:soft-hitwhistle.wav
320,192,33831,1,0,0:0:0:0:
192,192,33981,1,2,0:0:0:30:soft-hitwhistle.wav
448,192,33981,1,0,0:0:0:0:
320,192,34132,1,0,0:0:0:50:LR_HiHat Synth Fast.wav
64,192,34283,1,0,0:0:0:40:LR5_DrumSnare Sn Dr Ws.wav
192,192,34283,1,0,0:0:0:0:
448,192,34283,1,0,0:0:0:0:
192,192,34434,1,2,0:0:0:30:soft-hitwhistle.wav
320,192,34434,1,0,0:0:0:0:
448,192,34584,1,0,0:0:0:50:LR_HiHat Synth Fast.wav
64,192,34735,1,2,0:0:0:30:soft-hitwhistle.wav
192,192,34735,1,0,0:0:0:0:
64,192,34886,1,0,0:0:0:40:LR5_DrumSnare Sn Dr Ws.wav
320,192,34886,1,0,0:0:0:0:
448,192,34886,1,0,0:0:0:0:
192,192,35037,1,2,0:0:0:30:soft-hitwhistle.wav
320,192,35037,1,0,0:0:0:0:
64,192,35187,128,2,35489:0:0:0:30:soft-hitwhistle.wav
448,192,35187,1,0,0:0:0:0:
320,192,35489,1,0,0:0:0:40:soft-hitclaps.wav
448,192,35489,128,0,35790:0:0:0:0:
64,192,35790,128,2,36092:0:0:0:30:soft-hitwhistle.wav
192,192,35790,1,0,0:0:0:40:LR_Ride FInish.wav
320,192,35790,1,0,0:0:0:0:
320,192,36092,128,0,36393:0:0:0:0:
64,192,36393,1,0,0:0:0:40:LR5_DrumSnare Sn Dr Ws.wav
192,192,36393,1,0,0:0:0:0:
320,192,36544,1,0,0:0:0:40:LR5_DrumSnare Sn Dr Ws.wav
448,192,36544,1,0,0:0:0:0:
192,192,36695,1,2,0:0:0:30:soft-hitwhistle.wav
320,192,36695,1,0,0:0:0:0:
64,192,36846,128,0,37298:0:0:0:40:LR5_DrumSnare Sn Dr Ws.wav
192,192,36846,1,0,0:0:0:40:soft-hitfinish.wav
448,192,36846,1,0,0:0:0:0:
320,192,37298,128,2,37599:0:0:0:30:soft-hitwhistle.wav
448,192,37298,1,0,0:0:0:0:
64,192,37599,1,0,0:0:0:40:LR5_DrumSnare Sn Dr Ws.wav
192,192,37599,1,0,0:0:0:40:soft-hitfinish.wav
448,192,37599,128,0,37901:0:0:0:0:
64,192,37750,1,2,0:0:0:30:soft-hitwhistle.wav
192,192,37750,1,0,0:0:0:0:
64,192,37901,128,2,38202:0:0:0:30:soft-hitwhistle.wav
320,192,37901,1,0,0:0:0:0:
192,192,38202,1,2,0:0:0:30:soft-hitwhistle.wav
448,192,38202,128,0,38504:0:0:0:40:soft-hitfinish.wav
64,192,38504,1,0,0:0:0:40:LR5_DrumSnare Sn Dr Ws.wav
320,192,38504,1,0,0:0:0:0:
64,192,38655,128,0,38956:0:0:0:40:soft-hitfinish.wav
192,192,38655,1,0,0:0:0:0:
448,192,38655,1,0,0:0:0:0:
320,192,38956,1,0,0:0:0:40:LR5_DrumSnare Sn Dr Ws.wav
448,192,38956,1,0,0:0:0:0:
64,192,39032,1,0,0:0:0:40:LR5_DrumSnare Sn Dr Ws.wav
192,192,39032,1,0,0:0:0:0:
320,192,39107,1,0,0:0:0:40:LR5_DrumSnare Sn Dr Ws.wav
448,192,39107,1,0,0:0:0:0:
64,192,39258,1,2,0:0:0:30:soft-hitwhistle.wav
192,192,39258,128,0,39559:0:0:0:40:soft-hitfinish.wav
448,192,39258,1,0,0:0:0:0:
320,192,39559,1,0,0:0:0:40:LR5_DrumSnare Sn Dr Ws.wav
448,192,39559,1,0,0:0:0:0:
64,192,39635,1,0,0:0:0:40:LR5_DrumSnare Sn Dr Ws.wav
192,192,39635,1,0,0:0:0:0:
320,192,39710,1,0,0:0:0:40:LR5_DrumSnare Sn Dr Ws.wav
448,192,39710,1,0,0:0:0:0:
320,192,39861,1,0,0:0:0:40:LR5_DrumSnare Sn Dr Ws.wav
448,192,39861,1,0,0:0:0:0:
64,192,40011,1,0,0:0:0:40:LR5_DrumSnare Sn Dr Ws.wav
192,192,40011,1,0,0:0:0:0:
192,192,40162,1,0,0:0:0:40:LR5_DrumSnare Sn Dr Ws.wav
320,192,40162,1,0,0:0:0:0:
64,192,40313,1,0,0:0:0:40:LR5_DrumSnare Sn Dr Ws.wav
320,192,40313,1,0,0:0:0:0:
192,192,40464,1,0,0:0:0:40:LR5_DrumSnare Sn Dr Ws.wav
448,192,40464,1,0,0:0:0:0:
64,192,40614,128,2,40916:0:0:0:30:soft-hitwhistle.wav
320,192,40614,1,0,0:0:0:40:LR_Ride FInish.wav
448,192,40614,1,0,0:0:0:0:
192,192,40916,128,0,41218:0:0:0:50:LR_HiHat Synth Fast.wav
320,192,41218,1,0,0:0:0:40:LR5_DrumSnare Sn Dr Ws.wav
448,192,41218,1,0,0:0:0:0:
320,192,41368,1,0,0:0:0:40:LR5_DrumSnare Sn Dr Ws.wav
448,192,41368,1,0,0:0:0:0:
64,192,41519,1,2,0:0:0:30:soft-hitwhistle.wav
192,192,41519,1,0,0:0:0:0:
64,192,41670,1,2,0:0:0:30:soft-hitwhistle.wav
320,192,41670,1,0,0:0:0:40:LR5_DrumSnare Sn Dr Ws.wav
448,192,41670,128,0,42122:0:0:0:40:soft-hitfinish.wav
64,192,42122,1,2,0:0:0:30:soft-hitwhistle.wav
192,192,42122,128,0,42424:0:0:0:0:
64,192,42424,1,0,0:0:0:40:LR5_DrumSnare Sn Dr Ws.wav
320,192,42424,1,0,0:0:0:40:soft-hitfinish.wav
448,192,42424,1,0,0:0:0:0:
64,192,42574,1,0,0:0:0:40:LR5_DrumSnare Sn Dr Ws.wav
192,192,42574,1,0,0:0:0:0:
320,192,42725,1,2,0:0:0:30:soft-hitwhistle.wav
448,192,42725,128,0,43027:0:0:0:0:
64,192,43027,1,0,0:0:0:0:
320,192,43027,128,0,43780:0:0:0:0:
192,192,43328,128,0,43780:0:0:0:0:
64,192,43479,128,0,43780:0:0:0:0:
448,192,43780,128,0,44233:0:0:0:0:
320,192,44233,128,0,44986:0:0:0:0:
192,192,44534,128,0,44986:0:0:0:0:
448,192,44685,128,0,44986:0:0:0:0:
64,192,44986,128,0,45439:0:0:0:0:
320,192,45439,128,0,46192:0:0:0:0:
448,192,45740,128,0,46192:0:0:0:0:
64,192,45891,128,0,46192:0:0:0:0:
192,192,46192,128,0,46494:0:0:0:0:
64,192,46494,128,0,46645:0:0:0:0:
320,192,46645,128,0,47248:0:0:0:0:
192,192,46946,128,0,47248:0:0:0:0:
64,192,47248,1,2,0:0:0:30:soft-hitwhistle.wav
448,192,47248,128,0,47851:0:0:0:70:LR_Drum Rim Fast.wav
64,192,47851,128,2,48152:0:0:0:30:soft-hitwhistle.wav
192,192,47851,1,0,0:0:0:40:LR_Ride FInish.wav
320,192,47851,1,0,0:0:0:0:
320,192,48152,128,0,48454:0:0:0:40:LR5_DrumSnare Sn Dr Ws.wav
448,192,48152,1,0,0:0:0:0:
64,192,48454,1,2,0:0:0:30:soft-hitwhistle.wav
192,192,48454,128,0,48755:0:0:0:40:LR_Ride FInish.wav
448,192,48454,1,0,0:0:0:0:
64,192,48755,1,0,0:0:0:40:LR5_DrumSnare Sn Dr Ws.wav
448,192,48755,128,0,49057:0:0:0:0:
64,192,49057,128,2,49358:0:0:0:30:soft-hitwhistle.wav
192,192,49057,1,0,0:0:0:40:LR_Ride FInish.wav
320,192,49057,1,0,0:0:0:0:
192,192,49358,128,0,49660:0:0:0:40:LR5_DrumSnare Sn Dr Ws.wav
448,192,49358,1,0,0:0:0:0:
64,192,49660,1,2,0:0:0:30:soft-hitwhistle.wav
320,192,49660,1,0,0:0:0:40:LR_Ride FInish.wav
448,192,49660,128,0,49961:0:0:0:0:
192,192,49961,1,0,0:0:0:40:LR5_DrumSnare Sn Dr Ws.wav
320,192,49961,128,0,50263:0:0:0:0:
64,192,50263,1,2,0:0:0:30:soft-hitwhistle.wav
192,192,50263,1,0,0:0:0:40:soft-hitfinish.wav
448,192,50263,1,0,0:0:0:0:
64,192,50413,1,0,0:0:0:40:LR5_DrumSnare Sn Dr Ws.wav
192,192,50413,1,0,0:0:0:0:
64,192,50564,1,2,0:0:0:30:soft-hitwhistle.wav
320,192,50564,1,0,0:0:0:40:soft-hitfinish.wav
448,192,50564,1,0,0:0:0:0:
448,192,50715,1,0,0:0:0:40:LR5_DrumSnare Sn Dr Ws.wav
320,192,50715,1,0,0:0:0:0:
64,192,50866,1,2,0:0:0:30:soft-hitwhistle.wav
192,192,50866,1,0,0:0:0:40:soft-hitfinish.wav
320,192,50866,1,0,0:0:0:0:
64,192,51017,1,0,0:0:0:40:LR5_DrumSnare Sn Dr Ws.wav
192,192,51017,1,0,0:0:0:0:
448,192,51167,1,2,0:0:0:30:soft-hitwhistle.wav
192,192,51167,1,0,0:0:0:40:soft-hitfinish.wav
320,192,51167,1,0,0:0:0:0:
320,192,51318,1,0,0:0:0:40:LR5_DrumSnare Sn Dr Ws.wav
448,192,51318,1,0,0:0:0:0:
64,192,51469,1,0,0:0:0:40:LR5_DrumSnare Sn Dr Ws.wav
192,192,51469,1,0,0:0:0:0:
320,192,51544,1,0,0:0:0:40:LR5_DrumSnare Sn Dr Ws.wav
448,192,51544,1,0,0:0:0:0:
64,192,51620,1,0,0:0:0:40:LR5_DrumSnare Sn Dr Ws.wav
192,192,51620,1,0,0:0:0:0:
320,192,51695,1,0,0:0:0:40:LR5_DrumSnare Sn Dr Ws.wav
448,192,51695,1,0,0:0:0:0:
64,192,51770,1,0,0:0:0:40:LR5_DrumSnare Sn Dr Ws.wav
192,192,51770,1,0,0:0:0:0:
320,192,51846,1,0,0:0:0:40:LR5_DrumSnare Sn Dr Ws.wav
448,192,51846,1,0,0:0:0:0:
64,192,51921,1,0,0:0:0:40:LR5_DrumSnare Sn Dr Ws.wav
192,192,51921,1,0,0:0:0:0:
320,192,51996,1,0,0:0:0:40:LR5_DrumSnare Sn Dr Ws.wav
448,192,51996,1,0,0:0:0:0:
64,192,52072,1,0,0:0:0:40:LR5_DrumSnare Sn Dr Ws.wav
192,192,52072,1,0,0:0:0:0:
448,192,52223,128,0,52373:0:0:0:0:
64,192,52373,1,0,0:0:0:40:soft-hitclaps.wav
192,192,52373,128,0,52524:0:0:0:0:
320,192,52524,128,0,52675:0:0:0:0:
64,192,52675,1,2,0:0:0:30:soft-hitwhistle.wav
192,192,52675,1,0,0:0:0:40:LR_Ride FInish.wav
448,192,52675,1,0,0:0:0:0:
192,192,52826,1,0,0:0:0:50:LR_HiHat Synth Fast.wav
64,192,52976,1,0,0:0:0:40:LR5_DrumSnare Sn Dr Ws.wav
320,192,52976,1,0,0:0:0:0:
448,192,52976,1,0,0:0:0:0:
320,192,53127,1,0,0:0:0:50:LR_HiHat Synth Fast.wav
192,192,53278,1,2,0:0:0:30:soft-hitwhistle.wav
448,192,53278,1,0,0:0:0:0:
192,192,53429,1,0,0:0:0:50:LR_HiHat Synth Fast.wav
64,192,53579,1,0,0:0:0:40:LR5_DrumSnare Sn Dr Ws.wav
320,192,53579,1,0,0:0:0:0:
448,192,53579,1,0,0:0:0:0:
64,192,53730,1,0,0:0:0:50:LR_HiHat Synth Fast.wav
320,192,53881,128,2,54032:0:0:0:30:soft-hitwhistle.wav
448,192,53881,1,0,0:0:0:0:
192,192,54032,128,0,54182:0:0:0:50:LR_HiHat Synth Fast.wav
64,192,54182,128,0,54333:0:0:0:40:LR5_DrumSnare Sn Dr Ws.wav
320,192,54182,1,0,0:0:0:0:
448,192,54182,1,0,0:0:0:0:
192,192,54333,128,0,54484:0:0:0:50:LR_HiHat Synth Fast.wav
64,192,54484,128,2,54635:0:0:0:30:soft-hitwhistle.wav
320,192,54484,1,0,0:0:0:0:
192,192,54635,1,0,0:0:0:40:LR5_DrumSnare Sn Dr Ws.wav
448,192,54635,1,0,0:0:0:0:
64,192,54785,1,0,0:0:0:40:LR5_DrumSnare Sn Dr Ws.wav
320,192,54785,1,0,0:0:0:0:
448,192,54785,1,0,0:0:0:0:
192,192,54936,1,0,0:0:0:50:LR_HiHat Synth Fast.wav
192,192,55087,1,2,0:0:0:30:soft-hitwhistle.wav
320,192,55087,1,0,0:0:0:0:
448,192,55238,1,0,0:0:0:50:LR_HiHat Synth Fast.wav
64,192,55388,1,0,0:0:0:40:LR5_DrumSnare Sn Dr Ws.wav
192,192,55388,1,0,0:0:0:0:
448,192,55388,1,0,0:0:0:0:
192,192,55539,1,0,0:0:0:50:LR_HiHat Synth Fast.wav
64,192,55690,1,2,0:0:0:30:soft-hitwhistle.wav
448,192,55690,1,0,0:0:0:0:
320,192,55841,1,0,0:0:0:50:LR_HiHat Synth Fast.wav
64,192,55991,1,0,0:0:0:40:LR5_DrumSnare Sn Dr Ws.wav
192,192,55991,1,0,0:0:0:0:
448,192,55991,1,0,0:0:0:0:
320,192,56142,1,0,0:0:0:50:LR_HiHat Synth Fast.wav
64,192,56293,1,2,0:0:0:30:soft-hitwhistle.wav
448,192,56293,128,0,56444:0:0:0:0:
192,192,56444,128,0,56594:0:0:0:50:LR_HiHat Synth Fast.wav
64,192,56594,1,0,0:0:0:40:LR5_DrumSnare Sn Dr Ws.wav
320,192,56594,128,0,56745:0:0:0:0:
448,192,56594,1,0,0:0:0:0:
64,192,56745,128,0,56896:0:0:0:50:LR_HiHat Synth Fast.wav
192,192,56896,1,2,0:0:0:30:soft-hitwhistle.wav
448,192,56896,128,0,57047:0:0:0:0:
64,192,57047,1,0,0:0:0:40:LR5_DrumSnare Sn Dr Ws.wav
320,192,57047,1,0,0:0:0:0:
192,192,57197,1,0,0:0:0:40:LR5_DrumSnare Sn Dr Ws.wav
448,192,57197,1,0,0:0:0:0:
64,192,57197,1,0,0:0:0:0:
320,192,57348,128,0,57800:0:0:0:40:LR_Ride FInish.wav
448,192,57348,1,0,0:0:0:0:
192,192,57348,1,0,0:0:0:0:
64,192,57800,1,0,0:0:0:40:LR5_DrumSnare Sn Dr Ws.wav
192,192,57800,1,0,0:0:0:0:
448,192,57800,1,0,0:0:0:0:
64,192,57951,1,2,0:0:0:30:soft-hitwhistle.wav
320,192,57951,1,0,0:0:0:0:
192,192,58102,1,2,0:0:0:30:soft-hitwhistle.wav
448,192,58102,1,0,0:0:0:0:
320,192,58253,1,0,0:0:0:50:LR_HiHat Synth Fast.wav
64,192,58403,1,0,0:0:0:40:LR5_DrumSnare Sn Dr Ws.wav
320,192,58403,1,0,0:0:0:0:
448,192,58403,1,0,0:0:0:0:
64,192,58554,1,2,0:0:0:30:soft-hitwhistle.wav
192,192,58554,1,0,0:0:0:0:
320,192,58705,1,0,0:0:0:50:LR_HiHat Synth Fast.wav
64,192,58856,1,2,0:0:0:30:soft-hitwhistle.wav
192,192,58856,1,0,0:0:0:0:
64,192,59006,1,0,0:0:0:40:LR5_DrumSnare Sn Dr Ws.wav
192,192,59006,1,0,0:0:0:0:
448,192,59006,1,0,0:0:0:0:
320,192,59157,1,2,0:0:0:30:soft-hitwhistle.wav
448,192,59157,1,0,0:0:0:0:
320,192,59308,1,2,0:0:0:30:soft-hitwhistle.wav
448,192,59308,1,0,0:0:0:0:
64,192,59459,1,0,0:0:0:50:LR_HiHat Synth Fast.wav
192,192,59609,1,0,0:0:0:40:LR5_DrumSnare Sn Dr Ws.wav
320,192,59609,1,0,0:0:0:0:
448,192,59609,1,0,0:0:0:0:
192,192,59760,1,0,0:0:0:50:LR_HiHat Synth Fast.wav
64,192,59911,128,2,60212:0:0:0:30:soft-hitwhistle.wav
448,192,59911,128,0,60212:0:0:0:0:
192,192,60212,128,0,60363:0:0:0:40:LR5_DrumSnare Sn Dr Ws.wav
320,192,60212,1,0,0:0:0:0:
64,192,60363,1,2,0:0:0:30:soft-hitwhistle.wav
448,192,60363,128,0,60514:0:0:0:0:
64,192,60514,128,2,60665:0:0:0:30:soft-hitwhistle.wav
320,192,60514,1,0,0:0:0:0:
320,192,60665,128,0,60815:0:0:0:50:LR_HiHat Synth Fast.wav
64,192,60815,1,0,0:0:0:40:LR5_DrumSnare Sn Dr Ws.wav
192,192,60815,128,0,60966:0:0:0:0:
448,192,60966,128,0,61117:0:0:0:50:LR_HiHat Synth Fast.wav
64,192,61117,128,2,61419:0:0:0:30:soft-hitwhistle.wav
192,192,61117,128,0,61419:0:0:0:40:soft-hitfinish.wav
320,192,61117,1,0,0:0:0:0:
320,192,61419,128,2,61720:0:0:0:30:soft-hitwhistle.wav
448,192,61419,128,0,61720:0:0:0:40:soft-hitfinish.wav
64,192,61720,1,2,0:0:0:30:soft-hitwhistle.wav
192,192,61720,1,0,0:0:0:40:soft-hitfinish.wav
448,192,61795,1,0,0:0:0:0:
192,192,61871,1,0,0:0:0:40:LR5_DrumSnare Sn Dr Ws.wav
320,192,61946,1,0,0:0:0:40:LR5_DrumSnare Sn Dr Ws.wav
64,192,62022,1,0,0:0:0:40:LR5_DrumSnare Sn Dr Ws.wav
448,192,62022,1,0,0:0:0:0:
192,192,62097,1,0,0:0:0:40:LR5_DrumSnare Sn Dr Ws.wav
448,192,62172,1,0,0:0:0:40:LR5_DrumSnare Sn Dr Ws.wav
320,192,62248,1,0,0:0:0:40:LR5_DrumSnare Sn Dr Ws.wav
64,192,62323,1,2,0:0:0:30:soft-hitwhistle.wav
192,192,62323,1,0,0:0:0:40:LR_Ride FInish.wav
448,192,62323,1,0,0:0:0:0:
320,192,62474,1,0,0:0:0:50:LR_HiHat Synth Fast.wav
64,192,62625,1,0,0:0:0:40:LR5_DrumSnare Sn Dr Ws.wav
320,192,62625,1,0,0:0:0:0:
448,192,62625,1,0,0:0:0:0:
192,192,62775,1,0,0:0:0:50:LR_HiHat Synth Fast.wav
192,192,62926,1,2,0:0:0:30:soft-hitwhistle.wav
320,192,62926,1,0,0:0:0:0:
448,192,63077,1,0,0:0:0:50:LR_HiHat Synth Fast.wav
64,192,63228,1,0,0:0:0:40:LR5_DrumSnare Sn Dr Ws.wav
192,192,63228,1,0,0:0:0:0:
320,192,63228,1,0,0:0:0:0:
448,192,63378,1,0,0:0:0:50:LR_HiHat Synth Fast.wav
64,192,63529,128,2,63680:0:0:0:30:soft-hitwhistle.wav
192,192,63529,1,0,0:0:0:0:
320,192,63680,128,0,63831:0:0:0:50:LR_HiHat Synth Fast.wav
64,192,63831,128,0,63981:0:0:0:40:LR5_DrumSnare Sn Dr Ws.wav
192,192,63831,1,0,0:0:0:0:
448,192,63831,1,0,0:0:0:0:
192,192,63981,128,0,64132:0:0:0:50:LR_HiHat Synth Fast.wav
320,192,64132,128,2,64283:0:0:0:30:soft-hitwhistle.wav
448,192,64132,1,0,0:0:0:0:
64,192,64283,1,0,0:0:0:40:LR5_DrumSnare Sn Dr Ws.wav
192,192,64283,1,0,0:0:0:0:
64,192,64434,1,0,0:0:0:40:LR5_DrumSnare Sn Dr Ws.wav
320,192,64434,1,0,0:0:0:0:
448,192,64434,1,0,0:0:0:0:
448,192,64584,1,0,0:0:0:50:LR_HiHat Synth Fast.wav
192,192,64735,1,2,0:0:0:30:soft-hitwhistle.wav
320,192,64735,1,0,0:0:0:0:
64,192,64886,1,0,0:0:0:50:LR_HiHat Synth Fast.wav
192,192,65037,1,0,0:0:0:40:LR5_DrumSnare Sn Dr Ws.wav
320,192,65037,1,0,0:0:0:0:
448,192,65037,1,0,0:0:0:0:
320,192,65187,1,0,0:0:0:50:LR_HiHat Synth Fast.wav
64,192,65338,1,2,0:0:0:30:soft-hitwhistle.wav
448,192,65338,1,0,0:0:0:0:
64,192,65489,1,0,0:0:0:50:LR_HiHat Synth Fast.wav
192,192,65640,1,0,0:0:0:40:LR5_DrumSnare Sn Dr Ws.wav
320,192,65640,1,0,0:0:0:0:
448,192,65640,1,0,0:0:0:0:
320,192,65790,1,0,0:0:0:50:LR_HiHat Synth Fast.wav
64,192,65941,1,2,0:0:0:30:soft-hitwhistle.wav
192,192,65941,128,0,66092:0:0:0:0:
320,192,66092,128,0,66243:0:0:0:50:LR_HiHat Synth Fast.wav
64,192,66243,128,0,66393:0:0:0:40:LR5_DrumSnare Sn Dr Ws.wav
192,192,66243,1,0,0:0:0:0:
448,192,66243,1,0,0:0:0:0:
320,192,66393,128,0,66544:0:0:0:50:LR_HiHat Synth Fast.wav
64,192,66544,1,2,0:0:0:30:soft-hitwhistle.wav
448,192,66544,128,0,66695:0:0:0:40:soft-hitfinish.wav
192,192,66695,1,0,0:0:0:40:LR5_DrumSnare Sn Dr Ws.wav
320,192,66695,1,0,0:0:0:0:
64,192,66846,1,0,0:0:0:40:LR5_DrumSnare Sn Dr Ws.wav
448,192,66846,1,0,0:0:0:0:
320,192,66846,1,0,0:0:0:0:
64,192,66996,1,2,0:0:0:30:soft-hitwhistle.wav
192,192,66996,1,0,0:0:0:40:LR_Ride FInish.wav
448,192,66996,128,0,67449:0:0:0:0:
64,192,67449,1,0,0:0:0:40:LR5_DrumSnare Sn Dr Ws.wav
192,192,67449,1,0,0:0:0:0:
320,192,67449,1,0,0:0:0:0:
64,192,67599,1,2,0:0:0:30:soft-hitwhistle.wav
320,192,67599,1,0,0:0:0:0:
192,192,67750,1,2,0:0:0:30:soft-hitwhistle.wav
448,192,67750,1,0,0:0:0:0:
320,192,67901,1,0,0:0:0:50:LR_HiHat Synth Fast.wav
64,192,68052,1,0,0:0:0:40:LR5_DrumSnare Sn Dr Ws.wav
192,192,68052,1,0,0:0:0:0:
448,192,68052,1,0,0:0:0:0:
320,192,68202,1,2,0:0:0:30:soft-hitwhistle.wav
448,192,68202,1,0,0:0:0:40:soft-hitfinish.wav
64,192,68353,1,0,0:0:0:50:LR_HiHat Synth Fast.wav
192,192,68504,1,2,0:0:0:30:soft-hitwhistle.wav
448,192,68504,1,0,0:0:0:0:
64,192,68655,1,0,0:0:0:40:LR5_DrumSnare Sn Dr Ws.wav
320,192,68655,1,0,0:0:0:0:
448,192,68655,1,0,0:0:0:0:
64,192,68805,1,2,0:0:0:30:soft-hitwhistle.wav
192,192,68805,1,0,0:0:0:0:
320,192,68956,1,2,0:0:0:30:soft-hitwhistle.wav
448,192,68956,1,0,0:0:0:0:
64,192,69107,1,0,0:0:0:50:LR_HiHat Synth Fast.wav
192,192,69258,1,0,0:0:0:40:LR5_DrumSnare Sn Dr Ws.wav
320,192,69258,1,0,0:0:0:0:
448,192,69258,1,0,0:0:0:0:
64,192,69408,1,0,0:0:0:50:LR_HiHat Synth Fast.wav
320,192,69559,128,2,69861:0:0:0:30:soft-hitwhistle.wav
448,192,69559,128,0,69861:0:0:0:0:
64,192,69861,1,0,0:0:0:40:LR5_DrumSnare Sn Dr Ws.wav
192,192,69861,128,0,70011:0:0:0:0:
320,192,70011,128,2,70162:0:0:0:30:soft-hitwhistle.wav
448,192,70011,1,0,0:0:0:0:
64,192,70162,128,2,70313:0:0:0:30:soft-hitwhistle.wav
192,192,70162,1,0,0:0:0:0:
448,192,70313,128,0,70464:0:0:0:50:LR_HiHat Synth Fast.wav
192,192,70464,128,0,70614:0:0:0:40:LR5_DrumSnare Sn Dr Ws.wav
320,192,70464,1,0,0:0:0:0:
64,192,70614,128,0,70765:0:0:0:50:LR_HiHat Synth Fast.wav
320,192,70765,128,2,71067:0:0:0:30:soft-hitwhistle.wav
448,192,70765,128,0,71067:0:0:0:40:soft-hitfinish.wav
64,192,71067,128,2,71368:0:0:0:30:soft-hitwhistle.wav
192,192,71067,128,0,71368:0:0:0:40:soft-hitfinish.wav
320,192,71368,1,0,0:0:0:40:LR5_DrumSnare Sn Dr Ws.wav
448,192,71368,1,0,0:0:0:0:
64,192,71444,1,0,0:0:0:40:LR5_DrumSnare Sn Dr Ws.wav
192,192,71444,1,0,0:0:0:0:
320,192,71519,1,0,0:0:0:40:LR5_DrumSnare Sn Dr Ws.wav
448,192,71519,1,0,0:0:0:0:
64,192,71594,1,0,0:0:0:40:LR5_DrumSnare Sn Dr Ws.wav
192,192,71594,1,0,0:0:0:0:
320,192,71670,128,0,71971:0:0:0:50:LR_HiHat Synth Fast.wav
448,192,71670,128,0,71971:0:0:0:0:
64,192,71971,128,2,72273:0:0:0:30:soft-hitwhistle.wav
192,192,71971,128,0,72273:0:0:0:40:LR_Ride FInish.wav
448,192,72273,1,0,0:0:0:50:LR_HiHat Synth Fast.wav
64,192,72424,128,0,72574:0:0:0:50:LR_HiHat Synth Fast.wav
320,192,72424,128,0,72574:0:0:0:0:
192,192,72574,128,2,72876:0:0:0:30:soft-hitwhistle.wav
448,192,72574,128,0,72876:0:0:0:40:LR_Ride FInish.wav
64,192,72876,1,0,0:0:0:50:LR_HiHat Synth Fast.wav
320,192,73027,128,0,73177:0:0:0:50:LR_HiHat Synth Fast.wav
64,192,73177,128,2,73328:0:0:0:30:soft-hitwhistle.wav
448,192,73177,128,0,73328:0:0:0:40:soft-hitfinish.wav
192,192,73328,128,2,73479:0:0:0:30:soft-hitwhistle.wav
320,192,73328,128,0,73479:0:0:0:40:soft-hitfinish.wav
64,192,73479,128,2,73630:0:0:0:30:soft-hitwhistle.wav
448,192,73479,128,0,73630:0:0:0:40:soft-hitfinish.wav
192,192,73630,128,2,73780:0:0:0:30:soft-hitwhistle.wav
320,192,73630,128,0,73780:0:0:0:40:soft-hitfinish.wav
64,192,73780,128,2,74082:0:0:0:30:soft-hitwhistle.wav
448,192,73780,1,0,0:0:0:40:soft-hitfinish.wav
320,192,74082,1,0,0:0:0:40:soft-hitclaps.wav
448,192,74082,1,0,0:0:0:0:
448,192,74383,1,0,0:0:0:0:
320,192,74421,1,0,0:0:0:0:
64,192,74459,1,0,0:0:0:0:
192,192,74496,1,0,0:0:0:0:
448,192,74534,1,0,0:0:0:0:
320,192,74572,1,0,0:0:0:0:
64,192,74609,1,0,0:0:0:0:
192,192,74647,1,0,0:0:0:0:
320,192,74685,128,2,74986:0:0:0:30:soft-hitwhistle.wav
448,192,74685,128,0,74986:0:0:0:40:soft-hitfinish.wav
64,192,74986,128,2,75288:0:0:0:30:soft-hitwhistle.wav
192,192,74986,128,0,75288:0:0:0:40:soft-hitfinish.wav
320,192,75288,1,0,0:0:0:40:LR5_DrumSnare Sn Dr Ws.wav
448,192,75288,1,0,0:0:0:0:
64,192,75363,1,0,0:0:0:40:LR5_DrumSnare Sn Dr Ws.wav
192,192,75363,1,0,0:0:0:0:
320,192,75439,1,0,0:0:0:40:LR5_DrumSnare Sn Dr Ws.wav
448,192,75439,1,0,0:0:0:0:
64,192,75514,1,0,0:0:0:40:LR5_DrumSnare Sn Dr Ws.wav
192,192,75514,1,0,0:0:0:0:
320,192,75589,1,2,0:0:0:30:soft-hitwhistle.wav
448,192,75589,1,0,0:0:0:40:LR_Ride FInish.wav
192,192,75740,1,0,0:0:0:0:
64,192,75891,1,0,0:0:0:40:LR5_DrumSnare Sn Dr Ws.wav
320,192,75891,1,0,0:0:0:0:
448,192,75891,1,0,0:0:0:0:
320,192,76042,1,0,0:0:0:50:LR_HiHat Synth Fast.wav
64,192,76192,1,2,0:0:0:30:soft-hitwhistle.wav
192,192,76192,1,0,0:0:0:0:
448,192,76343,1,0,0:0:0:50:LR_HiHat Synth Fast.wav
192,192,76494,1,0,0:0:0:40:LR5_DrumSnare Sn Dr Ws.wav
320,192,76494,1,0,0:0:0:0:
448,192,76494,1,0,0:0:0:0:
192,192,76645,1,0,0:0:0:50:LR_HiHat Synth Fast.wav
64,192,76795,1,2,0:0:0:30:soft-hitwhistle.wav
448,192,76795,128,0,76946:0:0:0:0:
192,192,76946,128,0,77097:0:0:0:50:LR_HiHat Synth Fast.wav
64,192,77097,1,0,0:0:0:40:LR5_DrumSnare Sn Dr Ws.wav
320,192,77097,128,0,77248:0:0:0:0:
448,192,77097,1,0,0:0:0:0:
64,192,77248,128,0,77398:0:0:0:50:LR_HiHat Synth Fast.wav
192,192,77398,1,2,0:0:0:30:soft-hitwhistle.wav
448,192,77398,128,0,77549:0:0:0:0:
320,192,77549,1,0,0:0:0:40:LR5_DrumSnare Sn Dr Ws.wav
64,192,77700,1,0,0:0:0:40:LR5_DrumSnare Sn Dr Ws.wav
192,192,77700,1,0,0:0:0:0:
448,192,77700,1,0,0:0:0:0:
64,192,77851,1,0,0:0:0:50:LR_HiHat Synth Fast.wav
320,192,78001,1,2,0:0:0:30:soft-hitwhistle.wav
448,192,78001,1,0,0:0:0:0:
192,192,78152,1,0,0:0:0:50:LR_HiHat Synth Fast.wav
64,192,78303,1,0,0:0:0:40:LR5_DrumSnare Sn Dr Ws.wav
320,192,78303,1,0,0:0:0:0:
448,192,78303,1,0,0:0:0:0:
320,192,78454,1,0,0:0:0:50:LR_HiHat Synth Fast.wav
192,192,78604,1,2,0:0:0:30:soft-hitwhistle.wav
448,192,78604,1,0,0:0:0:0:
64,192,78755,1,0,0:0:0:50:LR_HiHat Synth Fast.wav
64,192,78906,1,0,0:0:0:40:LR5_DrumSnare Sn Dr Ws.wav
320,192,78906,1,0,0:0:0:0:
448,192,78906,1,0,0:0:0:0:
192,192,79057,1,0,0:0:0:50:LR_HiHat Synth Fast.wav
64,192,79207,128,2,79358:0:0:0:30:soft-hitwhistle.wav
448,192,79207,1,0,0:0:0:0:
320,192,79358,128,0,79509:0:0:0:50:LR_HiHat Synth Fast.wav
64,192,79509,128,0,79660:0:0:0:40:LR5_DrumSnare Sn Dr Ws.wav
192,192,79509,1,0,0:0:0:0:
448,192,79509,1,0,0:0:0:0:
320,192,79660,128,0,79810:0:0:0:50:LR_HiHat Synth Fast.wav
64,192,79810,128,2,79961:0:0:0:30:soft-hitwhistle.wav
192,192,79810,1,0,0:0:0:0:
320,192,79961,1,0,0:0:0:40:LR5_DrumSnare Sn Dr Ws.wav
64,192,80112,1,0,0:0:0:40:LR5_DrumSnare Sn Dr Ws.wav
448,192,80112,1,0,0:0:0:0:
192,192,80263,1,2,0:0:0:30:soft-hitwhistle.wav
448,192,80263,128,0,80715:0:0:0:40:soft-hitfinish.wav
64,192,80715,1,0,0:0:0:40:LR5_DrumSnare Sn Dr Ws.wav
192,192,80715,1,0,0:0:0:0:
320,192,80715,1,0,0:0:0:0:
64,192,80866,1,2,0:0:0:30:soft-hitwhistle.wav
448,192,80866,1,0,0:0:0:0:
192,192,81017,1,2,0:0:0:30:soft-hitwhistle.wav
448,192,81017,1,0,0:0:0:0:
320,192,81167,1,0,0:0:0:50:LR_HiHat Synth Fast.wav
64,192,81318,1,0,0:0:0:40:LR5_DrumSnare Sn Dr Ws.wav
320,192,81318,1,0,0:0:0:0:
448,192,81318,1,0,0:0:0:0:
64,192,81469,1,2,0:0:0:30:soft-hitwhistle.wav
192,192,81469,1,0,0:0:0:0:
448,192,81620,1,0,0:0:0:50:LR_HiHat Synth Fast.wav
64,192,81770,1,2,0:0:0:30:soft-hitwhistle.wav
192,192,81770,1,0,0:0:0:0:
64,192,81921,1,0,0:0:0:40:LR5_DrumSnare Sn Dr Ws.wav
320,192,81921,1,0,0:0:0:0:
448,192,81921,1,0,0:0:0:0:
192,192,82072,1,2,0:0:0:30:soft-hitwhistle.wav
448,192,82072,1,0,0:0:0:0:
192,192,82223,1,2,0:0:0:30:soft-hitwhistle.wav
320,192,82223,1,0,0:0:0:0:
64,192,82373,1,0,0:0:0:50:LR_HiHat Synth Fast.wav
192,192,82524,1,0,0:0:0:40:LR5_DrumSnare Sn Dr Ws.wav
320,192,82524,1,0,0:0:0:0:
448,192,82524,1,0,0:0:0:0:
64,192,82675,1,0,0:0:0:50:LR_HiHat Synth Fast.wav
320,192,82826,128,2,83127:0:0:0:30:soft-hitwhistle.wav
448,192,82826,128,0,83127:0:0:0:0:
64,192,83127,128,0,83278:0:0:0:40:LR5_DrumSnare Sn Dr Ws.wav
192,192,83127,1,0,0:0:0:0:
192,192,83278,128,2,83429:0:0:0:30:soft-hitwhistle.wav
320,192,83278,1,0,0:0:0:0:
64,192,83429,1,2,0:0:0:30:soft-hitwhistle.wav
448,192,83429,128,0,83579:0:0:0:0:
320,192,83579,128,0,83730:0:0:0:50:LR_HiHat Synth Fast.wav
64,192,83730,1,0,0:0:0:40:LR5_DrumSnare Sn Dr Ws.wav
192,192,83730,128,0,83881:0:0:0:0:
448,192,83881,128,0,84032:0:0:0:50:LR_HiHat Synth Fast.wav
64,192,84032,128,2,84333:0:0:0:30:soft-hitwhistle.wav
192,192,84032,128,0,84333:0:0:0:40:soft-hitfinish.wav
320,192,84333,128,2,84635:0:0:0:30:soft-hitwhistle.wav
448,192,84333,128,0,84635:0:0:0:40:soft-hitfinish.wav
64,192,84635,1,2,0:0:0:30:soft-hitwhistle.wav
192,192,84635,1,0,0:0:0:0:
448,192,84710,1,0,0:0:0:50:LR_HiHat Synth Fast.wav
192,192,84785,1,0,0:0:0:40:LR5_DrumSnare Sn Dr Ws.wav
320,192,84861,1,0,0:0:0:40:LR5_DrumSnare Sn Dr Ws.wav
64,192,84936,1,0,0:0:0:40:LR5_DrumSnare Sn Dr Ws.wav
448,192,84936,1,0,0:0:0:0:
192,192,85011,1,0,0:0:0:40:LR5_DrumSnare Sn Dr Ws.wav
448,192,85087,1,0,0:0:0:40:LR5_DrumSnare Sn Dr Ws.wav
320,192,85162,1,0,0:0:0:40:LR5_DrumSnare Sn Dr Ws.wav
64,192,85238,1,0,0:0:0:0:
192,192,85238,1,0,0:0:0:0:
320,192,85388,1,0,0:0:0:50:LR_HiHat Synth Fast.wav
64,192,85539,1,2,0:0:0:30:soft-hitwhistle.wav
192,192,85539,1,2,0:0:0:40:LR5_DrumSnare Sn Dr Ws.wav
448,192,85539,1,0,0:0:0:40:LR_Ride FInish.wav
192,192,85690,1,0,0:0:0:50:LR_HiHat Synth Fast.wav
320,192,85690,1,0,0:0:0:0:
64,192,85841,1,2,0:0:0:30:soft-hitwhistle.wav
320,192,85841,1,2,0:0:0:40:LR5_DrumSnare Sn Dr Ws.wav
448,192,85841,1,0,0:0:0:0:
192,192,85991,1,0,0:0:0:50:LR_HiHat Synth Fast.wav
448,192,85991,1,0,0:0:0:0:
64,192,86142,1,2,0:0:0:30:soft-hitwhistle.wav
192,192,86142,1,2,0:0:0:40:LR5_DrumSnare Sn Dr Ws.wav
320,192,86142,1,0,0:0:0:0:
64,192,86293,1,0,0:0:0:50:LR_HiHat Synth Fast.wav
448,192,86293,1,0,0:0:0:0:
192,192,86444,1,2,0:0:0:30:soft-hitwhistle.wav
320,192,86444,1,2,0:0:0:40:LR5_DrumSnare Sn Dr Ws.wav
448,192,86444,1,0,0:0:0:0:
64,192,86594,1,0,0:0:0:50:LR_HiHat Synth Fast.wav
320,192,86594,1,0,0:0:0:0:
64,192,86745,1,2,0:0:0:30:soft-hitwhistle.wav
192,192,86745,1,2,0:0:0:40:LR5_DrumSnare Sn Dr Ws.wav
448,192,86745,1,0,0:0:0:0:
192,192,86896,1,0,0:0:0:50:LR_HiHat Synth Fast.wav
320,192,86896,1,0,0:0:0:0:
64,192,87047,1,2,0:0:0:30:soft-hitwhistle.wav
320,192,87047,1,2,0:0:0:40:LR5_DrumSnare Sn Dr Ws.wav
448,192,87047,1,0,0:0:0:0:
192,192,87197,1,0,0:0:0:50:LR_HiHat Synth Fast.wav
448,192,87197,1,0,0:0:0:0:
64,192,87348,1,2,0:0:0:30:soft-hitwhistle.wav
192,192,87348,1,2,0:0:0:40:LR5_DrumSnare Sn Dr Ws.wav
320,192,87348,1,0,0:0:0:0:
64,192,87499,1,0,0:0:0:50:LR_HiHat Synth Fast.wav
448,192,87499,1,0,0:0:0:0:
192,192,87650,1,2,0:0:0:30:soft-hitwhistle.wav
320,192,87650,1,2,0:0:0:40:LR5_DrumSnare Sn Dr Ws.wav
448,192,87650,1,0,0:0:0:0:
64,192,87800,1,0,0:0:0:50:LR_HiHat Synth Fast.wav
320,192,87800,1,0,0:0:0:0:
64,192,87951,1,2,0:0:0:30:soft-hitwhistle.wav
192,192,87951,1,2,0:0:0:40:LR5_DrumSnare Sn Dr Ws.wav
448,192,87951,1,0,0:0:0:0:
192,192,88102,1,0,0:0:0:50:LR_HiHat Synth Fast.wav
320,192,88102,1,0,0:0:0:0:
64,192,88253,1,2,0:0:0:30:soft-hitwhistle.wav
320,192,88253,1,2,0:0:0:40:LR5_DrumSnare Sn Dr Ws.wav
448,192,88253,1,0,0:0:0:0:
64,192,88403,1,0,0:0:0:50:LR_HiHat Synth Fast.wav
192,192,88403,1,0,0:0:0:0:
192,192,88554,1,2,0:0:0:30:soft-hitwhistle.wav
320,192,88554,1,2,0:0:0:40:LR5_DrumSnare Sn Dr Ws.wav
448,192,88554,1,0,0:0:0:0:
64,192,88705,1,0,0:0:0:50:LR_HiHat Synth Fast.wav
448,192,88705,1,0,0:0:0:0:
64,192,88856,1,2,0:0:0:30:soft-hitwhistle.wav
192,192,88856,1,2,0:0:0:40:LR5_DrumSnare Sn Dr Ws.wav
320,192,88856,1,0,0:0:0:0:
320,192,89006,1,0,0:0:0:50:LR_HiHat Synth Fast.wav
448,192,89006,1,0,0:0:0:0:
64,192,89157,1,2,0:0:0:30:soft-hitwhistle.wav
192,192,89157,1,2,0:0:0:40:LR5_DrumSnare Sn Dr Ws.wav
448,192,89157,1,0,0:0:0:0:
192,192,89308,1,0,0:0:0:50:LR_HiHat Synth Fast.wav
320,192,89308,1,0,0:0:0:0:
64,192,89459,1,2,0:0:0:30:soft-hitwhistle.wav
448,192,89459,1,0,0:0:0:0:
192,192,89534,1,2,0:0:0:30:soft-hitwhistle.wav
320,192,89534,1,0,0:0:0:0:
64,192,89609,1,2,0:0:0:30:soft-hitwhistle.wav
448,192,89609,1,0,0:0:0:0:
192,192,89685,1,2,0:0:0:30:soft-hitwhistle.wav
320,192,89685,1,0,0:0:0:0:
64,192,89760,128,0,89911:0:0:0:50:LR_HiHat Synth Fast.wav
448,192,89760,1,0,0:0:0:0:
192,192,89911,1,2,0:0:0:30:soft-hitwhistle.wav
320,192,89911,128,0,90363:0:0:0:40:LR_Ride FInish.wav
64,192,90363,1,0,0:0:0:40:LR5_DrumSnare Sn Dr Ws.wav
192,192,90363,1,0,0:0:0:0:
448,192,90363,1,0,0:0:0:0:
64,192,90514,1,2,0:0:0:30:soft-hitwhistle.wav
320,192,90514,1,0,0:0:0:0:
320,192,90665,1,2,0:0:0:30:soft-hitwhistle.wav
448,192,90665,1,0,0:0:0:0:
64,192,90815,1,0,0:0:0:50:LR_HiHat Synth Fast.wav
64,192,90966,1,0,0:0:0:40:LR5_DrumSnare Sn Dr Ws.wav
320,192,90966,1,0,0:0:0:0:
448,192,90966,1,0,0:0:0:0:
192,192,91117,1,2,0:0:0:30:soft-hitwhistle.wav
320,192,91117,1,0,0:0:0:40:soft-hitfinish.wav
64,192,91268,1,0,0:0:0:50:LR_HiHat Synth Fast.wav
320,192,91419,1,2,0:0:0:30:soft-hitwhistle.wav
448,192,91419,1,0,0:0:0:0:
64,192,91569,1,0,0:0:0:40:LR5_DrumSnare Sn Dr Ws.wav
192,192,91569,1,0,0:0:0:0:
448,192,91569,1,0,0:0:0:0:
192,192,91720,1,2,0:0:0:30:soft-hitwhistle.wav
320,192,91720,1,0,0:0:0:0:
64,192,91871,1,2,0:0:0:30:soft-hitwhistle.wav
320,192,91871,1,0,0:0:0:0:
192,192,92022,1,0,0:0:0:50:LR_HiHat Synth Fast.wav
64,192,92172,1,0,0:0:0:40:LR5_DrumSnare Sn Dr Ws.wav
320,192,92172,1,0,0:0:0:0:
448,192,92172,1,0,0:0:0:0:
64,192,92323,1,0,0:0:0:50:LR_HiHat Synth Fast.wav
320,192,92474,128,2,92775:0:0:0:30:soft-hitwhistle.wav
448,192,92474,128,0,92775:0:0:0:0:
64,192,92775,128,0,92926:0:0:0:40:LR5_DrumSnare Sn Dr Ws.wav
192,192,92775,1,0,0:0:0:0:
320,192,92926,128,2,93077:0:0:0:30:soft-hitwhistle.wav
448,192,92926,1,0,0:0:0:0:
64,192,93077,1,2,0:0:0:30:soft-hitwhistle.wav
192,192,93077,128,0,93228:0:0:0:0:
448,192,93228,128,0,93378:0:0:0:50:LR_HiHat Synth Fast.wav
64,192,93378,1,0,0:0:0:40:LR5_DrumSnare Sn Dr Ws.wav
192,192,93378,128,0,93529:0:0:0:0:
320,192,93529,128,0,93680:0:0:0:50:LR_HiHat Synth Fast.wav
448,192,93529,1,0,0:0:0:0:
64,192,93680,128,2,93981:0:0:0:30:soft-hitwhistle.wav
192,192,93680,128,0,93981:0:0:0:40:soft-hitfinish.wav
320,192,93981,128,2,94283:0:0:0:30:soft-hitwhistle.wav
448,192,93981,128,0,94283:0:0:0:40:soft-hitfinish.wav
64,192,94283,1,0,0:0:0:40:LR5_DrumSnare Sn Dr Ws.wav
192,192,94283,1,0,0:0:0:0:
320,192,94358,1,0,0:0:0:40:LR5_DrumSnare Sn Dr Ws.wav
448,192,94358,1,0,0:0:0:0:
64,192,94434,1,0,0:0:0:40:LR5_DrumSnare Sn Dr Ws.wav
192,192,94434,1,0,0:0:0:0:
320,192,94509,1,0,0:0:0:40:LR5_DrumSnare Sn Dr Ws.wav
448,192,94509,1,0,0:0:0:0:
64,192,94584,128,0,94886:0:0:0:40:LR5_DrumSnare Sn Dr Ws.wav
192,192,94584,128,0,94886:0:0:0:0:
320,192,94886,128,2,95187:0:0:0:30:soft-hitwhistle.wav
448,192,94886,128,0,95187:0:0:0:40:LR_Ride FInish.wav
64,192,95187,1,0,0:0:0:50:LR_HiHat Synth Fast.wav
320,192,95338,128,0,95489:0:0:0:50:LR_HiHat Synth Fast.wav
448,192,95338,128,0,95489:0:0:0:0:
64,192,95489,128,2,95790:0:0:0:30:soft-hitwhistle.wav
192,192,95489,128,0,95790:0:0:0:40:soft-hitfinish.wav
448,192,95790,1,0,0:0:0:50:LR_HiHat Synth Fast.wav
320,192,95941,128,0,96092:0:0:0:50:LR_HiHat Synth Fast.wav
64,192,96092,128,2,96243:0:0:0:30:soft-hitwhistle.wav
192,192,96092,128,0,96243:0:0:0:40:soft-hitfinish.wav
320,192,96243,128,2,96393:0:0:0:30:soft-hitwhistle.wav
448,192,96243,128,0,96393:0:0:0:40:soft-hitfinish.wav
64,192,96393,128,2,96544:0:0:0:30:soft-hitwhistle.wav
192,192,96393,128,0,96544:0:0:0:40:soft-hitfinish.wav
320,192,96544,128,2,96695:0:0:0:30:soft-hitwhistle.wav
448,192,96544,128,0,96695:0:0:0:40:soft-hitfinish.wav
64,192,96695,128,2,96996:0:0:0:30:soft-hitwhistle.wav
192,192,96695,128,0,96996:0:0:0:40:soft-hitfinish.wav
320,192,96996,1,0,0:0:0:40:soft-hitclaps.wav
448,192,96996,1,0,0:0:0:0:
192,192,97147,128,0,97298:0:0:0:50:LR_HiHat Synth Fast.wav
64,192,97298,128,2,97599:0:0:0:30:soft-hitwhistle.wav
448,192,97298,128,0,97599:0:0:0:40:LR_Ride FInish.wav
320,192,97599,1,0,0:0:0:50:LR_HiHat Synth Fast.wav
192,192,97750,128,0,97901:0:0:0:50:LR_HiHat Synth Fast.wav
320,192,97901,128,2,98202:0:0:0:30:soft-hitwhistle.wav
448,192,97901,128,0,98202:0:0:0:40:soft-hitfinish.wav
64,192,98202,1,0,0:0:0:50:LR_HiHat Synth Fast.wav
192,192,98353,128,0,98504:0:0:0:50:LR_HiHat Synth Fast.wav
320,192,98504,128,2,98655:0:0:0:30:soft-hitwhistle.wav
448,192,98504,128,0,98655:0:0:0:40:soft-hitfinish.wav
64,192,98655,128,2,98805:0:0:0:30:soft-hitwhistle.wav
192,192,98655,128,0,98805:0:0:0:40:soft-hitfinish.wav
320,192,98805,128,2,98956:0:0:0:30:soft-hitwhistle.wav
448,192,98805,128,0,98956:0:0:0:40:soft-hitfinish.wav
64,192,98956,128,2,99107:0:0:0:30:soft-hitwhistle.wav
192,192,98956,128,0,99107:0:0:0:40:soft-hitfinish.wav
320,192,99107,128,2,99408:0:0:0:30:soft-hitwhistle.wav
448,192,99107,128,0,99408:0:0:0:40:soft-hitfinish.wav
64,192,99408,1,0,0:0:0:40:soft-hitclaps.wav
192,192,99408,1,0,0:0:0:0:
320,192,99559,128,0,99710:0:0:0:50:LR_HiHat Synth Fast.wav
64,192,99710,128,2,100011:0:0:0:30:soft-hitwhistle.wav
448,192,99710,128,0,100011:0:0:0:40:LR_Ride FInish.wav
192,192,100011,1,0,0:0:0:50:LR_HiHat Synth Fast.wav
320,192,100162,128,0,100313:0:0:0:50:LR_HiHat Synth Fast.wav
64,192,100313,128,2,100614:0:0:0:30:soft-hitwhistle.wav
192,192,100313,128,0,100614:0:0:0:40:soft-hitfinish.wav
448,192,100614,1,0,0:0:0:50:LR_HiHat Synth Fast.wav
320,192,100765,128,0,100916:0:0:0:50:LR_HiHat Synth Fast.wav
64,192,100916,128,2,101067:0:0:0:30:soft-hitwhistle.wav
192,192,100916,128,0,101067:0:0:0:40:soft-hitfinish.wav
320,192,101067,128,2,101218:0:0:0:30:soft-hitwhistle.wav
448,192,101067,128,0,101218:0:0:0:40:soft-hitfinish.wav
64,192,101218,128,2,101368:0:0:0:30:soft-hitwhistle.wav
192,192,101218,128,0,101368:0:0:0:40:soft-hitfinish.wav
320,192,101368,128,2,101519:0:0:0:30:soft-hitwhistle.wav
448,192,101368,128,0,101519:0:0:0:40:soft-hitfinish.wav
64,192,101519,128,2,103177:0:0:0:30:soft-hitwhistle.wav
192,192,101519,128,0,103177:0:0:0:40:soft-hitfinish.wav
64,192,103328,1,0,0:0:0:30:LR_Drum Rim Fast.wav
448,192,103328,1,0,0:0:0:0:
64,192,103630,1,0,0:0:0:30:LR_Drum Rim Fast.wav
448,192,103630,1,0,0:0:0:0:
64,192,103931,1,0,0:0:0:30:LR_Drum Rim Fast.wav
448,192,103931,1,0,0:0:0:0:
192,192,104233,1,0,0:0:0:30:LR_Drum Rim Fast.wav
320,192,104233,1,0,0:0:0:0:
448,192,104233,1,0,0:0:0:0:
