osu file format v14

[General]
AudioFilename: 05. .mp3
AudioLeadIn: 0
PreviewTime: 157370
Countdown: 1
SampleSet: Normal
StackLeniency: 0.7
Mode: 1
LetterboxInBreaks: 1
WidescreenStoryboard: 0

[Editor]
DistanceSpacing: 0.8
BeatDivisor: 4
GridSize: 32
TimelineZoom: 3.099999

[Metadata]
Title:Shakunetsu?CandleMaster? Tomosy
TitleUnicode:灼熱?キャンドルマスター?ともしぃ
Artist:Nanahira
ArtistUnicode:ななひら
Creator:[karuto-323]
Version:KRT&YN's Taiko
Source:
Tags:KitajimaYN
BeatmapID:782923
BeatmapSetID:355614

[Difficulty]
HPDrainRate:5
CircleSize:5
OverallDifficulty:5
ApproachRate:5
SliderMultiplier:1.4
SliderTickRate:1

[Events]
//Background and Video events
0,0,"peenge.png",0,120
//Break Periods
2,94270,100550
2,115390,121670
2,187390,193670
//Storyboard Layer 0 (Background)
//Storyboard Layer 1 (Fail)
//Storyboard Layer 2 (Pass)
//Storyboard Layer 3 (Foreground)
//Storyboard Sound Samples

[TimingPoints]
470,240,4,1,0,10,1,0
950,240,4,1,0,100,1,0
950,-100,4,1,0,15,0,0
8870,-100,4,1,0,50,0,0
15590,-100,4,1,0,100,0,0
17270,-100,4,1,0,60,0,0
18230,-100,4,1,0,100,0,1
31670,-100,4,1,0,100,0,0
64310,-100,4,1,0,100,0,1
91190,-100,4,1,0,100,0,0
157430,-100,4,1,0,100,0,1
187190,-100,4,1,0,100,0,0
216350,-100,4,1,0,100,0,1
239870,240,4,1,0,100,1,0

[HitObjects]
256,192,470,5,0,0:0:0:0:
256,192,550,1,0,0:0:0:0:
256,192,630,1,0,0:0:0:0:
256,192,710,1,2,0:0:0:0:
256,192,950,1,2,0:0:0:0:
256,192,1190,1,0,0:0:0:0:
256,192,1350,1,0,0:0:0:0:
256,192,1430,1,2,0:0:0:0:
256,192,1670,1,0,0:0:0:0:
256,192,1830,1,0,0:0:0:0:
256,192,1910,1,2,0:0:0:0:
256,192,2150,1,0,0:0:0:0:
256,192,2310,1,0,0:0:0:0:
256,192,2390,1,2,0:0:0:0:
256,192,2630,1,0,0:0:0:0:
256,192,2790,1,0,0:0:0:0:
256,192,2870,1,2,0:0:0:0:
256,192,3110,1,0,0:0:0:0:
256,192,3270,1,0,0:0:0:0:
256,192,3350,1,2,0:0:0:0:
256,192,3590,1,0,0:0:0:0:
256,192,3750,1,0,0:0:0:0:
256,192,3830,1,2,0:0:0:0:
256,192,4070,1,0,0:0:0:0:
256,192,4230,1,0,0:0:0:0:
256,192,4310,1,2,0:0:0:0:
256,192,4550,1,0,0:0:0:0:
256,192,4710,1,0,0:0:0:0:
256,192,4790,1,0,0:0:0:0:
256,192,5030,1,0,0:0:0:0:
256,192,5190,1,0,0:0:0:0:
256,192,5270,1,2,0:0:0:0:
256,192,5510,1,0,0:0:0:0:
256,192,5670,1,0,0:0:0:0:
256,192,5750,1,2,0:0:0:0:
256,192,5990,1,0,0:0:0:0:
256,192,6150,1,0,0:0:0:0:
256,192,6230,1,0,0:0:0:0:
256,192,6390,1,0,0:0:0:0:
256,192,6470,1,0,0:0:0:0:
256,192,6630,1,0,0:0:0:0:
256,192,6710,1,2,0:0:0:0:
256,192,6950,1,0,0:0:0:0:
256,192,7110,1,0,0:0:0:0:
256,192,7190,1,2,0:0:0:0:
256,192,7430,1,0,0:0:0:0:
256,192,7590,1,0,0:0:0:0:
256,192,7670,1,2,0:0:0:0:
256,192,7910,1,0,0:0:0:0:
256,192,8070,1,0,0:0:0:0:
256,192,8150,1,2,0:0:0:0:
256,192,8230,1,0,0:0:0:0:
256,192,8310,1,0,0:0:0:0:
256,192,8390,1,0,0:0:0:0:
256,192,8470,1,0,0:0:0:0:
256,192,8550,1,0,0:0:0:0:
256,192,8630,1,2,0:0:0:0:
256,192,8870,1,2,0:0:0:0:
256,192,9110,1,0,0:0:0:0:
256,192,9350,1,0,0:0:0:0:
256,192,9590,1,2,0:0:0:0:
256,192,9830,1,0,0:0:0:0:
256,192,9950,1,0,0:0:0:0:
256,192,10190,1,0,0:0:0:0:
256,192,10310,1,2,0:0:0:0:
256,192,10430,1,0,0:0:0:0:
256,192,10550,1,0,0:0:0:0:
256,192,10790,1,0,0:0:0:0:
256,192,11030,1,2,0:0:0:0:
256,192,11270,1,0,0:0:0:0:
256,192,11510,1,2,0:0:0:0:
256,192,11750,1,0,0:0:0:0:
256,192,11870,1,2,0:0:0:0:
256,192,12110,1,0,0:0:0:0:
256,192,12230,1,2,0:0:0:0:
256,192,12350,1,0,0:0:0:0:
256,192,12470,1,0,0:0:0:0:
256,192,12710,1,0,0:0:0:0:
256,192,12950,1,2,0:0:0:0:
256,192,13190,1,0,0:0:0:0:
256,192,13430,1,2,0:0:0:0:
256,192,13670,1,0,0:0:0:0:
256,192,13830,1,0,0:0:0:0:
256,192,13910,1,2,0:0:0:0:
256,192,14070,1,0,0:0:0:0:
256,192,14150,1,2,0:0:0:0:
256,192,14310,1,0,0:0:0:0:
256,192,14390,1,2,0:0:0:0:
256,192,14630,1,0,0:0:0:0:
256,192,14870,1,0,0:0:0:0:
256,192,14950,1,0,0:0:0:0:
256,192,15030,1,0,0:0:0:0:
256,192,15110,1,0,0:0:0:0:
256,192,15190,1,0,0:0:0:0:
256,192,15270,1,0,0:0:0:0:
256,192,15350,1,0,0:0:0:0:
256,192,15590,1,4,0:0:0:0:
256,192,15830,1,4,0:0:0:0:
256,192,16010,1,4,0:0:0:0:
256,192,16250,1,6,0:0:0:0:
256,192,17270,1,0,0:0:0:0:
256,192,17330,1,0,0:0:0:0:
256,192,17390,1,0,0:0:0:0:
256,192,17450,1,0,0:0:0:0:
256,192,17510,1,2,0:0:0:0:
256,192,17570,1,0,0:0:0:0:
256,192,17630,1,0,0:0:0:0:
256,192,17690,1,0,0:0:0:0:
256,192,17750,1,2,0:0:0:0:
256,192,17810,1,0,0:0:0:0:
256,192,17870,1,2,0:0:0:0:
256,192,17930,1,0,0:0:0:0:
256,192,17990,1,2,0:0:0:0:
256,192,18050,1,0,0:0:0:0:
256,192,18110,1,0,0:0:0:0:
256,192,18170,1,0,0:0:0:0:
256,192,18230,1,2,0:0:0:0:
256,192,18350,1,2,0:0:0:0:
256,192,18410,1,2,0:0:0:0:
256,192,18470,1,0,0:0:0:0:
256,192,18590,1,2,0:0:0:0:
256,192,18710,1,0,0:0:0:0:
256,192,18770,1,0,0:0:0:0:
256,192,18830,1,2,0:0:0:0:
256,192,18950,1,0,0:0:0:0:
256,192,19070,1,2,0:0:0:0:
256,192,19190,1,0,0:0:0:0:
256,192,19310,1,2,0:0:0:0:
256,192,19370,1,2,0:0:0:0:
256,192,19430,1,0,0:0:0:0:
256,192,19550,1,2,0:0:0:0:
256,192,19670,1,0,0:0:0:0:
256,192,19730,1,0,0:0:0:0:
256,192,19790,1,2,0:0:0:0:
256,192,19910,1,0,0:0:0:0:
256,192,20030,1,2,0:0:0:0:
256,192,20150,1,0,0:0:0:0:
256,192,20210,1,0,0:0:0:0:
256,192,20270,1,2,0:0:0:0:
256,192,20390,1,0,0:0:0:0:
256,192,20510,1,2,0:0:0:0:
256,192,20630,1,0,0:0:0:0:
256,192,20690,1,0,0:0:0:0:
256,192,20750,1,0,0:0:0:0:
256,192,20870,1,2,0:0:0:0:
256,192,20930,1,2,0:0:0:0:
256,192,20990,1,2,0:0:0:0:
256,192,21110,1,0,0:0:0:0:
256,192,21170,1,2,0:0:0:0:
256,192,21230,1,2,0:0:0:0:
256,192,21350,1,0,0:0:0:0:
256,192,21470,1,2,0:0:0:0:
256,192,21590,1,2,0:0:0:0:
256,192,21650,1,0,0:0:0:0:
256,192,21710,1,0,0:0:0:0:
256,192,21770,1,0,0:0:0:0:
256,192,21830,1,2,0:0:0:0:
256,192,21950,1,0,0:0:0:0:
256,192,22070,1,2,0:0:0:0:
256,192,22130,1,2,0:0:0:0:
256,192,22190,1,2,0:0:0:0:
256,192,22310,1,0,0:0:0:0:
256,192,22430,1,0,0:0:0:0:
256,192,22550,1,0,0:0:0:0:
256,192,22610,1,0,0:0:0:0:
256,192,22670,1,2,0:0:0:0:
256,192,22790,1,0,0:0:0:0:
256,192,22910,1,2,0:0:0:0:
256,192,23030,1,2,0:0:0:0:
256,192,23090,1,0,0:0:0:0:
256,192,23150,1,0,0:0:0:0:
256,192,23270,1,0,0:0:0:0:
256,192,23390,1,2,0:0:0:0:
256,192,23510,1,2,0:0:0:0:
256,192,23570,1,2,0:0:0:0:
256,192,23630,1,2,0:0:0:0:
256,192,23750,1,0,0:0:0:0:
256,192,23810,1,0,0:0:0:0:
256,192,23870,1,0,0:0:0:0:
256,192,23990,1,2,0:0:0:0:
256,192,24050,1,2,0:0:0:0:
256,192,24110,1,0,0:0:0:0:
256,192,24230,1,0,0:0:0:0:
256,192,24350,1,0,0:0:0:0:
256,192,24470,1,2,0:0:0:0:
256,192,24590,1,0,0:0:0:0:
256,192,24650,1,0,0:0:0:0:
256,192,24710,1,2,0:0:0:0:
256,192,24830,1,0,0:0:0:0:
256,192,24950,1,0,0:0:0:0:
256,192,25010,1,0,0:0:0:0:
256,192,25070,1,2,0:0:0:0:
256,192,25190,1,0,0:0:0:0:
256,192,25250,1,0,0:0:0:0:
256,192,25310,1,2,0:0:0:0:
256,192,25430,1,0,0:0:0:0:
256,192,25490,1,0,0:0:0:0:
256,192,25550,1,0,0:0:0:0:
256,192,25610,1,0,0:0:0:0:
256,192,25670,1,2,0:0:0:0:
256,192,25730,1,2,0:0:0:0:
256,192,25790,1,2,0:0:0:0:
256,192,25850,1,2,0:0:0:0:
256,192,25910,1,0,0:0:0:0:
256,192,26030,1,2,0:0:0:0:
256,192,26090,1,2,0:0:0:0:
256,192,26150,1,0,0:0:0:0:
256,192,26270,1,2,0:0:0:0:
256,192,26390,1,0,0:0:0:0:
256,192,26450,1,0,0:0:0:0:
256,192,26510,1,2,0:0:0:0:
256,192,26630,1,0,0:0:0:0:
256,192,26750,1,2,0:0:0:0:
256,192,26870,1,0,0:0:0:0:
256,192,26990,1,2,0:0:0:0:
256,192,27050,1,2,0:0:0:0:
256,192,27110,1,0,0:0:0:0:
256,192,27230,1,2,0:0:0:0:
256,192,27350,1,0,0:0:0:0:
256,192,27410,1,2,0:0:0:0:
256,192,27470,1,2,0:0:0:0:
256,192,27590,1,0,0:0:0:0:
256,192,27710,1,2,0:0:0:0:
256,192,27830,1,0,0:0:0:0:
256,192,27890,1,0,0:0:0:0:
256,192,27950,1,2,0:0:0:0:
256,192,28070,1,0,0:0:0:0:
256,192,28190,1,2,0:0:0:0:
256,192,28310,1,2,0:0:0:0:
256,192,28370,1,0,0:0:0:0:
256,192,28430,1,0,0:0:0:0:
256,192,28550,1,0,0:0:0:0:
256,192,28670,1,2,0:0:0:0:
256,192,28790,1,2,0:0:0:0:
256,192,28910,1,2,0:0:0:0:
256,192,28970,1,2,0:0:0:0:
256,192,29030,1,2,0:0:0:0:
256,192,29150,1,0,0:0:0:0:
256,192,29270,1,2,0:0:0:0:
256,192,29330,1,0,0:0:0:0:
256,192,29390,1,0,0:0:0:0:
256,192,29450,1,0,0:0:0:0:
256,192,29510,1,2,0:0:0:0:
256,192,29630,1,0,0:0:0:0:
256,192,29750,1,0,0:0:0:0:
256,192,29810,1,0,0:0:0:0:
256,192,29870,1,0,0:0:0:0:
256,192,29930,1,0,0:0:0:0:
256,192,29990,1,2,0:0:0:0:
256,192,30050,1,2,0:0:0:0:
256,192,30110,1,0,0:0:0:0:
256,192,30230,1,2,0:0:0:0:
256,192,30350,1,0,0:0:0:0:
256,192,30410,1,0,0:0:0:0:
256,192,30470,1,2,0:0:0:0:
256,192,30590,1,4,0:0:0:0:
256,192,30710,1,0,0:0:0:0:
256,192,30830,1,0,0:0:0:0:
256,192,30950,1,2,0:0:0:0:
256,192,31010,1,2,0:0:0:0:
256,192,31070,1,2,0:0:0:0:
256,192,31130,1,2,0:0:0:0:
256,192,31190,1,2,0:0:0:0:
256,192,31250,1,2,0:0:0:0:
256,192,31310,1,2,0:0:0:0:
256,192,31370,1,2,0:0:0:0:
256,192,31430,1,2,0:0:0:0:
256,192,31490,1,2,0:0:0:0:
256,192,31550,1,2,0:0:0:0:
256,192,31610,1,2,0:0:0:0:
256,192,31670,1,0,0:0:0:0:
256,192,31790,1,2,0:0:0:0:
256,192,31910,1,0,0:0:0:0:
256,192,32030,1,2,0:0:0:0:
256,192,32150,1,0,0:0:0:0:
256,192,32210,1,0,0:0:0:0:
256,192,32270,1,2,0:0:0:0:
256,192,32390,1,0,0:0:0:0:
256,192,32510,1,2,0:0:0:0:
256,192,32570,1,2,0:0:0:0:
256,192,32630,1,2,0:0:0:0:
256,192,32750,1,0,0:0:0:0:
256,192,32870,1,2,0:0:0:0:
256,192,32930,1,2,0:0:0:0:
256,192,32990,1,2,0:0:0:0:
256,192,33110,1,0,0:0:0:0:
256,192,33170,1,0,0:0:0:0:
256,192,33230,1,2,0:0:0:0:
256,192,33290,1,0,0:0:0:0:
256,192,33350,1,2,0:0:0:0:
256,192,33470,1,2,0:0:0:0:
256,192,33590,1,0,0:0:0:0:
256,192,33710,1,2,0:0:0:0:
256,192,33830,1,0,0:0:0:0:
256,192,33950,1,2,0:0:0:0:
256,192,34010,1,2,0:0:0:0:
256,192,34070,1,0,0:0:0:0:
256,192,34190,1,2,0:0:0:0:
256,192,34310,1,0,0:0:0:0:
256,192,34430,1,0,0:0:0:0:
256,192,34490,1,0,0:0:0:0:
256,192,34550,1,0,0:0:0:0:
256,192,34670,1,0,0:0:0:0:
256,192,34790,1,2,0:0:0:0:
256,192,34910,1,0,0:0:0:0:
256,192,34970,1,0,0:0:0:0:
256,192,35030,1,2,0:0:0:0:
256,192,35150,1,0,0:0:0:0:
256,192,35270,1,2,0:0:0:0:
256,192,35390,1,2,0:0:0:0:
256,192,35510,1,2,0:0:0:0:
256,192,35570,1,2,0:0:0:0:
256,192,35630,1,2,0:0:0:0:
256,192,35750,1,0,0:0:0:0:
256,192,35870,1,0,0:0:0:0:
256,192,35990,1,2,0:0:0:0:
256,192,36050,1,0,0:0:0:0:
256,192,36110,1,0,0:0:0:0:
256,192,36230,1,0,0:0:0:0:
256,192,36350,1,2,0:0:0:0:
256,192,36410,1,2,0:0:0:0:
256,192,36470,1,2,0:0:0:0:
256,192,36590,1,0,0:0:0:0:
256,192,36710,1,0,0:0:0:0:
256,192,36770,1,0,0:0:0:0:
256,192,36830,1,0,0:0:0:0:
256,192,36950,1,2,0:0:0:0:
256,192,37010,1,2,0:0:0:0:
256,192,37070,1,0,0:0:0:0:
256,192,37190,1,2,0:0:0:0:
256,192,37250,1,2,0:0:0:0:
256,192,37310,1,0,0:0:0:0:
256,192,37430,1,2,0:0:0:0:
256,192,37490,1,2,0:0:0:0:
256,192,37550,1,2,0:0:0:0:
256,192,37610,1,2,0:0:0:0:
256,192,37670,1,0,0:0:0:0:
256,192,37730,1,0,0:0:0:0:
256,192,37790,1,0,0:0:0:0:
256,192,37850,1,0,0:0:0:0:
256,192,37910,1,2,0:0:0:0:
256,192,38030,1,0,0:0:0:0:
256,192,38090,1,0,0:0:0:0:
256,192,38150,1,2,0:0:0:0:
256,192,38270,1,0,0:0:0:0:
256,192,38330,1,0,0:0:0:0:
256,192,38390,1,0,0:0:0:0:
256,192,38450,1,0,0:0:0:0:
256,192,38510,1,0,0:0:0:0:
256,192,38570,1,0,0:0:0:0:
256,192,38630,1,0,0:0:0:0:
256,192,38690,1,0,0:0:0:0:
256,192,38750,1,0,0:0:0:0:
256,192,38810,1,0,0:0:0:0:
256,192,38870,1,0,0:0:0:0:
256,192,38930,1,0,0:0:0:0:
256,192,38990,1,0,0:0:0:0:
256,192,39050,1,0,0:0:0:0:
256,192,39110,1,0,0:0:0:0:
256,192,39170,1,0,0:0:0:0:
256,192,39230,1,0,0:0:0:0:
256,192,39290,1,0,0:0:0:0:
256,192,39350,1,0,0:0:0:0:
256,192,39470,1,2,0:0:0:0:
256,192,39590,1,0,0:0:0:0:
256,192,39710,1,2,0:0:0:0:
256,192,39770,1,2,0:0:0:0:
256,192,39830,1,0,0:0:0:0:
256,192,39950,1,2,0:0:0:0:
256,192,40070,1,0,0:0:0:0:
256,192,40190,1,0,0:0:0:0:
256,192,40250,1,0,0:0:0:0:
256,192,40310,1,0,0:0:0:0:
256,192,40430,1,0,0:0:0:0:
256,192,40550,1,2,0:0:0:0:
256,192,40670,1,0,0:0:0:0:
256,192,40730,1,0,0:0:0:0:
256,192,40790,1,2,0:0:0:0:
256,192,40910,1,0,0:0:0:0:
256,192,41030,1,2,0:0:0:0:
256,192,41150,1,2,0:0:0:0:
256,192,41210,1,2,0:0:0:0:
256,192,41270,1,0,0:0:0:0:
256,192,41390,1,0,0:0:0:0:
256,192,41510,1,2,0:0:0:0:
256,192,41630,1,2,0:0:0:0:
256,192,41690,1,0,0:0:0:0:
256,192,41750,1,0,0:0:0:0:
256,192,41870,1,0,0:0:0:0:
256,192,41990,1,0,0:0:0:0:
256,192,42110,1,2,0:0:0:0:
256,192,42170,1,2,0:0:0:0:
256,192,42230,1,2,0:0:0:0:
256,192,42290,1,2,0:0:0:0:
256,192,42350,1,2,0:0:0:0:
256,192,42470,1,0,0:0:0:0:
256,192,42590,1,0,0:0:0:0:
256,192,42710,1,2,0:0:0:0:
256,192,42830,1,0,0:0:0:0:
256,192,42950,1,2,0:0:0:0:
256,192,43070,1,0,0:0:0:0:
256,192,43190,1,2,0:0:0:0:
256,192,43250,1,2,0:0:0:0:
256,192,43310,1,2,0:0:0:0:
256,192,43430,1,0,0:0:0:0:
256,192,43550,1,2,0:0:0:0:
256,192,43610,1,2,0:0:0:0:
256,192,43670,1,2,0:0:0:0:
256,192,43790,1,0,0:0:0:0:
256,192,43850,1,0,0:0:0:0:
256,192,43910,1,0,0:0:0:0:
256,192,44030,1,2,0:0:0:0:
256,192,44090,1,2,0:0:0:0:
256,192,44150,1,2,0:0:0:0:
256,192,44210,1,2,0:0:0:0:
256,192,44270,1,0,0:0:0:0:
256,192,44330,1,0,0:0:0:0:
256,192,44390,1,0,0:0:0:0:
256,192,44450,1,0,0:0:0:0:
256,192,44510,1,2,0:0:0:0:
256,192,44570,1,0,0:0:0:0:
256,192,44630,1,0,0:0:0:0:
256,192,44690,1,0,0:0:0:0:
256,192,44750,1,2,0:0:0:0:
256,192,44810,1,0,0:0:0:0:
256,192,44870,1,2,0:0:0:0:
256,192,44930,1,0,0:0:0:0:
256,192,44990,1,2,0:0:0:0:
256,192,45050,1,2,0:0:0:0:
256,192,45110,1,2,0:0:0:0:
256,192,45230,1,0,0:0:0:0:
256,192,45350,1,0,0:0:0:0:
256,192,45410,1,0,0:0:0:0:
256,192,45470,1,0,0:0:0:0:
256,192,45590,1,0,0:0:0:0:
256,192,45710,1,0,0:0:0:0:
256,192,45830,1,2,0:0:0:0:
256,192,45950,1,0,0:0:0:0:
256,192,46070,1,0,0:0:0:0:
256,192,46190,1,0,0:0:0:0:
256,192,46310,1,0,0:0:0:0:
256,192,46430,1,2,0:0:0:0:
256,192,46550,1,2,0:0:0:0:
256,192,46670,1,2,0:0:0:0:
256,192,46790,1,2,0:0:0:0:
256,192,46910,1,2,0:0:0:0:
256,192,47030,1,0,0:0:0:0:
256,192,47270,1,2,0:0:0:0:
256,192,47510,1,0,0:0:0:0:
256,192,47630,1,0,0:0:0:0:
256,192,47750,1,2,0:0:0:0:
256,192,47990,1,0,0:0:0:0:
256,192,48110,1,0,0:0:0:0:
256,192,48230,1,2,0:0:0:0:
256,192,48350,1,0,0:0:0:0:
256,192,48590,1,0,0:0:0:0:
256,192,48710,1,2,0:0:0:0:
256,192,48830,1,0,0:0:0:0:
256,192,48950,1,0,0:0:0:0:
256,192,49190,1,6,0:0:0:0:
256,192,49430,1,6,0:0:0:0:
256,192,49910,1,2,0:0:0:0:
256,192,49970,1,2,0:0:0:0:
256,192,50030,1,2,0:0:0:0:
256,192,50090,1,2,0:0:0:0:
256,192,50150,1,2,0:0:0:0:
256,192,50210,1,2,0:0:0:0:
256,192,50270,1,0,0:0:0:0:
256,192,50330,1,0,0:0:0:0:
256,192,50390,1,0,0:0:0:0:
256,192,50450,1,0,0:0:0:0:
256,192,50510,1,0,0:0:0:0:
256,192,50570,1,0,0:0:0:0:
256,192,50630,1,2,0:0:0:0:
256,192,50870,1,0,0:0:0:0:
256,192,50990,1,0,0:0:0:0:
256,192,51110,1,2,0:0:0:0:
256,192,51230,1,0,0:0:0:0:
256,192,51350,1,0,0:0:0:0:
256,192,51470,1,0,0:0:0:0:
256,192,51590,1,2,0:0:0:0:
256,192,51830,1,0,0:0:0:0:
256,192,51950,1,0,0:0:0:0:
256,192,52070,1,2,0:0:0:0:
256,192,52190,1,4,0:0:0:0:
256,192,52430,1,6,0:0:0:0:
256,192,52670,1,6,0:0:0:0:
256,192,53030,1,0,0:0:0:0:
256,192,53150,1,2,0:0:0:0:
256,192,53270,1,0,0:0:0:0:
256,192,53390,1,2,0:0:0:0:
256,192,53750,1,2,0:0:0:0:
256,192,53870,1,0,0:0:0:0:
256,192,53930,1,0,0:0:0:0:
256,192,53990,1,0,0:0:0:0:
256,192,54110,1,0,0:0:0:0:
256,192,54230,1,0,0:0:0:0:
256,192,54410,1,2,0:0:0:0:
256,192,54550,1,2,0:0:0:0:
256,192,54710,1,6,0:0:0:0:
256,192,55190,1,2,0:0:0:0:
256,192,55670,1,6,0:0:0:0:
256,192,56150,1,2,0:0:0:0:
256,192,56210,1,2,0:0:0:0:
256,192,56270,1,0,0:0:0:0:
256,192,56330,1,0,0:0:0:0:
256,192,56390,1,2,0:0:0:0:
256,192,56630,1,6,0:0:0:0:
256,192,57110,1,2,0:0:0:0:
256,192,57590,1,6,0:0:0:0:
256,192,58070,1,2,0:0:0:0:
256,192,58130,1,0,0:0:0:0:
256,192,58190,1,0,0:0:0:0:
256,192,58250,1,0,0:0:0:0:
256,192,58310,1,2,0:0:0:0:
256,192,58550,1,4,0:0:0:0:
256,192,59030,1,6,0:0:0:0:
256,192,59510,1,4,0:0:0:0:
256,192,59990,1,6,0:0:0:0:
256,192,60470,1,0,0:0:0:0:
256,192,60530,1,0,0:0:0:0:
256,192,60590,1,2,0:0:0:0:
256,192,60710,1,0,0:0:0:0:
256,192,60770,1,0,0:0:0:0:
256,192,60830,1,2,0:0:0:0:
256,192,60950,1,0,0:0:0:0:
256,192,61010,1,0,0:0:0:0:
256,192,61070,1,2,0:0:0:0:
256,192,61190,1,0,0:0:0:0:
256,192,61250,1,0,0:0:0:0:
256,192,61310,1,2,0:0:0:0:
256,192,61430,1,4,0:0:0:0:
256,192,61550,1,4,0:0:0:0:
256,192,61670,1,4,0:0:0:0:
256,192,61790,1,4,0:0:0:0:
256,192,61910,1,2,0:0:0:0:
256,192,61970,1,2,0:0:0:0:
256,192,62030,1,2,0:0:0:0:
256,192,62090,1,2,0:0:0:0:
256,192,62150,1,2,0:0:0:0:
256,192,62210,1,2,0:0:0:0:
256,192,62270,1,2,0:0:0:0:
256,192,62330,1,2,0:0:0:0:
256,192,62390,1,0,0:0:0:0:
256,192,62510,1,2,0:0:0:0:
256,192,62630,1,0,0:0:0:0:
256,192,62870,1,2,0:0:0:0:
256,192,62990,1,0,0:0:0:0:
256,192,63110,1,2,0:0:0:0:
256,192,63350,1,0,0:0:0:0:
256,192,63470,1,0,0:0:0:0:
256,192,63590,1,2,0:0:0:0:
256,192,63710,1,2,0:0:0:0:
256,192,63830,1,2,0:0:0:0:
256,192,63950,1,0,0:0:0:0:
256,192,64070,1,2,0:0:0:0:
256,192,64310,1,0,0:0:0:0:
256,192,64430,1,2,0:0:0:0:
256,192,64550,1,0,0:0:0:0:
256,192,64670,1,2,0:0:0:0:
256,192,64730,1,2,0:0:0:0:
256,192,64790,1,0,0:0:0:0:
256,192,64910,1,2,0:0:0:0:
256,192,65030,1,0,0:0:0:0:
256,192,65090,1,0,0:0:0:0:
256,192,65150,1,2,0:0:0:0:
256,192,65270,1,0,0:0:0:0:
256,192,65390,1,2,0:0:0:0:
256,192,65510,1,0,0:0:0:0:
256,192,65630,1,2,0:0:0:0:
256,192,65690,1,2,0:0:0:0:
256,192,65750,1,2,0:0:0:0:
256,192,65870,1,2,0:0:0:0:
256,192,65990,1,0,0:0:0:0:
256,192,66050,1,0,0:0:0:0:
256,192,66110,1,2,0:0:0:0:
256,192,66230,1,0,0:0:0:0:
256,192,66350,1,2,0:0:0:0:
256,192,66470,1,0,0:0:0:0:
256,192,66590,1,2,0:0:0:0:
256,192,66710,1,0,0:0:0:0:
256,192,66770,1,0,0:0:0:0:
256,192,66830,1,2,0:0:0:0:
256,192,66950,1,0,0:0:0:0:
256,192,67070,1,2,0:0:0:0:
256,192,67190,1,2,0:0:0:0:
256,192,67250,1,2,0:0:0:0:
256,192,67310,1,2,0:0:0:0:
256,192,67430,1,0,0:0:0:0:
256,192,67550,1,2,0:0:0:0:
256,192,67610,1,2,0:0:0:0:
256,192,67670,1,2,0:0:0:0:
256,192,67730,1,2,0:0:0:0:
256,192,67790,1,2,0:0:0:0:
256,192,67910,1,2,0:0:0:0:
256,192,68030,1,0,0:0:0:0:
256,192,68150,1,2,0:0:0:0:
256,192,68210,1,2,0:0:0:0:
256,192,68270,1,2,0:0:0:0:
256,192,68390,1,0,0:0:0:0:
256,192,68510,1,0,0:0:0:0:
256,192,68570,1,0,0:0:0:0:
256,192,68630,1,0,0:0:0:0:
256,192,68750,1,0,0:0:0:0:
256,192,68870,1,0,0:0:0:0:
256,192,68990,1,0,0:0:0:0:
256,192,69110,1,2,0:0:0:0:
256,192,69170,1,2,0:0:0:0:
256,192,69230,1,2,0:0:0:0:
256,192,69350,1,0,0:0:0:0:
256,192,69470,1,2,0:0:0:0:
256,192,69530,1,2,0:0:0:0:
256,192,69590,1,2,0:0:0:0:
256,192,69650,1,2,0:0:0:0:
256,192,69710,1,0,0:0:0:0:
256,192,69830,1,0,0:0:0:0:
256,192,69950,1,0,0:0:0:0:
256,192,70070,1,2,0:0:0:0:
256,192,70190,1,0,0:0:0:0:
256,192,70250,1,0,0:0:0:0:
256,192,70310,1,2,0:0:0:0:
256,192,70430,1,0,0:0:0:0:
256,192,70550,1,2,0:0:0:0:
256,192,70610,1,0,0:0:0:0:
256,192,70670,1,2,0:0:0:0:
256,192,70790,1,0,0:0:0:0:
256,192,70910,1,0,0:0:0:0:
256,192,71030,1,2,0:0:0:0:
256,192,71090,1,2,0:0:0:0:
256,192,71150,1,0,0:0:0:0:
256,192,71270,1,2,0:0:0:0:
256,192,71330,1,2,0:0:0:0:
256,192,71390,1,0,0:0:0:0:
256,192,71510,1,2,0:0:0:0:
256,192,71570,1,0,0:0:0:0:
256,192,71630,1,2,0:0:0:0:
256,192,71690,1,0,0:0:0:0:
256,192,71750,1,2,0:0:0:0:
256,192,71990,1,0,0:0:0:0:
256,192,72110,1,2,0:0:0:0:
256,192,72230,1,0,0:0:0:0:
256,192,72350,1,2,0:0:0:0:
256,192,72410,1,2,0:0:0:0:
256,192,72470,1,0,0:0:0:0:
256,192,72590,1,2,0:0:0:0:
256,192,72710,1,0,0:0:0:0:
256,192,72770,1,0,0:0:0:0:
256,192,72830,1,2,0:0:0:0:
256,192,72950,1,0,0:0:0:0:
256,192,73070,1,2,0:0:0:0:
256,192,73190,1,0,0:0:0:0:
256,192,73310,1,2,0:0:0:0:
256,192,73370,1,2,0:0:0:0:
256,192,73430,1,0,0:0:0:0:
256,192,73550,1,2,0:0:0:0:
256,192,73670,1,0,0:0:0:0:
256,192,73730,1,0,0:0:0:0:
256,192,73790,1,2,0:0:0:0:
256,192,74150,1,0,0:0:0:0:
256,192,74270,1,0,0:0:0:0:
256,192,74390,1,2,0:0:0:0:
256,192,74510,1,2,0:0:0:0:
256,192,74630,1,2,0:0:0:0:
256,192,74750,1,2,0:0:0:0:
256,192,74870,1,0,0:0:0:0:
256,192,74930,1,0,0:0:0:0:
256,192,74990,1,0,0:0:0:0:
256,192,75110,1,0,0:0:0:0:
256,192,75230,1,2,0:0:0:0:
256,192,75290,1,2,0:0:0:0:
256,192,75350,1,2,0:0:0:0:
256,192,75470,1,2,0:0:0:0:
256,192,75530,1,2,0:0:0:0:
256,192,75590,1,2,0:0:0:0:
256,192,75710,1,0,0:0:0:0:
256,192,75830,1,0,0:0:0:0:
256,192,75890,1,0,0:0:0:0:
256,192,75950,1,0,0:0:0:0:
256,192,76070,1,0,0:0:0:0:
256,192,76190,1,2,0:0:0:0:
256,192,76250,1,2,0:0:0:0:
256,192,76310,1,2,0:0:0:0:
256,192,76430,1,2,0:0:0:0:
256,192,76550,1,0,0:0:0:0:
256,192,76610,1,0,0:0:0:0:
256,192,76670,1,0,0:0:0:0:
256,192,76790,1,2,0:0:0:0:
256,192,76850,1,0,0:0:0:0:
256,192,76910,1,0,0:0:0:0:
256,192,76970,1,0,0:0:0:0:
256,192,77030,1,2,0:0:0:0:
256,192,77150,1,2,0:0:0:0:
256,192,77210,1,2,0:0:0:0:
256,192,77270,1,0,0:0:0:0:
256,192,77390,1,0,0:0:0:0:
256,192,77510,1,2,0:0:0:0:
256,192,77570,1,2,0:0:0:0:
256,192,77630,1,2,0:0:0:0:
256,192,77750,1,0,0:0:0:0:
256,192,77810,1,0,0:0:0:0:
256,192,77870,1,0,0:0:0:0:
256,192,77990,1,2,0:0:0:0:
256,192,78050,1,2,0:0:0:0:
256,192,78110,1,2,0:0:0:0:
256,192,78230,1,0,0:0:0:0:
256,192,78290,1,0,0:0:0:0:
256,192,78350,1,0,0:0:0:0:
256,192,78470,1,2,0:0:0:0:
256,192,78590,1,0,0:0:0:0:
256,192,78710,1,2,0:0:0:0:
256,192,78830,5,2,0:0:0:0:
256,192,78950,1,2,0:0:0:0:
256,192,79070,1,0,0:0:0:0:
256,192,79130,1,0,0:0:0:0:
256,192,79190,1,0,0:0:0:0:
256,192,79250,1,0,0:0:0:0:
256,192,79310,1,2,0:0:0:0:
256,192,79430,1,2,0:0:0:0:
256,192,79670,1,0,0:0:0:0:
256,192,79730,1,0,0:0:0:0:
256,192,79790,1,0,0:0:0:0:
256,192,79910,1,0,0:0:0:0:
256,192,80030,1,2,0:0:0:0:
256,192,80150,1,0,0:0:0:0:
256,192,80210,1,0,0:0:0:0:
256,192,80270,1,0,0:0:0:0:
256,192,80390,1,2,0:0:0:0:
256,192,80510,1,2,0:0:0:0:
256,192,80630,1,0,0:0:0:0:
256,192,80690,1,0,0:0:0:0:
256,192,80750,1,2,0:0:0:0:
256,192,80870,1,0,0:0:0:0:
256,192,80990,1,2,0:0:0:0:
256,192,81110,1,2,0:0:0:0:
256,192,81170,1,2,0:0:0:0:
256,192,81230,1,2,0:0:0:0:
256,192,81350,1,0,0:0:0:0:
256,192,81470,1,2,0:0:0:0:
256,192,81590,1,2,0:0:0:0:
256,192,81650,1,2,0:0:0:0:
256,192,81710,1,2,0:0:0:0:
256,192,81830,1,0,0:0:0:0:
256,192,81950,1,2,0:0:0:0:
256,192,82070,1,0,0:0:0:0:
256,192,82130,1,0,0:0:0:0:
256,192,82190,1,0,0:0:0:0:
256,192,82310,1,2,0:0:0:0:
256,192,82430,1,2,0:0:0:0:
256,192,82550,1,0,0:0:0:0:
256,192,82610,1,0,0:0:0:0:
256,192,82670,1,0,0:0:0:0:
256,192,82790,1,2,0:0:0:0:
256,192,82910,1,0,0:0:0:0:
256,192,83030,1,2,0:0:0:0:
256,192,83090,1,2,0:0:0:0:
256,192,83150,1,2,0:0:0:0:
256,192,83210,1,2,0:0:0:0:
256,192,83270,1,0,0:0:0:0:
256,192,83330,1,0,0:0:0:0:
256,192,83390,1,0,0:0:0:0:
256,192,83450,1,0,0:0:0:0:
256,192,83510,1,2,0:0:0:0:
256,192,83630,1,0,0:0:0:0:
256,192,83750,1,2,0:0:0:0:
256,192,83810,1,2,0:0:0:0:
256,192,83870,1,2,0:0:0:0:
256,192,83930,1,2,0:0:0:0:
256,192,83990,1,2,0:0:0:0:
256,192,84110,1,2,0:0:0:0:
256,192,84230,1,0,0:0:0:0:
256,192,84350,1,0,0:0:0:0:
256,192,84410,1,0,0:0:0:0:
256,192,84470,1,0,0:0:0:0:
256,192,84590,1,0,0:0:0:0:
256,192,84710,1,2,0:0:0:0:
256,192,84770,1,2,0:0:0:0:
256,192,84830,1,2,0:0:0:0:
256,192,84950,1,0,0:0:0:0:
256,192,85010,1,0,0:0:0:0:
256,192,85070,1,2,0:0:0:0:
256,192,85190,1,2,0:0:0:0:
256,192,85250,1,2,0:0:0:0:
256,192,85310,1,0,0:0:0:0:
256,192,85430,1,4,0:0:0:0:
256,192,85670,1,4,0:0:0:0:
256,192,85790,1,4,0:0:0:0:
256,192,86030,1,4,0:0:0:0:
256,192,86150,1,4,0:0:0:0:
256,192,86390,1,4,0:0:0:0:
256,192,86510,1,4,0:0:0:0:
256,192,86750,1,4,0:0:0:0:
256,192,86870,1,4,0:0:0:0:
256,192,87110,1,4,0:0:0:0:
256,192,87230,1,4,0:0:0:0:
256,192,87350,1,0,0:0:0:0:
256,192,87590,1,2,0:0:0:0:
256,192,87830,1,0,0:0:0:0:
256,192,87950,1,0,0:0:0:0:
256,192,88070,1,2,0:0:0:0:
256,192,88310,1,0,0:0:0:0:
256,192,88430,1,0,0:0:0:0:
256,192,88550,1,2,0:0:0:0:
256,192,88670,1,0,0:0:0:0:
256,192,88790,1,2,0:0:0:0:
256,192,89150,1,4,0:0:0:0:
256,192,89510,1,4,0:0:0:0:
256,192,89870,1,4,0:0:0:0:
256,192,90110,1,0,0:0:0:0:
256,192,90710,1,0,0:0:0:0:
256,192,90950,1,0,0:0:0:0:
256,192,91190,1,6,0:0:0:0:
256,192,91670,1,2,0:0:0:0:
256,192,91790,1,2,0:0:0:0:
256,192,91910,1,0,0:0:0:0:
256,192,92030,1,0,0:0:0:0:
256,192,92150,1,2,0:0:0:0:
256,192,92270,1,0,0:0:0:0:
256,192,92390,1,0,0:0:0:0:
256,192,92510,1,0,0:0:0:0:
256,192,92570,1,0,0:0:0:0:
256,192,92630,1,0,0:0:0:0:
256,192,92690,1,0,0:0:0:0:
256,192,92750,1,0,0:0:0:0:
256,192,92810,1,0,0:0:0:0:
256,192,92870,1,0,0:0:0:0:
256,192,92930,1,0,0:0:0:0:
256,192,92990,1,0,0:0:0:0:
256,192,93050,1,0,0:0:0:0:
256,192,93110,1,0,0:0:0:0:
256,192,93170,1,0,0:0:0:0:
256,192,93230,1,0,0:0:0:0:
256,192,93290,1,0,0:0:0:0:
256,192,93350,1,0,0:0:0:0:
256,192,93410,1,0,0:0:0:0:
256,192,93470,1,0,0:0:0:0:
256,192,93530,1,0,0:0:0:0:
256,192,93590,1,0,0:0:0:0:
256,192,93650,1,0,0:0:0:0:
256,192,93710,1,0,0:0:0:0:
256,192,93770,1,0,0:0:0:0:
256,192,93830,1,0,0:0:0:0:
256,192,93890,1,0,0:0:0:0:
256,192,93950,1,0,0:0:0:0:
256,192,94010,1,0,0:0:0:0:
256,192,94070,1,0,0:0:0:0:
256,192,101750,5,0,0:0:0:0:
256,192,101870,1,2,0:0:0:0:
256,192,101930,1,2,0:0:0:0:
256,192,101990,1,0,0:0:0:0:
256,192,102110,1,2,0:0:0:0:
256,192,102230,1,0,0:0:0:0:
256,192,102290,1,0,0:0:0:0:
256,192,102350,1,2,0:0:0:0:
256,192,102470,1,0,0:0:0:0:
256,192,102590,1,2,0:0:0:0:
256,192,102710,1,0,0:0:0:0:
256,192,102830,1,2,0:0:0:0:
256,192,102890,1,2,0:0:0:0:
256,192,102950,1,0,0:0:0:0:
256,192,103070,1,2,0:0:0:0:
256,192,103190,1,0,0:0:0:0:
256,192,103250,1,2,0:0:0:0:
256,192,103310,1,2,0:0:0:0:
256,192,103430,1,0,0:0:0:0:
256,192,103550,1,2,0:0:0:0:
256,192,103670,1,0,0:0:0:0:
256,192,103730,1,0,0:0:0:0:
256,192,103790,1,2,0:0:0:0:
256,192,103910,1,0,0:0:0:0:
256,192,104030,1,2,0:0:0:0:
256,192,104150,1,2,0:0:0:0:
256,192,104210,1,0,0:0:0:0:
256,192,104270,1,0,0:0:0:0:
256,192,104330,1,0,0:0:0:0:
256,192,104390,1,2,0:0:0:0:
256,192,104510,1,0,0:0:0:0:
256,192,104630,1,0,0:0:0:0:
256,192,104690,1,0,0:0:0:0:
256,192,104750,1,2,0:0:0:0:
256,192,104810,1,2,0:0:0:0:
256,192,104870,1,0,0:0:0:0:
256,192,104990,1,2,0:0:0:0:
256,192,105110,1,0,0:0:0:0:
256,192,105170,1,0,0:0:0:0:
256,192,105230,1,0,0:0:0:0:
256,192,105290,1,0,0:0:0:0:
256,192,105350,1,2,0:0:0:0:
256,192,105410,1,2,0:0:0:0:
256,192,105470,1,2,0:0:0:0:
256,192,105530,1,2,0:0:0:0:
256,192,105590,1,0,0:0:0:0:
256,192,105710,1,2,0:0:0:0:
256,192,105770,1,2,0:0:0:0:
256,192,105830,1,0,0:0:0:0:
256,192,105950,1,2,0:0:0:0:
256,192,106070,1,0,0:0:0:0:
256,192,106130,1,0,0:0:0:0:
256,192,106190,1,2,0:0:0:0:
256,192,106310,1,0,0:0:0:0:
256,192,106430,1,2,0:0:0:0:
256,192,106550,1,2,0:0:0:0:
256,192,106610,1,0,0:0:0:0:
256,192,106670,1,0,0:0:0:0:
256,192,106790,1,0,0:0:0:0:
256,192,106910,1,2,0:0:0:0:
256,192,107030,1,2,0:0:0:0:
256,192,107090,1,2,0:0:0:0:
256,192,107150,1,2,0:0:0:0:
256,192,107270,1,0,0:0:0:0:
256,192,107330,1,0,0:0:0:0:
256,192,107390,1,0,0:0:0:0:
256,192,107510,1,2,0:0:0:0:
256,192,107570,1,0,0:0:0:0:
256,192,107630,1,0,0:0:0:0:
256,192,107750,1,0,0:0:0:0:
256,192,107870,1,2,0:0:0:0:
256,192,107990,1,0,0:0:0:0:
256,192,108050,1,0,0:0:0:0:
256,192,108110,1,0,0:0:0:0:
256,192,108170,1,0,0:0:0:0:
256,192,108230,1,2,0:0:0:0:
256,192,108290,1,2,0:0:0:0:
256,192,108350,1,2,0:0:0:0:
256,192,108470,1,4,0:0:0:0:
256,192,108710,1,6,0:0:0:0:
256,192,108950,1,4,0:0:0:0:
256,192,109430,1,0,0:0:0:0:
256,192,109550,1,2,0:0:0:0:
256,192,109610,1,2,0:0:0:0:
256,192,109670,1,0,0:0:0:0:
256,192,109790,1,2,0:0:0:0:
256,192,109910,1,0,0:0:0:0:
256,192,109970,1,0,0:0:0:0:
256,192,110030,1,2,0:0:0:0:
256,192,110150,1,0,0:0:0:0:
256,192,110270,1,2,0:0:0:0:
256,192,110390,1,0,0:0:0:0:
256,192,110510,1,2,0:0:0:0:
256,192,110570,1,2,0:0:0:0:
256,192,110630,1,0,0:0:0:0:
256,192,110750,1,2,0:0:0:0:
256,192,110870,1,2,0:0:0:0:
256,192,110930,1,0,0:0:0:0:
256,192,110990,1,0,0:0:0:0:
256,192,111110,1,2,0:0:0:0:
256,192,111230,1,0,0:0:0:0:
256,192,111350,1,0,0:0:0:0:
256,192,111470,1,0,0:0:0:0:
256,192,111530,1,0,0:0:0:0:
256,192,111590,1,2,0:0:0:0:
256,192,111710,1,0,0:0:0:0:
256,192,111830,1,0,0:0:0:0:
256,192,111890,1,0,0:0:0:0:
256,192,111950,1,0,0:0:0:0:
256,192,112010,1,0,0:0:0:0:
256,192,112070,1,2,0:0:0:0:
256,192,112130,1,2,0:0:0:0:
256,192,112190,1,2,0:0:0:0:
256,192,112250,1,2,0:0:0:0:
256,192,112310,1,0,0:0:0:0:
256,192,112430,1,2,0:0:0:0:
256,192,112490,1,2,0:0:0:0:
256,192,112550,1,2,0:0:0:0:
256,192,112670,1,2,0:0:0:0:
256,192,112790,1,2,0:0:0:0:
256,192,112850,1,2,0:0:0:0:
256,192,112910,1,2,0:0:0:0:
256,192,112970,1,2,0:0:0:0:
256,192,113030,1,0,0:0:0:0:
256,192,113090,1,0,0:0:0:0:
256,192,113150,1,0,0:0:0:0:
256,192,113210,1,0,0:0:0:0:
256,192,113270,1,2,0:0:0:0:
256,192,113330,1,0,0:0:0:0:
256,192,113390,1,0,0:0:0:0:
256,192,113510,1,0,0:0:0:0:
256,192,113630,1,0,0:0:0:0:
256,192,113750,1,2,0:0:0:0:
256,192,113810,1,2,0:0:0:0:
256,192,113870,1,2,0:0:0:0:
256,192,113990,1,0,0:0:0:0:
256,192,114110,1,0,0:0:0:0:
256,192,114230,1,0,0:0:0:0:
256,192,114350,1,0,0:0:0:0:
256,192,114470,1,0,0:0:0:0:
256,192,114530,1,0,0:0:0:0:
256,192,114590,1,0,0:0:0:0:
256,192,114650,1,0,0:0:0:0:
256,192,114710,1,2,0:0:0:0:
256,192,114770,1,0,0:0:0:0:
256,192,114830,1,2,0:0:0:0:
256,192,114890,1,0,0:0:0:0:
256,192,114950,1,2,0:0:0:0:
256,192,115010,1,0,0:0:0:0:
256,192,115070,1,0,0:0:0:0:
256,192,115130,1,0,0:0:0:0:
256,192,115190,1,0,0:0:0:0:
256,192,122870,5,0,0:0:0:0:
224,192,122990,1,2,0:0:0:0:
224,192,123110,1,0,0:0:0:0:
224,192,123170,1,0,0:0:0:0:
192,192,123230,1,2,0:0:0:0:
192,192,123350,1,0,0:0:0:0:
224,192,123470,1,2,0:0:0:0:
224,192,123530,1,2,0:0:0:0:
224,192,123590,1,0,0:0:0:0:
224,192,123710,1,2,0:0:0:0:
192,160,123830,1,0,0:0:0:0:
160,192,123950,1,2,0:0:0:0:
192,160,124070,1,0,0:0:0:0:
192,160,124130,1,0,0:0:0:0:
192,160,124190,1,2,0:0:0:0:
256,128,124310,1,2,0:0:0:0:
256,192,124370,1,0,0:0:0:0:
256,192,124430,1,0,0:0:0:0:
256,128,124490,1,0,0:0:0:0:
256,192,124550,1,2,0:0:0:0:
224,160,124670,1,2,0:0:0:0:
224,160,124730,1,2,0:0:0:0:
224,160,124790,1,0,0:0:0:0:
288,160,124910,1,2,0:0:0:0:
160,160,125030,1,2,0:0:0:0:
192,160,125150,1,0,0:0:0:0:
192,160,125210,1,0,0:0:0:0:
160,160,125270,1,2,0:0:0:0:
256,192,125390,1,0,0:0:0:0:
160,160,125510,1,0,0:0:0:0:
160,160,125570,1,0,0:0:0:0:
160,160,125630,1,2,0:0:0:0:
224,160,125750,1,2,0:0:0:0:
160,160,125870,1,0,0:0:0:0:
160,160,125930,1,0,0:0:0:0:
160,160,125990,1,2,0:0:0:0:
192,128,126110,1,2,0:0:0:0:
192,128,126230,1,0,0:0:0:0:
192,160,126290,1,0,0:0:0:0:
192,128,126350,1,0,0:0:0:0:
192,128,126470,1,2,0:0:0:0:
192,128,126530,1,2,0:0:0:0:
192,128,126590,1,2,0:0:0:0:
160,160,126710,1,2,0:0:0:0:
160,160,126770,1,2,0:0:0:0:
160,160,126830,1,2,0:0:0:0:
160,160,126890,1,2,0:0:0:0:
192,128,126950,1,0,0:0:0:0:
192,128,127070,1,0,0:0:0:0:
192,128,127190,1,2,0:0:0:0:
192,160,127250,1,2,0:0:0:0:
192,160,127310,1,0,0:0:0:0:
192,192,127430,1,0,0:0:0:0:
192,128,127550,1,2,0:0:0:0:
192,192,127670,1,0,0:0:0:0:
192,160,127730,1,0,0:0:0:0:
192,128,127790,1,0,0:0:0:0:
192,192,127910,1,2,0:0:0:0:
192,128,128030,1,2,0:0:0:0:
192,192,128150,1,0,0:0:0:0:
192,160,128210,1,0,0:0:0:0:
192,128,128270,1,0,0:0:0:0:
192,160,128390,1,2,0:0:0:0:
192,160,128510,1,2,0:0:0:0:
192,160,128570,1,0,0:0:0:0:
192,128,128630,1,2,0:0:0:0:
192,128,128690,1,0,0:0:0:0:
192,160,128750,1,0,0:0:0:0:
192,160,128810,1,0,0:0:0:0:
192,160,128870,1,2,0:0:0:0:
192,96,128990,1,0,0:0:0:0:
192,128,129110,1,2,0:0:0:0:
192,96,129170,1,0,0:0:0:0:
192,96,129230,1,0,0:0:0:0:
192,96,129290,1,0,0:0:0:0:
192,96,129350,1,2,0:0:0:0:
192,96,129470,1,0,0:0:0:0:
192,96,129530,1,0,0:0:0:0:
192,96,129590,1,0,0:0:0:0:
224,256,130550,1,4,0:0:0:0:
256,224,130670,1,0,0:0:0:0:
256,224,130730,1,0,0:0:0:0:
256,224,130790,1,2,0:0:0:0:
256,224,130910,1,2,0:0:0:0:
192,128,131030,1,0,0:0:0:0:
192,160,131090,1,0,0:0:0:0:
256,224,131150,1,0,0:0:0:0:
256,224,131270,1,2,0:0:0:0:
192,64,131390,1,0,0:0:0:0:
256,224,131630,1,0,0:0:0:0:
256,224,131750,1,2,0:0:0:0:
192,192,131870,1,2,0:0:0:0:
256,224,131990,1,0,0:0:0:0:
256,224,132050,1,0,0:0:0:0:
224,224,132110,1,2,0:0:0:0:
192,192,132230,1,0,0:0:0:0:
224,224,132350,1,2,0:0:0:0:
192,160,132410,1,2,0:0:0:0:
192,192,132470,1,0,0:0:0:0:
224,224,132590,1,0,0:0:0:0:
192,192,132710,1,2,0:0:0:0:
224,224,132830,1,2,0:0:0:0:
192,192,132950,1,0,0:0:0:0:
192,160,133010,1,0,0:0:0:0:
192,160,133070,1,2,0:0:0:0:
192,192,133190,1,2,0:0:0:0:
224,224,133310,1,0,0:0:0:0:
224,224,133550,1,0,0:0:0:0:
160,192,133670,1,2,0:0:0:0:
224,224,133790,1,0,0:0:0:0:
224,224,133910,1,2,0:0:0:0:
224,224,133970,1,0,0:0:0:0:
224,224,134030,1,2,0:0:0:0:
224,224,134150,1,0,0:0:0:0:
224,224,134270,1,2,0:0:0:0:
224,224,134390,1,0,0:0:0:0:
224,224,134510,1,0,0:0:0:0:
224,224,134630,1,2,0:0:0:0:
224,224,134750,1,2,0:0:0:0:
224,224,134870,1,0,0:0:0:0:
192,192,134990,1,0,0:0:0:0:
160,160,135110,1,2,0:0:0:0:
160,96,135230,1,0,0:0:0:0:
128,192,135470,1,0,0:0:0:0:
160,128,135590,1,0,0:0:0:0:
160,128,135710,1,2,0:0:0:0:
160,128,135950,1,0,0:0:0:0:
160,128,136070,1,2,0:0:0:0:
160,128,136190,1,0,0:0:0:0:
160,128,136430,1,0,0:0:0:0:
160,128,136550,1,2,0:0:0:0:
160,128,136670,1,2,0:0:0:0:
160,128,136790,1,0,0:0:0:0:
160,128,136910,1,0,0:0:0:0:
160,128,137030,1,2,0:0:0:0:
160,128,137150,1,0,0:0:0:0:
192,128,137270,1,0,0:0:0:0:
224,160,137390,1,2,0:0:0:0:
224,128,137510,1,0,0:0:0:0:
224,160,137630,1,2,0:0:0:0:
192,160,137750,1,2,0:0:0:0:
192,160,137810,1,0,0:0:0:0:
192,160,137870,1,0,0:0:0:0:
192,160,137930,1,0,0:0:0:0:
192,160,137990,1,2,0:0:0:0:
192,160,138050,1,0,0:0:0:0:
192,160,138110,1,2,0:0:0:0:
224,128,138170,1,2,0:0:0:0:
192,160,138230,1,0,0:0:0:0:
224,160,138470,1,2,0:0:0:0:
224,160,138590,1,2,0:0:0:0:
224,160,138710,1,0,0:0:0:0:
224,160,138830,1,0,0:0:0:0:
224,160,138950,1,2,0:0:0:0:
224,160,139070,1,0,0:0:0:0:
224,160,139190,1,0,0:0:0:0:
224,160,139310,1,0,0:0:0:0:
224,160,139370,1,0,0:0:0:0:
224,160,139430,1,2,0:0:0:0:
192,128,139550,1,0,0:0:0:0:
224,160,139790,1,0,0:0:0:0:
224,160,139910,1,2,0:0:0:0:
224,160,140150,1,0,0:0:0:0:
224,160,140390,1,12,0:0:0:0:
224,160,140630,1,12,0:0:0:0:
224,160,141110,1,4,0:0:0:0:
224,160,141470,1,4,0:0:0:0:
224,160,141830,1,12,0:0:0:0:
224,160,141950,1,0,0:0:0:0:
224,160,142010,1,0,0:0:0:0:
224,160,142070,1,0,0:0:0:0:
224,160,142190,1,0,0:0:0:0:
224,160,142310,1,2,0:0:0:0:
224,160,142430,1,2,0:0:0:0:
224,192,142490,1,2,0:0:0:0:
224,192,142550,1,0,0:0:0:0:
224,160,142670,1,0,0:0:0:0:
224,160,142790,1,2,0:0:0:0:
224,160,142910,1,0,0:0:0:0:
224,160,143030,1,0,0:0:0:0:
224,192,143090,1,0,0:0:0:0:
224,160,143150,1,0,0:0:0:0:
224,160,143270,1,2,0:0:0:0:
256,128,143390,1,0,0:0:0:0:
256,128,143630,1,0,0:0:0:0:
256,128,143750,1,2,0:0:0:0:
224,192,143870,1,0,0:0:0:0:
352,160,144230,1,0,0:0:0:0:
320,128,144350,1,2,0:0:0:0:
256,96,144470,1,0,0:0:0:0:
256,96,144590,1,2,0:0:0:0:
256,128,144950,1,0,0:0:0:0:
256,128,145110,1,2,0:0:0:0:
256,128,145270,1,0,0:0:0:0:
256,128,145430,1,2,0:0:0:0:
256,128,145590,1,2,0:0:0:0:
256,128,145750,1,0,0:0:0:0:
256,128,145910,1,4,0:0:0:0:
352,128,146150,1,0,0:0:0:0:
256,128,146390,1,2,0:0:0:0:
352,160,146630,1,0,0:0:0:0:
288,192,146870,1,4,0:0:0:0:
320,96,147110,1,0,0:0:0:0:
224,128,147350,1,2,0:0:0:0:
288,128,147470,1,0,0:0:0:0:
288,128,147590,1,2,0:0:0:0:
288,192,147830,1,4,0:0:0:0:
256,96,148070,1,0,0:0:0:0:
288,192,148310,1,2,0:0:0:0:
256,96,148550,1,2,0:0:0:0:
288,192,148790,1,4,0:0:0:0:
256,96,149030,1,0,0:0:0:0:
288,192,149270,1,2,0:0:0:0:
256,128,149390,1,0,0:0:0:0:
256,128,149510,1,2,0:0:0:0:
256,128,149750,1,4,0:0:0:0:
256,128,150230,1,4,0:0:0:0:
256,128,150710,1,12,0:0:0:0:
256,128,151190,1,12,0:0:0:0:
256,128,151670,1,4,0:0:0:0:
256,128,151910,1,4,0:0:0:0:
256,128,152150,1,4,0:0:0:0:
256,128,152390,1,4,0:0:0:0:
256,128,152630,1,0,0:0:0:0:
256,128,152750,1,0,0:0:0:0:
256,128,152870,1,0,0:0:0:0:
256,128,152990,1,0,0:0:0:0:
256,128,153110,1,0,0:0:0:0:
256,128,153170,1,0,0:0:0:0:
256,128,153230,1,0,0:0:0:0:
256,128,153290,1,0,0:0:0:0:
256,128,153350,1,2,0:0:0:0:
256,128,153410,1,2,0:0:0:0:
256,128,153470,1,2,0:0:0:0:
256,128,153530,1,2,0:0:0:0:
256,128,153590,1,0,0:0:0:0:
256,160,155510,1,0,0:0:0:0:
288,192,155630,1,0,0:0:0:0:
256,160,155750,1,2,0:0:0:0:
288,192,155870,1,2,0:0:0:0:
256,160,155990,1,0,0:0:0:0:
288,192,156110,1,0,0:0:0:0:
288,192,156230,1,2,0:0:0:0:
288,192,156350,1,0,0:0:0:0:
288,192,156410,1,0,0:0:0:0:
288,192,156470,1,2,0:0:0:0:
256,160,156590,1,0,0:0:0:0:
288,192,156710,1,2,0:0:0:0:
288,192,156830,1,2,0:0:0:0:
288,192,156950,1,0,0:0:0:0:
288,192,157070,1,0,0:0:0:0:
256,192,157130,1,0,0:0:0:0:
288,192,157190,1,2,0:0:0:0:
288,192,157310,1,0,0:0:0:0:
224,192,157430,1,0,0:0:0:0:
288,192,157550,1,0,0:0:0:0:
224,192,157670,1,2,0:0:0:0:
288,192,157790,1,2,0:0:0:0:
192,96,157850,1,2,0:0:0:0:
288,192,157910,1,0,0:0:0:0:
160,128,158030,1,2,0:0:0:0:
160,128,158150,1,0,0:0:0:0:
288,192,158270,1,0,0:0:0:0:
192,96,158330,1,0,0:0:0:0:
288,192,158390,1,0,0:0:0:0:
224,192,158510,1,0,0:0:0:0:
256,160,158630,1,2,0:0:0:0:
192,96,158750,1,2,0:0:0:0:
192,96,158810,1,2,0:0:0:0:
224,128,158870,1,0,0:0:0:0:
192,96,158990,1,2,0:0:0:0:
160,0,159110,1,0,0:0:0:0:
192,160,159230,1,2,0:0:0:0:
192,96,159290,1,0,0:0:0:0:
224,192,159350,1,0,0:0:0:0:
256,128,159470,1,0,0:0:0:0:
192,96,159530,1,0,0:0:0:0:
224,192,159590,1,2,0:0:0:0:
256,128,159710,1,0,0:0:0:0:
224,192,159830,1,2,0:0:0:0:
256,128,159950,1,2,0:0:0:0:
192,96,160010,1,2,0:0:0:0:
224,192,160070,1,0,0:0:0:0:
224,192,160190,1,2,0:0:0:0:
224,192,160310,1,0,0:0:0:0:
192,96,160370,1,0,0:0:0:0:
192,96,160430,1,0,0:0:0:0:
192,96,160490,1,0,0:0:0:0:
192,96,160550,1,2,0:0:0:0:
192,96,160670,1,0,0:0:0:0:
192,96,160730,1,0,0:0:0:0:
192,96,160790,1,0,0:0:0:0:
192,96,160850,1,0,0:0:0:0:
192,96,160910,1,2,0:0:0:0:
224,192,161030,1,2,0:0:0:0:
160,96,161270,1,0,0:0:0:0:
160,192,161390,1,0,0:0:0:0:
224,160,161510,1,2,0:0:0:0:
256,192,161630,1,0,0:0:0:0:
256,192,161750,1,2,0:0:0:0:
256,192,161870,1,0,0:0:0:0:
224,160,161990,1,2,0:0:0:0:
224,160,162230,1,2,0:0:0:0:
160,192,162350,1,0,0:0:0:0:
192,192,162410,1,0,0:0:0:0:
192,192,162470,1,2,0:0:0:0:
160,32,162590,1,2,0:0:0:0:
192,160,162830,1,0,0:0:0:0:
192,160,162950,1,2,0:0:0:0:
256,192,163070,1,0,0:0:0:0:
256,256,163190,1,2,0:0:0:0:
224,192,163310,1,0,0:0:0:0:
224,224,163370,1,0,0:0:0:0:
192,128,163430,1,2,0:0:0:0:
256,224,163550,1,0,0:0:0:0:
192,128,163610,1,0,0:0:0:0:
256,224,163670,1,2,0:0:0:0:
256,224,163790,1,0,0:0:0:0:
256,224,163850,1,0,0:0:0:0:
256,224,163910,1,2,0:0:0:0:
256,224,164030,1,0,0:0:0:0:
192,128,164150,1,2,0:0:0:0:
256,224,164210,1,0,0:0:0:0:
256,224,164270,1,0,0:0:0:0:
256,224,164330,1,0,0:0:0:0:
256,224,164390,1,0,0:0:0:0:
256,224,164450,1,0,0:0:0:0:
256,224,164510,1,0,0:0:0:0:
256,224,164570,1,0,0:0:0:0:
256,224,164630,1,2,0:0:0:0:
256,224,164750,1,2,0:0:0:0:
256,224,164870,1,2,0:0:0:0:
256,224,165110,1,4,0:0:0:0:
256,224,165230,1,0,0:0:0:0:
256,224,165470,1,2,0:0:0:0:
256,224,165710,1,12,0:0:0:0:
256,224,166070,1,4,0:0:0:0:
256,224,166190,1,0,0:0:0:0:
256,224,166430,1,2,0:0:0:0:
256,224,166670,1,12,0:0:0:0:
288,224,167270,1,0,0:0:0:0:
256,192,167390,1,2,0:0:0:0:
256,192,167510,1,0,0:0:0:0:
256,192,167630,1,2,0:0:0:0:
256,192,167750,1,0,0:0:0:0:
256,160,167870,1,0,0:0:0:0:
256,192,167990,1,2,0:0:0:0:
256,160,168110,1,0,0:0:0:0:
256,160,168230,1,0,0:0:0:0:
256,160,168350,1,2,0:0:0:0:
288,192,168470,1,0,0:0:0:0:
288,192,168590,1,0,0:0:0:0:
288,192,168650,1,0,0:0:0:0:
288,192,168710,1,2,0:0:0:0:
256,192,168950,1,0,0:0:0:0:
256,160,169070,1,0,0:0:0:0:
192,128,169130,1,0,0:0:0:0:
256,160,169190,1,2,0:0:0:0:
192,128,169310,1,2,0:0:0:0:
192,128,169370,1,2,0:0:0:0:
256,160,169430,1,0,0:0:0:0:
192,128,169490,1,0,0:0:0:0:
256,160,169550,1,0,0:0:0:0:
256,160,169670,1,2,0:0:0:0:
192,128,169790,1,0,0:0:0:0:
192,128,169850,1,0,0:0:0:0:
192,128,169910,1,2,0:0:0:0:
256,160,170030,1,0,0:0:0:0:
256,160,170150,1,2,0:0:0:0:
224,160,170270,1,0,0:0:0:0:
256,160,170390,1,0,0:0:0:0:
256,160,170510,1,0,0:0:0:0:
256,160,170630,1,2,0:0:0:0:
256,128,170750,1,2,0:0:0:0:
192,160,170810,1,2,0:0:0:0:
256,160,170870,1,0,0:0:0:0:
256,160,170990,1,0,0:0:0:0:
256,160,171050,1,0,0:0:0:0:
256,160,171110,1,2,0:0:0:0:
256,160,171230,1,2,0:0:0:0:
224,96,171290,1,2,0:0:0:0:
256,160,171350,1,0,0:0:0:0:
256,160,171470,1,0,0:0:0:0:
256,160,171530,1,0,0:0:0:0:
256,160,171590,1,2,0:0:0:0:
256,160,171710,1,2,0:0:0:0:
256,160,171770,1,2,0:0:0:0:
256,160,171830,1,0,0:0:0:0:
224,96,171950,1,0,0:0:0:0:
224,96,172010,1,0,0:0:0:0:
256,128,172070,1,2,0:0:0:0:
192,96,172190,1,2,0:0:0:0:
192,96,172250,1,2,0:0:0:0:
256,128,172310,1,0,0:0:0:0:
256,128,172370,1,0,0:0:0:0:
192,96,172430,1,0,0:0:0:0:
192,96,172490,1,0,0:0:0:0:
192,96,172550,1,2,0:0:0:0:
192,96,172610,1,0,0:0:0:0:
192,96,172670,1,0,0:0:0:0:
192,96,172730,1,0,0:0:0:0:
256,128,172790,1,0,0:0:0:0:
256,128,172910,1,0,0:0:0:0:
256,128,173030,1,2,0:0:0:0:
256,128,173150,1,2,0:0:0:0:
256,128,173270,1,0,0:0:0:0:
256,128,173390,1,0,0:0:0:0:
256,128,173510,1,2,0:0:0:0:
224,96,173630,1,0,0:0:0:0:
224,96,173750,1,0,0:0:0:0:
288,128,173870,1,0,0:0:0:0:
224,96,173990,1,2,0:0:0:0:
288,128,174110,1,2,0:0:0:0:
224,96,174230,1,0,0:0:0:0:
288,128,174350,1,0,0:0:0:0:
224,96,174470,1,2,0:0:0:0:
288,128,174590,1,0,0:0:0:0:
224,96,174710,1,0,0:0:0:0:
288,128,174830,1,0,0:0:0:0:
256,128,174890,1,0,0:0:0:0:
256,96,174950,1,2,0:0:0:0:
256,96,175070,1,2,0:0:0:0:
256,96,175190,1,0,0:0:0:0:
256,96,175310,1,0,0:0:0:0:
256,96,175430,1,2,0:0:0:0:
256,96,175550,1,0,0:0:0:0:
256,96,175670,1,0,0:0:0:0:
256,96,175790,1,0,0:0:0:0:
256,96,175850,1,0,0:0:0:0:
256,96,175910,1,2,0:0:0:0:
256,96,176030,1,2,0:0:0:0:
256,96,176150,1,0,0:0:0:0:
256,96,176270,1,0,0:0:0:0:
256,96,176390,1,2,0:0:0:0:
256,96,176510,1,0,0:0:0:0:
256,96,176630,1,2,0:0:0:0:
256,96,176750,1,2,0:0:0:0:
256,96,176870,1,2,0:0:0:0:
192,96,176930,1,2,0:0:0:0:
256,96,176990,1,0,0:0:0:0:
256,96,177110,1,0,0:0:0:0:
192,128,177170,1,0,0:0:0:0:
256,96,177230,1,2,0:0:0:0:
256,96,177350,1,2,0:0:0:0:
256,96,177470,1,0,0:0:0:0:
256,96,177590,1,2,0:0:0:0:
256,96,177710,1,2,0:0:0:0:
256,96,177770,1,2,0:0:0:0:
256,96,177830,1,2,0:0:0:0:
256,96,177950,1,2,0:0:0:0:
256,96,178070,1,0,0:0:0:0:
288,160,178190,1,0,0:0:0:0:
288,160,178310,1,2,0:0:0:0:
288,160,178430,1,2,0:0:0:0:
288,160,178490,1,0,0:0:0:0:
288,160,178550,1,0,0:0:0:0:
288,160,178670,1,0,0:0:0:0:
288,160,178790,1,2,0:0:0:0:
288,160,178910,1,0,0:0:0:0:
288,160,179150,1,0,0:0:0:0:
288,160,179270,1,2,0:0:0:0:
288,160,179510,1,2,0:0:0:0:
288,160,179630,1,0,0:0:0:0:
288,160,179870,1,2,0:0:0:0:
288,160,179990,1,0,0:0:0:0:
288,160,180230,1,2,0:0:0:0:
288,160,180350,1,0,0:0:0:0:
288,160,180470,1,0,0:0:0:0:
288,160,180590,1,0,0:0:0:0:
288,160,180650,1,0,0:0:0:0:
288,160,180710,1,2,0:0:0:0:
288,160,180830,1,0,0:0:0:0:
288,160,180950,1,0,0:0:0:0:
288,160,181070,1,2,0:0:0:0:
288,160,181190,1,0,0:0:0:0:
288,160,181310,1,2,0:0:0:0:
288,160,181430,1,0,0:0:0:0:
288,160,181670,1,2,0:0:0:0:
288,160,181910,1,2,0:0:0:0:
288,160,182270,1,4,0:0:0:0:
192,0,182630,1,4,0:0:0:0:
288,160,182990,1,4,0:0:0:0:
192,128,183230,1,12,0:0:0:0:
384,320,183830,1,12,0:0:0:0:
320,224,184070,1,12,0:0:0:0:
224,160,184310,1,4,0:0:0:0:
256,192,184430,1,0,0:0:0:0:
256,192,184490,1,0,0:0:0:0:
256,192,184550,1,2,0:0:0:0:
256,192,184670,1,0,0:0:0:0:
256,192,184790,1,2,0:0:0:0:
256,192,184910,1,2,0:0:0:0:
256,192,185030,1,0,0:0:0:0:
256,192,185150,1,0,0:0:0:0:
256,192,185270,1,2,0:0:0:0:
256,192,185390,1,2,0:0:0:0:
288,128,185510,1,2,0:0:0:0:
256,192,185630,12,0,187190,0:0:0:0:
256,192,194870,5,0,0:0:0:0:
256,192,194990,1,0,0:0:0:0:
256,192,195050,1,0,0:0:0:0:
256,192,195110,1,2,0:0:0:0:
256,192,195230,1,2,0:0:0:0:
320,192,195350,1,0,0:0:0:0:
288,192,195410,1,0,0:0:0:0:
256,192,195470,1,0,0:0:0:0:
320,192,195590,1,2,0:0:0:0:
256,192,195710,1,2,0:0:0:0:
320,224,195830,1,0,0:0:0:0:
256,192,195950,1,0,0:0:0:0:
288,192,196010,1,0,0:0:0:0:
288,192,196070,1,2,0:0:0:0:
288,192,196190,1,2,0:0:0:0:
288,192,196310,1,0,0:0:0:0:
256,160,196370,1,0,0:0:0:0:
288,192,196430,1,0,0:0:0:0:
288,192,196550,1,2,0:0:0:0:
288,192,196670,1,2,0:0:0:0:
288,192,196790,1,0,0:0:0:0:
256,192,196910,1,0,0:0:0:0:
256,192,196970,1,0,0:0:0:0:
256,192,197030,1,2,0:0:0:0:
256,192,197150,1,2,0:0:0:0:
256,192,197270,1,0,0:0:0:0:
256,160,197330,1,0,0:0:0:0:
256,192,197390,1,0,0:0:0:0:
256,192,197510,1,2,0:0:0:0:
256,192,197630,1,2,0:0:0:0:
256,192,197750,1,0,0:0:0:0:
224,160,197870,1,2,0:0:0:0:
224,160,197930,1,2,0:0:0:0:
224,160,197990,1,0,0:0:0:0:
224,160,198110,1,2,0:0:0:0:
224,160,198230,1,0,0:0:0:0:
224,160,198350,1,2,0:0:0:0:
224,160,198410,1,2,0:0:0:0:
224,160,198470,1,0,0:0:0:0:
224,160,198590,1,2,0:0:0:0:
224,160,198710,1,0,0:0:0:0:
224,160,198830,1,0,0:0:0:0:
224,160,198890,1,0,0:0:0:0:
224,160,198950,1,2,0:0:0:0:
224,160,199070,1,2,0:0:0:0:
192,128,199130,1,2,0:0:0:0:
224,160,199190,1,0,0:0:0:0:
224,128,199250,1,0,0:0:0:0:
224,160,199310,1,0,0:0:0:0:
224,160,199430,1,2,0:0:0:0:
288,160,199550,1,2,0:0:0:0:
224,160,199670,1,0,0:0:0:0:
256,160,199790,1,0,0:0:0:0:
256,160,199850,1,0,0:0:0:0:
256,160,199910,1,2,0:0:0:0:
224,160,200030,1,2,0:0:0:0:
224,0,200090,1,2,0:0:0:0:
224,160,200150,1,0,0:0:0:0:
224,128,200210,1,0,0:0:0:0:
224,160,200270,1,0,0:0:0:0:
224,160,200390,1,2,0:0:0:0:
256,160,200510,1,2,0:0:0:0:
224,128,200570,1,2,0:0:0:0:
256,160,200630,1,0,0:0:0:0:
256,160,200750,1,0,0:0:0:0:
256,160,200810,1,0,0:0:0:0:
256,160,200870,1,2,0:0:0:0:
224,128,200990,1,0,0:0:0:0:
224,128,201050,1,0,0:0:0:0:
288,128,201110,1,2,0:0:0:0:
224,128,201170,1,2,0:0:0:0:
288,128,201230,1,0,0:0:0:0:
288,128,201290,1,0,0:0:0:0:
288,128,201350,1,2,0:0:0:0:
288,128,201470,1,0,0:0:0:0:
224,128,201530,1,0,0:0:0:0:
288,128,201590,1,2,0:0:0:0:
224,160,201710,1,0,0:0:0:0:
192,160,201770,1,0,0:0:0:0:
160,160,201830,1,2,0:0:0:0:
224,128,201890,1,0,0:0:0:0:
128,192,201950,1,0,0:0:0:0:
224,128,202010,1,0,0:0:0:0:
128,192,202070,1,2,0:0:0:0:
128,192,202130,1,2,0:0:0:0:
128,192,202190,1,0,0:0:0:0:
128,192,202250,1,0,0:0:0:0:
128,192,202310,1,2,0:0:0:0:
128,192,202370,1,2,0:0:0:0:
128,192,202430,1,0,0:0:0:0:
128,192,202490,1,0,0:0:0:0:
128,192,202550,1,2,0:0:0:0:
192,128,202670,1,2,0:0:0:0:
128,192,202790,1,2,0:0:0:0:
128,192,202910,1,2,0:0:0:0:
128,192,203030,1,2,0:0:0:0:
128,192,203150,1,2,0:0:0:0:
128,192,203270,1,2,0:0:0:0:
128,192,203390,1,2,0:0:0:0:
128,192,203450,1,2,0:0:0:0:
192,128,203510,1,0,0:0:0:0:
192,128,203570,1,0,0:0:0:0:
192,128,203630,1,2,0:0:0:0:
128,192,203750,1,2,0:0:0:0:
192,128,203870,1,2,0:0:0:0:
128,192,203990,1,2,0:0:0:0:
128,192,204110,1,0,0:0:0:0:
128,192,204170,1,0,0:0:0:0:
128,192,204230,1,2,0:0:0:0:
128,192,204470,1,0,0:0:0:0:
128,192,204590,1,0,0:0:0:0:
128,192,204830,1,2,0:0:0:0:
128,192,205070,1,12,0:0:0:0:
128,192,205430,1,0,0:0:0:0:
128,192,205550,1,0,0:0:0:0:
128,192,205790,1,2,0:0:0:0:
128,192,206030,1,14,0:0:0:0:
128,192,206390,1,0,0:0:0:0:
224,160,206630,1,2,0:0:0:0:
224,160,206750,1,0,0:0:0:0:
224,160,206870,1,2,0:0:0:0:
224,160,207110,1,0,0:0:0:0:
224,160,207350,1,12,0:0:0:0:
224,160,207710,1,12,0:0:0:0:
128,32,208070,1,12,0:0:0:0:
192,128,208310,1,0,0:0:0:0:
256,224,208550,1,2,0:0:0:0:
224,128,208790,1,0,0:0:0:0:
256,224,209030,1,2,0:0:0:0:
224,128,209270,1,0,0:0:0:0:
256,192,209390,1,0,0:0:0:0:
256,192,209510,1,2,0:0:0:0:
256,192,209630,1,0,0:0:0:0:
256,192,209870,1,0,0:0:0:0:
256,192,209990,1,2,0:0:0:0:
256,192,210110,1,2,0:0:0:0:
256,192,210230,1,2,0:0:0:0:
256,192,210350,1,0,0:0:0:0:
256,192,210410,1,0,0:0:0:0:
256,192,210470,1,2,0:0:0:0:
256,192,210590,1,0,0:0:0:0:
256,192,210650,1,0,0:0:0:0:
256,192,210710,1,2,0:0:0:0:
192,160,210830,1,0,0:0:0:0:
192,160,210890,1,0,0:0:0:0:
192,160,210950,1,2,0:0:0:0:
192,160,211070,1,0,0:0:0:0:
192,160,211130,1,0,0:0:0:0:
192,160,211190,1,2,0:0:0:0:
192,160,211250,1,0,0:0:0:0:
192,160,211310,1,0,0:0:0:0:
192,160,211370,1,0,0:0:0:0:
192,160,211430,1,0,0:0:0:0:
192,160,211490,1,0,0:0:0:0:
192,160,211550,1,0,0:0:0:0:
192,160,211610,1,0,0:0:0:0:
192,160,211670,1,2,0:0:0:0:
192,160,211790,1,2,0:0:0:0:
192,160,211910,1,2,0:0:0:0:
192,160,212150,1,4,0:0:0:0:
192,160,212270,1,0,0:0:0:0:
192,160,212510,1,2,0:0:0:0:
192,160,212750,1,14,0:0:0:0:
192,160,213110,1,4,0:0:0:0:
192,160,213230,1,0,0:0:0:0:
192,160,213470,1,2,0:0:0:0:
192,160,213710,1,12,0:0:0:0:
192,160,214310,1,2,0:0:0:0:
192,160,214430,1,0,0:0:0:0:
192,160,214550,1,2,0:0:0:0:
192,160,214670,1,0,0:0:0:0:
192,96,214790,1,2,0:0:0:0:
192,96,214910,1,2,0:0:0:0:
192,96,215030,1,0,0:0:0:0:
192,96,215270,1,2,0:0:0:0:
192,96,215390,1,0,0:0:0:0:
192,96,215630,1,0,0:0:0:0:
192,96,215690,1,0,0:0:0:0:
192,96,215750,1,2,0:0:0:0:
192,96,215990,1,0,0:0:0:0:
192,96,216230,1,4,0:0:0:0:
192,96,216350,1,0,0:0:0:0:
192,96,216410,1,0,0:0:0:0:
192,96,216470,1,2,0:0:0:0:
224,64,216590,1,0,0:0:0:0:
224,64,216710,1,2,0:0:0:0:
256,192,216770,1,2,0:0:0:0:
256,192,216830,1,2,0:0:0:0:
256,192,216890,1,2,0:0:0:0:
256,64,216950,1,0,0:0:0:0:
256,192,217010,1,0,0:0:0:0:
192,96,217070,1,0,0:0:0:0:
160,128,217190,1,2,0:0:0:0:
256,192,217310,1,0,0:0:0:0:
224,96,217430,1,0,0:0:0:0:
288,192,217490,1,0,0:0:0:0:
224,96,217550,1,0,0:0:0:0:
224,96,217610,1,0,0:0:0:0:
224,96,217670,1,2,0:0:0:0:
288,192,217730,1,2,0:0:0:0:
192,64,217790,1,2,0:0:0:0:
192,128,217910,1,0,0:0:0:0:
192,128,217970,1,0,0:0:0:0:
192,128,218030,1,0,0:0:0:0:
192,128,218150,1,2,0:0:0:0:
288,192,218210,1,2,0:0:0:0:
224,64,218270,1,2,0:0:0:0:
192,128,218390,1,0,0:0:0:0:
192,160,218450,1,0,0:0:0:0:
224,96,218510,1,0,0:0:0:0:
192,128,218630,1,2,0:0:0:0:
288,192,218690,1,2,0:0:0:0:
288,192,218750,1,2,0:0:0:0:
288,192,218810,1,2,0:0:0:0:
288,192,218870,1,0,0:0:0:0:
192,160,218930,1,0,0:0:0:0:
224,96,218990,1,0,0:0:0:0:
192,160,219050,1,0,0:0:0:0:
192,128,219110,1,2,0:0:0:0:
192,160,219170,1,0,0:0:0:0:
192,160,219230,1,0,0:0:0:0:
192,160,219290,1,0,0:0:0:0:
192,160,219350,1,2,0:0:0:0:
192,160,219410,1,2,0:0:0:0:
224,96,219470,1,0,0:0:0:0:
224,96,219530,1,0,0:0:0:0:
224,96,219590,1,2,0:0:0:0:
192,160,219650,1,0,0:0:0:0:
192,160,219710,1,0,0:0:0:0:
192,160,219770,1,0,0:0:0:0:
192,160,219830,1,2,0:0:0:0:
256,128,219950,1,0,0:0:0:0:
256,128,220070,1,2,0:0:0:0:
256,128,220190,1,2,0:0:0:0:
256,128,220310,1,0,0:0:0:0:
224,128,220430,1,0,0:0:0:0:
256,128,220550,1,2,0:0:0:0:
224,96,220670,1,0,0:0:0:0:
288,192,220790,1,2,0:0:0:0:
192,128,220910,1,0,0:0:0:0:
192,128,221030,1,0,0:0:0:0:
192,128,221150,1,2,0:0:0:0:
192,128,221270,1,2,0:0:0:0:
288,128,221390,1,0,0:0:0:0:
192,160,221510,1,2,0:0:0:0:
288,192,221750,1,2,0:0:0:0:
192,128,221870,1,0,0:0:0:0:
192,128,221930,1,0,0:0:0:0:
192,128,221990,1,2,0:0:0:0:
256,96,222110,1,2,0:0:0:0:
256,96,222230,1,0,0:0:0:0:
256,96,222350,1,0,0:0:0:0:
256,96,222470,1,2,0:0:0:0:
256,96,222590,1,0,0:0:0:0:
192,128,222710,1,2,0:0:0:0:
256,96,222830,1,0,0:0:0:0:
256,96,222890,1,0,0:0:0:0:
256,96,222950,1,2,0:0:0:0:
256,96,223070,1,2,0:0:0:0:
256,96,223190,1,0,0:0:0:0:
256,96,223310,1,0,0:0:0:0:
256,96,223430,1,2,0:0:0:0:
288,192,223670,1,0,0:0:0:0:
224,128,223790,1,0,0:0:0:0:
256,96,223910,1,2,0:0:0:0:
192,96,223970,1,0,0:0:0:0:
256,96,224030,1,0,0:0:0:0:
256,96,224150,1,0,0:0:0:0:
256,96,224270,1,2,0:0:0:0:
192,96,224390,1,2,0:0:0:0:
160,96,224510,1,2,0:0:0:0:
160,96,224570,1,0,0:0:0:0:
288,192,224630,1,0,0:0:0:0:
256,96,224750,1,2,0:0:0:0:
256,192,224870,1,0,0:0:0:0:
256,192,224930,1,0,0:0:0:0:
256,192,224990,1,0,0:0:0:0:
256,192,225110,1,2,0:0:0:0:
256,192,225170,1,2,0:0:0:0:
288,160,225230,1,2,0:0:0:0:
256,192,225290,1,2,0:0:0:0:
256,192,225350,1,0,0:0:0:0:
288,160,225410,1,0,0:0:0:0:
288,160,225470,1,0,0:0:0:0:
256,192,225530,1,0,0:0:0:0:
256,192,225590,1,2,0:0:0:0:
288,160,225710,1,0,0:0:0:0:
256,192,225770,1,0,0:0:0:0:
256,192,225830,1,0,0:0:0:0:
160,96,225950,1,2,0:0:0:0:
256,192,226070,1,0,0:0:0:0:
256,192,226130,1,0,0:0:0:0:
160,128,226190,1,0,0:0:0:0:
160,128,226310,1,2,0:0:0:0:
256,192,226430,1,0,0:0:0:0:
256,192,226490,1,0,0:0:0:0:
160,128,226550,1,0,0:0:0:0:
160,128,226670,1,2,0:0:0:0:
256,192,226790,1,0,0:0:0:0:
192,96,226850,1,0,0:0:0:0:
256,192,226910,1,0,0:0:0:0:
256,192,227030,1,2,0:0:0:0:
192,96,227150,1,0,0:0:0:0:
192,96,227210,1,0,0:0:0:0:
288,160,227270,1,2,0:0:0:0:
288,160,227390,1,0,0:0:0:0:
288,160,227510,1,0,0:0:0:0:
288,160,227630,1,0,0:0:0:0:
288,160,227690,1,0,0:0:0:0:
288,160,227750,1,2,0:0:0:0:
288,160,227870,1,0,0:0:0:0:
288,160,227990,1,0,0:0:0:0:
288,160,228110,1,2,0:0:0:0:
288,160,228230,1,0,0:0:0:0:
288,160,228350,1,2,0:0:0:0:
288,160,228470,1,0,0:0:0:0:
256,192,228590,1,2,0:0:0:0:
288,160,228710,1,2,0:0:0:0:
288,160,228950,1,2,0:0:0:0:
288,160,229310,1,4,0:0:0:0:
192,0,229670,1,4,0:0:0:0:
288,160,230030,1,4,0:0:0:0:
192,128,230270,1,12,0:0:0:0:
320,128,231230,1,4,0:0:0:0:
160,160,231590,1,4,0:0:0:0:
320,128,231950,1,4,0:0:0:0:
224,160,232190,1,12,0:0:0:0:
256,160,233150,1,4,0:0:0:0:
256,160,233510,1,4,0:0:0:0:
256,160,233870,1,4,0:0:0:0:
256,160,234110,1,12,0:0:0:0:
256,160,234710,1,12,0:0:0:0:
256,160,234950,1,12,0:0:0:0:
256,160,235190,1,4,0:0:0:0:
288,192,235310,1,0,0:0:0:0:
288,192,235370,1,0,0:0:0:0:
288,192,235430,1,2,0:0:0:0:
288,192,235550,1,2,0:0:0:0:
288,192,235670,1,0,0:0:0:0:
288,192,235790,1,0,0:0:0:0:
256,160,235910,1,2,0:0:0:0:
320,160,236030,1,0,0:0:0:0:
320,160,236210,1,2,0:0:0:0:
224,128,236330,1,0,0:0:0:0:
224,128,236450,1,0,0:0:0:0:
256,192,236630,1,0,0:0:0:0:
256,192,236690,1,0,0:0:0:0:
256,192,236750,1,0,0:0:0:0:
256,192,236810,1,0,0:0:0:0:
256,192,236870,1,0,0:0:0:0:
256,192,236930,1,0,0:0:0:0:
256,192,236990,1,0,0:0:0:0:
256,192,237050,1,0,0:0:0:0:
256,192,237110,1,0,0:0:0:0:
256,192,237170,1,0,0:0:0:0:
256,192,237230,1,0,0:0:0:0:
256,192,237290,1,0,0:0:0:0:
256,192,237350,1,0,0:0:0:0:
256,192,237410,1,0,0:0:0:0:
256,192,237470,1,0,0:0:0:0:
256,192,237530,1,0,0:0:0:0:
256,192,237590,1,0,0:0:0:0:
256,192,237650,1,0,0:0:0:0:
256,192,237710,1,0,0:0:0:0:
256,192,237770,1,0,0:0:0:0:
256,192,237830,1,0,0:0:0:0:
256,192,237890,1,0,0:0:0:0:
256,192,237950,1,0,0:0:0:0:
256,192,238010,1,0,0:0:0:0:
256,192,238070,1,0,0:0:0:0:
256,192,238130,1,0,0:0:0:0:
256,192,238190,1,0,0:0:0:0:
256,192,238250,1,0,0:0:0:0:
256,192,238310,1,0,0:0:0:0:
256,192,238370,1,0,0:0:0:0:
256,192,238430,1,0,0:0:0:0:
256,192,238490,1,0,0:0:0:0:
256,192,238550,1,0,0:0:0:0:
256,192,238610,1,0,0:0:0:0:
256,192,238670,1,0,0:0:0:0:
256,192,238730,1,0,0:0:0:0:
256,192,238790,1,0,0:0:0:0:
256,192,238850,1,0,0:0:0:0:
256,192,238910,1,0,0:0:0:0:
256,192,238970,1,0,0:0:0:0:
256,192,239030,1,0,0:0:0:0:
256,192,239090,1,0,0:0:0:0:
256,192,239150,1,0,0:0:0:0:
256,192,239210,1,0,0:0:0:0:
256,192,239270,1,0,0:0:0:0:
256,192,239330,1,0,0:0:0:0:
256,192,239390,1,0,0:0:0:0:
256,192,239450,1,0,0:0:0:0:
256,192,239510,1,0,0:0:0:0:
256,192,239570,1,0,0:0:0:0:
256,192,239630,1,0,0:0:0:0:
256,192,239690,1,0,0:0:0:0:
256,192,239750,1,0,0:0:0:0:
288,192,239860,5,0,0:0:0:0:
288,192,240100,1,0,0:0:0:0:
288,192,240340,1,0,0:0:0:0:
256,128,240460,1,0,0:0:0:0:
288,160,240580,1,0,0:0:0:0:
288,160,240700,1,0,0:0:0:0:
288,160,240820,1,0,0:0:0:0:
288,160,240940,1,0,0:0:0:0:
288,160,241000,1,0,0:0:0:0:
320,160,241060,1,2,0:0:0:0:
320,160,241180,1,2,0:0:0:0:
256,160,241300,1,2,0:0:0:0:
256,160,241360,1,2,0:0:0:0:
256,160,241420,1,0,0:0:0:0:
256,160,241540,1,2,0:0:0:0:
256,160,241660,1,0,0:0:0:0:
192,160,241780,1,0,0:0:0:0:
256,160,241900,1,0,0:0:0:0:
224,160,241960,1,0,0:0:0:0:
256,160,242020,1,2,0:0:0:0:
256,160,242140,1,2,0:0:0:0:
256,96,242260,1,2,0:0:0:0:
256,128,242320,1,2,0:0:0:0:
256,128,242380,1,0,0:0:0:0:
256,160,242500,1,0,0:0:0:0:
256,160,242620,1,2,0:0:0:0:
256,160,242740,1,0,0:0:0:0:
224,128,242860,1,0,0:0:0:0:
224,128,242920,1,0,0:0:0:0:
224,128,242980,1,2,0:0:0:0:
224,128,243100,1,2,0:0:0:0:
192,64,243220,1,2,0:0:0:0:
192,96,243280,1,2,0:0:0:0:
224,96,243340,1,0,0:0:0:0:
256,160,243460,1,0,0:0:0:0:
256,160,243580,1,2,0:0:0:0:
256,160,243700,1,0,0:0:0:0:
256,160,243760,1,0,0:0:0:0:
256,160,243820,1,2,0:0:0:0:
256,160,243880,1,2,0:0:0:0:
256,160,243940,1,0,0:0:0:0:
256,160,244060,1,2,0:0:0:0:
256,160,244180,1,0,0:0:0:0:
256,160,244240,1,0,0:0:0:0:
256,160,244300,1,2,0:0:0:0:
256,160,244420,1,0,0:0:0:0:
256,160,244480,1,0,0:0:0:0:
256,160,244540,1,2,0:0:0:0:
256,160,244660,1,0,0:0:0:0:
224,160,244780,1,0,0:0:0:0:
224,160,244840,1,0,0:0:0:0:
224,160,244900,1,2,0:0:0:0:
224,160,245020,1,2,0:0:0:0:
256,160,245140,1,2,0:0:0:0:
256,160,245200,1,2,0:0:0:0:
256,160,245260,1,0,0:0:0:0:
224,160,245380,1,0,0:0:0:0:
224,160,245500,1,2,0:0:0:0:
224,160,245620,1,0,0:0:0:0:
224,160,245740,1,0,0:0:0:0:
224,160,245800,1,0,0:0:0:0:
224,160,245860,1,2,0:0:0:0:
224,160,245980,1,2,0:0:0:0:
224,160,246100,1,2,0:0:0:0:
224,160,246160,1,2,0:0:0:0:
224,160,246220,1,0,0:0:0:0:
224,96,246340,1,0,0:0:0:0:
224,96,246460,1,2,0:0:0:0:
224,160,246580,1,0,0:0:0:0:
224,160,246700,1,0,0:0:0:0:
224,160,246760,1,0,0:0:0:0:
224,160,246820,1,2,0:0:0:0:
224,160,246940,1,2,0:0:0:0:
224,160,247060,1,0,0:0:0:0:
224,160,247180,1,2,0:0:0:0:
224,160,247240,1,0,0:0:0:0:
224,160,247360,1,2,0:0:0:0:
224,160,247420,1,0,0:0:0:0:
224,160,247540,1,4,0:0:0:0:
224,160,247780,1,4,0:0:0:0:
224,160,248020,1,4,0:0:0:0:
224,160,248260,1,12,0:0:0:0:
224,160,248500,1,0,0:0:0:0:
224,160,248620,1,2,0:0:0:0:
224,160,248680,1,2,0:0:0:0:
224,160,248740,1,0,0:0:0:0:
224,160,248860,1,2,0:0:0:0:
224,160,248980,1,0,0:0:0:0:
224,160,249100,1,2,0:0:0:0:
224,160,249160,1,2,0:0:0:0:
224,160,249220,1,0,0:0:0:0:
224,160,249340,1,2,0:0:0:0:
224,160,249460,1,0,0:0:0:0:
224,160,249580,1,2,0:0:0:0:
224,160,249700,1,0,0:0:0:0:
224,160,249820,1,2,0:0:0:0:
224,160,249940,1,0,0:0:0:0:
192,128,250060,1,2,0:0:0:0:
192,128,250120,1,2,0:0:0:0:
192,128,250180,1,0,0:0:0:0:
192,128,250240,1,2,0:0:0:0:
192,128,250300,1,2,0:0:0:0:
192,128,250360,1,2,0:0:0:0:
192,128,250420,1,0,0:0:0:0:
192,128,250540,1,2,0:0:0:0:
192,128,250600,1,2,0:0:0:0:
192,128,250660,1,0,0:0:0:0:
192,128,250780,1,2,0:0:0:0:
192,128,250900,1,0,0:0:0:0:
192,128,251020,1,2,0:0:0:0:
192,128,251080,1,2,0:0:0:0:
192,128,251140,1,0,0:0:0:0:
192,128,251260,1,2,0:0:0:0:
192,128,251380,1,0,0:0:0:0:
192,128,251500,1,2,0:0:0:0:
192,128,251620,1,0,0:0:0:0:
192,128,251740,1,2,0:0:0:0:
192,128,251860,1,0,0:0:0:0:
192,128,251980,1,2,0:0:0:0:
192,128,252040,1,2,0:0:0:0:
192,128,252100,1,0,0:0:0:0:
192,128,252160,1,0,0:0:0:0:
192,128,252220,1,0,0:0:0:0:
192,128,252280,1,0,0:0:0:0:
192,128,252340,1,0,0:0:0:0:
192,128,252460,1,2,0:0:0:0:
192,128,252580,1,0,0:0:0:0:
192,192,252700,1,0,0:0:0:0:
192,192,252820,1,2,0:0:0:0:
192,192,252940,1,0,0:0:0:0:
192,192,253060,1,2,0:0:0:0:
192,192,253180,1,4,0:0:0:0:
192,192,253300,1,0,0:0:0:0:
192,192,253420,1,2,0:0:0:0:
192,192,253540,1,12,0:0:0:0:
192,192,253780,1,0,0:0:0:0:
192,192,253840,1,0,0:0:0:0:
192,192,253900,1,2,0:0:0:0:
192,192,254020,1,2,0:0:0:0:
256,160,254140,1,4,0:0:0:0:
320,96,254500,1,4,0:0:0:0:
320,96,254860,1,4,0:0:0:0:
192,192,255220,1,4,0:0:0:0:
192,160,255580,1,4,0:0:0:0:
352,160,255940,1,4,0:0:0:0:
