osu file format v14

[General]
AudioFilename: nanahiraaa.mp3
AudioLeadIn: 0
PreviewTime: 101643
Countdown: 0
SampleSet: Soft
StackLeniency: 0.5
Mode: 0
LetterboxInBreaks: 0
WidescreenStoryboard: 1

[Editor]
Bookmarks: 15601,31681,47041,64321,94081,101761,122881,138241,157441,187201,204481,240833
DistanceSpacing: 1
BeatDivisor: 4
GridSize: 4
TimelineZoom: 5.72755

[Metadata]
Title:Shakunetsu? Candle Master? Tomoshi
TitleUnicode:Shakunetsu? Candle Master? Tomoshi
Artist:Nanahira
ArtistUnicode:Nanahira
Creator:Star Stream
Version:Anais' Ultra
Source:
Tags:winber1
BeatmapID:948049
BeatmapSetID:431380

[Difficulty]
HPDrainRate:6
CircleSize:4
OverallDifficulty:7.8
ApproachRate:9.5
SliderMultiplier:2
SliderTickRate:2

[Events]
//Background and Video events
0,0,"bg.jpg",0,0
//Break Periods
2,94281,100276
2,115401,122356
2,153801,154996
2,187401,194356
//Storyboard Layer 0 (Background)
//Storyboard Layer 1 (Fail)
//Storyboard Layer 2 (Pass)
//Storyboard Layer 3 (Foreground)
//Storyboard Sound Samples

[TimingPoints]
961,480,4,2,11,60,1,0
15601,240,4,2,11,60,1,0
16321,240,4,2,11,60,1,0
17281,-200,4,2,11,60,0,0
17761,-100,4,2,11,60,0,0
17881,-100,4,2,12,60,0,0
18121,-100,4,2,11,60,0,0
24641,-90.9090909090909,4,2,11,70,0,0
24801,-83.3333333333333,4,2,11,70,0,0
24961,-76.9230769230769,4,2,11,70,0,0
25201,-83.3333333333333,4,2,11,70,0,0
25441,-90.9090909090909,4,2,11,70,0,0
25681,-200,4,2,12,30,0,0
25921,-100,4,2,11,60,0,0
31441,-66.6666666666667,4,2,11,60,0,0
31681,-111.111111111111,4,2,11,60,0,0
32641,-111.111111111111,4,2,13,60,0,0
32701,-111.111111111111,4,2,11,60,0,0
34561,-111.111111111111,4,2,13,60,0,0
34621,-111.111111111111,4,2,11,60,0,0
36481,-111.111111111111,4,2,13,60,0,0
36541,-111.111111111111,4,2,11,60,0,0
38401,-142.857142857143,4,2,11,50,0,0
39361,-111.111111111111,4,2,11,60,0,0
39841,-111.111111111111,4,2,13,60,0,0
39901,-111.111111111111,4,2,11,60,0,0
40321,-111.111111111111,4,2,13,60,0,0
40381,-111.111111111111,4,2,11,60,0,0
42241,-111.111111111111,4,2,13,60,0,0
42301,-111.111111111111,4,2,11,60,0,0
44041,-100,4,2,11,70,0,0
44281,-83.3333333333333,4,2,11,70,0,0
44521,-71.4285714285714,4,2,11,70,0,0
44761,-62.5,4,2,11,70,0,0
45001,-111.111111111111,4,2,11,60,0,0
46081,-100,4,2,11,40,0,0
46321,-125,4,2,11,40,0,0
46561,-166.666666666667,4,2,11,40,0,0
46801,-250,4,2,11,40,0,0
47041,-111.111111111111,4,2,11,60,0,0
62401,-125,4,2,11,50,0,0
64321,-90.9090909090909,4,2,11,70,0,1
64801,-90.9090909090909,4,2,13,70,0,1
64861,-90.9090909090909,4,2,11,70,0,1
65761,-90.9090909090909,4,2,13,70,0,1
65821,-90.9090909090909,4,2,11,70,0,1
71641,-76.9230769230769,4,2,11,70,0,1
71761,-66.6666666666667,4,2,11,70,0,1
72001,-125,4,2,11,40,0,1
72601,-66.6666666666667,4,2,11,70,0,1
72961,-125,4,2,11,40,0,1
73561,-66.6666666666667,4,2,11,70,0,1
74161,-125,4,2,11,50,0,1
75841,-90.9090909090909,4,2,11,70,0,1
84481,-90.9090909090909,4,2,13,70,0,1
84541,-90.9090909090909,4,2,11,70,0,1
85441,-83.3333333333333,4,2,11,70,0,1
85801,-76.9230769230769,4,2,11,70,0,1
86161,-71.4285714285714,4,2,11,70,0,1
86521,-66.6666666666667,4,2,11,70,0,1
86881,-62.5,4,2,11,70,0,1
87241,-66.6666666666667,4,2,11,70,0,1
88201,-200,4,2,11,30,0,1
89161,-66.6666666666667,4,2,11,70,0,1
90121,-200,4,2,11,30,0,1
91201,-66.6666666666667,4,2,11,70,0,1
91441,-125,4,2,11,60,0,1
94081,480,4,2,11,50,1,0
101281,-50,4,2,11,50,0,0
101761,240,4,2,11,60,1,0
108161,-90.9090909090909,4,2,11,70,0,0
108321,-83.3333333333333,4,2,11,70,0,0
108481,-76.9230769230769,4,2,11,70,0,0
108721,-83.3333333333333,4,2,11,70,0,0
108961,-90.9090909090909,4,2,11,70,0,0
109201,-200,4,2,12,30,0,0
109441,-100,4,2,11,60,0,0
114961,-66.6666666666667,4,2,11,60,0,0
115201,480,4,2,11,50,1,0
122881,240,4,2,11,60,1,0
122881,-111.111111111111,4,2,11,60,0,0
123841,-111.111111111111,4,2,13,60,0,0
123901,-111.111111111111,4,2,11,60,0,0
125761,-111.111111111111,4,2,13,60,0,0
125821,-111.111111111111,4,2,11,60,0,0
127681,-111.111111111111,4,2,13,60,0,0
127741,-111.111111111111,4,2,11,60,0,0
129481,-142.857142857143,4,2,11,40,0,0
130561,-111.111111111111,4,2,11,60,0,0
131521,-111.111111111111,4,2,13,60,0,0
131581,-111.111111111111,4,2,11,60,0,0
133441,-111.111111111111,4,2,13,60,0,0
133501,-111.111111111111,4,2,11,60,0,0
135241,-100,4,2,11,70,0,0
135481,-83.3333333333333,4,2,11,70,0,0
135721,-71.4285714285714,4,2,11,70,0,0
135961,-62.5,4,2,11,70,0,0
136201,-111.111111111111,4,2,11,60,0,0
137281,-100,4,2,11,40,0,0
137521,-125,4,2,11,40,0,0
137761,-166.666666666667,4,2,11,40,0,0
138001,-250.666666666667,4,2,11,40,0,0
138241,-111.111111111111,4,2,11,60,0,0
157441,-90.9090909090909,4,2,11,70,0,1
157921,-90.9090909090909,4,2,13,70,0,1
157981,-90.9090909090909,4,2,11,70,0,1
158881,-90.9090909090909,4,2,13,70,0,1
158941,-90.9090909090909,4,2,11,70,0,1
160801,-90.9090909090909,4,2,13,70,0,1
160861,-90.9090909090909,4,2,11,70,0,1
164761,-76.9230769230769,4,2,11,70,0,1
164881,-66.6666666666667,4,2,11,70,0,1
165121,-125,4,2,11,40,0,1
165721,-66.6666666666667,4,2,11,70,0,1
166081,-125,4,2,11,40,0,1
166681,-66.6666666666667,4,2,11,70,0,1
167281,-125,4,2,11,40,0,1
168961,-90.9090909090909,4,2,11,70,0,1
177601,-90.9090909090909,4,2,13,70,0,1
177661,-90.9090909090909,4,2,11,70,0,1
178561,-83.3333333333333,4,2,11,70,0,1
178921,-76.9230769230769,4,2,11,70,0,1
179281,-71.4285714285714,4,2,11,70,0,1
179641,-66.6666666666667,4,2,11,70,0,1
180001,-62.5,4,2,11,70,0,1
180361,-66.6666666666667,4,2,11,70,0,1
181321,-200,4,2,11,30,0,1
182281,-66.6666666666667,4,2,11,70,0,1
183241,-200,4,2,11,30,0,1
184321,-66.6666666666667,4,2,11,70,0,1
184561,-125,4,2,11,70,0,1
187201,480,4,2,11,35,1,0
194881,240,4,2,11,60,1,0
205081,-66.6666666666667,4,2,11,60,0,0
205321,-200,4,2,11,30,0,0
206041,-66.6666666666667,4,2,11,60,0,0
206401,-66.6666666666667,4,2,11,50,0,0
208321,-142.857142857143,4,2,11,50,0,0
208801,-125,4,2,11,60,0,0
209281,-111.111111111111,4,2,11,60,0,0
209761,-100,4,2,11,60,0,0
210241,-90.9090909090909,4,2,11,60,0,0
211801,-76.9230769230769,4,2,11,60,0,0
211921,-66.6666666666667,4,2,11,60,0,0
212161,-125,4,2,11,40,0,0
212761,-66.6666666666667,4,2,11,60,0,0
213121,-125,4,2,11,40,0,0
213721,-66.6666666666667,4,2,11,60,0,0
214321,-125,4,2,11,40,0,0
215641,-125,4,2,11,60,0,0
216241,-90.9090909090909,4,2,11,70,0,1
224641,-90.9090909090909,4,2,13,70,0,1
224701,-90.9090909090909,4,2,11,70,0,1
225601,-83.3333333333333,4,2,11,70,0,1
225961,-76.9230769230769,4,2,11,70,0,1
226321,-71.4285714285714,4,2,11,70,0,1
226681,-66.6666666666667,4,2,11,70,0,1
227041,-62.5,4,2,11,70,0,1
227401,-66.6666666666667,4,2,11,70,0,1
228361,-200,4,2,11,30,0,1
229321,-66.6666666666667,4,2,11,70,0,1
230281,-200,4,2,11,30,0,1
231241,-66.6666666666667,4,2,11,70,0,1
232201,-200,4,2,11,30,0,1
233161,-66.6666666666667,4,2,11,70,0,1
234121,-200,4,2,11,30,0,1
235201,-66.6666666666667,4,2,11,70,0,1
235441,-125,4,2,11,50,0,1
235681,244.897959183673,4,2,11,60,1,0
235803,250,4,2,11,60,1,0
235928,257.510729613734,4,2,11,60,1,0
236056,266.666666666667,4,2,11,60,1,0
236189,279.06976744186,4,2,11,60,1,0
236468,300,4,2,11,60,1,0
239873,240,4,2,11,60,1,0
247233,-90.9090909090909,4,2,11,60,0,0
247393,-83.3333333333333,4,2,11,60,0,0
247553,-76.9230769230769,4,2,11,60,0,0
247793,-83.3333333333333,4,2,11,60,0,0
248033,-90.9090909090909,4,2,11,60,0,0
248273,-200,4,2,12,40,0,0
248513,-100,4,2,11,60,0,0
252353,-125,4,2,11,40,0,0
253193,-100,4,2,11,60,0,0
254153,-83.3333333333333,4,2,11,60,0,0

[HitObjects]
89,291,15601,6,0,B|79:169|79:169|114:202,1,150,6|0,0:0|0:0,0:0:0:0:
164,232,15841,1,2,0:0:0:0:
240,41,16001,1,2,0:0:0:0:
216,322,16241,6,0,B|303:357|411:289|389:170|389:170|529:203|505:330|505:330|374:347|279:279|284:212,1,766.666666666667,6|0,0:0|0:0,0:0:0:0:
399,89,17281,6,0,L|405:44,2,33.3333333333333,2|0|0,0:0|0:0|0:0,0:0:0:0:
320,118,17521,6,0,L|322:166,2,33.3333333333333,2|0|0,0:0|0:0|0:0,0:0:0:0:
258,55,17761,6,0,L|263:0,3,50,2|0|2|0,0:0|0:0|0:0|0:0,0:0:0:0:
180,103,18001,6,0,L|187:173,3,50,2|0|0|0,0:0|0:0|0:0|0:0,0:0:0:0:
112,47,18241,6,0,B|81:18|81:18|94:154,1,150,6|0,0:0|0:0,0:0:0:0:
100,205,18481,2,0,P|147:245|191:251,1,100,8|0,0:0|0:0,0:0:0:0:
332,197,18721,1,2,0:0:0:0:
398,333,18841,1,0,0:0:0:0:
422,163,18961,1,8,0:0:0:0:
310,361,19081,1,0,0:0:0:0:
490,221,19201,6,0,P|514:166|466:84,1,150,2|0,0:0|0:0,0:0:0:0:
400,65,19441,2,0,B|348:74|348:74|290:59,1,100,8|0,0:0|0:0,0:0:0:0:
181,177,19681,1,2,0:0:0:0:
223,8,19801,1,8,0:0:0:0:
112,114,19921,1,2,0:0:0:0:
302,62,20041,1,8,0:0:0:0:
69,27,20161,6,0,P|20:86|38:175,1,150,2|0,0:0|0:0,0:0:0:0:
65,229,20401,2,0,B|58:338,1,100,8|0,0:0|0:0,0:0:0:0:
236,248,20641,1,2,0:0:0:0:
167,368,20761,1,0,0:0:0:0:
181,177,20881,1,8,0:0:0:0:
325,244,21001,1,0,0:0:0:0:
163,83,21121,6,0,B|242:71|229:132|318:118,1,150,2|0,0:0|0:0,0:0:0:0:
385,115,21361,2,0,B|439:105|468:51,1,100,8|0,0:0|0:0,0:0:0:0:
325,244,21601,2,0,B|306:295|338:347,1,100,2|8,0:0|0:0,0:0:0:0:
232,135,21841,2,0,B|196:93|135:95,1,100,2|8,0:0|0:0,0:0:0:0:
1,182,22081,6,0,P|43:218|166:219,1,150,2|0,0:0|0:0,0:0:0:0:
208,270,22321,2,0,L|186:379,1,100,8|0,0:0|0:0,0:0:0:0:
112,139,22561,1,2,0:0:0:0:
260,182,22681,1,0,0:0:0:0:
134,45,22801,1,8,0:0:0:0:
291,91,22921,1,0,0:0:0:0:
308,277,23041,6,0,B|359:291|359:291|410:274|410:274|465:288,1,150,2|0,0:0|0:0,0:0:0:0:
356,209,23281,2,0,L|241:176,1,100,8|0,0:0|0:0,0:0:0:0:
412,358,23521,2,0,L|520:380,1,100,2|8,0:0|0:0,0:0:0:0:
314,376,23761,2,0,P|261:374|214:338,1,100,2|8,0:0|0:0,0:0:0:0:
57,314,24001,6,0,L|53:370,3,50,2|0|0|0,0:0|0:0|0:0|0:0,0:0:0:0:
109,236,24241,2,0,L|113:180,3,50,8|0|0|0,0:0|0:0|0:0|0:0,0:0:0:0:
138,313,24481,6,0,B|180:324|180:324|248:305,1,100,2|0,0:0|0:0,0:0:0:0:
366,286,24641,6,0,B|324:297|324:297|258:276,1,110.000003356934,2|0,0:0|0:0,0:0:0:0:
91,227,24801,6,0,B|148:243|148:243|206:226,1,119.999996337891,2|0,0:0|0:0,0:0:0:0:
418,194,24961,6,0,B|334:176|334:176|217:207,1,194.999991073609,2|0,0:0|0:0,0:0:0:0:
5,135,25201,6,0,B|62:120|62:120|193:156,1,179.999994506836,2|0,0:0|0:0,0:0:0:0:
354,105,25441,6,0,B|298:95|298:95|191:123,1,165.000005035401,2|0,0:0|0:0,0:0:0:0:
121,91,25681,6,0,P|115:123|128:170,1,75,2|0,0:0|0:0,0:0:0:0:
200,201,25921,6,0,P|207:260|191:313,1,100,6|0,0:0|0:0,0:0:0:0:
197,298,26101,1,0,0:0:0:0:
197,298,26161,1,8,0:0:0:0:
45,190,26281,1,0,0:0:0:0:
148,372,26401,2,0,L|255:383,1,100,2|0,0:0|0:0,0:0:0:0:
398,273,26641,2,0,L|291:284,1,100,8|0,0:0|0:0,0:0:0:0:
90,270,26881,6,0,L|197:281,1,100,2|0,0:0|0:0,0:0:0:0:
189,280,27061,1,0,0:0:0:0:
189,280,27121,1,8,0:0:0:0:
316,112,27241,1,0,0:0:0:0:
426,248,27361,2,0,P|442:290|435:356,1,100,2|8,0:0|0:0,0:0:0:0:
319,209,27601,2,0,P|307:262|264:314,1,100,2|8,0:0|0:0,0:0:0:0:
222,145,27841,6,0,P|164:161|116:149,1,100,2|0,0:0|0:0,0:0:0:0:
125,153,28021,1,0,0:0:0:0:
125,153,28081,1,8,0:0:0:0:
13,41,28201,1,0,0:0:0:0:
53,233,28321,2,0,B|32:283|32:283|37:350,1,100,2|0,0:0|0:0,0:0:0:0:
169,75,28561,2,0,B|139:33|139:33|75:2,1,100,8|0,0:0|0:0,0:0:0:0:
257,243,28801,6,0,B|308:238|308:238|366:198,1,100,2|0,0:0|0:0,0:0:0:0:
348,210,28981,1,0,0:0:0:0:
348,210,29041,1,8,0:0:0:0:
448,29,29161,1,0,0:0:0:0:
504,223,29281,2,0,L|499:344,1,100,2|8,0:0|0:0,0:0:0:0:
280,143,29521,2,0,L|286:36,1,100,2|8,0:0|0:0,0:0:0:0:
442,137,29761,5,2,0:0:0:0:
429,247,29881,1,0,0:0:0:0:
451,138,30001,5,0,0:0:0:0:
419,245,30121,1,0,0:0:0:0:
460,142,30241,5,0,0:0:0:0:
410,241,30361,1,0,0:0:0:0:
198,341,30601,6,0,B|149:354|106:319|106:319|102:268|160:223,1,200,6|0,0:0|0:0,0:0:0:0:
179,59,30961,2,0,B|203:52|225:70|225:70|227:95|198:118,1,100,6|0,0:0|0:0,0:0:0:0:
297,266,31201,2,0,L|354:269,3,50
379,244,31441,6,0,L|458:246,3,75.0000028610231
479,222,31681,6,0,P|491:182|484:125,1,89.9999972534181,6|0,0:0|0:0,0:0:0:0:
339,57,31921,2,0,P|327:97|335:149,1,89.9999972534181,2|0,0:0|0:0,0:0:0:0:
372,305,32161,1,2,0:0:0:0:
372,305,32281,2,0,L|480:318,1,89.9999972534181,0|2,0:0|0:0,0:0:0:0:
278,338,32521,6,0,P|220:362|111:301,1,179.999994506836
118,156,32881,1,2,0:0:0:0:
208,260,33001,1,0,0:0:0:0:
255,130,33121,2,0,P|273:88|280:35,1,89.9999972534181,2|0,0:0|0:0,0:0:0:0:
208,260,33361,2,0,P|234:296|276:328,1,89.9999972534181,2|0,0:0|0:0,0:0:0:0:
118,156,33601,6,0,P|72:160|23:180,1,89.9999972534181,2|0,0:0|0:0,0:0:0:0:
208,260,33841,1,2,0:0:0:0:
109,252,33961,1,0,0:0:0:0:
219,160,34081,1,2,0:0:0:0:
197,353,34201,2,0,P|248:369|293:370,1,89.9999972534181,0|2,0:0|0:0,0:0:0:0:
475,264,34441,6,0,L|482:64,1,179.999994506836
293,167,34801,2,0,L|289:256,1,89.9999972534181,2|0,0:0|0:0,0:0:0:0:
380,258,35041,2,0,L|383:168,1,89.9999972534181,2|0,0:0|0:0,0:0:0:0:
203,161,35281,2,0,L|199:250,1,89.9999972534181,2|0,0:0|0:0,0:0:0:0:
245,78,35521,6,0,B|161:49|158:109|56:79,1,179.999994506836,2|2,0:0|0:0,0:0:0:0:
117,0,35881,1,0,0:0:0:0:
35,175,36001,1,2,0:0:0:0:
35,175,36121,2,0,P|26:228|35:275,1,89.9999972534181,0|2,0:0|0:0,0:0:0:0:
284,233,36361,6,0,B|228:245|228:245|171:211|171:211|104:223,1,179.999994506836
245,150,36721,2,0,L|347:130,1,89.9999972534181,2|0,0:0|0:0,0:0:0:0:
152,305,36961,2,0,L|63:322,1,89.9999972534181,2|0,0:0|0:0,0:0:0:0:
298,321,37201,2,0,L|400:301,1,89.9999972534181,2|0,0:0|0:0,0:0:0:0:
435,127,37441,5,2,0:0:0:0:
386,303,37561,1,0,0:0:0:0:
321,191,37681,1,2,0:0:0:0:
498,238,37801,1,0,0:0:0:0:
435,127,37921,5,2,0:0:0:0:
386,303,38041,2,0,P|384:336|387:369,2,44.999998626709,2|2|2,0:0|0:0|0:0,0:0:0:0:
512,72,38281,1,2,0:0:0:0:
512,72,38341,1,2,0:0:0:0:
512,72,38401,6,0,B|403:-57|253:179|122:86|122:86|152:52|204:78,1,489.999985046387,2|0,0:0|0:0,0:0:0:0:
269,195,39361,6,0,P|284:238|279:296,1,89.9999972534181,6|0,0:0|0:0,0:0:0:0:
327,369,39601,1,8,0:0:0:0:
327,369,39721,2,0,P|420:375|501:333,1,179.999994506836
220,219,40081,1,8,0:0:0:0:
220,219,40201,6,0,P|127:213|55:260,1,179.999994506836
311,267,40561,2,0,P|322:211|312:166,1,89.9999972534181,8|0,0:0|0:0,0:0:0:0:
238,103,40801,1,2,0:0:0:0:
419,147,40921,1,8,0:0:0:0:
304,32,41041,2,0,P|251:9|193:16,1,89.9999972534181,2|8,0:0|0:0,0:0:0:0:
51,141,41281,6,0,L|47:234,1,89.9999972534181,2|0,0:0|0:0,0:0:0:0:
80,110,41521,1,8,0:0:0:0:
21,258,41641,1,0,0:0:0:0:
189,194,41761,1,2,0:0:0:0:
189,194,41881,2,0,L|192:293,1,89.9999972534181,0|8,0:0|0:0,0:0:0:0:
330,136,42121,6,0,L|346:322,1,179.999994506836
432,118,42481,2,0,L|437:21,1,89.9999972534181,8|0,0:0|0:0,0:0:0:0:
330,136,42721,1,2,0:0:0:0:
489,210,42841,1,8,0:0:0:0:
332,42,42961,2,0,P|289:53|250:91,1,89.9999972534181,2|8,0:0|0:0,0:0:0:0:
125,160,43201,6,0,B|210:127|209:205|300:164,1,179.999994506836,2|8,0:0|0:0,0:0:0:0:
162,243,43561,1,0,0:0:0:0:
255,82,43681,2,0,L|255:21,3,44.999998626709,2|0|2|0,0:0|0:0|0:0|0:0,0:0:0:0:
269,12,43921,2,0,L|207:17,1,44.999998626709,8|0,0:0|0:0,0:0:0:0:
66,43,44041,6,0,B|100:23|137:31|137:31|209:52,1,134.999995880127,6|0,0:0|0:0,0:0:0:0:
337,128,44281,6,0,B|291:163|240:155|240:155|166:133,1,179.999994506836,2|0,0:0|0:0,0:0:0:0:
0,192,44521,6,0,B|44:183|81:159|81:159|107:228|187:222,1,209.999993591309,6|0,0:0|0:0,0:0:0:0:
302,239,44761,6,0,P|240:205|282:303,1,240,2|0,0:0|0:0,0:0:0:0:
376,203,45001,6,0,P|324:143|209:128,1,179.999994506836,6|2,0:0|0:0,0:0:0:0:
354,307,45361,1,8,0:0:0:0:
481,171,45481,1,0,0:0:0:0:
458,272,45601,1,2,0:0:0:0:
273,236,45721,1,2,0:0:0:0:
439,377,45841,1,8,0:0:0:0:
376,203,45961,1,2,0:0:0:0:
173,186,46081,6,0,L|26:157,1,150
126,250,46321,6,0,L|242:217,1,120
156,318,46561,6,0,L|69:298,1,89.9999972534181
162,374,46801,6,0,L|220:358,1,60
265,291,47041,6,0,P|311:305|367:303,1,89.9999972534181,6|0,0:0|0:0,0:0:0:0:
508,287,47281,2,0,L|512:379,1,89.9999972534181,8|0,0:0|0:0,0:0:0:0:
427,230,47521,1,2,0:0:0:0:
512,109,47641,1,2,0:0:0:0:
334,136,47761,2,0,P|267:136|230:155,1,89.9999972534181,8|0,0:0|0:0,0:0:0:0:
53,230,48001,6,0,P|138:249|238:231,1,179.999994506836,2|8,0:0|0:0,0:0:0:0:
139,97,48361,1,2,0:0:0:0:
139,97,48601,5,2,0:0:0:0:
334,136,48721,1,8,0:0:0:0:
172,215,48841,1,0,0:0:0:0:
442,109,49201,6,0,L|446:12,1,89.9999972534181,2|0,0:0|0:0,0:0:0:0:
419,134,49441,6,0,L|423:37,1,89.9999972534181,2|0,0:0|0:0,0:0:0:0:
395,163,49921,6,0,B|400:21|400:21|371:94,1,179.999994506836,2|0,0:0|0:0,0:0:0:0:
348,245,50281,2,0,B|468:320|468:320|419:258,1,179.999994506836,2|0,0:0|0:0,0:0:0:0:
300,159,50641,1,2,0:0:0:0:
269,168,50701,1,2,0:0:0:0:
238,177,50761,1,2,0:0:0:0:
207,186,50821,1,2,0:0:0:0:
177,196,50881,6,0,L|259:245,1,89.9999972534181,6|0,0:0|0:0,0:0:0:0:
82,226,51121,2,0,L|83:130,1,89.9999972534181,8|0,0:0|0:0,0:0:0:0:
154,302,51361,2,0,L|70:348,1,89.9999972534181,2|0,0:0|0:0,0:0:0:0:
192,178,51601,6,0,L|305:246,1,89.9999972534181,8|0,0:0|0:0,0:0:0:0:
60,220,51841,2,0,L|62:87,1,89.9999972534181,2|0,0:0|0:0,0:0:0:0:
160,325,52081,1,8,0:0:0:0:
211,162,52201,1,2,0:0:0:0:
211,162,52441,5,2,0:0:0:0:
384,94,52561,1,8,0:0:0:0:
189,62,52681,1,0,0:0:0:0:
189,62,53041,5,2,0:0:0:0:
314,225,53161,1,0,0:0:0:0:
189,62,53281,5,2,0:0:0:0:
314,225,53401,1,0,0:0:0:0:
314,225,53761,5,2,0:0:0:0:
214,195,53921,5,2,0:0:0:0:
379,152,54081,5,2,0:0:0:0:
169,117,54241,5,2,0:0:0:0:
440,77,54401,5,2,0:0:0:0:
124,38,54561,5,2,0:0:0:0:
495,1,54721,6,0,L|493:60,1,44.999998626709,2|0,0:0|0:0,0:0:0:0:
314,225,55201,1,0,0:0:0:0:
495,1,55681,6,0,L|465:94,1,89.9999972534181,2|0,0:0|0:0,0:0:0:0:
314,225,56161,2,0,L|311:321,2,89.9999972534181
495,0,56641,6,0,L|403:143,1,134.999995880127,2|0,0:0|0:0,0:0:0:0:
314,225,57121,1,0,0:0:0:0:
495,1,57601,6,0,L|355:128,1,179.999994506836,2|0,0:0|0:0,0:0:0:0:
314,225,58081,2,0,L|311:321,2,89.9999972534181
17,1,58561,6,0,L|19:60,1,44.999998626709,2|0,0:0|0:0,0:0:0:0:
17,1,59041,6,0,L|46:94,1,89.9999972534181,2|0,0:0|0:0,0:0:0:0:
17,1,59521,6,0,L|108:143,1,134.999995880127,2|0,0:0|0:0,0:0:0:0:
198,225,60001,2,0,L|201:321,2,89.9999972534181,2|0|0,0:0|0:0|0:0,0:0:0:0:
322,97,60481,6,0,P|367:109|406:141,1,89.9999972534181,2|0,0:0|0:0,0:0:0:0:
180,96,60721,2,0,P|137:107|102:135,1,89.9999972534181,2|0,0:0|0:0,0:0:0:0:
355,19,60961,6,0,P|396:30|443:61,1,89.9999972534181,2|0,0:0|0:0,0:0:0:0:
148,17,61201,2,0,P|105:29|66:52,1,89.9999972534181,2|0,0:0|0:0,0:0:0:0:
322,97,61441,5,2,0:0:0:0:
181,96,61561,1,2,0:0:0:0:
355,19,61681,1,2,0:0:0:0:
148,18,61801,1,2,0:0:0:0:
256,164,61921,5,2,0:0:0:0:
256,188,61981,1,2,0:0:0:0:
256,212,62041,1,2,0:0:0:0:
256,236,62101,1,2,0:0:0:0:
256,260,62161,2,0,L|256:324,3,44.999998626709,2|2|2|2,0:0|0:0|0:0|0:0,0:0:0:0:
278,328,62401,6,0,L|362:311,1,80,2|0,0:0|0:0,0:0:0:0:
177,255,62641,2,0,L|93:238,1,80
332,222,62881,2,0,L|416:205,1,80
231,149,63121,2,0,L|147:132,1,80
380,110,63361,5,0,0:0:0:0:
281,32,63481,1,0,0:0:0:0:
281,32,63541,1,0,0:0:0:0:
281,32,63601,1,0,0:0:0:0:
231,149,63721,1,0,0:0:0:0:
332,222,63841,1,0,0:0:0:0:
380,110,63961,1,2,0:0:0:0:
380,110,64021,1,2,0:0:0:0:
380,110,64081,2,0,L|442:116,3,40,8|0|0|0,0:0|0:0|0:0|0:0,0:0:0:0:
432,119,64321,6,0,L|319:130,1,110.000003356934,6|0,0:0|0:0,0:0:0:0:
176,55,64561,1,8,0:0:0:0:
332,222,64681,2,0,P|272:246|134:191,1,220.000006713867
400,132,65041,2,0,L|515:146,1,110.000003356934,8|0,0:0|0:0,0:0:0:0:
316,312,65281,6,0,L|193:327,1,110.000003356934,2|0,0:0|0:0,0:0:0:0:
397,378,65521,1,8,0:0:0:0:
415,213,65641,2,0,P|344:183|195:246,1,220.000006713867
19,290,66001,2,0,L|145:299,1,110.000003356934,8|0,0:0|0:0,0:0:0:0:
206,121,66241,6,0,L|80:112,1,110.000003356934,2|0,0:0|0:0,0:0:0:0:
236,27,66481,1,8,0:0:0:0:
136,206,66601,1,0,0:0:0:0:
311,91,66721,2,0,P|389:77|437:88,1,110.000003356934,2|0,0:0|0:0,0:0:0:0:
300,318,66961,2,0,P|248:257|234:210,1,110.000003356934,8|0,0:0|0:0,0:0:0:0:
510,186,67201,6,0,P|492:285|395:352,1,220.000006713867,2|8,0:0|0:0,0:0:0:0:
305,174,67561,1,0,0:0:0:0:
403,219,67681,1,2,0:0:0:0:
400,60,67801,1,0,0:0:0:0:
324,266,67921,2,0,P|271:261|220:214,1,110.000003356934,8|0,0:0|0:0,0:0:0:0:
33,148,68161,6,0,B|98:124|146:159|146:159|193:118|250:128,1,220.000006713867,2|8,0:0|0:0,0:0:0:0:
141,51,68521,1,0,0:0:0:0:
80,241,68641,2,0,B|67:295|67:295|82:357,1,110.000003356934,2|0,0:0|0:0,0:0:0:0:
143,157,68881,2,0,B|157:105|157:105|141:51,1,110.000003356934,8|0,0:0|0:0,0:0:0:0:
219,255,69121,6,0,B|178:291|178:291|217:330,1,110.000003356934,2|0,0:0|0:0,0:0:0:0:
263,142,69361,2,0,B|302:102|302:102|261:66,1,110.000003356934,8|0,0:0|0:0,0:0:0:0:
373,279,69601,6,0,B|320:292|320:292|371:311,1,110.000003356934,2|0,0:0|0:0,0:0:0:0:
401,119,69841,2,0,B|452:99|452:99|399:86,1,110.000003356934,8|0,0:0|0:0,0:0:0:0:
341,202,70081,5,8,0:0:0:0:
172,282,70201,1,2,0:0:0:0:
217,157,70321,1,8,0:0:0:0:
296,326,70441,1,2,0:0:0:0:
131,196,70561,5,8,0:0:0:0:
210,365,70681,1,2,0:0:0:0:
255,241,70801,1,8,0:0:0:0:
86,321,70921,1,2,0:0:0:0:
217,157,71041,5,8,0:0:0:0:
52,244,71161,1,0,0:0:0:0:
52,244,71221,1,0,0:0:0:0:
52,244,71281,2,0,L|43:180,3,55.0000016784668
29,102,71521,6,0,L|90:111,1,55.0000016784668,2|0,0:0|0:0,0:0:0:0:
24,84,71641,6,0,L|110:100,1,64.9999970245363,2|0,0:0|0:0,0:0:0:0:
20,67,71761,6,0,L|110:85,1,75.0000028610231,8|0,0:0|0:0,0:0:0:0:
186,134,71881,1,8,0:0:0:0:
186,134,71941,1,8,0:0:0:0:
186,134,72001,6,0,P|262:143|318:76,1,160,2|0,0:0|0:0,0:0:0:0:
315,87,72361,1,0,0:0:0:0:
455,235,72601,6,0,P|379:248|473:260,1,300.000011444092,12|0,0:0|0:0,0:0:0:0:
294,309,72961,6,0,P|217:299|162:367,1,160,2|0,0:0|0:0,0:0:0:0:
164,354,73321,1,0,0:0:0:0:
38,154,73561,6,0,P|114:141|20:129,1,300.000011444092,12|0,0:0|0:0,0:0:0:0:
64,321,74161,5,2,0:0:0:0:
164,355,74281,1,0,0:0:0:0:
94,244,74401,1,2,0:0:0:0:
194,278,74521,1,0,0:0:0:0:
125,166,74641,1,2,0:0:0:0:
225,200,74761,1,0,0:0:0:0:
72,96,74881,6,0,P|35:164|80:243,1,160,2|0,0:0|0:0,0:0:0:0:
160,83,75241,2,0,P|119:16|28:16,1,160,2|2,0:0|0:0,0:0:0:0:
125,166,75601,2,0,P|164:173|215:158,1,80,8|0,0:0|0:0,0:0:0:0:
494,76,75841,6,0,B|423:93|423:93|356:71|356:71|266:96,1,220.000006713867,6|8,0:0|0:0,0:0:0:0:
431,1,76201,1,0,0:0:0:0:
355,168,76321,2,0,P|344:232|351:283,1,110.000003356934,2|0,0:0|0:0,0:0:0:0:
441,352,76561,2,0,P|452:288|445:237,1,110.000003356934,8|0,0:0|0:0,0:0:0:0:
266,108,76801,6,0,P|241:193|260:338,1,220.000006713867,2|8,0:0|0:0,0:0:0:0:
355,168,77161,1,0,0:0:0:0:
164,380,77281,2,0,P|112:376|47:342,1,110.000003356934,2|0,0:0|0:0,0:0:0:0:
98,168,77521,6,0,B|90:121|90:121|104:47,1,110.000003356934,8|0,0:0|0:0,0:0:0:0:
202,198,77761,2,0,B|210:245|210:245|196:319,1,110.000003356934,2|0,0:0|0:0,0:0:0:0:
82,173,78001,6,0,B|73:116|73:116|89:27,1,110.000003356934,8|0,0:0|0:0,0:0:0:0:
215,195,78241,2,0,B|225:251|225:251|208:340,1,110.000003356934,2|0,0:0|0:0,0:0:0:0:
183,100,78481,1,8,0:0:0:0:
123,265,78601,1,0,0:0:0:0:
319,172,78721,5,2,0:0:0:0:
338,348,78841,2,0,P|392:354|459:345,1,110.000003356934,0|8,0:0|0:0,0:0:0:0:
481,202,79081,1,2,0:0:0:0:
460,170,79141,1,2,0:0:0:0:
427,150,79201,1,2,0:0:0:0:
389,144,79261,1,2,0:0:0:0:
351,151,79321,1,2,0:0:0:0:
319,172,79381,1,2,0:0:0:0:
297,203,79441,1,8,0:0:0:0:
388,54,79561,1,8,0:0:0:0:
388,54,79621,1,8,0:0:0:0:
388,54,79681,6,0,B|432:151|341:160|403:296,1,220.000006713867,6|8,0:0|0:0,0:0:0:0:
481,202,80041,1,0,0:0:0:0:
301,109,80161,2,0,P|240:99|179:116,1,110.000003356934,2|0,0:0|0:0,0:0:0:0:
16,190,80401,2,0,P|77:200|138:183,1,110.000003356934,8|0,0:0|0:0,0:0:0:0:
360,41,80641,6,0,P|313:21|138:41,1,220.000006713867,2|8,0:0|0:0,0:0:0:0:
66,107,81001,1,0,0:0:0:0:
174,286,81121,2,0,L|298:266,1,110.000003356934,2|0,0:0|0:0,0:0:0:0:
87,330,81361,2,0,L|-37:310,1,110.000003356934,8|0,0:0|0:0,0:0:0:0:
177,384,81601,6,0,B|354:356|354:356|278:330,1,220.000006713867,2|8,0:0|0:0,0:0:0:0:
91,236,81961,1,0,0:0:0:0:
277,158,82081,2,0,L|283:40,1,110.000003356934,2|0,0:0|0:0,0:0:0:0:
186,198,82321,2,0,L|180:307,1,110.000003356934,8|0,0:0|0:0,0:0:0:0:
375,186,82561,6,0,B|383:12|383:12|350:77,1,220.000006713867,2|8,0:0|0:0,0:0:0:0:
303,250,82921,1,0,0:0:0:0:
488,316,83041,2,0,P|419:329|369:318,1,110.000003356934,2|0,0:0|0:0,0:0:0:0:
195,256,83281,2,0,P|264:243|314:254,1,110.000003356934,8|0,0:0|0:0,0:0:0:0:
488,316,83521,5,2,0:0:0:0:
451,130,83641,1,0,0:0:0:0:
303,250,83761,2,0,P|200:296|115:218,1,220.000006713867,8|2,0:0|0:0,0:0:0:0:
93,71,84121,1,0,0:0:0:0:
218,197,84241,1,8,0:0:0:0:
351,96,84361,6,0,B|400:97|462:62|462:62|438:208,1,220.000006713867
270,41,84721,1,8,0:0:0:0:
353,192,84841,1,0,0:0:0:0:
134,151,84961,2,0,L|12:160,1,110.000003356934,2|0,0:0|0:0,0:0:0:0:
303,250,85201,2,0,L|427:241,1,110.000003356934,8|0,0:0|0:0,0:0:0:0:
218,304,85441,6,0,P|130:359|134:248,1,239.999992675781,6|8,0:0|0:0,0:0:0:0:
303,250,85801,6,0,P|391:305|370:185,1,259.999988098145,6|8,0:0|0:0,0:0:0:0:
189,207,86161,6,0,P|101:262|136:140,1,279.999991455078,6|8,0:0|0:0,0:0:0:0:
318,143,86521,6,0,P|406:198|367:75,1,300.000011444092,6|8,0:0|0:0,0:0:0:0:
174,88,86881,6,0,P|86:143|147:30,1,320,6|8,0:0|0:0,0:0:0:0:
332,30,87241,6,6,B|436:40|436:40|401:2,1,150.000005722046,6|0,0:0|0:0,0:0:0:0:
209,16,87601,1,2,0:0:0:0:
388,283,87961,1,8,0:0:0:0:
65,192,88201,6,0,B|67:252|67:252|76:273|76:273|78:342,1,150,2|0,0:0|0:0,0:0:0:0:
65,192,89161,6,0,B|67:252|67:252|77:272|77:272|78:343,1,150.000005722046,6|0,0:0|0:0,0:0:0:0:
388,283,89521,1,2,0:0:0:0:
209,16,89881,1,8,0:0:0:0:
462,203,90121,6,0,B|467:136|467:136|457:116|457:116|463:46,1,150,2|0,0:0|0:0,0:0:0:0:
293,315,90721,1,6,0:0:0:0:
29,129,90961,1,2,0:0:0:0:
468,12,91201,6,0,B|490:77|490:77|461:172,1,150.000005722046,6|0,0:0|0:0,0:0:0:0:
424,264,91441,1,0,0:0:0:0:
359,202,91561,1,0,0:0:0:0:
337,286,91681,1,0,0:0:0:0:
272,223,91801,1,0,0:0:0:0:
251,308,91921,1,0,0:0:0:0:
317,372,92041,1,0,0:0:0:0:
402,345,92161,6,0,L|486:367,2,80
272,223,92521,1,6,0:0:0:0:
256,192,92581,12,0,94081,0:0:0:0:
383,107,100801,6,0,L|435:101,2,33.3333333333333,0|0|0,3:0|3:0|3:0,0:0:0:0:
302,140,101041,2,0,L|268:136,2,33.3333333333333,0|0|0,3:0|3:0|3:0,0:0:0:0:
382,195,101281,6,0,L|438:190,3,50
305,225,101521,2,0,L|250:220,3,50
371,279,101761,6,0,L|473:267,1,100,6|0,0:0|0:0,0:0:0:0:
486,246,101941,1,0,0:0:0:0:
497,222,102001,2,0,P|501:170|481:114,1,100,8|0,0:0|0:0,0:0:0:0:
292,154,102241,2,0,P|333:183|382:195,1,100,2|0,0:0|0:0,0:0:0:0:
428,2,102481,2,0,P|380:24|342:69,1,100,8|0,0:0|0:0,0:0:0:0:
286,254,102721,5,2,0:0:0:0:
462,358,102841,2,0,L|524:349,2,50,0|0|8,0:0|0:0|0:0,0:0:0:0:
380,194,103081,1,0,0:0:0:0:
259,348,103201,2,0,L|144:332,1,100,2|8,0:0|0:0,0:0:0:0:
0,248,103441,2,0,L|115:232,1,100,2|8,0:0|0:0,0:0:0:0:
221,120,103681,5,2,0:0:0:0:
328,295,103801,1,0,0:0:0:0:
328,295,103861,1,0,0:0:0:0:
328,295,103921,1,8,0:0:0:0:
383,140,104041,1,0,0:0:0:0:
148,245,104161,2,0,P|84:245|38:220,1,100,2|0,0:0|0:0,0:0:0:0:
242,202,104401,2,0,P|249:246|236:299,1,100,8|0,0:0|0:0,0:0:0:0:
117,150,104641,6,0,P|111:96|157:0,1,150,2|0,0:0|0:0,0:0:0:0:
226,9,104881,2,0,L|342:18,1,100,8|0,0:0|0:0,0:0:0:0:
512,72,105121,2,0,L|412:79,1,100,2|8,0:0|0:0,0:0:0:0:
247,157,105361,2,0,L|346:164,1,100,2|8,0:0|0:0,0:0:0:0:
512,235,105601,6,0,L|374:248,1,150,2|0,0:0|0:0,0:0:0:0:
286,268,105841,2,0,P|268:310|268:368,1,100,8|0,0:0|0:0,0:0:0:0:
459,332,106081,1,2,0:0:0:0:
427,154,106201,1,0,0:0:0:0:
286,268,106321,2,0,B|237:280|237:280|174:274,1,100,8|0,0:0|0:0,0:0:0:0:
0,191,106561,6,0,B|49:179|49:179|112:185,1,100,2|0,0:0|0:0,0:0:0:0:
123,189,106741,1,0,0:0:0:0:
147,194,106801,1,8,0:0:0:0:
238,54,106921,1,0,0:0:0:0:
396,139,107041,2,0,P|415:198|409:244,1,100,2|8,0:0|0:0,0:0:0:0:
168,115,107281,2,0,P|149:56|155:10,1,100,2|8,0:0|0:0,0:0:0:0:
372,21,107521,6,0,P|406:17|432:21,3,50,2|0|0|0,0:0|0:0|0:0|0:0,0:0:0:0:
449,107,107761,2,0,P|415:111|389:107,3,50,8|0|0|0,0:0|0:0|0:0|0:0,0:0:0:0:
305,103,108001,6,0,L|186:125,1,100,2|0,0:0|0:0,0:0:0:0:
78,128,108161,6,0,L|213:155,1,110.000003356934,2|0,0:0|0:0,0:0:0:0:
350,194,108321,6,0,L|211:218,1,119.999996337891,2|0,0:0|0:0,0:0:0:0:
49,264,108481,6,0,B|195:236|195:236|148:302,1,194.999991073609,2|0,0:0|0:0,0:0:0:0:
336,314,108721,6,0,B|203:290|203:290|250:356,1,179.999994506836,2|0,0:0|0:0,0:0:0:0:
49,362,108961,6,0,B|177:337|177:337|135:404,1,165.000005035401,2|0,0:0|0:0,0:0:0:0:
117,268,109201,6,0,P|112:234|126:183,1,75,2|0,0:0|0:0,0:0:0:0:
58,144,109441,6,0,B|119:166|119:166|227:144,1,150,6|0,0:0|0:0,0:0:0:0:
282,135,109681,2,0,P|327:135|382:164,1,100,8|0,0:0|0:0,0:0:0:0:
472,46,109921,1,2,0:0:0:0:
413,248,110041,1,0,0:0:0:0:
383,59,110161,1,8,0:0:0:0:
502,237,110281,1,0,0:0:0:0:
330,286,110401,6,0,P|287:295|194:246,1,150,2|0,0:0|0:0,0:0:0:0:
118,216,110641,2,0,L|118:330,1,100,8|0,0:0|0:0,0:0:0:0:
227,179,110881,1,2,0:0:0:0:
57,126,111001,1,8,0:0:0:0:
258,94,111121,1,2,0:0:0:0:
88,41,111241,1,8,0:0:0:0:
227,179,111361,6,0,B|275:193|275:193|326:173|376:193,1,150,2|0,0:0|0:0,0:0:0:0:
449,217,111601,2,0,P|460:263|446:316,1,100,8|0,0:0|0:0,0:0:0:0:
411,97,111841,2,0,P|445:64|498:50,1,100,2|0,0:0|0:0,0:0:0:0:
327,181,112081,2,0,P|281:167|242:128,1,100,8|0,0:0|0:0,0:0:0:0:
31,44,112321,6,0,L|209:58,1,150,2|0,0:0|0:0,0:0:0:0:
258,84,112561,2,0,L|362:91,1,100,8|0,0:0|0:0,0:0:0:0:
168,237,112801,2,0,L|122:143,1,100,2|8,0:0|0:0,0:0:0:0:
339,254,113041,2,0,L|280:340,1,100,2|8,0:0|0:0,0:0:0:0:
262,180,113281,5,6,0:0:0:0:
363,136,113401,1,0,0:0:0:0:
258,171,113521,5,0,0:0:0:0:
367,145,113641,1,0,0:0:0:0:
257,161,113761,5,0,0:0:0:0:
368,155,113881,1,0,0:0:0:0:
60,343,114121,6,0,B|58:305|58:305|66:295|66:295|49:290|49:290|57:278|57:278|50:159,1,200,6|0,0:0|0:0,0:0:0:0:
131,20,114481,2,0,B|130:39|130:39|134:44|134:44|125:46|125:46|129:52|129:52|126:112,1,100,6|0,0:0|0:0,0:0:0:0:
196,272,114721,2,0,L|255:276,3,50
278,252,114961,6,0,L|364:258,3,75.0000028610231
386,242,115201,5,6,0:0:0:0:
85,172,122881,5,6,0:0:0:0:
85,172,123001,2,0,P|80:119|90:56,1,89.9999972534181,0|2,0:0|0:0,0:0:0:0:
222,241,123241,2,0,P|225:302|218:345,1,89.9999972534181,0|2,0:0|0:0,0:0:0:0:
185,136,123481,1,0,0:0:0:0:
125,275,123601,1,2,0:0:0:0:
307,188,123721,6,0,B|398:221|397:142|502:190,1,179.999994506836
349,100,124081,2,0,B|338:55|338:55|348:5,1,89.9999972534181,2|0,0:0|0:0,0:0:0:0:
444,271,124321,2,0,B|455:316|455:316|445:366,1,89.9999972534181,2|0,0:0|0:0,0:0:0:0:
262,310,124561,2,0,L|384:317,1,89.9999972534181,2|0,0:0|0:0,0:0:0:0:
177,361,124801,6,0,P|111:362|72:341,1,89.9999972534181,2|0,0:0|0:0,0:0:0:0:
26,168,125041,1,2,0:0:0:0:
143,276,125161,1,0,0:0:0:0:
228,120,125281,2,0,L|220:16,1,89.9999972534181,2|0,0:0|0:0,0:0:0:0:
143,181,125521,1,2,0:0:0:0:
143,181,125641,6,0,P|229:154|332:194,1,179.999994506836
455,83,126001,1,2,0:0:0:0:
390,248,126121,1,0,0:0:0:0:
346,83,126241,1,2,0:0:0:0:
489,194,126361,1,0,0:0:0:0:
356,347,126481,2,0,L|262:354,1,89.9999972534181,2|0,0:0|0:0,0:0:0:0:
24,297,126721,6,0,P|101:261|191:323,1,179.999994506836,2|2,0:0|0:0,0:0:0:0:
367,252,127081,1,0,0:0:0:0:
367,252,127201,2,0,L|261:258,1,89.9999972534181,2|0,0:0|0:0,0:0:0:0:
216,87,127441,1,2,0:0:0:0:
44,195,127561,6,0,P|121:231|211:169,1,179.999994506836
387,138,127921,2,0,L|281:144,1,89.9999972534181,2|0,0:0|0:0,0:0:0:0:
367,252,128161,2,0,L|456:257,1,89.9999972534181,2|0,0:0|0:0,0:0:0:0:
286,331,128401,2,0,L|196:336,1,89.9999972534181,2|0,0:0|0:0,0:0:0:0:
25,221,128641,5,2,0:0:0:0:
56,225,128701,1,2,0:0:0:0:
87,229,128761,1,2,0:0:0:0:
118,233,128821,1,2,0:0:0:0:
149,237,128881,2,0,L|252:247,1,89.9999972534181,2|0,0:0|0:0,0:0:0:0:
339,98,129121,5,2,0:0:0:0:
339,98,129181,1,2,0:0:0:0:
339,98,129241,1,2,0:0:0:0:
159,138,129361,1,2,0:0:0:0:
85,8,129481,5,2,0:0:0:0:
85,8,129541,1,2,0:0:0:0:
85,8,129601,2,0,B|149:30|158:138|158:138|283:68|511:166|309:281|324:162,1,489.999985046387,2|0,0:0|0:0,0:0:0:0:
368,57,130561,6,0,P|412:85|444:125,1,89.9999972534181,6|0,0:0|0:0,0:0:0:0:
322,289,130801,2,0,P|273:261|247:211,1,89.9999972534181,8|0,0:0|0:0,0:0:0:0:
432,267,131041,1,2,0:0:0:0:
432,267,131161,2,0,L|538:256,1,89.9999972534181,0|8,0:0|0:0,0:0:0:0:
344,196,131401,6,0,B|264:203|264:203|218:162|137:191,1,179.999994506836
295,111,131761,1,8,0:0:0:0:
202,272,131881,1,0,0:0:0:0:
122,105,132001,2,0,P|113:59|126:13,1,89.9999972534181,2|8,0:0|0:0,0:0:0:0:
202,272,132241,2,0,P|166:302|120:314,1,89.9999972534181,2|8,0:0|0:0,0:0:0:0:
295,111,132481,6,0,L|395:132,1,89.9999972534181,2|0,0:0|0:0,0:0:0:0:
224,176,132721,1,8,0:0:0:0:
364,38,132841,1,0,0:0:0:0:
456,197,132961,2,0,P|475:236|468:294,1,89.9999972534181,2|0,0:0|0:0,0:0:0:0:
265,340,133201,1,8,0:0:0:0:
386,261,133321,6,0,B|330:274|330:274|276:249|276:249|214:262,1,179.999994506836
349,178,133681,1,8,0:0:0:0:
265,340,133801,1,0,0:0:0:0:
140,196,133921,2,0,P|142:144|169:104,1,89.9999972534181,2|8,0:0|0:0,0:0:0:0:
285,256,134161,2,0,P|285:300|265:340,1,89.9999972534181,2|8,0:0|0:0,0:0:0:0:
282,112,134401,6,0,B|342:134|342:134|471:106,1,179.999994506836,2|8,0:0|0:0,0:0:0:0:
347,35,134761,1,0,0:0:0:0:
393,216,134881,1,2,0:0:0:0:
511,38,135001,1,2,0:0:0:0:
282,112,135121,1,8,0:0:0:0:
472,262,135241,6,0,B|533:166|533:166|475:186,1,150,6|0,0:0|0:0,0:0:0:0:
393,216,135481,6,0,B|330:321|330:321|395:301,1,179.999994506836,2|0,0:0|0:0,0:0:0:0:
454,148,135721,6,0,B|394:110|342:143|342:143|322:107|276:92|218:114,1,209.999993591309,6|0,0:0|0:0,0:0:0:0:
124,144,135961,6,0,P|222:153|165:41,1,240,2|0,0:0|0:0,0:0:0:0:
68,71,136201,6,0,P|32:156|106:234,1,179.999994506836,6|2,0:0|0:0,0:0:0:0:
250,187,136561,1,8,0:0:0:0:
218,325,136681,1,0,0:0:0:0:
124,144,136801,1,2,0:0:0:0:
298,278,136921,1,2,0:0:0:0:
204,97,137041,1,8,0:0:0:0:
170,234,137161,1,2,0:0:0:0:
378,228,137281,6,0,P|428:248|504:177,1,150
430,172,137521,6,0,P|379:190|307:132,1,120
381,117,137761,6,0,P|427:136|480:111,1,89.9999972534181
429,62,138001,6,0,P|385:77|359:70,1,59.8404243176963
302,33,138241,6,0,P|249:32|196:42,1,89.9999972534181,6|0,0:0|0:0,0:0:0:0:
76,175,138481,1,8,0:0:0:0:
125,3,138601,1,0,0:0:0:0:
266,139,138721,2,0,P|281:187|269:247,1,89.9999972534181,2|2,0:0|0:0,0:0:0:0:
217,378,138961,2,0,P|202:330|214:270,1,89.9999972534181,8|0,0:0|0:0,0:0:0:0:
334,67,139201,6,0,P|366:134|365:254,1,179.999994506836,2|8,0:0|0:0,0:0:0:0:
185,196,139561,1,2,0:0:0:0:
185,196,139801,5,2,0:0:0:0:
334,67,139921,1,8,0:0:0:0:
385,290,140041,1,0,0:0:0:0:
70,109,140401,6,0,L|66:12,1,89.9999972534181,2|0,0:0|0:0,0:0:0:0:
93,134,140641,6,0,L|89:37,1,89.9999972534181,2|0,0:0|0:0,0:0:0:0:
117,163,141121,6,0,B|112:21|112:21|141:94,1,179.999994506836,2|0,0:0|0:0,0:0:0:0:
164,245,141481,2,0,B|44:320|44:320|93:258,1,179.999994506836,2|0,0:0|0:0,0:0:0:0:
213,152,141841,1,2,0:0:0:0:
244,161,141901,1,2,0:0:0:0:
275,170,141961,1,2,0:0:0:0:
306,179,142021,1,2,0:0:0:0:
337,189,142081,6,0,L|255:238,1,89.9999972534181,6|0,0:0|0:0,0:0:0:0:
441,336,142321,2,0,L|439:240,1,89.9999972534181,8|0,0:0|0:0,0:0:0:0:
272,330,142561,2,0,L|355:376,1,89.9999972534181,2|2,0:0|0:0,0:0:0:0:
333,168,142801,6,0,L|233:227,1,89.9999972534181,8|0,0:0|0:0,0:0:0:0:
461,347,143041,2,0,L|459:231,1,89.9999972534181,2|0,0:0|0:0,0:0:0:0:
253,342,143281,1,8,0:0:0:0:
329,142,143401,1,2,0:0:0:0:
329,142,143641,5,2,0:0:0:0:
492,220,143761,1,8,0:0:0:0:
289,241,143881,1,0,0:0:0:0:
289,241,144241,5,2,0:0:0:0:
242,64,144361,1,0,0:0:0:0:
289,241,144481,5,2,0:0:0:0:
242,64,144601,1,0,0:0:0:0:
289,241,144961,5,2,0:0:0:0:
319,335,145121,1,2,0:0:0:0:
384,257,145281,1,2,0:0:0:0:
219,318,145441,5,2,0:0:0:0:
480,273,145601,1,2,0:0:0:0:
122,297,145761,1,2,0:0:0:0:
260,143,145921,6,0,L|266:80,1,44.999998626709,2|0,0:0|0:0,0:0:0:0:
56,192,146401,1,0,0:0:0:0:
260,143,146881,6,0,L|238:18,1,89.9999972534181,2|0,0:0|0:0,0:0:0:0:
56,192,147361,2,0,L|45:296,2,89.9999972534181
260,143,147841,6,0,L|187:-16,1,134.999995880127,2|0,0:0|0:0,0:0:0:0:
56,192,148321,1,0,0:0:0:0:
260,143,148801,6,0,L|129:-15,1,179.999994506836,2|0,0:0|0:0,0:0:0:0:
56,192,149281,2,0,L|45:296,2,89.9999972534181
252,241,149761,6,0,L|246:304,1,44.999998626709,2|0,0:0|0:0,0:0:0:0:
251,241,150241,6,0,L|273:365,1,89.9999972534181,2|0,0:0|0:0,0:0:0:0:
251,241,150721,6,0,L|325:402,1,134.999995880127,2|0,0:0|0:0,0:0:0:0:
456,192,151201,2,0,L|467:88,2,89.9999972534181,2|0|0,0:0|0:0|0:0,0:0:0:0:
190,287,151681,6,0,P|145:275|106:243,1,89.9999972534181,2|0,0:0|0:0,0:0:0:0:
332,288,151921,2,0,P|375:277|410:249,1,89.9999972534181,2|0,0:0|0:0,0:0:0:0:
157,365,152161,6,0,P|116:354|69:323,1,89.9999972534181,2|0,0:0|0:0,0:0:0:0:
364,367,152401,2,0,P|407:355|446:332,1,89.9999972534181,2|0,0:0|0:0,0:0:0:0:
190,287,152641,5,2,0:0:0:0:
332,288,152761,1,2,0:0:0:0:
157,365,152881,1,2,0:0:0:0:
364,366,153001,1,2,0:0:0:0:
256,220,153121,5,2,0:0:0:0:
256,196,153181,1,2,0:0:0:0:
256,172,153241,1,2,0:0:0:0:
256,148,153301,1,2,0:0:0:0:
256,124,153361,2,0,L|256:60,3,44.999998626709,2|2|2|2,0:0|0:0|0:0|0:0,0:0:0:0:
256,56,153601,5,2,0:0:0:0:
43,208,155521,6,0,L|55:298,1,89.9999972534181
130,179,155761,2,0,L|142:90,1,89.9999972534181
200,231,156001,2,0,L|212:321,1,89.9999972534181
265,152,156241,2,0,L|277:63,1,89.9999972534181
363,262,156481,5,0,0:0:0:0:
505,219,156601,1,0,0:0:0:0:
505,219,156661,1,0,0:0:0:0:
505,219,156721,1,0,0:0:0:0:
404,117,156841,1,0,0:0:0:0:
265,152,156961,1,0,0:0:0:0:
363,262,157081,1,2,0:0:0:0:
363,262,157141,1,2,0:0:0:0:
363,262,157201,2,0,L|357:317,3,44.999998626709,8|0|0|0,0:0|0:0|0:0|0:0,0:0:0:0:
351,319,157441,6,0,L|334:186,1,110.000003356934,6|0,0:0|0:0,0:0:0:0:
144,136,157681,1,8,0:0:0:0:
188,240,157801,2,0,P|247:179|199:40,1,220.000006713867
100,284,158161,2,0,P|144:325|217:330,1,110.000003356934,8|0,0:0|0:0,0:0:0:0:
359,215,158401,5,2,0:0:0:0:
188,240,158521,1,0,0:0:0:0:
235,79,158641,1,8,0:0:0:0:
414,123,158761,2,0,P|460:181|418:319,1,220.000006713867
318,124,159121,2,0,P|340:61|395:32,1,110.000003356934,8|0,0:0|0:0,0:0:0:0:
359,215,159361,6,0,L|108:172,1,220.000006713867,2|8,0:0|0:0,0:0:0:0:
74,261,159721,1,0,0:0:0:0:
210,99,159841,1,2,0:0:0:0:
181,283,159961,1,0,0:0:0:0:
101,82,160081,1,8,0:0:0:0:
249,192,160201,1,0,0:0:0:0:
37,160,160321,6,0,B|21:81|71:35|71:35|108:53|165:37,1,220.000006713867,2|8,0:0|0:0,0:0:0:0:
249,192,160681,2,0,B|265:271|215:317|215:317|178:299|121:315,1,220.000006713867
110,120,161041,2,0,B|152:89|152:89|210:99,1,110.000003356934,8|0,0:0|0:0,0:0:0:0:
377,209,161281,6,0,B|317:254|317:254|158:230,1,220.000006713867,2|8,0:0|0:0,0:0:0:0:
210,78,161641,1,0,0:0:0:0:
377,209,161761,2,0,P|406:295|402:334,1,110.000003356934,2|0,0:0|0:0,0:0:0:0:
210,78,162001,2,0,P|241:33|285:2,1,110.000003356934,8|0,0:0|0:0,0:0:0:0:
180,288,162240,2,0,P|126:284|76:260,1,110.000003356934,2|0,0:0|0:0,0:0:0:0:
331,95,162481,6,0,P|385:99|435:123,1,110.000003356934,8|0,0:0|0:0,0:0:0:0:
135,175,162721,2,0,P|106:88|110:50,1,110.000003356934,2|0,0:0|0:0,0:0:0:0:
301,305,162962,2,0,P|270:350|226:381,1,110.000003356934,8|0,0:0|0:0,0:0:0:0:
212,151,163201,5,8,0:0:0:0:
301,305,163321,1,2,0:0:0:0:
334,183,163441,1,8,0:0:0:0:
180,273,163561,1,2,0:0:0:0:
340,158,163681,5,8,0:0:0:0:
416,320,163801,1,2,0:0:0:0:
260,234,163921,1,8,0:0:0:0:
436,211,164041,1,2,0:0:0:0:
306,333,164161,5,8,0:0:0:0:
220,205,164281,1,0,0:0:0:0:
220,205,164341,1,0,0:0:0:0:
220,205,164401,2,0,L|210:140,3,55.0000016784668
195,63,164641,6,0,L|256:72,1,55.0000016784668,2|0,0:0|0:0,0:0:0:0:
190,45,164761,6,0,L|276:61,1,64.9999970245363,2|0,0:0|0:0,0:0:0:0:
186,28,164881,6,0,L|276:46,1,75.0000028610231,8|0,0:0|0:0,0:0:0:0:
344,81,165001,1,8,0:0:0:0:
344,81,165061,1,8,0:0:0:0:
344,81,165121,6,0,B|404:107|464:70|464:70|423:50,1,160,2|0,0:0|0:0,0:0:0:0:
433,54,165481,1,0,0:0:0:0:
326,252,165721,6,0,B|396:209|462:260|462:260|463:348|343:358,1,300.000011444092,12|0,0:0|0:0,0:0:0:0:
168,303,166081,6,0,B|108:277|48:314|48:314|89:334,1,160,2|0,0:0|0:0,0:0:0:0:
79,330,166441,1,0,0:0:0:0:
186,132,166681,6,0,B|110:165|51:118|51:118|58:30|160:17,1,300.000011444092,12|0,0:0|0:0,0:0:0:0:
490,136,167281,5,2,0:0:0:0:
389,105,167401,1,0,0:0:0:0:
465,217,167521,1,2,0:0:0:0:
364,186,167641,1,0,0:0:0:0:
440,298,167761,1,2,0:0:0:0:
339,267,167881,1,0,0:0:0:0:
109,305,168001,6,0,P|175:340|255:305,1,160,2|0,0:0|0:0,0:0:0:0:
141,132,168361,2,0,P|75:97|-5:132,1,160,2|2,0:0|0:0,0:0:0:0:
193,219,168721,2,0,L|282:221,1,80,8|0,0:0|0:0,0:0:0:0:
477,141,168961,6,0,B|423:119|423:119|334:134|334:134|254:106,1,220.000006713867,6|8,0:0|0:0,0:0:0:0:
438,23,169321,1,0,0:0:0:0:
409,212,169441,2,0,B|417:270|417:270|402:330,1,110.000003356934,2|0,0:0|0:0,0:0:0:0:
336,134,169681,2,0,B|328:76|328:76|343:16,1,110.000003356934,8|0,0:0|0:0,0:0:0:0:
477,141,169921,6,0,B|491:217|491:217|473:282|473:282|490:363,1,220.000006713867,2|8,0:0|0:0,0:0:0:0:
322,257,170281,1,0,0:0:0:0:
138,114,170401,2,0,P|193:97|264:113,1,110.000003356934,2|0,0:0|0:0,0:0:0:0:
92,256,170641,6,0,B|67:170|67:170|106:197,1,110.000003356934,8|0,0:0|0:0,0:0:0:0:
197,283,170881,2,0,B|222:369|222:369|183:342,1,110.000003356934,2|0,0:0|0:0,0:0:0:0:
77,251,171121,6,0,B|51:164|51:164|89:181,1,110.000003356934,8|0,0:0|0:0,0:0:0:0:
210,286,171361,2,0,B|233:370|233:370|193:361,1,110.000003356934,2|0,0:0|0:0,0:0:0:0:
168,181,171601,6,0,P|226:168|282:184,1,110.000003356934,8|0,0:0|0:0,0:0:0:0:
408,81,171841,1,2,0:0:0:0:
468,279,171961,2,0,P|410:292|354:276,1,110.000003356934,0|8,0:0|0:0,0:0:0:0:
119,101,172201,1,2,0:0:0:0:
150,85,172261,1,2,0:0:0:0:
184,76,172321,1,2,0:0:0:0:
218,72,172381,1,2,0:0:0:0:
253,75,172441,1,2,0:0:0:0:
287,84,172501,1,2,0:0:0:0:
319,98,172561,1,8,0:0:0:0:
240,278,172681,1,8,0:0:0:0:
240,278,172741,1,8,0:0:0:0:
240,278,172801,6,0,B|248:215|207:151|207:151|251:139|298:184,1,220.000006713867,6|8,0:0|0:0,0:0:0:0:
296,354,173161,1,0,0:0:0:0:
145,267,173281,2,0,P|111:256|33:274,1,110.000003356934,2|0,0:0|0:0,0:0:0:0:
191,357,173521,2,0,P|225:368|303:350,1,110.000003356934,8|0,0:0|0:0,0:0:0:0:
210,194,173761,6,0,P|130:162|-12:191,1,220.000006713867,2|8,0:0|0:0,0:0:0:0:
94,349,174121,1,0,0:0:0:0:
210,194,174241,2,0,L|198:68,1,110.000003356934,2|0,0:0|0:0,0:0:0:0:
270,267,174481,2,0,L|166:340,1,110.000003356934,8|0,0:0|0:0,0:0:0:0:
299,178,174721,6,0,B|459:214|459:214|391:239,1,220.000006713867,2|8,0:0|0:0,0:0:0:0:
380,368,175081,1,0,0:0:0:0:
299,178,175201,2,0,L|288:62,1,110.000003356934,2|0,0:0|0:0,0:0:0:0:
216,238,175441,2,0,L|205:354,1,110.000003356934,8|0,0:0|0:0,0:0:0:0:
395,184,175681,6,0,B|377:10|377:10|352:85,1,220.000006713867,2|8,0:0|0:0,0:0:0:0:
301,271,176041,1,0,0:0:0:0:
160,134,176161,2,0,P|122:119|51:132,1,110.000003356934,2|0,0:0|0:0,0:0:0:0:
301,271,176401,2,0,P|339:286|410:273,1,110.000003356934,8|0,0:0|0:0,0:0:0:0:
266,160,176641,5,2,0:0:0:0:
216,336,176761,1,0,0:0:0:0:
110,210,176881,2,0,B|84:156|84:156|118:80|118:80|80:0,1,220.000006713867,8|2,0:0|0:0,0:0:0:0:
187,150,177241,1,0,0:0:0:0:
14,80,177361,1,8,0:0:0:0:
31,271,177481,6,0,P|89:307|204:232,1,220.000006713867
188,46,177841,1,8,0:0:0:0:
110,210,177961,1,0,0:0:0:0:
301,181,178081,2,0,B|354:192|354:192|417:176,1,110.000003356934,2|0,0:0|0:0,0:0:0:0:
162,127,178321,2,0,B|108:115|108:115|46:132,1,110.000003356934,8|0,0:0|0:0,0:0:0:0:
306,300,178561,6,0,B|469:328|469:328|424:266,1,239.999992675781,6|8,0:0|0:0,0:0:0:0:
204,235,178921,6,0,B|31:270|31:270|91:203,1,259.999988098145,6|8,0:0|0:0,0:0:0:0:
315,173,179281,6,0,B|494:208|494:208|407:136,1,279.999991455078,6|8,0:0|0:0,0:0:0:0:
192,112,179641,6,0,B|10:152|10:152|120:65,1,300.000011444092,6|8,0:0|0:0,0:0:0:0:
324,36,180001,6,0,B|518:81|518:81|413:1,1,320,6|8,0:0|0:0,0:0:0:0:
178,19,180361,6,0,B|75:41|75:41|140:76,1,150.000005722046,6|0,0:0|0:0,0:0:0:0:
331,159,180721,1,2,0:0:0:0:
163,301,181081,1,8,0:0:0:0:
417,220,181321,6,0,B|430:125|430:125|464:125|471:169,1,150,2|0,0:0|0:0,0:0:0:0:
334,365,182281,6,0,B|437:343|437:343|372:308,1,150.000005722046,6|0,0:0|0:0,0:0:0:0:
181,225,182641,1,2,0:0:0:0:
349,83,183001,1,8,0:0:0:0:
95,164,183241,6,0,B|82:259|82:259|48:259|41:215,1,150,2|0,0:0|0:0,0:0:0:0:
52,26,183841,1,6,0:0:0:0:
425,181,184081,1,2,0:0:0:0:
173,361,184321,6,0,B|153:290|153:290|189:201,1,150.000005722046,6|0,0:0|0:0,0:0:0:0:
273,140,184561,1,0,0:0:0:0:
338,202,184681,1,0,0:0:0:0:
360,118,184801,1,0,0:0:0:0:
425,181,184921,1,0,0:0:0:0:
446,96,185041,1,0,0:0:0:0:
380,32,185161,1,0,0:0:0:0:
296,55,185281,6,0,L|186:24,2,80
425,181,185641,1,6,0:0:0:0:
256,192,185701,12,0,187201,0:0:0:0:
134,359,194881,5,2,0:0:0:0:
36,377,195001,1,0,0:0:0:0:
18,278,195121,1,2,0:0:0:0:
117,261,195241,1,0,0:0:0:0:
232,341,195361,5,2,0:0:0:0:
134,359,195481,1,0,0:0:0:0:
117,261,195601,1,2,0:0:0:0:
215,243,195721,1,0,0:0:0:0:
330,323,195841,5,2,0:0:0:0:
232,341,195961,1,0,0:0:0:0:
215,243,196081,1,2,0:0:0:0:
313,225,196201,1,0,0:0:0:0:
428,305,196321,5,2,0:0:0:0:
330,323,196441,1,0,0:0:0:0:
313,225,196561,1,2,0:0:0:0:
411,207,196681,1,0,0:0:0:0:
295,126,196801,5,2,0:0:0:0:
393,108,196921,1,0,0:0:0:0:
411,207,197041,1,2,0:0:0:0:
313,225,197161,1,0,0:0:0:0:
197,144,197281,5,2,0:0:0:0:
295,126,197401,1,0,0:0:0:0:
313,225,197521,1,2,0:0:0:0:
214,242,197641,1,0,0:0:0:0:
99,162,197761,5,2,0:0:0:0:
197,144,197881,1,0,0:0:0:0:
214,242,198001,1,2,0:0:0:0:
116,260,198121,1,0,0:0:0:0:
1,180,198241,5,2,0:0:0:0:
99,162,198361,1,0,0:0:0:0:
116,260,198481,1,2,0:0:0:0:
18,278,198601,1,0,0:0:0:0:
99,162,198721,6,0,L|107:52,1,100,2|0,0:0|0:0,0:0:0:0:
295,126,198961,2,0,L|303:16,1,100,2|0,0:0|0:0,0:0:0:0:
197,144,199201,2,0,L|205:34,1,100,2|0,0:0|0:0,0:0:0:0:
393,108,199441,2,0,L|401:-2,1,100,2|0,0:0|0:0,0:0:0:0:
509,189,199681,6,0,L|501:299,1,100,2|0,0:0|0:0,0:0:0:0:
313,225,199921,2,0,L|305:335,1,100,2|0,0:0|0:0,0:0:0:0:
411,207,200161,2,0,L|403:317,1,100,2|0,0:0|0:0,0:0:0:0:
215,243,200401,2,0,L|207:353,1,100,2|0,0:0|0:0,0:0:0:0:
70,312,200641,5,2,0:0:0:0:
9,231,200761,1,0,0:0:0:0:
108,215,200881,1,2,0:0:0:0:
47,134,201001,1,0,0:0:0:0:
147,125,201121,5,2,0:0:0:0:
185,28,201241,1,0,0:0:0:0:
246,109,201361,1,2,0:0:0:0:
208,206,201481,1,0,0:0:0:0:
307,190,201601,5,2,0:0:0:0:
269,287,201721,1,0,0:0:0:0:
330,368,201841,1,2,0:0:0:0:
368,271,201961,1,0,0:0:0:0:
467,249,202081,5,2,0:0:0:0:
406,168,202201,1,0,0:0:0:0:
505,152,202321,1,2,0:0:0:0:
444,71,202441,1,0,0:0:0:0:
345,88,202561,6,0,P|298:81|242:103,1,100,6|0,0:0|0:0,0:0:0:0:
112,215,202801,2,0,P|159:222|215:200,1,100
253,11,203041,2,0,P|206:4|150:26,1,100
20,138,203281,2,0,P|67:145|123:123,1,100
253,11,203521,5,0,0:0:0:0:
303,196,203641,1,0,0:0:0:0:
303,196,203701,1,0,0:0:0:0:
303,196,203761,1,0,0:0:0:0:
158,54,203881,1,0,0:0:0:0:
320,92,204001,1,0,0:0:0:0:
208,239,204121,1,2,0:0:0:0:
208,239,204181,1,2,0:0:0:0:
208,239,204241,2,0,L|205:295,3,50,8|0|0|0,0:0|0:0|0:0|0:0,0:0:0:0:
205,372,204481,1,2,0:0:0:0:
425,119,205081,6,0,P|338:72|387:183,1,300.000011444092,12|0,0:0|0:0,0:0:0:0:
496,205,205441,5,2,0:0:0:0:
87,265,206041,6,0,P|174:312|125:201,1,300.000011444092,12|0,0:0|0:0,0:0:0:0:
25,174,206401,5,6,0:0:0:0:
328,328,206881,5,6,0:0:0:0:
174,26,207361,5,6,0:0:0:0:
121,362,207721,5,6,0:0:0:0:
361,121,208081,5,6,0:0:0:0:
194,182,208321,6,0,P|224:224|319:226,1,139.999995727539,6|0,0:0|0:0,0:0:0:0:
389,176,208681,1,0,0:0:0:0:
216,322,208801,6,0,L|138:297,1,80
73,155,209041,2,0,L|91:244,1,80
241,348,209281,6,0,L|149:317,1,89.9999972534181
51,127,209521,2,0,L|70:215,1,89.9999972534181
269,370,209761,6,0,L|160:333,1,100
28,99,210001,2,0,L|50:202,1,100
187,203,210241,5,8,0:0:0:0:
37,333,210361,1,2,0:0:0:0:
48,196,210481,1,8,0:0:0:0:
175,339,210601,1,2,0:0:0:0:
264,138,210721,5,8,0:0:0:0:
115,268,210841,1,2,0:0:0:0:
125,131,210961,1,8,0:0:0:0:
252,274,211081,1,2,0:0:0:0:
200,66,211201,5,8,0:0:0:0:
329,211,211321,1,0,0:0:0:0:
329,211,211381,1,0,0:0:0:0:
329,211,211441,2,0,L|390:216,3,55.0000016784668
473,202,211681,6,0,L|462:277,1,55.0000016784668,2|0,0:0|0:0,0:0:0:0:
492,198,211801,6,0,L|482:278,1,64.9999970245363,2|0,0:0|0:0,0:0:0:0:
512,195,211921,6,0,L|500:289,1,75.0000028610231,8|0,0:0|0:0,0:0:0:0:
448,358,212041,1,8,0:0:0:0:
448,358,212101,1,8,0:0:0:0:
448,358,212161,6,0,B|395:359|395:359|349:320|349:320|272:323,1,160,2|0,0:0|0:0,0:0:0:0:
302,321,212521,1,0,0:0:0:0:
144,182,212761,6,0,P|213:198|133:108,1,300.000011444092,12|0,0:0|0:0,0:0:0:0:
64,26,213121,6,0,B|117:25|117:25|163:64|163:64|240:61,1,160,2|0,0:0|0:0,0:0:0:0:
210,63,213481,1,0,0:0:0:0:
368,202,213721,6,0,P|299:186|379:276,1,300.000011444092,12|0,0:0|0:0,0:0:0:0:
319,66,214321,5,2,0:0:0:0:
419,32,214441,1,0,0:0:0:0:
350,144,214561,1,2,0:0:0:0:
450,110,214681,1,0,0:0:0:0:
380,221,214801,1,2,0:0:0:0:
480,187,214921,1,0,0:0:0:0:
319,66,215041,6,0,B|264:112|264:112|283:214,1,160,2|0,0:0|0:0,0:0:0:0:
341,353,215401,2,0,B|396:307|396:307|377:205,1,160,2|2,0:0|0:0,0:0:0:0:
372,180,215701,1,2,0:0:0:0:
364,140,215761,2,0,P|415:120|451:129,2,80,8|0|0,0:0|0:0|0:0,0:0:0:0:
113,200,216241,6,0,B|58:207|58:207|-5:184,1,110.000003356934,12|0,0:0|0:0,0:0:0:0:
215,238,216481,2,0,B|248:282|248:282|260:348,1,110.000003356934,2|0,0:0|0:0,0:0:0:0:
193,136,216721,2,0,B|214:84|214:84|265:41,1,110.000003356934,8|0,0:0|0:0,0:0:0:0:
136,295,216961,6,0,B|114:346|114:346|72:381,1,110.000003356934,2|0,0:0|0:0,0:0:0:0:
96,102,217201,2,0,B|62:57|62:57|53:4,1,110.000003356934,8|0,0:0|0:0,0:0:0:0:
291,166,217441,2,0,B|346:158|346:158|409:181,1,110.000003356934,2|0,0:0|0:0,0:0:0:0:
215,238,217681,6,0,P|189:189|193:135,1,110.000003356934,8|0,0:0|0:0,0:0:0:0:
313,260,217921,2,0,P|339:309|335:363,1,110.000003356934,2|0,0:0|0:0,0:0:0:0:
196,248,218161,6,0,P|169:199|173:145,1,110.000003356934,8|0,0:0|0:0,0:0:0:0:
331,251,218401,2,0,P|356:299|353:354,1,110.000003356934,2|0,0:0|0:0,0:0:0:0:
397,176,218641,1,8,0:0:0:0:
247,327,218761,1,0,0:0:0:0:
266,103,218881,5,2,0:0:0:0:
116,254,219001,2,0,L|-1:247,1,110.000003356934,0|8,0:0|0:0,0:0:0:0:
180,69,219241,1,2,0:0:0:0:
202,37,219301,1,2,0:0:0:0:
234,18,219361,1,2,0:0:0:0:
272,13,219421,1,2,0:0:0:0:
309,23,219481,1,2,0:0:0:0:
338,48,219541,1,2,0:0:0:0:
355,82,219601,1,8,0:0:0:0:
184,170,219721,1,8,0:0:0:0:
184,170,219781,1,8,0:0:0:0:
184,170,219841,6,0,B|22:160|22:160|89:124,1,220.000006713867,6|8,0:0|0:0,0:0:0:0:
266,103,220201,1,0,0:0:0:0:
349,327,220321,2,0,L|353:210,1,110.000003356934,2|0,0:0|0:0,0:0:0:0:
266,103,220561,2,0,L|262:212,1,110.000003356934,8|0,0:0|0:0,0:0:0:0:
442,235,220801,6,0,B|444:63|444:63|415:104,1,220.000006713867,2|8,0:0|0:0,0:0:0:0:
262,212,221161,1,0,0:0:0:0:
104,79,221281,2,0,P|62:68|0:91,1,110.000003356934,2|0,0:0|0:0,0:0:0:0:
162,158,221521,2,0,P|192:127|203:61,1,110.000003356934,8|0,0:0|0:0,0:0:0:0:
61,163,221761,6,0,B|47:222|47:222|105:323|105:323|122:252,1,220.000006713867,2|8,0:0|0:0,0:0:0:0:
250,172,222121,1,0,0:0:0:0:
408,305,222241,2,0,P|450:316|512:293,1,110.000003356934,2|0,0:0|0:0,0:0:0:0:
350,226,222481,2,0,P|319:256|308:322,1,110.000003356934,8|0,0:0|0:0,0:0:0:0:
451,221,222721,6,0,B|465:162|465:162|407:61|407:61|390:132,1,220.000006713867,2|8,0:0|0:0,0:0:0:0:
262,212,223081,1,0,0:0:0:0:
124,67,223201,2,0,L|10:60,1,110.000003356934,2|0,0:0|0:0,0:0:0:0:
203,135,223441,2,0,L|317:128,1,110.000003356934,8|0,0:0|0:0,0:0:0:0:
202,3,223681,5,2,0:0:0:0:
117,172,223801,1,0,0:0:0:0:
312,128,223921,2,0,P|391:141|419:268,1,220.000006713867,8|2,0:0|0:0,0:0:0:0:
274,384,224281,1,0,0:0:0:0:
338,221,224401,1,8,0:0:0:0:
151,252,224521,6,0,P|76:250|42:118,1,220.000006713867
202,3,224881,1,8,0:0:0:0:
117,172,225001,1,0,0:0:0:0:
329,170,225121,2,0,P|399:167|454:193,1,110.000003356934,2|0,0:0|0:0,0:0:0:0:
151,252,225361,2,0,P|81:255|26:229,1,110.000003356934,8|0,0:0|0:0,0:0:0:0:
297,92,225601,6,0,B|317:37|317:37|434:79|434:79|415:137,1,239.999992675781,6|8,0:0|0:0,0:0:0:0:
211,127,225961,6,0,B|201:66|201:66|72:112|72:112|108:163,1,259.999988098145,6|8,0:0|0:0,0:0:0:0:
312,185,226321,6,0,B|310:119|310:119|449:168|449:168|400:216,1,279.999991455078,6|8,0:0|0:0,0:0:0:0:
190,221,226681,6,0,B|200:153|200:153|51:212|51:212|124:261,1,300.000011444092,6|8,0:0|0:0,0:0:0:0:
331,282,227041,6,0,B|311:213|311:213|474:267|474:267|387:317,1,320,6|8,0:0|0:0,0:0:0:0:
169,326,227401,6,0,P|109:356|68:280,1,150.000005722046,6|0,0:0|0:0,0:0:0:0:
149,73,227761,1,2,0:0:0:0:
407,305,228121,1,8,0:0:0:0:
473,94,228361,6,0,B|440:90|417:50|417:50|393:88|349:93,1,150,2|0,0:0|0:0,0:0:0:0:
343,326,229321,6,0,P|403:356|444:280,1,150.000005722046,6|0,0:0|0:0,0:0:0:0:
363,73,229681,1,2,0:0:0:0:
105,305,230041,1,8,0:0:0:0:
39,94,230281,6,0,B|72:90|95:50|95:50|119:88|163:93,1,150,2|0,0:0|0:0,0:0:0:0:
343,58,231241,6,0,P|403:28|444:104,1,150.000005722046,6|0,0:0|0:0,0:0:0:0:
363,311,231601,1,2,0:0:0:0:
105,79,231961,1,8,0:0:0:0:
39,290,232201,6,0,B|72:294|95:334|95:334|119:296|163:291,1,150,2|0,0:0|0:0,0:0:0:0:
169,58,233161,6,0,P|109:28|68:104,1,150.000005722046,6|0,0:0|0:0,0:0:0:0:
149,311,233521,1,2,0:0:0:0:
407,79,233881,1,8,0:0:0:0:
473,290,234121,6,0,B|440:294|417:334|417:334|393:296|349:291,1,150,2|0,0:0|0:0,0:0:0:0:
407,79,234721,1,6,0:0:0:0:
154,359,234961,1,2,0:0:0:0:
22,18,235201,6,0,B|0:90|0:90|47:173,1,150.000005722046,6|0,0:0|0:0,0:0:0:0:
168,179,235441,6,0,L|257:174,1,80
391,289,235681,2,0,L|330:201,1,100
373,22,235928,2,0,L|322:124,1,100
259,270,236189,5,0,0:0:0:0:
241,79,236328,1,0,0:0:0:0:
416,152,236468,1,0,0:0:0:0:
306,167,236618,5,6,0:0:0:0:
256,192,236693,12,2,239873,0:0:0:0:
194,222,240113,5,2,0:0:0:0:
169,215,240173,1,0,0:0:0:0:
144,216,240233,1,0,0:0:0:0:
122,228,240293,1,0,0:0:0:0:
110,250,240353,5,2,0:0:0:0:
103,212,240413,1,0,0:0:0:0:
97,174,240473,1,2,0:0:0:0:
91,136,240533,1,0,0:0:0:0:
84,98,240593,5,2,0:0:0:0:
70,146,240653,1,0,0:0:0:0:
56,194,240713,1,0,0:0:0:0:
42,242,240773,1,0,0:0:0:0:
28,290,240833,6,0,P|116:281|167:344,1,150,6|0,0:0|0:0,0:0:0:0:
232,346,241073,2,0,P|296:350|344:334,1,100,8|0,0:0|0:0,0:0:0:0:
430,157,241313,1,2,0:0:0:0:
277,255,241433,1,0,0:0:0:0:
226,85,241553,1,8,0:0:0:0:
389,261,241673,1,0,0:0:0:0:
455,45,241793,6,0,P|440:71|522:148,1,150,2|0,0:0|0:0,0:0:0:0:
512,234,242033,2,0,L|510:373,1,100,8|0,0:0|0:0,0:0:0:0:
344,188,242273,1,2,0:0:0:0:
429,351,242393,1,8,0:0:0:0:
430,157,242513,1,2,0:0:0:0:
277,255,242633,1,8,0:0:0:0:
226,85,242753,6,0,B|221:56|195:51|195:51|191:165,1,150,2|0,0:0|0:0,0:0:0:0:
187,236,242993,2,0,B|184:296|184:296|164:292|160:269,1,100,8|0,0:0|0:0,0:0:0:0:
104,101,243233,1,2,0:0:0:0:
283,159,243353,1,0,0:0:0:0:
98,197,243473,1,8,0:0:0:0:
277,255,243593,1,0,0:0:0:0:
92,294,243713,6,0,P|147:339|231:331,1,150,2|0,0:0|0:0,0:0:0:0:
304,330,243953,2,0,P|349:330|413:357,1,100,8|0,0:0|0:0,0:0:0:0:
331,111,244193,2,0,P|308:149|253:191,1,100,2|8,0:0|0:0,0:0:0:0:
512,254,244433,2,0,P|489:215|480:146,1,100,2|8,0:0|0:0,0:0:0:0:
381,234,244673,6,0,L|228:264,1,150,2|0,0:0|0:0,0:0:0:0:
153,272,244913,2,0,B|108:257|108:257|80:203,1,100,8|0,0:0|0:0,0:0:0:0:
207,75,245153,2,0,B|216:121|216:121|183:172,1,100,2|0,0:0|0:0,0:0:0:0:
15,130,245393,2,0,B|50:98|50:98|111:101,1,100,8|0,0:0|0:0,0:0:0:0:
280,205,245633,6,0,P|355:214|424:143,1,150,2|0,0:0|0:0,0:0:0:0:
429,90,245873,2,0,B|479:92|479:92|516:141,1,100,8|0,0:0|0:0,0:0:0:0:
444,266,246113,1,2,0:0:0:0:
334,120,246233,1,8,0:0:0:0:
284,356,246353,1,2,0:0:0:0:
341,221,246473,1,8,0:0:0:0:
169,156,246593,6,0,P|143:157|116:150,3,50,2|0|0|0,0:0|0:0|0:0|0:0,0:0:0:0:
154,73,246833,2,0,P|132:50|125:20,3,50,8|0|0|0,0:0|0:0|0:0|0:0,0:0:0:0:
205,10,247073,6,0,L|313:0,1,100,2|0,0:0|0:0,0:0:0:0:
478,67,247233,6,0,L|362:49,1,110.000003356934,2|0,0:0|0:0,0:0:0:0:
177,91,247393,6,0,L|305:79,1,119.999996337891,2|0,0:0|0:0,0:0:0:0:
420,149,247553,6,0,P|359:133|391:221,1,194.999991073609,2|0,0:0|0:0,0:0:0:0:
227,182,247793,6,0,P|288:166|263:251,1,179.999994506836,2|0,0:0|0:0,0:0:0:0:
430,288,248033,6,0,P|369:272|388:352,1,165.000005035401,2|0,0:0|0:0,0:0:0:0:
301,328,248273,6,0,P|269:332|222:311,1,75,2|0,0:0|0:0,0:0:0:0:
155,284,248513,6,0,L|44:295,1,100,6|8,0:0|0:0,0:0:0:0:
7,121,248753,2,0,L|122:132,1,100,2|8,0:0|0:0,0:0:0:0:
265,205,248993,1,2,0:0:0:0:
224,31,249113,1,8,0:0:0:0:
224,31,249173,1,0,0:0:0:0:
224,31,249233,1,2,0:0:0:0:
81,211,249353,1,8,0:0:0:0:
275,111,249473,6,0,P|335:105|393:121,1,100,2|8,0:0|0:0,0:0:0:0:
487,268,249713,2,0,P|433:301|375:305,1,100,2|8,0:0|0:0,0:0:0:0:
231,219,249953,1,2,0:0:0:0:
171,379,250073,1,8,0:0:0:0:
171,379,250133,1,0,0:0:0:0:
171,379,250193,1,2,0:0:0:0:
106,130,250313,1,8,0:0:0:0:
253,313,250433,6,0,B|302:326|302:326|361:313,1,100,2|8,0:0|0:0,0:0:0:0:
275,111,250673,2,0,B|222:111|222:111|165:153,1,100,0|8,0:0|0:0,0:0:0:0:
95,321,250913,1,2,0:0:0:0:
0,143,251033,1,8,0:0:0:0:
0,143,251093,1,0,0:0:0:0:
0,143,251153,1,2,0:0:0:0:
166,244,251273,1,8,0:0:0:0:
251,34,251393,6,0,P|302:25|364:59,1,100,2|8,0:0|0:0,0:0:0:0:
491,225,251633,2,0,P|442:254|386:252,1,100,2|8,0:0|0:0,0:0:0:0:
249,132,251873,1,2,0:0:0:0:
200,324,251993,1,8,0:0:0:0:
200,324,252053,1,0,0:0:0:0:
200,324,252113,1,2,0:0:0:0:
379,193,252233,1,8,0:0:0:0:
74,253,252353,6,0,P|67:196|82:152,1,80,6|0,0:0|0:0,0:0:0:0:
249,132,252593,2,0,P|209:160|155:176,1,80
61,39,252833,2,0,P|111:60|144:95,1,80
483,301,253193,6,0,B|445:312|445:312|413:293|413:293|374:302|374:302|340:282|340:282|295:294,1,200,6|2,0:0|0:0,0:0:0:0:
107,231,253553,2,0,B|143:225|143:225|168:240|168:240|212:232,1,100,6|0,0:0|0:0,0:0:0:0:
407,183,253793,1,0,0:0:0:0:
410,158,253853,1,0,0:0:0:0:
413,133,253913,1,0,0:0:0:0:
416,108,253973,1,0,0:0:0:0:
420,83,254033,5,0,0:0:0:0:
374,63,254093,1,0,0:0:0:0:
324,71,254153,6,0,P|219:125|104:55,1,239.999992675781,6|0,0:0|0:0,0:0:0:0:
272,329,254513,6,0,P|325:224|459:213,1,239.999992675781,6|0,0:0|0:0,0:0:0:0:
161,89,254873,6,0,P|180:206|78:294,1,239.999992675781,6|0,0:0|0:0,0:0:0:0:
392,219,255233,6,0,P|308:136|339:5,1,239.999992675781,6|0,0:0|0:0,0:0:0:0:
129,249,255593,6,0,P|246:267|298:392,1,239.999992675781,6|0,0:0|0:0,0:0:0:0:
256,192,255953,5,6,0:0:0:0:
256,192,256013,12,2,260153,0:0:0:0:
