osu file format v14

[General]
AudioFilename: audio.mp3
AudioLeadIn: 0
PreviewTime: 100800
Countdown: 0
SampleSet: Normal
StackLeniency: 0.7
Mode: 0
LetterboxInBreaks: 0
WidescreenStoryboard: 0

[Editor]
DistanceSpacing: 1.1
BeatDivisor: 4
GridSize: 16
TimelineZoom: 1.550005

[Metadata]
Title:Shakunetsu? Candle Master? Tomoshi
TitleUnicode:灼熱?キャンドルマスター?ともしぃ
Artist:Nanahira
ArtistUnicode:ななひら
Creator:Critality
Version:Eat Tide Pods
Source:
Tags:
BeatmapID:1585902
BeatmapSetID:753276

[Difficulty]
HPDrainRate:4.5
CircleSize:4
OverallDifficulty:8
ApproachRate:10
SliderMultiplier:2
SliderTickRate:1

[Events]
//Background and Video events
0,0,"35866e6fa3c4b6f1333054f2_rw_1920.jpg",0,0
//Break Periods
2,94280,100350
2,153800,155070
2,187400,193470
//Storyboard Layer 0 (Background)
//Storyboard Layer 1 (Fail)
//Storyboard Layer 2 (Pass)
//Storyboard Layer 3 (Foreground)
//Storyboard Sound Samples

[TimingPoints]
0,240,4,1,0,50,1,0
480,-200,4,1,0,50,0,0
8640,-133.333333333333,4,1,0,70,0,0
59040,-100,4,1,0,70,0,0
59520,-79.9999999999999,4,1,0,70,0,0
60000,-50,4,1,0,70,0,0
60480,-133.333333333333,4,1,0,70,0,0
62400,-100,4,1,0,70,0,0
85440,-200,4,1,0,70,0,0
85800,-166.666666666667,4,1,0,70,0,0
86160,-142.857142857143,4,1,0,70,0,0
86520,-125,4,1,0,70,0,0
86880,-111.111111111111,4,1,0,70,0,0
87240,-100,4,1,0,70,0,0
87600,-90.9090909090909,4,1,0,70,0,0
87960,-133.333333333333,4,1,0,70,0,0
89160,-100,4,1,0,70,0,0
89520,-90.9090909090909,4,1,0,70,0,0
89880,-133.333333333333,4,1,0,70,0,0
145920,-200,4,1,0,70,0,0
146400,-133.333333333333,4,1,0,70,0,0
146880,-100,4,1,0,70,0,0
147360,-66.6666666666667,4,1,0,70,0,0
147600,-50,4,1,0,70,0,0
147840,-200,4,1,0,70,0,0
148320,-133.333333333333,4,1,0,70,0,0
148800,-100,4,1,0,70,0,0
149280,-66.6666666666667,4,1,0,70,0,0
149520,-50,4,1,0,70,0,0
149760,-100,4,1,0,70,0,0
151200,-50,4,1,0,70,0,0
155520,-100,4,1,0,70,0,0
165120,-83.3333333333333,4,1,0,70,0,0
168960,-100,4,1,0,70,0,0
178560,-200,4,1,0,70,0,0
178920,-166.666666666667,4,1,0,70,0,0
179280,-142.857142857143,4,1,0,70,0,0
179640,-125,4,1,0,70,0,0
180000,-111.111111111111,4,1,0,70,0,0
180360,-100,4,1,0,70,0,0
180720,-90.9090909090909,4,1,0,70,0,0
181080,-133.333333333333,4,1,0,70,0,0
182280,-100,4,1,0,70,0,0
182640,-90.9090909090909,4,1,0,70,0,0
183000,-133.333333333333,4,1,0,70,0,0
205080,-66.6666666666667,4,1,0,70,0,0
205800,-133.333333333333,4,1,0,70,0,0
206040,-66.6666666666667,4,1,0,70,0,0
206400,-100,4,1,0,70,0,0
216000,-200,4,1,0,70,0,0
216240,-100,4,1,0,70,0,0
225600,-133.333333333333,4,1,0,70,0,0
225960,-100,4,1,0,70,0,0
226320,-79.9999999999999,4,1,0,70,0,0
226680,-66.6666666666667,4,1,0,70,0,0
227040,-57.1428571428571,4,1,0,70,0,0
227400,-50,4,1,0,70,0,0
227760,-133.333333333333,4,1,0,70,0,0
228120,-50,4,1,0,70,0,0
228360,-100,4,1,0,70,0,0
229320,-50,4,1,0,70,0,0
229680,-133.333333333333,4,1,0,70,0,0
230040,-50,4,1,0,70,0,0
230280,-100,4,1,0,70,0,0
231240,-50,4,1,0,70,0,0
231600,-133.333333333333,4,1,0,70,0,0
231960,-50,4,1,0,70,0,0
232200,-100,4,1,0,70,0,0
233160,-50,4,1,0,70,0,0
233520,-133.333333333333,4,1,0,70,0,0
233880,-50,4,1,0,70,0,0
234120,-100,4,1,0,70,0,0
235680,244.897959183673,4,1,0,70,1,0
235802,250,4,1,0,70,1,0
235927,257.510729613734,4,1,0,70,1,0
236055,266.666666666667,4,1,0,70,1,0
236188,279.06976744186,4,1,0,70,1,0
236467,294.08,4,1,0,70,1,0
236614,-275,4,1,0,70,0,0
239775,-275,4,1,0,5,0,0
239872,240,4,1,0,70,1,0

[Colours]
Combo1 : 255,255,255
Combo2 : 255,57,0
Combo3 : 0,24,242

[HitObjects]
96,100,480,5,0,2:0:0:0:
96,100,560,1,0,2:0:0:0:
96,100,640,1,0,2:0:0:0:
96,100,720,2,0,P|128:107|162:97,1,66.6666666666667,0|0,2:0|2:0,2:0:0:0:
286,116,960,6,0,P|256:130|223:128,1,66.6666666666667,0|0,2:0|2:0,2:0:0:0:
408,188,1360,1,0,2:0:0:0:
383,208,1440,2,0,P|335:216|311:208,1,66.6666666666667,0|0,2:0|2:0,2:0:0:0:
104,188,1840,1,0,2:0:0:0:
126,211,1920,2,0,P|174:219|198:211,1,66.6666666666667,0|0,2:0|2:0,2:0:0:0:
408,188,2320,1,0,2:0:0:0:
385,212,2400,2,0,P|337:220|313:212,1,66.6666666666667,0|0,2:0|2:0,2:0:0:0:
104,188,2800,1,0,2:0:0:0:
124,212,2880,6,0,P|172:220|196:212,1,66.6666666666667,0|0,2:0|2:0,2:0:0:0:
408,188,3280,1,0,2:0:0:0:
392,215,3360,2,0,P|344:223|320:215,1,66.6666666666667,0|0,2:0|2:0,2:0:0:0:
104,188,3760,1,0,2:0:0:0:
121,214,3840,2,0,P|169:222|193:214,1,66.6666666666667,0|0,2:0|2:0,2:0:0:0:
408,188,4240,1,0,2:0:0:0:
389,212,4320,2,0,P|341:220|317:212,1,66.6666666666667,0|0,2:0|2:0,2:0:0:0:
104,188,4720,1,0,2:0:0:0:
177,272,4800,6,0,P|225:280|249:272,1,66.6666666666667,0|0,2:0|2:0,2:0:0:0:
408,188,5200,1,0,2:0:0:0:
282,305,5280,2,0,P|234:313|210:305,1,66.6666666666667,0|0,2:0|2:0,2:0:0:0:
104,188,5680,1,0,2:0:0:0:
152,216,5760,2,0,P|200:224|224:216,1,66.6666666666667,0|0,2:0|2:0,2:0:0:0:
408,188,6160,1,0,2:0:0:0:
348,288,6240,2,0,P|300:296|276:288,1,66.6666666666667,0|0,2:0|2:0,2:0:0:0:
104,188,6640,1,0,2:0:0:0:
200,64,6720,6,0,P|248:56|380:128,1,200,0|0,2:0|2:0,2:0:0:0:
40,168,7600,1,0,2:0:0:0:
80,80,7680,5,0,2:0:0:0:
33,249,8080,1,0,2:0:0:0:
72,252,8160,1,0,2:0:0:0:
101,248,8240,1,0,2:0:0:0:
126,231,8320,1,0,2:0:0:0:
141,205,8400,1,0,2:0:0:0:
165,187,8480,1,0,2:0:0:0:
194,181,8560,1,0,2:0:0:0:
218,182,8640,6,0,P|255:188|308:231,1,100.000003814697
218,290,8880,2,0,P|155:273|122:236,1,100.000003814697
210,188,9120,2,0,P|227:132|215:78,1,100.000003814697
124,130,9360,2,0,P|168:158|230:155,1,100.000003814697
347,122,9600,6,0,P|404:109|449:118,1,100.000003814697
403,213,9840,2,0,P|342:229|294:215,1,100.000003814697
293,57,10080,2,0,P|220:42|182:59,1,100.000003814697
180,158,10320,2,0,P|163:212|129:244,1,100.000003814697
64,148,10560,6,0,P|93:79|128:58,1,100.000003814697
149,143,10800,2,0,P|175:185|233:211,1,100.000003814697
233,124,11040,2,0,P|276:79|323:76,1,100.000003814697
308,158,11280,2,0,P|362:173|412:165,1,100.000003814697
331,80,11520,6,0,P|278:85|235:117,1,100.000003814697
258,231,11760,6,0,P|311:226|354:194,1,100.000003814697
322,62,12000,6,0,P|251:69|194:111,1,100.000003814697
285,251,12240,2,0,P|326:234|349:208,1,50.0000019073487
358,174,12400,1,0,0:0:0:0:
331,116,12480,6,0,P|279:107|237:127,1,100.000003814697
294,223,12720,2,0,P|323:283|350:301,1,100.000003814697
444,178,12960,2,0,P|474:125|470:81,1,100.000003814697
319,88,13200,2,0,P|263:68|229:32,1,100.000003814697
91,75,13440,6,0,P|126:120|112:157,1,100.000003814697
53,311,13680,2,0,P|106:270|143:286,1,100.000003814697
262,346,13920,2,0,P|246:287|271:250,1,100.000003814697
393,122,14160,2,0,P|344:153|302:135,1,100.000003814697
229,38,14400,5,0,0:0:0:0:
231,44,14480,1,0,0:0:0:0:
230,51,14560,1,0,0:0:0:0:
227,61,14640,1,0,0:0:0:0:
216,77,14720,1,0,0:0:0:0:
194,89,14800,1,0,0:0:0:0:
157,87,14880,1,0,0:0:0:0:
113,108,14960,1,0,0:0:0:0:
93,162,15040,1,0,0:0:0:0:
127,222,15120,1,0,0:0:0:0:
207,233,15200,1,0,0:0:0:0:
276,184,15280,1,0,0:0:0:0:
381,42,15600,5,0,0:0:0:0:
187,330,15840,1,0,0:0:0:0:
345,80,16000,1,0,0:0:0:0:
256,192,16240,1,0,0:0:0:0:
256,192,16320,12,0,17280,0:0:0:0:
212,152,17880,6,0,P|246:150|270:158,1,37.5000014305115
433,310,18000,2,0,P|402:307|380:301,1,37.5000014305115
60,253,18240,5,0,0:0:0:0:
200,112,18360,1,0,0:0:0:0:
52,195,18480,1,0,0:0:0:0:
264,116,18600,1,0,0:0:0:0:
67,139,18720,2,0,P|100:119|148:111,1,75.0000028610231
383,193,18960,2,0,P|334:192|299:184,1,75.0000028610231
148,158,19200,5,0,0:0:0:0:
259,65,19320,1,0,0:0:0:0:
167,266,19440,1,0,0:0:0:0:
79,42,19560,1,0,0:0:0:0:
291,122,19680,6,0,P|264:165|243:185,1,75.0000028610231
66,288,19920,2,0,P|102:237|119:219,1,75.0000028610231
264,82,20160,5,0,0:0:0:0:
328,223,20280,1,0,0:0:0:0:
381,57,20400,1,0,0:0:0:0:
170,160,20520,1,0,0:0:0:0:
391,121,20640,2,0,P|362:109|307:103,1,75.0000028610231
173,268,20880,1,0,0:0:0:0:
249,78,21000,5,0,0:0:0:0:
209,57,21060,1,0,0:0:0:0:
164,50,21120,1,0,0:0:0:0:
119,55,21180,1,0,0:0:0:0:
81,79,21240,1,0,0:0:0:0:
159,255,21360,1,0,0:0:0:0:
236,34,21480,6,0,P|164:10|94:34,1,150.000005722046
164,163,21840,1,0,0:0:0:0:
111,301,21960,1,0,0:0:0:0:
452,253,22080,5,0,0:0:0:0:
312,112,22200,1,0,0:0:0:0:
460,195,22320,1,0,0:0:0:0:
248,116,22440,1,0,0:0:0:0:
445,139,22560,2,0,P|412:119|364:111,1,75.0000028610231
129,193,22800,2,0,P|178:192|213:184,1,75.0000028610231
364,158,23040,5,0,0:0:0:0:
253,65,23160,1,0,0:0:0:0:
345,266,23280,1,0,0:0:0:0:
433,42,23400,1,0,0:0:0:0:
221,122,23520,6,0,P|248:165|269:185,1,75.0000028610231
446,288,23760,2,0,P|410:237|393:219,1,75.0000028610231
248,82,24000,5,0,0:0:0:0:
184,223,24120,1,0,0:0:0:0:
120,44,24240,1,0,0:0:0:0:
351,167,24360,1,0,0:0:0:0:
107,121,24480,5,0,0:0:0:0:
401,72,24640,1,0,0:0:0:0:
53,48,24800,1,0,0:0:0:0:
497,27,24960,5,0,0:0:0:0:
0,97,25200,1,0,0:0:0:0:
512,159,25440,1,0,0:0:0:0:
141,161,25680,1,0,0:0:0:0:
98,184,25740,1,0,0:0:0:0:
68,222,25800,1,0,0:0:0:0:
54,268,25860,1,0,0:0:0:0:
59,316,25920,5,0,0:0:0:0:
329,282,26040,1,0,0:0:0:0:
201,146,26160,1,0,0:0:0:0:
160,333,26280,1,0,0:0:0:0:
44,121,26400,2,0,P|77:141|125:149,1,75.0000028610231
318,73,26640,2,0,P|269:74|234:82,1,75.0000028610231
132,262,26880,5,0,0:0:0:0:
262,129,27000,1,0,0:0:0:0:
325,303,27120,1,0,0:0:0:0:
395,118,27240,1,0,0:0:0:0:
221,262,27360,2,0,P|248:219|269:199,1,75.0000028610231
446,96,27600,2,0,P|410:147|393:165,1,75.0000028610231
248,302,27840,5,0,0:0:0:0:
176,112,27960,1,0,0:0:0:0:
131,327,28080,1,0,0:0:0:0:
336,186,28200,1,0,0:0:0:0:
121,263,28320,2,0,P|150:275|205:281,1,75.0000028610231
339,116,28560,1,0,0:0:0:0:
263,306,28680,5,0,0:0:0:0:
303,327,28740,1,0,0:0:0:0:
348,334,28800,1,0,0:0:0:0:
393,329,28860,1,0,0:0:0:0:
431,305,28920,1,0,0:0:0:0:
353,129,29040,1,0,0:0:0:0:
278,345,29160,6,0,P|349:368|419:344,1,150.000005722046
348,221,29520,1,0,0:0:0:0:
401,83,29640,1,0,0:0:0:0:
257,153,29760,6,0,P|209:158|174:151,1,75.0000028610231
49,121,30000,1,0,0:0:0:0:
240,237,30120,1,0,0:0:0:0:
28,226,30240,2,0,P|61:246|109:254,1,75.0000028610231
383,191,30600,2,0,P|334:192|243:253,1,150.000005722046
167,118,30960,1,0,0:0:0:0:
79,342,31080,1,0,0:0:0:0:
291,262,31200,6,0,P|264:219|243:199,1,75.0000028610231
66,96,31440,2,0,P|102:147|119:165,1,75.0000028610231
264,302,31680,5,0,0:0:0:0:
328,161,31800,1,0,0:0:0:0:
381,327,31920,1,0,0:0:0:0:
209,164,32040,1,0,0:0:0:0:
140,311,32160,2,0,P|188:333|221:333,1,75.0000028610231
420,236,32400,1,0,0:0:0:0:
313,46,32520,6,0,P|265:49|234:62,1,75.0000028610231
139,175,32760,1,0,0:0:0:0:
308,115,32880,2,0,P|257:133|230:153,1,75.0000028610231
130,281,33120,5,0,0:0:0:0:
305,165,33240,1,0,0:0:0:0:
128,340,33360,1,0,0:0:0:0:
299,224,33480,1,0,0:0:0:0:
105,161,33600,5,0,0:0:0:0:
237,308,33720,1,0,0:0:0:0:
244,140,33840,2,0,P|292:118|325:118,1,75.0000028610231
372,311,34080,2,0,P|324:333|291:333,1,75.0000028610231
92,236,34320,1,0,0:0:0:0:
199,46,34440,6,0,P|247:49|278:62,1,75.0000028610231
373,175,34680,1,0,0:0:0:0:
204,115,34800,2,0,P|247:129|283:160,1,75.0000028610231
382,281,35040,5,0,0:0:0:0:
207,165,35160,1,0,0:0:0:0:
384,340,35280,1,0,0:0:0:0:
213,224,35400,1,0,0:0:0:0:
64,335,35520,6,0,P|25:302|9:266,1,75.0000028610231
169,101,35760,1,0,0:0:0:0:
214,233,35880,1,0,0:0:0:0:
68,117,36000,1,0,0:0:0:0:
308,185,36120,2,0,P|336:152|352:113,1,75.0000028610231
178,88,36360,6,0,P|133:122|115:156,1,75.0000028610231
122,307,36600,1,0,0:0:0:0:
268,119,36720,1,0,0:0:0:0:
178,280,36840,1,0,0:0:0:0:
371,282,36960,2,0,P|402:262|425:233,1,75.0000028610231
215,217,37200,1,0,0:0:0:0:
388,96,37320,1,0,0:0:0:0:
188,36,37440,6,0,P|182:86|191:116,1,75.0000028610231
289,319,37680,2,0,P|284:261|278:237,1,75.0000028610231
63,204,37920,1,0,0:0:0:0:
180,94,38040,5,0,0:0:0:0:
230,72,38100,1,0,0:0:0:0:
284,68,38160,1,0,0:0:0:0:
477,216,38280,1,0,0:0:0:0:
424,202,38340,1,0,0:0:0:0:
379,208,38400,6,0,B|325:205|233:239|293:374|31:375|42:172|73:77|215:51|292:157|248:204|197:205,1,562.500021457673
196,205,39360,6,0,P|150:201|116:173,1,75.0000028610231
214,72,39600,1,0,0:0:0:0:
340,25,39720,2,0,P|350:77|348:109,1,75.0000028610231
59,99,39960,2,0,P|61:61|73:26,1,75.0000028610231
207,105,40200,6,0,P|261:117|300:115,1,75.0000028610231
436,71,40440,1,0,0:0:0:0:
412,228,40560,2,0,P|380:270|353:287,1,75.0000028610231
194,289,40800,5,0,0:0:0:0:
24,137,40920,1,0,0:0:0:0:
174,232,41040,1,0,0:0:0:0:
177,23,41160,1,0,0:0:0:0:
367,24,41280,6,0,P|413:28|454:47,1,75.0000028610231
291,214,41520,2,0,P|281:162|283:130,1,75.0000028610231
449,170,41760,1,0,0:0:0:0:
502,309,41880,2,0,P|477:336|445:357,1,75.0000028610231
305,279,42120,6,0,P|251:267|212:269,1,75.0000028610231
76,313,42360,1,0,0:0:0:0:
100,156,42480,2,0,P|132:114|159:97,1,75.0000028610231
318,95,42720,5,0,0:0:0:0:
491,243,42840,1,0,0:0:0:0:
251,252,42960,2,0,P|209:219|186:193,1,75.0000028610231
392,81,43200,6,0,P|428:118|443:144,1,75.0000028610231
211,144,43440,1,0,0:0:0:0:
408,141,43560,2,0,P|430:182|438:221,1,75.0000028610231
178,198,43800,2,0,P|199:155|222:133,1,75.0000028610231
450,231,44040,6,0,L|360:339,1,112.500004291535
227,349,44280,2,0,L|304:259,1,112.500004291535
361,98,44520,2,0,L|285:181,1,112.500004291535
118,248,44760,2,0,L|202:169,1,112.500004291535
257,38,45000,6,0,P|221:70|170:92,1,75.0000028610231
26,19,45240,1,0,0:0:0:0:
30,172,45360,1,0,0:0:0:0:
198,21,45480,1,0,0:0:0:0:
146,130,45600,1,0,0:0:0:0:
326,65,45720,1,0,0:0:0:0:
121,71,45840,1,0,0:0:0:0:
57,235,45960,1,0,0:0:0:0:
326,124,46080,6,0,P|304:160|281:188,1,75.0000028610231
47,358,46320,2,0,P|69:304|89:271,1,75.0000028610231
190,141,46560,1,0,0:0:0:0:
200,136,46620,1,0,0:0:0:0:
210,131,46680,1,0,0:0:0:0:
220,126,46740,1,0,0:0:0:0:
230,121,46800,1,0,0:0:0:0:
240,116,46860,1,0,0:0:0:0:
250,111,46920,1,0,0:0:0:0:
260,106,46980,1,0,0:0:0:0:
270,102,47040,6,0,P|307:91|347:86,1,75.0000028610231
498,222,47280,2,0,P|457:237|418:238,1,75.0000028610231
276,191,47520,1,0,0:0:0:0:
430,104,47640,1,0,0:0:0:0:
198,86,47760,2,0,P|166:115|142:157,1,75.0000028610231
166,339,48000,6,0,P|210:353|253:355,1,75.0000028610231
388,193,48240,1,0,0:0:0:0:
179,188,48360,2,0,P|217:209|252:213,1,75.0000028610231
422,49,48600,1,0,0:0:0:0:
483,215,48720,1,0,0:0:0:0:
306,136,48840,2,0,P|241:133|162:221,1,187.500007152558
141,291,49200,5,0,0:0:0:0:
372,134,49320,1,0,0:0:0:0:
86,275,49440,1,0,0:0:0:0:
415,157,49560,1,0,0:0:0:0:
203,284,49800,1,0,0:0:0:0:
323,46,49920,6,0,P|276:96|263:172,1,112.500004291535
251,206,50160,1,0,0:0:0:0:
42,52,50280,2,0,P|87:101|102:178,1,112.500004291535
114,212,50520,1,0,0:0:0:0:
183,81,50640,1,0,0:0:0:0:
172,292,50760,1,0,0:0:0:0:
324,168,50880,5,0,0:0:0:0:
148,214,51000,1,0,0:0:0:0:
188,56,51120,1,0,0:0:0:0:
140,279,51240,1,0,0:0:0:0:
356,96,51360,2,0,P|372:128|372:180,1,75.0000028610231
280,292,51600,1,0,0:0:0:0:
292,72,51720,1,0,0:0:0:0:
142,233,51840,6,0,P|164:198|199:173,1,75.0000028610231
301,279,52080,1,0,0:0:0:0:
102,192,52200,2,0,P|134:160|162:143,1,75.0000028610231
361,250,52440,2,0,P|337:292|306:313,1,75.0000028610231
169,74,52680,2,0,P|202:105|206:250,1,187.500007152558
194,301,53040,5,0,0:0:0:0:
269,78,53160,1,0,0:0:0:0:
213,353,53280,1,0,0:0:0:0:
247,34,53400,1,0,0:0:0:0:
266,384,53760,5,0,0:0:0:0:
193,4,53920,1,0,0:0:0:0:
372,335,54080,1,0,0:0:0:0:
62,57,54240,1,0,0:0:0:0:
467,188,54400,1,0,0:0:0:0:
64,292,54560,1,0,0:0:0:0:
448,64,54720,5,0,0:0:0:0:
64,64,55200,1,0,0:0:0:0:
256,320,55680,1,0,0:0:0:0:
256,48,56160,5,0,0:0:0:0:
256,320,56400,1,0,0:0:0:0:
256,64,56640,5,0,0:0:0:0:
448,320,57120,1,0,0:0:0:0:
64,320,57600,1,0,0:0:0:0:
256,336,58080,6,0,L|256:256,1,75.0000028610231
256,64,58320,1,0,0:0:0:0:
224,80,58560,6,0,P|224:128|144:176,1,150.000005722046
298,340,59040,6,0,P|298:276|404:213,1,200
69,245,59520,6,0,P|149:245|229:378,1,250
405,149,60000,6,0,B|299:135|299:135|277:42,2,200
241,349,60480,5,0,0:3:0:0:
97,177,60720,1,0,0:3:0:0:
269,33,60960,1,0,0:3:0:0:
413,205,61200,1,0,0:3:0:0:
182,318,61440,5,0,0:3:0:0:
127,118,61560,1,0,0:3:0:0:
328,63,61680,1,0,0:3:0:0:
382,264,61800,1,0,0:3:0:0:
152,212,61920,5,0,0:0:0:0:
152,171,61980,1,0,0:0:0:0:
167,133,62040,1,0,0:0:0:0:
196,104,62100,1,0,0:0:0:0:
234,88,62160,1,0,0:0:0:0:
275,88,62220,1,0,0:0:0:0:
313,103,62280,1,0,0:0:0:0:
342,132,62340,1,0,0:0:0:0:
360,168,62400,6,0,P|374:207|382:267,1,100
168,288,62640,2,0,P|154:249|153:186,1,100
324,324,62880,2,0,P|285:337|225:340,1,100
208,136,63120,2,0,P|246:122|312:119,1,100
417,256,63360,5,0,0:0:0:0:
351,78,63480,1,0,0:0:0:0:
229,224,63600,1,0,0:0:0:0:
353,67,63720,1,0,0:0:0:0:
436,304,63840,1,0,0:0:0:0:
216,188,63960,1,0,0:0:0:0:
182,229,64020,1,0,0:0:0:0:
167,283,64080,1,0,0:0:0:0:
364,37,64200,1,0,0:0:0:0:
380,220,64320,5,0,0:0:0:0:
244,65,64440,1,0,0:0:0:0:
224,286,64560,1,0,0:0:0:0:
56,172,64680,2,0,P|80:136|137:110,1,100
348,274,64920,2,0,P|341:310|289:362,1,100
192,240,65160,1,0,0:0:0:0:
62,138,65280,5,0,0:0:0:0:
276,57,65400,1,0,0:0:0:0:
281,273,65520,1,0,0:0:0:0:
456,172,65640,2,0,P|432:136|376:103,1,100
164,274,65880,2,0,P|170:310|203:367,1,100
345,206,66120,1,0,0:0:0:0:
107,140,66240,5,0,0:3:0:0:
123,326,66360,1,0,0:3:0:0:
236,83,66480,1,0,0:3:0:0:
340,261,66600,1,0,0:3:0:0:
119,333,66720,2,0,P|85:285|71:238,1,100
92,18,66960,2,0,P|126:66|140:113,1,100
179,332,67200,6,0,P|189:270|214:229,1,100
391,139,67440,1,0,0:0:0:0:
280,303,67560,2,0,P|234:273|200:226,1,100
140,39,67800,1,0,0:0:0:0:
301,216,67920,2,0,P|252:236|200:237,1,100
13,113,68160,2,0,P|81:95|125:100,1,100
239,309,68400,6,0,P|169:292|141:279,1,100
92,67,68640,2,0,P|162:84|190:97,1,100
310,262,68880,2,0,P|240:245|212:232,1,100
147,39,69120,6,0,P|217:56|245:69,1,100
397,218,69360,1,0,0:0:0:0:
176,162,69480,1,0,0:0:0:0:
286,55,69600,2,0,P|356:72|384:85,1,100
147,257,69840,2,0,P|164:187|177:159,1,100
459,192,70080,5,0,0:0:0:0:
214,240,70200,1,0,0:0:0:0:
273,41,70320,1,0,0:0:0:0:
292,292,70440,1,0,0:0:0:0:
223,120,70560,1,0,0:0:0:0:
444,106,70680,1,0,0:0:0:0:
210,329,70800,1,0,0:0:0:0:
184,38,70920,1,0,0:0:0:0:
462,328,71040,6,0,P|400:300|281:303,1,150
229,345,71280,2,0,L|201:362,5,25
157,365,71520,5,0,0:0:0:0:
99,80,71640,1,0,0:0:0:0:
303,269,71760,1,0,0:0:0:0:
351,363,72000,6,0,P|385:318|393:273,1,100
320,95,72360,2,0,P|373:156|388:260,1,150
388,269,72600,2,0,L|205:69,1,250
161,21,72960,6,0,P|127:66|119:111,1,100
192,289,73320,2,0,P|139:228|124:124,1,150
123,114,73560,2,0,P|151:248|325:331,1,300
324,327,74160,5,0,0:0:0:0:
217,144,74280,1,0,0:0:0:0:
184,315,74400,1,0,0:0:0:0:
97,61,74520,1,0,0:0:0:0:
258,266,74640,1,0,0:0:0:0:
303,22,74760,1,0,0:0:0:0:
125,248,74880,6,0,P|93:195|89:143,1,100
254,352,75120,1,0,0:0:0:0:
424,158,75240,2,0,P|414:206|387:248,1,100
125,251,75480,1,0,0:0:0:0:
98,206,75540,1,0,0:0:0:0:
82,156,75600,2,0,P|74:97|85:50,1,100
445,60,75840,6,0,P|455:121|442:165,1,100
328,315,76080,1,0,0:0:0:0:
277,81,76200,1,0,0:0:0:0:
169,210,76320,2,0,P|153:267|158:310,1,100
226,119,76560,1,0,0:0:0:0:
385,286,76680,1,0,0:0:0:0:
368,98,76800,6,0,P|339:143|294:165,1,100
97,132,77040,1,0,0:0:0:0:
316,41,77160,1,0,0:0:0:0:
130,278,77280,1,0,0:0:0:0:
189,38,77400,1,0,0:0:0:0:
257,271,77520,6,0,P|309:244|337:210,1,100
208,30,77760,2,0,P|153:53|122:94,1,100
279,291,78000,2,0,P|331:264|359:230,1,100
224,46,78240,2,0,P|169:69|138:110,1,100
358,232,78480,1,0,0:0:0:0:
121,136,78600,1,0,0:0:0:0:
465,238,78720,5,0,0:0:0:0:
207,158,78840,1,0,0:0:0:0:
433,54,78960,1,0,0:0:0:0:
293,29,79080,5,0,0:0:0:0:
310,40,79140,1,0,0:0:0:0:
325,60,79200,1,0,0:0:0:0:
334,83,79260,1,0,0:0:0:0:
339,112,79320,1,0,0:0:0:0:
333,141,79380,1,0,0:0:0:0:
323,174,79440,1,0,0:0:0:0:
323,208,79500,1,0,0:0:0:0:
342,243,79560,1,0,0:0:0:0:
376,264,79620,1,0,0:0:0:0:
419,275,79680,6,0,P|429:227|423:172,1,100
186,77,79920,1,0,0:0:0:0:
218,288,80040,1,0,0:0:0:0:
445,229,80160,6,0,P|438:180|414:131,1,100
150,88,80400,1,0,0:0:0:0:
253,276,80520,1,0,0:0:0:0:
434,150,80640,6,0,P|411:107|371:69,1,100
128,148,80880,1,0,0:0:0:0:
288,289,81000,1,0,0:0:0:0:
425,98,81120,6,0,P|388:65|338:43,1,100
109,180,81360,1,0,0:0:0:0:
307,258,81480,1,0,0:0:0:0:
93,275,81600,6,0,P|83:227|89:172,1,100
326,77,81840,1,0,0:0:0:0:
294,288,81960,1,0,0:0:0:0:
66,229,82080,6,0,P|73:180|97:131,1,100
361,88,82320,1,0,0:0:0:0:
258,276,82440,1,0,0:0:0:0:
77,150,82560,6,0,P|100:107|140:69,1,100
383,148,82800,1,0,0:0:0:0:
223,289,82920,1,0,0:0:0:0:
86,98,83040,6,0,P|123:65|173:43,1,100
402,180,83280,1,0,0:0:0:0:
204,258,83400,1,0,0:0:0:0:
97,74,83520,5,0,0:0:0:0:
324,253,83640,1,0,0:0:0:0:
55,178,83760,2,0,P|133:176|165:169,1,100
365,65,84000,1,0,0:0:0:0:
377,266,84120,1,0,0:0:0:0:
237,127,84240,1,0,0:0:0:0:
150,289,84360,6,0,P|120:248|104:201,1,100
231,86,84600,1,0,0:0:0:0:
390,168,84720,2,0,P|383:218|355:260,1,100
130,75,84960,2,0,P|176:41|324:43,1,200
247,164,85440,6,0,B|274:156|274:156|358:178,1,100
444,248,85800,2,0,B|424:257|424:257|320:231,1,119.999996337891
181,182,86160,6,0,B|214:168|214:168|342:178,1,139.999995727539
486,203,86520,2,0,B|456:235|456:235|328:228,1,160
115,214,86880,6,0,B|143:186|143:186|299:131,1,179.999994506836
501,139,87240,2,0,B|479:178|479:178|308:253,1,200
86,213,87600,6,0,B|102:173|102:173|297:83,1,220.000006713867
428,95,87960,2,0,L|475:52,3,37.5000014305115
512,90,88200,6,0,P|386:164|415:14,1,375.000014305115
11,139,89160,6,0,B|33:178|33:178|204:253,1,200
427,278,89520,2,0,B|411:238|411:238|216:148,1,220.000006713867
81,92,89880,2,0,L|54:41,3,37.5000014305115
0,90,90120,6,0,P|125:163|97:14,1,337.500012874604
81,92,90720,5,0,0:0:0:0:
323,342,90960,1,0,0:0:0:0:
357,3,91200,1,0,0:0:0:0:
325,177,92400,1,0,0:0:0:0:
334,18,92520,6,0,P|303:339|298:20,1,975.0000371933
0,227,100800,5,0,0:0:0:0:
25,233,100860,1,0,0:0:0:0:
54,231,100920,1,0,0:0:0:0:
80,216,100980,1,0,0:0:0:0:
102,190,101040,1,0,0:0:0:0:
108,156,101100,1,0,0:0:0:0:
104,118,101160,1,0,0:0:0:0:
100,80,101220,1,0,0:0:0:0:
112,40,101280,5,0,0:0:0:0:
147,19,101340,1,0,0:0:0:0:
191,20,101400,1,0,0:0:0:0:
227,46,101460,1,0,0:0:0:0:
237,93,101520,1,0,0:0:0:0:
270,128,101580,1,0,0:0:0:0:
321,140,101640,1,0,0:0:0:0:
371,126,101700,1,0,0:0:0:0:
408,84,101760,5,0,0:0:0:0:
299,281,101880,1,0,0:0:0:0:
316,53,102000,1,0,0:0:0:0:
409,223,102120,1,0,0:0:0:0:
166,86,102240,2,0,P|129:94|97:113,1,75.0000028610231
121,324,102480,2,0,P|157:331|195:331,1,75.0000028610231
364,158,102720,5,0,0:0:0:0:
253,65,102840,1,0,0:0:0:0:
345,266,102960,1,0,0:0:0:0:
433,42,103080,1,0,0:0:0:0:
221,122,103200,6,0,P|248:165|269:185,1,75.0000028610231
446,288,103440,2,0,P|410:237|393:219,1,75.0000028610231
248,82,103680,5,0,0:0:0:0:
184,223,103800,1,0,0:0:0:0:
131,57,103920,1,0,0:0:0:0:
87,283,104040,1,0,0:0:0:0:
121,121,104160,2,0,P|150:109|205:103,1,75.0000028610231
339,268,104400,1,0,0:0:0:0:
263,78,104520,5,0,0:0:0:0:
303,57,104580,1,0,0:0:0:0:
348,50,104640,1,0,0:0:0:0:
393,55,104700,1,0,0:0:0:0:
431,79,104760,1,0,0:0:0:0:
353,255,104880,1,0,0:0:0:0:
276,34,105000,6,0,P|348:10|418:34,1,150.000005722046
348,163,105360,1,0,0:0:0:0:
401,301,105480,1,0,0:0:0:0:
60,253,105600,5,0,0:0:0:0:
200,112,105720,1,0,0:0:0:0:
52,195,105840,1,0,0:0:0:0:
264,116,105960,1,0,0:0:0:0:
67,139,106080,2,0,P|100:119|148:111,1,75.0000028610231
383,193,106320,2,0,P|334:192|299:184,1,75.0000028610231
148,158,106560,5,0,0:0:0:0:
259,65,106680,1,0,0:0:0:0:
167,266,106800,1,0,0:0:0:0:
79,42,106920,1,0,0:0:0:0:
291,122,107040,6,0,P|264:165|243:185,1,75.0000028610231
66,288,107280,2,0,P|102:237|119:219,1,75.0000028610231
264,82,107520,5,0,0:0:0:0:
328,223,107640,1,0,0:0:0:0:
392,44,107760,1,0,0:0:0:0:
161,167,107880,1,0,0:0:0:0:
405,121,108000,5,0,0:0:0:0:
206,305,108160,1,0,0:0:0:0:
140,52,108320,1,0,0:0:0:0:
493,79,108480,5,0,0:0:0:0:
195,384,108720,1,0,0:0:0:0:
56,0,108960,1,0,0:0:0:0:
256,283,109200,1,0,0:0:0:0:
295,310,109260,1,0,0:0:0:0:
340,327,109320,1,0,0:0:0:0:
388,332,109380,1,0,0:0:0:0:
438,320,109440,5,0,0:0:0:0:
368,117,109560,1,0,0:0:0:0:
225,285,109680,1,0,0:0:0:0:
237,97,109800,1,0,0:0:0:0:
420,228,109920,2,0,P|387:248|339:256,1,75.0000028610231
194,73,110160,2,0,P|243:74|278:82,1,75.0000028610231
380,262,110400,5,0,0:0:0:0:
250,129,110520,1,0,0:0:0:0:
187,303,110640,1,0,0:0:0:0:
117,118,110760,1,0,0:0:0:0:
291,262,110880,2,0,P|264:219|243:199,1,75.0000028610231
66,96,111120,2,0,P|102:147|119:165,1,75.0000028610231
264,302,111360,5,0,0:0:0:0:
336,112,111480,1,0,0:0:0:0:
381,327,111600,1,0,0:0:0:0:
176,186,111720,1,0,0:0:0:0:
391,263,111840,2,0,P|362:275|307:281,1,75.0000028610231
173,116,112080,1,0,0:0:0:0:
249,306,112200,5,0,0:0:0:0:
209,327,112260,1,0,0:0:0:0:
164,334,112320,1,0,0:0:0:0:
119,329,112380,1,0,0:0:0:0:
81,305,112440,1,0,0:0:0:0:
159,129,112560,1,0,0:0:0:0:
234,345,112680,6,0,P|163:368|93:344,1,150.000005722046
164,221,113040,1,0,0:0:0:0:
93,39,113160,1,0,0:0:0:0:
255,153,113280,6,0,P|303:158|338:151,1,75.0000028610231
463,121,113520,1,0,0:0:0:0:
272,237,113640,1,0,0:0:0:0:
484,226,113760,2,0,P|451:246|403:254,1,75.0000028610231
129,191,114120,2,0,P|165:232|269:253,1,150.000005722046
345,118,114480,1,0,0:0:0:0:
433,342,114600,1,0,0:0:0:0:
171,302,114720,5,0,0:0:0:0:
298,113,114840,1,0,0:0:0:0:
202,357,114960,1,0,0:0:0:0:
279,51,115080,1,0,0:0:0:0:
263,379,115200,6,0,P|314:373|361:329,1,100.000003814697
284,167,115440,2,0,P|232:183|198:218,1,100.000003814697
341,355,115680,2,0,P|372:315|374:250,1,100.000003814697
205,190,115920,2,0,P|180:238|181:287,1,100.000003814697
379,283,116160,6,0,P|373:232|329:185,1,100.000003814697
166,261,116400,2,0,P|182:313|217:347,1,100.000003814697
355,205,116640,2,0,P|315:173|251:171,1,100.000003814697
191,340,116880,2,0,P|239:365|287:365,1,100.000003814697
274,159,117120,6,0,P|234:188|185:193,1,100.000003814697
36,118,117360,2,0,P|85:84|142:82,1,100.000003814697
238,159,117600,2,0,P|277:188|326:193,1,100.000003814697
476,118,117840,2,0,P|427:84|370:82,1,100.000003814697
331,222,118080,6,0,P|294:266|238:273,1,100.000003814697
181,162,118320,2,0,P|218:118|274:111,1,100.000003814697
388,244,118560,2,0,P|355:283|306:289,1,100.000003814697
123,139,118800,2,0,P|156:100|205:94,1,100.000003814697
249,5,119040,6,0,P|198:11|151:55,1,100.000003814697
228,217,119280,2,0,P|280:201|314:166,1,100.000003814697
171,29,119520,2,0,P|140:69|138:134,1,100.000003814697
307,194,119760,2,0,P|332:146|331:97,1,100.000003814697
133,101,120000,6,0,P|139:152|183:199,1,100.000003814697
345,122,120240,2,0,P|329:70|294:36,1,100.000003814697
157,179,120480,2,0,P|197:211|261:213,1,100.000003814697
321,44,120720,2,0,P|273:19|225:19,1,100.000003814697
238,225,120960,6,0,P|278:196|327:191,1,100.000003814697
476,266,121200,2,0,P|427:300|370:302,1,100.000003814697
274,225,121440,2,0,P|235:196|186:191,1,100.000003814697
36,266,121680,2,0,P|85:300|142:302,1,100.000003814697
274,225,121920,6,0,P|311:181|304:247,1,150.000005722046
216,202,122280,2,0,P|315:130|289:285,1,337.500012874604
260,299,122880,5,0,0:0:0:0:
134,90,123000,1,0,0:0:0:0:
292,209,123120,1,0,0:0:0:0:
99,241,123240,2,0,P|132:197|159:183,1,75.0000028610231
360,195,123480,2,0,P|327:223|285:235,1,75.0000028610231
137,99,123720,6,0,P|131:57|137:9,2,75.0000028610231
369,70,124080,2,0,P|320:72|292:81,1,75.0000028610231
144,246,124320,1,0,0:0:0:0:
331,141,124440,1,0,0:0:0:0:
180,320,124560,1,0,0:0:0:0:
277,53,124680,1,0,0:0:0:0:
252,299,124800,5,0,0:0:0:0:
378,90,124920,1,0,0:0:0:0:
220,209,125040,1,0,0:0:0:0:
413,241,125160,2,0,P|380:197|353:183,1,75.0000028610231
152,195,125400,2,0,P|185:223|227:235,1,75.0000028610231
375,99,125640,6,0,P|381:57|375:9,2,75.0000028610231
143,70,126000,2,0,P|192:72|220:81,1,75.0000028610231
368,246,126240,1,0,0:0:0:0:
181,141,126360,1,0,0:0:0:0:
333,319,126480,1,0,0:0:0:0:
235,53,126600,1,0,0:0:0:0:
175,240,126720,5,0,0:0:0:0:
378,165,126840,1,0,0:0:0:0:
90,103,126960,1,0,0:0:0:0:
286,224,127080,1,0,0:0:0:0:
50,264,127200,6,0,P|58:213|79:178,1,75.0000028610231
251,318,127440,1,0,0:0:0:0:
216,90,127560,2,0,P|254:94|291:107,1,75.0000028610231
186,305,127800,1,0,0:0:0:0:
408,244,127920,2,0,P|402:299|387:332,1,75.0000028610231
126,224,128160,6,0,P|139:180|155:149,1,75.0000028610231
346,189,128400,2,0,P|341:231|325:269,1,75.0000028610231
151,154,128640,5,0,0:0:0:0:
200,180,128700,1,0,0:0:0:0:
251,156,128760,1,0,0:0:0:0:
304,139,128820,1,0,0:0:0:0:
355,160,128880,1,0,0:0:0:0:
135,246,129000,1,0,0:0:0:0:
180,94,129120,5,0,0:0:0:0:
230,72,129180,1,0,0:0:0:0:
284,68,129240,1,0,0:0:0:0:
315,205,129360,1,0,0:0:0:0:
35,216,129480,1,0,0:0:0:0:
88,202,129540,1,0,0:0:0:0:
133,208,129600,6,0,B|187:205|279:239|219:374|481:375|470:172|439:77|297:51|220:157|264:204|315:205,1,562.500021457673
315,205,130560,5,0,0:0:0:0:
358,58,130680,1,0,0:0:0:0:
209,100,130800,1,0,0:0:0:0:
318,208,130920,1,0,0:0:0:0:
178,321,131040,2,0,P|138:285|118:263,1,75.0000028610231
254,153,131280,1,0,0:0:0:0:
440,118,131400,6,0,P|446:76|440:28,2,75.0000028610231
143,70,131760,2,0,P|192:72|220:81,1,75.0000028610231
368,246,132000,1,0,0:0:0:0:
181,141,132120,1,0,0:0:0:0:
332,320,132240,1,0,0:0:0:0:
235,53,132360,1,0,0:0:0:0:
260,299,132480,5,0,0:0:0:0:
134,90,132600,1,0,0:0:0:0:
292,209,132720,1,0,0:0:0:0:
99,241,132840,2,0,P|132:197|159:183,1,75.0000028610231
360,195,133080,2,0,P|327:223|285:235,1,75.0000028610231
137,99,133320,6,0,P|131:57|137:9,2,75.0000028610231
369,70,133680,2,0,P|320:72|292:81,1,75.0000028610231
144,246,133920,1,0,0:0:0:0:
331,141,134040,1,0,0:0:0:0:
179,319,134160,1,0,0:0:0:0:
277,53,134280,1,0,0:0:0:0:
299,351,134400,6,0,P|314:314|318:276,1,75.0000028610231
156,105,134640,1,0,0:0:0:0:
170,329,134760,2,0,P|217:302|242:275,1,75.0000028610231
308,41,135000,2,0,P|279:74|260:115,1,75.0000028610231
353,342,135240,6,0,P|344:296|326:260,1,75.0000028610231
148,52,135480,1,0,0:0:0:0:
222,340,135600,1,0,0:0:0:0:
487,199,135720,2,0,P|446:184|410:182,1,75.0000028610231
104,266,135960,1,0,0:0:0:0:
256,47,136080,1,0,0:0:0:0:
396,328,136200,6,0,P|343:344|306:339,1,75.0000028610231
334,121,136440,1,0,0:0:0:0:
143,182,136560,2,0,P|138:131|140:89,1,75.0000028610231
360,215,136800,1,0,0:0:0:0:
201,48,136920,1,0,0:0:0:0:
177,261,137040,1,0,0:0:0:0:
201,48,137160,1,0,0:0:0:0:
371,213,137280,5,0,0:0:0:0:
109,286,137400,1,0,0:0:0:0:
197,81,137520,1,0,0:0:0:0:
349,299,137640,1,0,0:0:0:0:
283,70,137760,1,0,0:0:0:0:
189,312,137880,1,0,0:0:0:0:
433,275,138000,1,0,0:0:0:0:
231,5,138120,1,0,0:0:0:0:
53,184,138240,6,0,P|79:185|102:189,1,37.5000014305115
201,260,138360,2,0,P|181:250|167:238,1,37.5000014305115
84,87,138480,1,0,0:0:0:0:
141,294,138600,1,0,0:0:0:0:
194,46,138720,1,0,0:0:0:0:
84,333,138840,1,0,0:0:0:0:
0,129,138960,2,0,P|40:135|82:166,1,75.0000028610231
226,341,139200,6,0,P|267:357|319:357,1,75.0000028610231
188,87,139440,1,0,0:0:0:0:
375,236,139560,2,0,P|323:242|298:237,1,75.0000028610231
120,114,139800,1,0,0:0:0:0:
251,329,139920,1,0,0:0:0:0:
53,151,140040,2,0,P|43:114|165:51,1,187.500007152558
172,69,140400,5,0,0:0:0:0:
285,234,140520,1,0,0:0:0:0:
211,21,140640,1,0,0:0:0:0:
259,290,140760,1,0,0:0:0:0:
210,312,141000,5,0,0:0:0:0:
292,43,141120,2,0,P|332:73|386:159,1,150.000005722046
177,335,141480,2,0,P|138:305|83:219,1,150.000005722046
349,58,141840,1,0,0:0:0:0:
266,353,141960,1,0,0:0:0:0:
61,134,142080,5,0,0:0:0:0:
175,285,142200,1,0,0:0:0:0:
147,45,142320,2,0,P|192:60|219:78,1,75.0000028610231
281,258,142560,1,0,0:0:0:0:
355,61,142680,1,0,0:0:0:0:
388,308,142800,2,0,P|411:275|420:238,1,75.0000028610231
430,21,143040,6,0,P|404:55|364:83,1,75.0000028610231
164,101,143280,1,0,0:0:0:0:
376,262,143400,2,0,P|351:292|316:308,1,75.0000028610231
124,85,143640,2,0,P|165:53|202:43,1,75.0000028610231
413,309,143880,2,0,P|376:345|226:362,1,187.500007152558
211,345,144240,5,0,0:0:0:0:
134,111,144360,1,0,0:0:0:0:
84,316,144480,1,0,0:0:0:0:
283,61,144600,1,0,0:0:0:0:
448,159,144840,5,0,0:0:0:0:
383,266,144960,5,0,0:0:0:0:
19,246,145120,1,0,0:0:0:0:
347,25,145280,1,0,0:0:0:0:
249,384,145440,1,0,0:0:0:0:
0,36,145600,1,0,0:0:0:0:
420,0,145760,1,0,0:0:0:0:
184,304,145920,6,0,P|161:279|186:295,1,100
144,120,146400,6,0,P|180:86|157:122,1,150.000005722046
328,80,146880,6,0,P|372:128|324:97,1,200
385,274,147360,6,0,P|329:325|365:270,1,225.000008583069
395,222,147600,6,0,P|397:118|367:218,1,300
368,264,147840,6,0,P|343:287|359:262,1,100
184,304,148320,6,0,P|150:267|186:290,1,150.000005722046
144,120,148800,6,0,P|192:75|161:123,1,200
338,62,149280,6,0,P|389:118|334:82,1,225.000008583069
286,52,149520,6,0,P|182:50|282:81,1,300
336,64,149760,6,0,P|403:141|368:272,1,200
176,320,150240,6,0,P|109:243|144:112,1,200
384,272,150720,6,0,P|307:339|176:304,1,200
128,112,151200,6,0,P|205:45|336:80,2,200
356,339,151680,5,0,0:0:0:0:
153,24,151920,1,0,0:0:0:0:
92,334,152160,1,0,0:0:0:0:
391,36,152400,1,0,0:0:0:0:
330,318,152640,5,0,0:3:0:0:
385,118,152760,1,0,0:3:0:0:
184,63,152880,1,0,0:3:0:0:
130,264,153000,1,0,0:3:0:0:
330,318,153120,5,0,0:0:0:0:
349,272,153180,1,0,0:0:0:0:
330,225,153240,1,0,0:0:0:0:
284,206,153300,1,0,0:0:0:0:
234,204,153360,1,0,0:0:0:0:
187,185,153420,1,0,0:0:0:0:
168,139,153480,1,0,0:0:0:0:
187,92,153540,1,0,0:0:0:0:
233,73,153600,1,0,0:0:0:0:
152,168,155520,6,0,P|138:207|130:267,1,100
307,189,155760,2,0,P|321:150|322:87,1,100
245,322,156000,2,0,P|284:335|344:338,1,100
220,83,156240,2,0,P|182:69|116:66,1,100
197,257,156480,5,0,0:0:0:0:
75,131,156600,1,0,0:0:0:0:
74,327,156720,1,0,0:0:0:0:
159,67,156840,1,0,0:0:0:0:
74,327,156960,1,0,0:0:0:0:
296,188,157080,1,0,0:0:0:0:
330,229,157140,1,0,0:0:0:0:
345,283,157200,1,0,0:0:0:0:
148,37,157320,1,0,0:0:0:0:
132,220,157440,5,0,0:0:0:0:
268,65,157560,1,0,0:0:0:0:
288,286,157680,1,0,0:0:0:0:
456,172,157800,2,0,P|432:136|375:110,1,100
163,273,158040,2,0,P|170:309|222:361,1,100
320,240,158280,1,0,0:0:0:0:
450,138,158400,5,0,0:0:0:0:
236,57,158520,1,0,0:0:0:0:
231,273,158640,1,0,0:0:0:0:
56,172,158760,2,0,P|80:136|136:103,1,100
348,274,159000,2,0,P|342:310|309:367,1,100
167,206,159240,1,0,0:0:0:0:
405,140,159360,5,0,0:3:0:0:
389,326,159480,1,0,0:3:0:0:
276,83,159600,1,0,0:3:0:0:
172,261,159720,1,0,0:3:0:0:
393,333,159840,2,0,P|427:285|441:238,1,100
420,18,160080,2,0,P|386:66|372:113,1,100
333,332,160320,6,0,P|323:270|298:229,1,100
121,139,160560,1,0,0:0:0:0:
232,303,160680,2,0,P|278:273|312:226,1,100
372,39,160920,1,0,0:0:0:0:
211,216,161040,2,0,P|260:236|312:237,1,100
499,113,161280,2,0,P|431:95|387:100,1,100
273,309,161520,6,0,P|343:292|371:279,1,100
420,67,161760,2,0,P|350:84|322:97,1,100
202,262,162000,2,0,P|272:245|300:232,1,100
365,39,162240,6,0,P|295:56|267:69,1,100
115,218,162480,1,0,0:0:0:0:
336,162,162600,1,0,0:0:0:0:
214,64,162720,2,0,P|144:81|116:94,1,100
365,257,162960,2,0,P|348:187|335:159,1,100
53,192,163200,5,0,0:0:0:0:
278,241,163320,1,0,0:0:0:0:
182,31,163440,1,0,0:0:0:0:
221,294,163560,1,0,0:0:0:0:
218,101,163680,1,0,0:0:0:0:
57,270,163800,1,0,0:0:0:0:
235,370,163920,1,0,0:0:0:0:
258,34,164040,1,0,0:0:0:0:
126,230,164160,6,0,P|204:242|307:205,1,150
328,180,164400,2,0,L|347:213,5,25
387,123,164640,5,0,0:0:0:0:
179,308,164760,1,0,0:0:0:0:
179,23,164880,1,0,0:0:0:0:
203,24,165120,5,0,0:0:0:0:
147,343,165240,1,0,0:0:0:0:
110,22,165480,2,0,B|92:57|123:102|169:92|169:92|249:63|312:141,1,239.999992675781
309,24,166080,5,0,0:0:0:0:
365,343,166200,1,0,0:0:0:0:
402,22,166440,2,0,B|420:57|389:102|343:92|343:92|263:63|200:141,1,239.999992675781
203,107,167280,5,0,0:0:0:0:
319,285,167400,1,0,0:0:0:0:
274,68,167520,1,0,0:0:0:0:
174,321,167640,1,0,0:0:0:0:
336,27,167760,1,0,0:0:0:0:
245,305,167880,1,0,0:0:0:0:
86,56,168000,6,0,P|149:42|215:57,1,119.999996337891
401,290,168240,1,0,0:0:0:0:
77,285,168360,2,0,P|91:220|135:181,1,119.999996337891
414,225,168600,1,0,0:0:0:0:
401,290,168660,1,0,0:0:0:0:
348,330,168720,2,0,P|287:346|225:335,1,119.999996337891
46,82,168960,6,0,P|106:92|142:115,1,100
198,285,169200,1,0,0:0:0:0:
251,99,169320,1,0,0:0:0:0:
374,288,169440,2,0,P|386:224|384:177,1,100
197,52,169680,1,0,0:0:0:0:
263,258,169800,1,0,0:0:0:0:
46,302,169920,6,0,P|106:292|142:269,1,100
198,99,170160,1,0,0:0:0:0:
251,285,170280,1,0,0:0:0:0:
374,96,170400,2,0,P|386:160|384:207,1,100
197,332,170640,2,0,P|221:277|253:240,1,100
477,92,170880,6,0,P|431:125|385:148,1,100
153,303,171120,2,0,P|194:260|237:236,1,100
488,143,171360,2,0,P|429:147|382:164,1,100
131,270,171600,1,0,0:0:0:0:
279,136,171720,1,0,0:0:0:0:
466,302,171840,6,0,P|406:292|370:269,1,100
314,99,172080,1,0,0:0:0:0:
93,229,172200,5,0,0:0:0:0:
104,246,172260,1,0,0:0:0:0:
124,261,172320,1,0,0:0:0:0:
147,270,172380,1,0,0:0:0:0:
176,275,172440,1,0,0:0:0:0:
205,269,172500,1,0,0:0:0:0:
238,259,172560,1,0,0:0:0:0:
272,259,172620,1,0,0:0:0:0:
307,278,172680,1,0,0:0:0:0:
328,312,172740,1,0,0:0:0:0:
337,355,172800,6,0,P|380:304|402:255,1,100
371,82,173040,1,0,0:0:0:0:
309,260,173160,1,0,0:0:0:0:
202,7,173280,6,0,P|190:72|195:126,1,100
309,260,173520,1,0,0:0:0:0:
273,75,173640,1,0,0:0:0:0:
381,329,173760,6,0,P|392:263|387:209,1,100
273,75,174000,1,0,0:0:0:0:
309,260,174120,1,0,0:0:0:0:
90,95,174240,6,0,P|112:157|144:201,1,100
309,260,174480,1,0,0:0:0:0:
185,118,174600,1,0,0:0:0:0:
175,355,174720,6,0,P|132:304|110:255,1,100
141,82,174960,1,0,0:0:0:0:
203,260,175080,1,0,0:0:0:0:
310,7,175200,6,0,P|321:72|316:126,1,100
203,260,175440,1,0,0:0:0:0:
239,75,175560,1,0,0:0:0:0:
131,329,175680,6,0,P|119:263|124:209,1,100
239,75,175920,1,0,0:0:0:0:
203,260,176040,1,0,0:0:0:0:
422,95,176160,6,0,P|399:157|367:201,1,100
203,260,176400,1,0,0:0:0:0:
327,118,176520,1,0,0:0:0:0:
123,170,176640,5,0,0:0:0:0:
250,337,176760,1,0,0:0:0:0:
235,89,176880,2,0,P|184:76|125:80,1,100
122,259,177120,1,0,0:0:0:0:
276,160,177240,1,0,0:0:0:0:
59,178,177360,1,0,0:0:0:0:
230,247,177480,6,0,P|260:206|276:159,1,100
105,83,177720,1,0,0:0:0:0:
322,77,177840,2,0,P|347:118|357:169,1,100
293,351,178080,2,0,P|247:317|99:319,1,200
265,164,178560,6,0,B|238:156|238:156|154:178,1,100
68,248,178920,2,0,B|88:257|88:257|192:231,1,119.999996337891
331,182,179280,6,0,B|298:168|298:168|170:178,1,139.999995727539
26,203,179640,2,0,B|56:235|56:235|184:228,1,160
397,214,180000,6,0,B|369:186|369:186|213:131,1,179.999994506836
11,139,180360,2,0,B|33:178|33:178|204:253,1,200
426,213,180720,6,0,B|410:173|410:173|215:83,1,220.000006713867
84,95,181080,2,0,L|37:52,3,37.5000014305115
0,90,181320,6,0,P|126:164|97:14,1,375.000014305115
501,139,182280,6,0,B|479:178|479:178|308:253,1,200
85,278,182640,2,0,B|101:238|101:238|296:148,1,220.000006713867
431,92,183000,2,0,L|458:41,3,37.5000014305115
512,90,183240,6,0,P|387:163|415:14,1,337.500012874604
431,92,183840,5,0,0:0:0:0:
189,342,184080,1,0,0:0:0:0:
155,3,184320,1,0,0:0:0:0:
187,177,185520,1,0,0:0:0:0:
178,18,185640,6,0,P|209:339|214:20,1,975.0000371933
0,193,193920,5,0,0:0:0:0:
0,185,193980,1,0,0:0:0:0:
3,174,194040,1,0,0:0:0:0:
13,163,194100,1,0,0:0:0:0:
30,156,194160,1,0,0:0:0:0:
52,160,194220,1,0,0:0:0:0:
67,181,194280,1,0,0:0:0:0:
68,210,194340,1,0,0:0:0:0:
54,240,194400,5,0,0:0:0:0:
50,277,194460,1,0,0:0:0:0:
71,312,194520,1,0,0:0:0:0:
113,325,194580,1,0,0:0:0:0:
160,315,194640,1,0,0:0:0:0:
194,275,194700,1,0,0:0:0:0:
236,237,194760,1,0,0:0:0:0:
291,225,194820,1,0,0:0:0:0:
346,236,194880,5,0,0:0:0:0:
469,358,195000,1,0,0:0:0:0:
403,157,195120,1,0,0:0:0:0:
382,346,195240,1,0,0:0:0:0:
326,179,195360,5,0,0:0:0:0:
449,301,195480,1,0,0:0:0:0:
383,100,195600,1,0,0:0:0:0:
362,289,195720,1,0,0:0:0:0:
310,126,195840,5,0,0:0:0:0:
289,315,195960,1,0,0:0:0:0:
223,114,196080,1,0,0:0:0:0:
346,236,196200,1,0,0:0:0:0:
290,69,196320,5,0,0:0:0:0:
269,258,196440,1,0,0:0:0:0:
203,57,196560,1,0,0:0:0:0:
326,179,196680,1,0,0:0:0:0:
166,148,196800,5,0,0:0:0:0:
43,26,196920,1,0,0:0:0:0:
109,227,197040,1,0,0:0:0:0:
130,38,197160,1,0,0:0:0:0:
186,205,197280,5,0,0:0:0:0:
63,83,197400,1,0,0:0:0:0:
129,284,197520,1,0,0:0:0:0:
150,95,197640,1,0,0:0:0:0:
202,258,197760,5,0,0:0:0:0:
223,69,197880,1,0,0:0:0:0:
289,270,198000,1,0,0:0:0:0:
166,148,198120,1,0,0:0:0:0:
222,315,198240,5,0,0:0:0:0:
243,126,198360,1,0,0:0:0:0:
309,327,198480,1,0,0:0:0:0:
186,205,198600,1,0,0:0:0:0:
326,179,198720,5,0,0:0:0:0:
309,327,198840,1,0,0:0:0:0:
243,126,198960,1,0,0:0:0:0:
222,315,199080,1,0,0:0:0:0:
166,148,199200,5,0,0:0:0:0:
289,270,199320,1,0,0:0:0:0:
223,69,199440,1,0,0:0:0:0:
202,258,199560,1,0,0:0:0:0:
150,95,199680,5,0,0:0:0:0:
129,284,199800,1,0,0:0:0:0:
63,83,199920,1,0,0:0:0:0:
186,205,200040,1,0,0:0:0:0:
130,38,200160,5,0,0:0:0:0:
109,227,200280,1,0,0:0:0:0:
43,26,200400,1,0,0:0:0:0:
166,148,200520,1,0,0:0:0:0:
326,179,200640,5,0,0:0:0:0:
203,57,200760,1,0,0:0:0:0:
269,258,200880,1,0,0:0:0:0:
290,69,201000,1,0,0:0:0:0:
346,236,201120,5,0,0:0:0:0:
223,114,201240,1,0,0:0:0:0:
289,315,201360,1,0,0:0:0:0:
310,126,201480,1,0,0:0:0:0:
362,289,201600,5,0,0:0:0:0:
383,100,201720,1,0,0:0:0:0:
449,301,201840,1,0,0:0:0:0:
326,179,201960,1,0,0:0:0:0:
382,346,202080,5,0,0:0:0:0:
403,157,202200,1,0,0:0:0:0:
469,358,202320,1,0,0:0:0:0:
346,236,202440,1,0,0:0:0:0:
280,354,202560,5,0,0:0:0:0:
183,78,202680,1,0,0:0:0:0:
179,352,202800,2,0,P|206:319|226:285,1,75.0000028610231
222,33,203040,2,0,P|222:88|236:123,1,75.0000028610231
352,336,203280,2,0,P|313:320|269:320,1,75.0000028610231
46,335,203520,5,0,0:0:0:0:
155,45,203640,1,0,0:0:0:0:
52,257,203760,1,0,0:0:0:0:
303,48,203880,1,0,0:0:0:0:
389,293,204000,1,0,0:0:0:0:
200,58,204120,1,0,0:0:0:0:
149,83,204180,1,0,0:0:0:0:
113,126,204240,1,0,0:0:0:0:
434,55,204360,1,0,0:0:0:0:
219,224,204480,5,0,0:0:0:0:
354,37,204600,1,0,0:0:0:0:
394,349,204840,2,0,P|344:312|275:321,1,112.500004291535
257,332,205080,6,0,P|229:226|199:335,1,300.000011444092
293,224,205440,5,0,0:0:0:0:
119,48,205560,1,0,0:0:0:0:
118,349,205800,2,0,P|168:312|237:321,1,112.500004291535
255,332,206040,6,0,P|281:190|307:336,1,375.000014305115
255,332,206400,6,0,P|155:350|55:287,1,200
122,102,206760,1,0,0:0:0:0:
259,252,206880,6,0,P|359:270|459:207,1,200
220,118,207360,6,0,P|120:100|20:163,1,200
35,143,207720,2,0,P|131:161|219:117,1,200
220,118,208080,6,0,P|120:100|39:139,1,150
35,143,208320,2,0,P|87:171|141:246,1,150
165,353,208560,6,0,P|170:289|193:242,1,100
311,138,208800,2,0,P|306:202|283:249,1,100
85,384,209040,2,0,P|90:320|113:273,1,100
231,169,209280,2,0,P|226:233|203:280,1,100
18,223,209520,5,0,0:0:0:0:
154,72,209640,1,0,0:0:0:0:
209,276,209760,2,0,P|163:242|136:203,1,100
94,13,210000,2,0,P|146:36|189:78,1,100
265,322,210240,5,0,0:0:0:0:
354,40,210360,1,0,0:0:0:0:
340,328,210480,1,0,0:0:0:0:
74,189,210600,1,0,0:0:0:0:
308,258,210720,1,0,0:0:0:0:
284,12,210840,1,0,0:0:0:0:
84,265,210960,1,0,0:0:0:0:
293,88,211080,1,0,0:0:0:0:
13,238,211200,6,0,P|15:295|141:315,1,200
390,87,211680,5,0,0:0:0:0:
148,342,211800,1,0,0:0:0:0:
219,2,211920,1,0,0:0:0:0:
23,108,212160,5,0,0:0:0:0:
203,298,212280,1,0,0:0:0:0:
150,44,212520,2,0,P|206:61|274:121,1,150
287,154,212760,2,0,P|361:126|348:251,1,250
309,298,213120,5,0,0:0:0:0:
489,108,213240,1,0,0:0:0:0:
150,340,213480,2,0,P|206:323|274:263,1,150
297,233,213720,2,0,P|262:132|347:214,1,300
275,296,214320,5,0,0:0:0:0:
297,130,214440,1,0,0:0:0:0:
133,273,214560,1,0,0:0:0:0:
169,68,214680,1,0,0:0:0:0:
306,347,214800,1,0,0:0:0:0:
364,85,214920,1,0,0:0:0:0:
84,333,215040,6,0,P|66:279|61:216,1,100
248,59,215280,1,0,0:0:0:0:
401,340,215400,2,0,P|348:339|297:320,1,100
62,71,215640,1,0,0:0:0:0:
111,61,215700,1,0,0:0:0:0:
161,61,215760,2,0,P|215:76|257:107,1,100
471,330,216000,6,0,P|435:325|398:341,1,75
362,359,216240,6,0,P|299:374|244:372,1,100
237,133,216480,2,0,P|297:125|350:131,1,100
172,338,216720,2,0,P|146:281|138:237,1,100
384,182,216960,6,0,P|404:238|404:284,1,100
183,342,217200,1,0,0:0:0:0:
322,98,217320,1,0,0:0:0:0:
206,285,217440,2,0,P|137:310|99:314,1,100
237,144,217680,2,0,P|291:131|359:130,1,100
146,287,217920,2,0,P|99:249|77:217,1,100
57,28,218160,5,0,0:0:0:0:
21,222,218280,1,0,0:0:0:0:
130,89,218400,2,0,P|200:82|241:87,1,100
368,237,218640,1,0,0:0:0:0:
203,148,218760,1,0,0:0:0:0:
440,201,218880,2,0,P|441:255|426:312,1,100
209,342,219120,1,0,0:0:0:0:
373,241,219240,5,0,0:0:0:0:
378,232,219300,1,0,0:0:0:0:
385,219,219360,1,0,0:0:0:0:
387,199,219420,1,0,0:0:0:0:
380,174,219480,1,0,0:0:0:0:
359,152,219540,1,0,0:0:0:0:
325,140,219600,1,0,0:0:0:0:
285,140,219660,1,0,0:0:0:0:
245,161,219720,1,0,0:0:0:0:
212,199,219780,1,0,0:0:0:0:
200,252,219840,6,0,P|152:221|117:169,1,100
89,12,220080,1,0,0:0:0:0:
55,215,220200,1,0,0:0:0:0:
200,34,220320,2,0,P|222:80|230:146,1,100
171,287,220560,1,0,0:0:0:0:
137,84,220680,1,0,0:0:0:0:
312,252,220800,6,0,P|360:221|395:169,1,100
423,12,221040,1,0,0:0:0:0:
457,215,221160,1,0,0:0:0:0:
312,34,221280,2,0,P|290:80|282:146,1,100
341,287,221520,1,0,0:0:0:0:
375,84,221640,1,0,0:0:0:0:
205,36,221760,6,0,P|148:51|95:76,1,100
110,292,222000,1,0,0:0:0:0:
251,134,222120,1,0,0:0:0:0:
46,125,222240,2,0,P|70:173|109:205,1,100
326,169,222480,1,0,0:0:0:0:
141,115,222600,1,0,0:0:0:0:
307,36,222720,6,0,P|364:51|417:76,1,100
402,292,222960,1,0,0:0:0:0:
261,134,223080,1,0,0:0:0:0:
466,125,223200,2,0,P|442:173|403:205,1,100
186,169,223440,1,0,0:0:0:0:
371,115,223560,1,0,0:0:0:0:
109,126,223680,5,0,0:0:0:0:
294,72,223800,1,0,0:0:0:0:
79,183,223920,2,0,P|74:236|87:292,1,100
326,344,224160,1,0,0:0:0:0:
234,134,224280,2,0,P|194:181|179:224,1,100
410,345,224520,6,0,P|440:298|453:243,1,100
412,64,224760,1,0,0:0:0:0:
207,154,224880,2,0,P|198:215|205:260,1,100
425,343,225120,2,0,P|442:291|401:169,1,150
375,214,225360,2,0,P|325:256|205:232,1,150
218,239,225600,6,0,P|233:159|278:222,1,187.500007152558
284,211,225960,6,0,P|216:141|218:239,1,250
218,239,226320,6,0,P|206:122|283:214,1,312.5
285,210,226680,6,0,P|203:99|218:239,1,375.000014305115
217,238,227040,6,0,P|188:84|285:210,1,437.500004172325
284,211,227400,6,0,P|192:60|217:238,1,500
284,211,227760,6,0,P|286:283|217:238,1,187.500007152558
284,211,228120,6,0,P|213:119|213:234,1,300
284,211,228360,6,0,P|192:60|217:238,1,500
227,211,229320,6,0,P|320:60|294:238,1,500
227,211,229680,6,0,P|226:283|294:238,1,187.500007152558
227,211,230040,6,0,P|291:119|290:234,1,300
227,211,230280,6,0,P|320:60|294:238,1,500
112,119,231240,6,0,P|170:220|365:25,1,500
371,35,231600,6,0,P|342:119|262:69,1,187.500007152558
267,89,231960,6,0,P|246:150|113:43,1,300
101,64,232200,6,0,P|130:223|362:92,1,500
400,265,233160,6,0,P|342:164|147:359,1,500
140,348,233520,6,0,P|170:265|250:315,1,187.500007152558
244,294,233880,6,0,P|266:234|399:341,1,300
410,319,234120,6,0,P|374:190|150:292,1,450
156,320,234720,5,0,0:0:0:0:
449,157,234960,1,0,0:0:0:0:
102,62,235200,1,0,0:0:0:0:
238,83,235680,5,0,0:0:0:0:
198,140,235802,1,0,0:0:0:0:
251,180,235927,1,0,0:0:0:0:
200,241,236055,1,0,0:0:0:0:
293,263,236188,1,0,0:0:0:0:
227,349,236327,1,0,0:0:0:0:
336,373,236467,1,0,0:0:0:0:
97,55,236614,6,0,P|77:117|473:89,1,781.818181818182
469,77,239872,5,0,0:0:0:0:
240,306,240112,1,0,0:0:0:0:
303,38,240352,6,0,B|322:88,1,50
408,298,240472,2,0,B|386:249,1,50
258,64,240592,2,0,B|282:116,1,50
362,309,240712,2,0,B|343:257,1,50
149,85,240832,5,0,0:0:0:0:
164,286,240952,1,0,0:0:0:0:
233,94,241072,1,0,0:0:0:0:
26,177,241192,1,0,0:0:0:0:
392,284,241312,2,0,P|387:263|333:174,1,100
105,327,241552,1,0,0:0:0:0:
265,166,241672,1,0,0:0:0:0:
221,140,241732,1,0,0:0:0:0:
171,137,241792,5,0,0:0:0:0:
123,151,241852,1,0,0:0:0:0:
83,180,241912,2,0,P|135:205|180:205,1,100
348,181,242152,1,0,0:0:0:0:
211,38,242272,2,0,P|221:93|252:155,1,100
407,231,242512,1,0,0:0:0:0:
156,152,242632,1,0,0:0:0:0:
288,337,242752,5,0,0:0:0:0:
244,81,242872,1,0,0:0:0:0:
204,334,242992,1,0,0:0:0:0:
324,84,243112,1,0,0:0:0:0:
343,337,243232,2,0,P|281:305|254:276,1,100
239,73,243472,1,0,0:0:0:0:
411,183,243592,1,0,0:0:0:0:
411,237,243652,1,0,0:0:0:0:
378,281,243712,5,0,0:0:0:0:
324,294,243772,1,0,0:0:0:0:
274,270,243832,1,0,0:0:0:0:
287,72,243952,1,0,0:0:0:0:
83,38,244072,2,0,P|60:113|60:164,1,100
114,332,244312,1,0,0:0:0:0:
142,94,244432,1,0,0:0:0:0:
214,278,244552,1,0,0:0:0:0:
363,85,244672,5,0,0:0:0:0:
348,286,244792,1,0,0:0:0:0:
75,134,244912,1,0,0:0:0:0:
300,59,245032,1,0,0:0:0:0:
120,284,245152,2,0,P|125:263|179:174,1,100
407,327,245392,1,0,0:0:0:0:
247,163,245512,1,0,0:0:0:0:
292,142,245572,1,0,0:0:0:0:
341,136,245632,5,0,0:0:0:0:
390,145,245692,1,0,0:0:0:0:
429,180,245752,2,0,P|377:205|332:205,1,100
164,181,245992,1,0,0:0:0:0:
301,38,246112,2,0,P|291:93|260:155,1,100
105,231,246352,1,0,0:0:0:0:
356,152,246472,1,0,0:0:0:0:
224,337,246592,5,0,0:0:0:0:
269,51,246712,1,0,0:0:0:0:
368,353,246832,1,0,0:0:0:0:
159,118,246952,1,0,0:0:0:0:
424,51,247072,5,0,0:0:0:0:
324,348,247252,1,0,0:0:0:0:
81,87,247432,1,0,0:0:0:0:
512,50,247552,5,0,0:0:0:0:
276,351,247792,1,0,0:0:0:0:
40,0,248032,1,0,0:0:0:0:
432,123,248272,6,0,L|459:105,1,25
456,174,248332,2,0,L|495:166,1,25
457,229,248392,2,0,L|500:240,1,25
446,285,248452,2,0,L|478:312,1,25
407,331,248512,5,0,0:0:0:0:
230,99,248632,1,0,0:0:0:0:
380,204,248752,1,0,0:0:0:0:
90,121,248872,1,0,0:0:0:0:
280,38,248992,2,0,P|336:49|383:69,1,100
325,293,249232,2,0,P|275:288|223:270,1,100
115,154,249472,5,0,0:0:0:0:
337,235,249592,1,0,0:0:0:0:
113,64,249712,1,0,0:0:0:0:
331,339,249832,1,0,0:0:0:0:
196,48,249952,2,0,P|239:82|265:122,1,100
242,362,250192,2,0,P|222:303|222:250,1,100
345,38,250432,5,0,0:0:0:0:
359,310,250552,2,0,P|305:280|276:252,1,100
446,82,250792,1,0,0:0:0:0:
185,14,250912,2,0,P|133:55|109:110,1,100
203,311,251152,1,0,0:0:0:0:
200,98,251272,1,0,0:0:0:0:
246,69,251332,1,0,0:0:0:0:
300,63,251392,5,0,0:0:0:0:
350,85,251452,1,0,0:0:0:0:
375,133,251512,1,0,0:0:0:0:
232,193,251632,1,0,0:0:0:0:
454,21,251752,2,0,P|497:60|514:116,1,100
465,310,251992,1,0,0:0:0:0:
288,112,252112,1,0,0:0:0:0:
234,124,252172,1,0,0:0:0:0:
196,165,252232,1,0,0:0:0:0:
186,220,252292,1,0,0:0:0:0:
199,274,252352,6,0,P|231:307|290:333,1,100
457,189,252592,1,0,0:0:0:0:
281,237,252712,1,0,0:0:0:0:
405,55,252832,2,0,P|342:46|288:62,1,100
272,354,253192,6,0,P|332:324|362:223,1,150
352,193,253432,1,0,0:0:0:0:
198,131,253552,1,0,0:0:0:0:
402,137,253672,1,0,0:0:0:0:
211,259,253792,1,0,0:0:0:0:
431,86,253912,1,0,0:0:0:0:
148,29,254032,1,0,0:0:0:0:
90,340,254152,6,0,L|357:304,1,250
440,287,254512,6,0,L|173:251,1,250
70,251,254872,6,0,L|337:215,1,250
420,198,255232,6,0,L|153:162,1,250
62,172,255592,6,0,L|329:136,1,250
256,192,256012,12,0,260512,0:0:0:0:
