osu file format v14

[General]
AudioFilename: audio123.mp3
AudioLeadIn: 0
PreviewTime: 263218
Countdown: 0
SampleSet: Normal
StackLeniency: 0.7
Mode: 1
LetterboxInBreaks: 0
WidescreenStoryboard: 0

[Editor]
DistanceSpacing: 0.5
BeatDivisor: 4
GridSize: 4
TimelineZoom: 2.1

[Metadata]
Title:Petals
TitleUnicode:Petals
Artist:Nanahira
ArtistUnicode:ななひら
Creator:iloveyou4ever
Version:Fragments
Source:
Tags:secretale confetto cametek camellia かめりあ
BeatmapID:1418603
BeatmapSetID:670839

[Difficulty]
HPDrainRate:5
CircleSize:5
OverallDifficulty:6.3
ApproachRate:5
SliderMultiplier:1.4
SliderTickRate:1

[Events]
//Background and Video events
0,0,"BG1.jpg",0,0
//Break Periods
2,220346,222071
//Storyboard Layer 0 (Background)
//Storyboard Layer 1 (Fail)
//Storyboard Layer 2 (Pass)
//Storyboard Layer 3 (Foreground)
//Storyboard Sound Samples

[TimingPoints]
146,312.5,4,1,0,30,1,0
146,-111.111111111111,4,1,0,30,0,0
8271,-111.111111111111,4,1,0,35,0,0
10067,-100,4,1,0,50,0,0
30146,-100,4,1,0,50,0,0
30458,-100,4,1,0,55,0,0
32567,-117.647058823529,4,1,0,40,0,0
40067,-112.994350282486,4,1,0,44,0,0
50067,-108.695652173913,4,1,0,47,0,0
73817,-104.166666666667,4,1,0,57,0,0
83817,-100,4,1,0,65,0,0
92646,-100,4,1,0,69,0,0
93349,-99.502487562189,4,1,0,69,0,0
93427,-99.009900990099,4,1,0,69,0,0
93505,-98.5221674876847,4,1,0,69,0,0
93583,-98.0392156862745,4,1,0,69,0,0
93661,-97.5609756097561,4,1,0,69,0,0
93739,-97.0873786407767,4,1,0,69,0,0
93791,-96.7117988394584,4,1,0,69,0,0
93843,-96.3391136801541,4,1,0,69,0,0
93896,-95.9692898272553,4,1,0,77,0,1
113896,-96.5250965250965,4,1,0,70,0,0
113974,-100,4,1,0,70,0,0
133974,-107.52688172043,4,1,0,57,0,0
136317,-107.52688172043,4,1,0,60,0,0
143349,-106.382978723404,4,1,0,60,0,0
143505,-105.263157894737,4,1,0,60,0,0
143661,-104.166666666667,4,1,0,65,0,0
143818,-103.092783505155,4,1,0,65,0,0
148505,-102.30179028133,4,1,0,65,0,0
148700,-101.522842639594,4,1,0,65,0,0
148778,-100.755667506297,4,1,0,65,0,0
148857,-100,4,1,0,67,0,0
156396,-100,4,1,0,69,0,0
157177,-99.502487562189,4,1,0,69,0,0
157255,-98.6193293885601,4,1,0,69,0,0
157333,-98.5221674876847,4,1,0,69,0,0
157385,-97.5609756097561,4,1,0,69,0,0
157437,-97.0873786407767,4,1,0,69,0,0
157489,-96.6183574879227,4,1,0,69,0,0
157541,-96.1538461538461,4,1,0,69,0,0
157593,-95.6937799043062,4,1,0,69,0,0
157646,-95.2380952380952,4,1,0,77,0,1
177646,-95.2380952380952,4,1,0,70,0,0
177880,-97.0873786407767,4,1,0,59,0,0
178036,-99.009900990099,4,1,0,59,0,0
178349,-102.040816326531,4,1,0,59,0,0
178505,-103.092783505155,4,1,0,59,0,0
178661,-104.166666666667,4,1,0,59,0,0
187567,-100.334515273923,4,1,0,67,0,0
197724,-111.111111111111,4,1,0,55,0,0
223192,-125,4,1,0,38,0,0
242021,-125,4,1,0,43,0,0
242646,-125,4,1,0,48,0,0
243271,-125,4,1,0,53,0,0
243818,-105.263157894737,4,1,0,60,0,0
253818,-100,4,1,0,65,0,0
259521,-100,4,1,0,66,0,0
260146,-100,4,1,0,67,0,0
260771,-100,4,1,0,68,0,0
261396,-100,4,1,0,69,0,0
263427,-99.502487562189,4,1,0,65,0,0
263505,-98.570724494825,4,1,0,65,0,0
263583,-98.5221674876847,4,1,0,65,0,0
263635,-97.5609756097561,4,1,0,65,0,0
263687,-97.5609756097561,4,1,0,65,0,0
263739,-96.6183574879227,4,1,0,65,0,0
263791,-96.6183574879227,4,1,0,65,0,0
263843,-95.6937799043062,4,1,0,65,0,0
263896,-95.6937799043062,4,1,0,65,0,0
264208,-92.5925925925926,4,1,0,77,0,1
283896,-90.0900900900901,4,1,0,77,0,1
303896,-91.743119266055,4,1,0,70,0,0
304130,-93.8086303939962,4,1,0,66,0,0
304599,-95.9692898272553,4,1,0,66,0,0
304755,-98.2318271119843,4,1,0,66,0,0
304911,-100,4,1,0,66,0,0
305224,-100,4,1,0,61,0,0
308818,-100,4,1,0,57,0,0
311318,-100,4,1,0,53,0,0
323896,-100,4,1,0,40,0,0
328896,-100,4,1,0,35,0,0

[HitObjects]
368,176,146,5,0,0:0:0:0:
368,176,302,1,0,0:0:0:0:
320,192,458,1,8,0:0:0:0:
368,144,614,1,0,0:0:0:0:
360,184,927,1,0,0:0:0:0:
400,172,1239,1,8,0:0:0:0:
360,168,1552,1,8,0:0:0:0:
360,168,1708,1,8,0:0:0:0:
388,196,1864,1,0,0:0:0:0:
372,192,2177,1,8,0:0:0:0:
400,216,2489,1,0,0:0:0:0:
316,144,2802,1,0,0:0:0:0:
368,212,2958,1,8,0:0:0:0:
368,212,3114,1,8,0:0:0:0:
408,192,3583,1,8,0:0:0:0:
324,224,4052,1,8,0:0:0:0:
404,200,4208,1,0,0:0:0:0:
384,204,4364,1,0,0:0:0:0:
404,200,4521,1,8,0:0:0:0:
288,186,4677,1,0,0:0:0:0:
418,216,4833,1,8,0:0:0:0:
368,173,4989,1,8,0:0:0:0:
447,223,5146,1,0,0:0:0:0:
348,177,5302,1,0,0:0:0:0:
404,184,5458,1,8,0:0:0:0:
416,187,5614,1,0,0:0:0:0:
464,209,5927,1,0,0:0:0:0:
372,186,6239,1,8,0:0:0:0:
391,208,6552,1,8,0:0:0:0:
391,208,6708,1,8,0:0:0:0:
426,177,6864,1,0,0:0:0:0:
380,174,7177,1,8,0:0:0:0:
440,164,7489,1,0,0:0:0:0:
364,240,7802,1,0,0:0:0:0:
446,195,7958,1,8,0:0:0:0:
446,195,8114,1,8,0:0:0:0:
256,192,8271,8,0,9989,0:0:0:0:
376,180,10146,5,4,0:0:0:0:
344,174,10458,1,8,0:0:0:0:
361,171,10614,1,0,0:0:0:0:
378,159,10927,1,0,0:0:0:0:
344,174,11083,1,8,0:0:0:0:
362,165,11239,1,0,0:0:0:0:
410,165,11552,1,8,0:0:0:0:
367,168,11708,1,0,0:0:0:0:
367,168,11864,1,0,0:0:0:0:
437,199,12177,1,8,0:0:0:0:
357,177,12333,1,0,0:0:0:0:
380,180,12489,1,8,0:0:0:0:
418,169,12646,1,0,0:0:0:0:
418,169,12802,1,0,0:0:0:0:
323,177,12958,1,8,0:0:0:0:
343,177,13114,1,8,0:0:0:0:
416,177,13583,1,0,0:0:0:0:
416,177,13739,1,0,0:0:0:0:
475,196,13896,1,8,0:0:0:0:
423,174,14052,1,0,0:0:0:0:
464,173,14208,1,8,0:0:0:0:
421,184,14364,1,8,0:0:0:0:
409,169,14521,1,0,0:0:0:0:
408,169,14677,1,0,0:0:0:0:
389,178,14833,1,8,0:0:0:0:
426,202,15146,1,0,0:0:0:0:
426,202,15302,1,0,0:0:0:0:
341,168,15458,1,8,0:0:0:0:
341,168,15614,1,8,0:0:0:0:
313,202,15927,1,0,0:0:0:0:
352,166,16239,1,8,0:0:0:0:
320,176,16396,1,8,0:0:0:0:
444,196,16552,1,0,0:0:0:0:
368,177,16864,1,8,0:0:0:0:
440,168,17177,1,0,0:0:0:0:
431,221,17333,1,8,0:0:0:0:
406,157,17489,1,8,0:0:0:0:
398,168,17646,1,0,0:0:0:0:
445,189,17802,1,8,0:0:0:0:
453,210,17958,1,8,0:0:0:0:
384,193,18114,1,0,0:0:0:0:
427,191,18427,1,8,0:0:0:0:
388,132,18739,1,0,0:0:0:0:
427,176,19052,1,8,0:0:0:0:
427,176,19208,1,8,0:0:0:0:
502,223,19364,1,0,0:0:0:0:
412,200,19521,1,8,0:0:0:0:
336,162,19677,1,0,0:0:0:0:
458,207,19833,1,0,0:0:0:0:
458,207,19911,1,0,0:0:0:0:
390,186,19989,1,8,0:0:0:0:
390,186,20067,1,8,0:0:0:0:
356,162,20146,1,8,0:0:0:0:
452,226,20302,1,0,0:0:0:0:
424,188,20458,1,0,0:0:0:0:
360,184,20614,1,8,0:0:0:0:
401,170,20771,1,0,0:0:0:0:
448,189,20927,1,8,0:0:0:0:
348,200,21239,1,8,0:0:0:0:
324,112,21396,1,0,0:0:0:0:
340,168,21552,1,8,0:0:0:0:
401,170,21708,1,0,0:0:0:0:
403,172,21864,1,0,0:0:0:0:
403,172,22021,1,0,0:0:0:0:
425,173,22177,1,8,0:0:0:0:
428,173,22333,1,0,0:0:0:0:
434,204,22489,1,8,0:0:0:0:
341,157,22646,1,0,0:0:0:0:
410,173,22802,1,0,0:0:0:0:
372,160,22958,1,8,0:0:0:0:
371,161,23114,1,8,0:0:0:0:
472,208,23583,1,8,0:0:0:0:
424,164,23739,1,8,0:0:0:0:
444,180,23896,1,0,0:0:0:0:
453,200,24052,1,8,0:0:0:0:
474,172,24208,1,0,0:0:0:0:
444,200,24364,1,8,0:0:0:0:
358,175,24521,1,8,0:0:0:0:
368,168,24677,1,0,0:0:0:0:
378,178,24833,1,8,0:0:0:0:
412,180,25146,1,0,0:0:0:0:
442,169,25458,1,0,0:0:0:0:
488,224,25614,1,8,0:0:0:0:
504,188,25771,1,0,0:0:0:0:
464,208,26083,1,0,0:0:0:0:
374,175,26239,1,8,0:0:0:0:
448,188,26396,1,8,0:0:0:0:
456,181,26552,1,0,0:0:0:0:
424,256,26708,1,0,0:0:0:0:
449,237,26864,1,8,0:0:0:0:
447,188,27021,1,0,0:0:0:0:
447,189,27177,1,0,0:0:0:0:
430,181,27333,1,8,0:0:0:0:
426,176,27489,1,0,0:0:0:0:
388,163,27646,1,8,0:0:0:0:
431,195,27802,1,0,0:0:0:0:
326,168,27958,1,0,0:0:0:0:
321,165,28114,1,8,0:0:0:0:
344,176,28427,1,8,0:0:0:0:
344,176,28583,1,8,0:0:0:0:
410,212,28739,1,0,0:0:0:0:
389,170,28896,1,8,0:0:0:0:
436,262,29364,1,0,0:0:0:0:
421,264,29442,1,0,0:0:0:0:
375,187,29521,1,8,0:0:0:0:
400,182,29599,1,8,0:0:0:0:
400,182,29677,1,8,0:0:0:0:
417,195,29755,1,0,0:0:0:0:
333,195,29833,1,8,0:0:0:0:
333,195,29911,1,8,0:0:0:0:
359,169,29989,1,0,0:0:0:0:
359,168,30067,1,0,0:0:0:0:
354,197,30146,1,8,0:0:0:0:
256,192,30614,12,0,31396,0:0:0:0:
332,200,32646,5,8,0:0:0:0:
410,173,33896,1,0,0:0:0:0:
336,170,35146,1,0,0:0:0:0:
327,170,35224,1,8,0:0:0:0:
327,170,35302,1,8,0:0:0:0:
432,178,36396,1,0,0:0:0:0:
418,165,37021,1,8,0:0:0:0:
352,170,37646,1,0,0:0:0:0:
427,153,37724,1,8,0:0:0:0:
396,215,38896,1,0,0:0:0:0:
384,162,38974,1,8,0:0:0:0:
394,182,40146,1,8,0:0:0:0:
311,177,40614,1,0,0:0:0:0:
461,178,41708,1,8,0:0:0:0:
403,204,42021,1,8,0:0:0:0:
412,181,42646,1,8,0:0:0:0:
354,180,43114,1,0,0:0:0:0:
404,187,43583,1,8,0:0:0:0:
472,204,43896,1,0,0:0:0:0:
416,249,44833,1,0,0:0:0:0:
402,218,45146,1,8,0:0:0:0:
457,246,45458,1,0,0:0:0:0:
397,194,45614,1,8,0:0:0:0:
469,238,46083,1,8,0:0:0:0:
402,230,46396,1,0,0:0:0:0:
443,239,47021,1,8,0:0:0:0:
407,167,47646,1,8,0:0:0:0:
400,166,48583,1,0,0:0:0:0:
410,185,48896,1,8,0:0:0:0:
426,179,49364,1,0,0:0:0:0:
374,146,49521,1,8,0:0:0:0:
374,146,49677,1,8,0:0:0:0:
390,171,49833,1,0,0:0:0:0:
452,180,50146,1,8,0:0:0:0:
351,172,50224,1,8,0:0:0:0:
321,187,50302,1,8,0:0:0:0:
429,171,50771,1,0,0:0:0:0:
356,164,51396,1,8,0:0:0:0:
379,165,51708,1,0,0:0:0:0:
474,177,52021,1,0,0:0:0:0:
328,156,52177,1,0,0:0:0:0:
351,158,52333,1,8,0:0:0:0:
474,177,52646,1,8,0:0:0:0:
464,185,53583,1,0,0:0:0:0:
464,185,53896,1,0,0:0:0:0:
346,157,54521,1,8,0:0:0:0:
376,182,55146,1,0,0:0:0:0:
416,208,55224,1,0,0:0:0:0:
416,208,55302,1,0,0:0:0:0:
411,191,55771,1,8,0:0:0:0:
426,160,56396,1,0,0:0:0:0:
457,233,56708,1,8,0:0:0:0:
410,184,57021,1,8,0:0:0:0:
362,186,57177,1,0,0:0:0:0:
409,184,57333,1,8,0:0:0:0:
468,232,57646,1,0,0:0:0:0:
475,188,58583,1,8,0:0:0:0:
362,186,58896,1,0,0:0:0:0:
384,178,59521,1,8,0:0:0:0:
442,265,59833,1,0,0:0:0:0:
407,178,60146,1,0,0:0:0:0:
424,184,60224,1,0,0:0:0:0:
424,184,60302,1,0,0:0:0:0:
424,232,61083,1,8,0:0:0:0:
384,204,61396,1,0,0:0:0:0:
292,168,61864,1,8,0:0:0:0:
354,167,62333,1,8,0:0:0:0:
436,296,62646,1,0,0:0:0:0:
436,296,62724,1,0,0:0:0:0:
436,296,62802,1,0,0:0:0:0:
506,182,63583,1,8,0:0:0:0:
438,178,63896,1,0,0:0:0:0:
438,178,64364,1,0,0:0:0:0:
422,177,64521,1,8,0:0:0:0:
386,179,64833,1,0,0:0:0:0:
451,184,64989,1,8,0:0:0:0:
246,185,65146,1,0,0:0:0:0:
276,178,65458,1,0,0:0:0:0:
326,183,65614,1,8,0:0:0:0:
426,221,67333,5,8,0:0:0:0:
380,181,67489,1,0,0:0:0:0:
357,173,67646,1,8,0:0:0:0:
396,173,67958,1,8,0:0:0:0:
387,174,68114,1,8,0:0:0:0:
402,188,69521,5,8,0:0:0:0:
397,157,70146,5,0,0:0:0:0:
387,181,70458,1,8,0:0:0:0:
439,242,70771,1,0,0:0:0:0:
404,178,70927,1,8,0:0:0:0:
311,168,71239,1,0,0:0:0:0:
354,179,71317,1,8,0:0:0:0:
352,180,71396,1,8,0:0:0:0:
458,194,71708,1,0,0:0:0:0:
398,168,71864,1,8,0:0:0:0:
368,192,72177,1,8,0:0:0:0:
437,213,72489,1,8,0:0:0:0:
420,195,72646,1,0,0:0:0:0:
432,324,73271,1,0,0:0:0:0:
379,188,73583,1,8,0:0:0:0:
455,237,73896,1,4,0:0:0:0:
421,200,74833,1,0,0:0:0:0:
332,181,75146,1,8,0:0:0:0:
330,171,75771,1,8,0:0:0:0:
356,202,76083,1,8,0:0:0:0:
356,202,76239,1,8,0:0:0:0:
400,182,76396,1,0,0:0:0:0:
284,124,76864,1,0,0:0:0:0:
275,179,77021,1,8,0:0:0:0:
378,214,77646,1,0,0:0:0:0:
415,187,78271,1,8,0:0:0:0:
392,173,78583,1,0,0:0:0:0:
383,180,78896,1,8,0:0:0:0:
464,178,79833,1,0,0:0:0:0:
469,169,80146,1,8,0:0:0:0:
410,168,80771,1,8,0:0:0:0:
491,197,81083,1,0,0:0:0:0:
480,210,81239,1,0,0:0:0:0:
478,182,81396,1,8,0:0:0:0:
418,160,81864,1,8,0:0:0:0:
430,162,82021,1,0,0:0:0:0:
429,189,82333,1,8,0:0:0:0:
410,191,82646,1,8,0:0:0:0:
388,179,83271,1,0,0:0:0:0:
502,177,83583,1,8,0:0:0:0:
488,232,83896,1,0,0:0:0:0:
358,141,84208,1,0,0:0:0:0:
446,178,84521,1,0,0:0:0:0:
476,200,84833,1,8,0:0:0:0:
408,188,85146,1,0,0:0:0:0:
404,176,85302,1,8,0:0:0:0:
344,156,85458,1,0,0:0:0:0:
416,160,85771,1,8,0:0:0:0:
509,235,86083,1,8,0:0:0:0:
452,224,86239,1,8,0:0:0:0:
384,184,86396,1,0,0:0:0:0:
440,172,86708,1,0,0:0:0:0:
444,204,86864,1,8,0:0:0:0:
428,204,87021,1,0,0:0:0:0:
124,252,87333,1,8,0:0:0:0:
400,200,87646,1,0,0:0:0:0:
400,200,87802,1,0,0:0:0:0:
364,172,87958,1,8,0:0:0:0:
392,176,88114,1,8,0:0:0:0:
328,164,88271,1,0,0:0:0:0:
404,176,88427,1,0,0:0:0:0:
328,192,88583,1,8,0:0:0:0:
404,176,88896,1,8,0:0:0:0:
388,176,89052,1,0,0:0:0:0:
352,184,89208,1,8,0:0:0:0:
391,151,89364,1,8,0:0:0:0:
328,176,89442,1,8,0:0:0:0:
400,180,89521,1,0,0:0:0:0:
400,180,89677,1,0,0:0:0:0:
432,176,89833,1,8,0:0:0:0:
408,176,89989,1,0,0:0:0:0:
356,180,90146,1,8,0:0:0:0:
408,196,90302,1,8,0:0:0:0:
392,196,90458,1,8,0:0:0:0:
408,184,90614,1,0,0:0:0:0:
412,184,90692,1,0,0:0:0:0:
324,172,90771,1,8,0:0:0:0:
316,174,90927,1,0,0:0:0:0:
416,182,91083,1,8,0:0:0:0:
251,162,91239,1,8,0:0:0:0:
444,198,91396,1,0,0:0:0:0:
444,198,91474,1,0,0:0:0:0:
444,198,91552,1,0,0:0:0:0:
444,198,91630,1,0,0:0:0:0:
364,176,91708,1,8,0:0:0:0:
387,174,91786,1,0,0:0:0:0:
416,182,91864,1,0,0:0:0:0:
416,182,91942,1,0,0:0:0:0:
466,179,92021,1,0,0:0:0:0:
466,179,92099,1,0,0:0:0:0:
466,179,92177,1,0,0:0:0:0:
466,179,92255,1,0,0:0:0:0:
380,164,92333,1,8,0:0:0:0:
455,165,92411,1,8,0:0:0:0:
389,167,92489,1,0,0:0:0:0:
389,167,92567,1,0,0:0:0:0:
349,221,92646,1,8,0:0:0:0:
418,133,92802,1,0,0:0:0:0:
282,166,92880,1,8,0:0:0:0:
357,176,92958,1,8,0:0:0:0:
355,184,93114,1,8,0:0:0:0:
432,168,93271,1,0,0:0:0:0:
367,168,93349,1,8,0:0:0:0:
354,188,93427,1,0,0:0:0:0:
362,184,93505,1,0,0:0:0:0:
425,178,93583,1,8,0:0:0:0:
408,168,93661,1,8,0:0:0:0:
425,178,93739,1,8,0:0:0:0:
425,178,93791,1,8,0:0:0:0:
425,178,93843,1,8,0:0:0:0:
482,178,93896,1,0,0:0:0:0:
430,177,94130,1,0,0:0:0:0:
408,180,94208,1,8,0:0:0:0:
400,158,94364,1,0,0:0:0:0:
496,161,94521,1,8,0:0:0:0:
496,161,94599,1,8,0:0:0:0:
375,152,94677,1,0,0:0:0:0:
375,152,94755,1,0,0:0:0:0:
338,123,94833,1,8,0:0:0:0:
327,124,94989,1,8,0:0:0:0:
413,147,95146,1,0,0:0:0:0:
397,143,95224,1,0,0:0:0:0:
445,195,95302,1,0,0:0:0:0:
389,172,95458,1,8,0:0:0:0:
406,168,95614,1,0,0:0:0:0:
463,176,95771,1,0,0:0:0:0:
396,176,95849,1,8,0:0:0:0:
346,146,95927,1,0,0:0:0:0:
346,146,96005,1,0,0:0:0:0:
369,157,96083,1,8,0:0:0:0:
369,157,96239,1,8,0:0:0:0:
409,173,96396,1,0,0:0:0:0:
445,237,96552,1,0,0:0:0:0:
427,227,96630,1,0,0:0:0:0:
346,146,96708,1,8,0:0:0:0:
379,145,96864,1,0,0:0:0:0:
444,176,96942,1,0,0:0:0:0:
444,176,97021,1,0,0:0:0:0:
380,167,97099,1,8,0:0:0:0:
444,176,97177,1,0,0:0:0:0:
365,152,97333,1,0,0:0:0:0:
416,153,97489,1,8,0:0:0:0:
427,227,97567,1,0,0:0:0:0:
383,200,97646,1,0,0:0:0:0:
469,189,97802,1,0,0:0:0:0:
469,189,97880,1,0,0:0:0:0:
409,179,97958,1,8,0:0:0:0:
440,181,98114,1,0,0:0:0:0:
405,164,98271,1,8,0:0:0:0:
465,162,98427,1,0,0:0:0:0:
465,162,98505,1,0,0:0:0:0:
452,173,98583,1,8,0:0:0:0:
449,173,98661,1,0,0:0:0:0:
486,178,98739,1,8,0:0:0:0:
486,178,98817,1,8,0:0:0:0:
344,170,98896,1,0,0:0:0:0:
506,158,99208,1,8,0:0:0:0:
421,178,99364,1,0,0:0:0:0:
323,168,99442,1,0,0:0:0:0:
480,172,99521,1,8,0:0:0:0:
480,172,99599,1,8,0:0:0:0:
420,181,99677,1,0,0:0:0:0:
455,159,99833,1,8,0:0:0:0:
452,161,99989,1,8,0:0:0:0:
380,177,100146,1,0,0:0:0:0:
337,194,100224,1,0,0:0:0:0:
349,151,100302,1,0,0:0:0:0:
336,163,100458,1,8,0:0:0:0:
437,199,100614,1,0,0:0:0:0:
437,199,100771,1,0,0:0:0:0:
368,168,100849,1,8,0:0:0:0:
474,173,100927,1,0,0:0:0:0:
474,173,101005,1,0,0:0:0:0:
410,166,101083,1,8,0:0:0:0:
410,166,101239,1,8,0:0:0:0:
466,202,101396,1,0,0:0:0:0:
466,202,101552,1,0,0:0:0:0:
466,202,101630,1,0,0:0:0:0:
448,210,101708,1,8,0:0:0:0:
437,178,101864,1,0,0:0:0:0:
418,174,102021,1,0,0:0:0:0:
471,168,102099,1,8,0:0:0:0:
418,174,102177,1,0,0:0:0:0:
394,198,102255,1,0,0:0:0:0:
418,174,102333,1,0,0:0:0:0:
394,182,102489,1,8,0:0:0:0:
466,202,102567,1,0,0:0:0:0:
410,246,102646,1,0,0:0:0:0:
426,175,102802,1,0,0:0:0:0:
426,175,102880,1,0,0:0:0:0:
397,168,102958,1,8,0:0:0:0:
441,166,103114,1,0,0:0:0:0:
457,201,103271,1,8,0:0:0:0:
457,201,103349,1,8,0:0:0:0:
440,166,103427,1,0,0:0:0:0:
469,160,103505,1,0,0:0:0:0:
404,149,103583,1,8,0:0:0:0:
389,164,103661,1,0,0:0:0:0:
431,166,103739,1,8,0:0:0:0:
451,146,103896,1,4,0:0:0:0:
460,174,104208,1,8,0:0:0:0:
382,165,104364,1,0,0:0:0:0:
389,210,104521,1,8,0:0:0:0:
427,167,104599,1,8,0:0:0:0:
398,178,104677,1,0,0:0:0:0:
476,215,104755,1,0,0:0:0:0:
350,158,104833,1,8,0:0:0:0:
448,199,104989,1,8,0:0:0:0:
470,164,105146,1,0,0:0:0:0:
388,197,105224,1,0,0:0:0:0:
470,164,105302,1,0,0:0:0:0:
365,182,105458,1,8,0:0:0:0:
419,168,105614,1,0,0:0:0:0:
376,232,105692,1,0,0:0:0:0:
412,176,105771,1,0,0:0:0:0:
493,171,105849,1,8,0:0:0:0:
401,170,105927,1,0,0:0:0:0:
378,152,106005,1,0,0:0:0:0:
447,168,106083,1,8,0:0:0:0:
325,178,106239,1,8,0:0:0:0:
416,181,106396,1,0,0:0:0:0:
407,191,106552,1,0,0:0:0:0:
460,208,106630,1,0,0:0:0:0:
475,196,106708,1,8,0:0:0:0:
364,152,106864,1,0,0:0:0:0:
401,170,106942,1,0,0:0:0:0:
416,180,107021,1,0,0:0:0:0:
387,189,107099,1,8,0:0:0:0:
429,176,107177,1,0,0:0:0:0:
400,168,107333,1,0,0:0:0:0:
394,181,107489,1,8,0:0:0:0:
372,179,107567,1,0,0:0:0:0:
434,196,107646,1,0,0:0:0:0:
434,196,107802,1,0,0:0:0:0:
434,196,107880,1,0,0:0:0:0:
390,168,107958,1,8,0:0:0:0:
423,170,108114,1,0,0:0:0:0:
378,193,108271,1,8,0:0:0:0:
423,170,108349,1,0,0:0:0:0:
442,180,108427,1,0,0:0:0:0:
310,173,108505,1,0,0:0:0:0:
387,144,108583,1,8,0:0:0:0:
442,180,108661,1,0,0:0:0:0:
416,178,108739,1,8,0:0:0:0:
346,175,108817,1,8,0:0:0:0:
435,161,108896,1,0,0:0:0:0:
370,178,109208,1,8,0:0:0:0:
335,188,109364,1,0,0:0:0:0:
352,208,109442,1,0,0:0:0:0:
370,178,109521,1,8,0:0:0:0:
370,178,109599,1,8,0:0:0:0:
340,168,109677,1,0,0:0:0:0:
368,192,109833,1,8,0:0:0:0:
448,196,109989,1,0,0:0:0:0:
440,196,110067,1,0,0:0:0:0:
464,184,110146,1,8,0:0:0:0:
418,199,110302,1,0,0:0:0:0:
320,158,110458,1,8,0:0:0:0:
318,162,110614,1,8,0:0:0:0:
422,178,110692,1,8,0:0:0:0:
320,158,110771,1,0,0:0:0:0:
394,171,110849,1,8,0:0:0:0:
312,159,110927,1,0,0:0:0:0:
312,159,111005,1,0,0:0:0:0:
437,189,111083,1,8,0:0:0:0:
397,198,111239,1,8,0:0:0:0:
438,194,111396,1,0,0:0:0:0:
438,194,111552,1,0,0:0:0:0:
400,178,111630,1,0,0:0:0:0:
374,170,111708,1,8,0:0:0:0:
405,204,111864,1,0,0:0:0:0:
476,193,112021,1,0,0:0:0:0:
442,266,112099,1,8,0:0:0:0:
460,192,112177,1,0,0:0:0:0:
397,198,112255,1,0,0:0:0:0:
406,181,112333,1,0,0:0:0:0:
395,189,112489,1,8,0:0:0:0:
400,178,112646,1,0,0:0:0:0:
406,181,112724,1,0,0:0:0:0:
406,181,112802,1,0,0:0:0:0:
462,235,112880,1,0,0:0:0:0:
406,181,112958,1,8,0:0:0:0:
449,221,113114,1,0,0:0:0:0:
449,221,113166,1,0,0:0:0:0:
449,221,113218,1,0,0:0:0:0:
350,188,113271,1,8,0:0:0:0:
389,212,113349,1,8,0:0:0:0:
438,166,113427,1,0,0:0:0:0:
360,189,113505,1,8,0:0:0:0:
365,168,113583,1,0,0:0:0:0:
365,168,113661,1,0,0:0:0:0:
325,173,113739,1,8,0:0:0:0:
435,178,113896,1,4,0:0:0:0:
464,176,114208,1,8,0:0:0:0:
438,166,114364,1,8,0:0:0:0:
396,162,114442,1,8,0:0:0:0:
482,200,114521,1,0,0:0:0:0:
472,176,114677,1,0,0:0:0:0:
489,165,114833,1,8,0:0:0:0:
459,189,115146,1,0,0:0:0:0:
463,192,115302,1,0,0:0:0:0:
421,189,115458,1,8,0:0:0:0:
480,169,115614,1,0,0:0:0:0:
462,176,115771,1,8,0:0:0:0:
398,214,115849,1,0,0:0:0:0:
403,189,115927,1,0,0:0:0:0:
354,166,116005,1,0,0:0:0:0:
469,199,116083,1,8,0:0:0:0:
383,202,116239,1,8,0:0:0:0:
468,183,116396,1,0,0:0:0:0:
391,200,116708,1,8,0:0:0:0:
474,157,116864,1,0,0:0:0:0:
474,157,116942,1,0,0:0:0:0:
474,157,117021,1,0,0:0:0:0:
485,183,117177,1,8,0:0:0:0:
463,170,117255,1,0,0:0:0:0:
402,162,117333,1,8,0:0:0:0:
402,162,117489,1,8,0:0:0:0:
385,178,117646,1,0,0:0:0:0:
448,153,117802,1,0,0:0:0:0:
405,173,117958,1,8,0:0:0:0:
463,170,118271,1,0,0:0:0:0:
469,168,118349,1,0,0:0:0:0:
469,168,118427,1,0,0:0:0:0:
469,168,118505,1,0,0:0:0:0:
434,162,118583,1,8,0:0:0:0:
429,162,118739,1,8,0:0:0:0:
424,158,118896,1,0,0:0:0:0:
492,160,119052,1,0,0:0:0:0:
499,178,119208,1,8,0:0:0:0:
496,174,119364,1,8,0:0:0:0:
268,176,119442,1,8,0:0:0:0:
384,170,119521,1,0,0:0:0:0:
480,171,119677,1,0,0:0:0:0:
427,168,119833,1,8,0:0:0:0:
437,171,120146,1,0,0:0:0:0:
458,172,120224,1,0,0:0:0:0:
458,172,120302,1,0,0:0:0:0:
392,188,120458,1,8,0:0:0:0:
410,157,120614,1,0,0:0:0:0:
380,144,120771,1,0,0:0:0:0:
466,164,120849,1,0,0:0:0:0:
422,190,120927,1,0,0:0:0:0:
437,171,121005,1,0,0:0:0:0:
387,181,121083,1,8,0:0:0:0:
492,176,121239,1,8,0:0:0:0:
484,176,121317,1,8,0:0:0:0:
387,162,121396,1,0,0:0:0:0:
503,136,121708,1,8,0:0:0:0:
503,136,121864,1,8,0:0:0:0:
471,175,121942,1,8,0:0:0:0:
400,147,122021,1,0,0:0:0:0:
400,147,122099,1,0,0:0:0:0:
400,147,122177,1,0,0:0:0:0:
438,161,122333,1,0,0:0:0:0:
411,163,122489,1,8,0:0:0:0:
503,178,122646,1,0,0:0:0:0:
480,130,122724,1,0,0:0:0:0:
479,130,122802,1,0,0:0:0:0:
458,167,122958,1,8,0:0:0:0:
494,154,123114,1,0,0:0:0:0:
418,198,123192,1,8,0:0:0:0:
428,202,123271,1,0,0:0:0:0:
480,189,123349,1,0,0:0:0:0:
418,148,123427,1,0,0:0:0:0:
400,161,123583,1,8,0:0:0:0:
400,161,123739,1,8,0:0:0:0:
385,157,123896,1,4,0:0:0:0:
347,189,124208,1,8,0:0:0:0:
347,189,124364,1,8,0:0:0:0:
347,189,124442,1,8,0:0:0:0:
384,168,124521,1,0,0:0:0:0:
384,168,124677,1,0,0:0:0:0:
315,169,124833,1,8,0:0:0:0:
387,184,125146,1,0,0:0:0:0:
351,179,125302,1,0,0:0:0:0:
344,48,125380,1,0,0:0:0:0:
277,152,125458,1,8,0:0:0:0:
348,154,125614,1,0,0:0:0:0:
409,176,125771,1,8,0:0:0:0:
348,154,125849,1,0,0:0:0:0:
358,154,125927,1,0,0:0:0:0:
358,154,126005,1,0,0:0:0:0:
322,167,126083,1,8,0:0:0:0:
407,187,126239,1,8,0:0:0:0:
394,174,126396,1,0,0:0:0:0:
375,161,126708,1,8,0:0:0:0:
440,171,126864,1,0,0:0:0:0:
440,171,126942,1,0,0:0:0:0:
426,169,127021,1,8,0:0:0:0:
396,176,127099,1,0,0:0:0:0:
448,181,127177,1,0,0:0:0:0:
375,137,127333,1,0,0:0:0:0:
445,162,127489,1,8,0:0:0:0:
449,226,127646,1,0,0:0:0:0:
449,226,127802,1,0,0:0:0:0:
449,226,127880,1,0,0:0:0:0:
489,184,127958,1,8,0:0:0:0:
426,184,128114,1,0,0:0:0:0:
320,170,128192,1,0,0:0:0:0:
426,184,128271,1,0,0:0:0:0:
343,164,128349,1,0,0:0:0:0:
408,173,128427,1,0,0:0:0:0:
390,183,128583,1,8,0:0:0:0:
399,151,128739,1,0,0:0:0:0:
399,151,128817,1,0,0:0:0:0:
418,221,128896,1,8,0:0:0:0:
466,153,129208,1,8,0:0:0:0:
341,115,129364,1,8,0:0:0:0:
341,115,129442,1,8,0:0:0:0:
384,171,129521,1,0,0:0:0:0:
432,160,129677,1,0,0:0:0:0:
389,174,129833,1,8,0:0:0:0:
348,129,129989,1,0,0:0:0:0:
348,129,130067,1,0,0:0:0:0:
348,129,130146,1,0,0:0:0:0:
454,158,130302,1,0,0:0:0:0:
392,185,130458,1,8,0:0:0:0:
377,173,130614,1,0,0:0:0:0:
455,203,130692,1,0,0:0:0:0:
356,192,130771,1,8,0:0:0:0:
359,165,130849,1,8,0:0:0:0:
392,185,130927,1,0,0:0:0:0:
346,179,131083,1,8,0:0:0:0:
436,256,131239,1,8,0:0:0:0:
436,216,131317,1,0,0:0:0:0:
495,157,131396,1,0,0:0:0:0:
406,184,131708,1,8,0:0:0:0:
443,178,131864,1,0,0:0:0:0:
418,166,131942,1,8,0:0:0:0:
390,167,132021,1,0,0:0:0:0:
436,157,132099,1,0,0:0:0:0:
374,184,132177,1,0,0:0:0:0:
406,184,132333,1,0,0:0:0:0:
406,184,132489,1,8,0:0:0:0:
405,190,132567,1,8,0:0:0:0:
454,161,132646,1,0,0:0:0:0:
453,163,132802,1,0,0:0:0:0:
453,163,132880,1,0,0:0:0:0:
406,172,132958,1,8,0:0:0:0:
416,189,133114,1,0,0:0:0:0:
470,230,133192,1,0,0:0:0:0:
442,187,133271,1,8,0:0:0:0:
407,169,133349,1,0,0:0:0:0:
417,171,133427,1,8,0:0:0:0:
417,171,133505,1,8,0:0:0:0:
368,175,133583,1,0,0:0:0:0:
368,175,133661,1,0,0:0:0:0:
401,204,133739,1,8,0:0:0:0:
332,203,133896,1,4,0:0:0:0:
472,232,134521,1,8,0:0:0:0:
428,195,135146,1,0,0:0:0:0:
454,173,135458,1,8,0:0:0:0:
426,181,135771,1,0,0:0:0:0:
364,177,136083,1,8,0:0:0:0:
369,193,136396,1,0,0:0:0:0:
337,195,136708,1,8,0:0:0:0:
448,268,137177,1,0,0:0:0:0:
405,168,137489,1,8,0:0:0:0:
389,112,137802,1,0,0:0:0:0:
364,175,137958,1,8,0:0:0:0:
446,216,138427,1,0,0:0:0:0:
434,184,138583,1,8,0:0:0:0:
395,184,138739,1,0,0:0:0:0:
395,184,138896,1,0,0:0:0:0:
423,172,139208,1,8,0:0:0:0:
465,149,139677,1,0,0:0:0:0:
438,215,139833,1,8,0:0:0:0:
404,172,140302,1,0,0:0:0:0:
404,180,140458,1,8,0:0:0:0:
440,224,140927,1,0,0:0:0:0:
360,176,141083,1,8,0:0:0:0:
360,176,141239,1,8,0:0:0:0:
292,184,141396,1,0,0:0:0:0:
292,184,141708,1,8,0:0:0:0:
372,176,142177,1,0,0:0:0:0:
380,196,142489,1,8,0:0:0:0:
416,180,142802,1,0,0:0:0:0:
440,200,142958,1,8,0:0:0:0:
316,168,143427,1,0,0:0:0:0:
404,192,143583,1,8,0:0:0:0:
452,220,143739,1,0,0:0:0:0:
434,184,143896,1,4,0:0:0:0:
344,152,144208,1,0,0:0:0:0:
460,204,144521,1,0,0:0:0:0:
396,180,144833,1,8,0:0:0:0:
460,204,144989,1,0,0:0:0:0:
424,172,145146,1,8,0:0:0:0:
384,160,145458,1,0,0:0:0:0:
384,180,145614,1,8,0:0:0:0:
384,160,145771,1,0,0:0:0:0:
456,188,146083,1,0,0:0:0:0:
364,200,146396,1,8,0:0:0:0:
480,252,146708,1,0,0:0:0:0:
448,192,146864,1,0,0:0:0:0:
432,248,147021,1,0,0:0:0:0:
416,184,147333,1,8,0:0:0:0:
424,224,147646,1,0,0:0:0:0:
444,236,147802,1,0,0:0:0:0:
468,184,147958,1,8,0:0:0:0:
480,248,148114,1,0,0:0:0:0:
396,192,148271,1,8,0:0:0:0:
424,180,148583,1,8,0:0:0:0:
456,160,148739,1,0,0:0:0:0:
364,160,148817,1,0,0:0:0:0:
400,164,148896,1,0,0:0:0:0:
424,196,149052,1,0,0:0:0:0:
472,180,149208,1,8,0:0:0:0:
472,176,149521,1,0,0:0:0:0:
468,176,149677,1,0,0:0:0:0:
372,184,149833,1,8,0:0:0:0:
320,192,149989,1,8,0:0:0:0:
320,192,150067,1,8,0:0:0:0:
448,184,150146,1,0,0:0:0:0:
448,184,150302,1,0,0:0:0:0:
320,160,150458,1,8,0:0:0:0:
368,200,150692,1,0,0:0:0:0:
428,200,150771,1,0,0:0:0:0:
400,184,150927,1,0,0:0:0:0:
364,148,151083,1,8,0:0:0:0:
381,206,151161,1,8,0:0:0:0:
360,160,151239,1,0,0:0:0:0:
360,160,151317,1,0,0:0:0:0:
232,180,151396,1,8,0:0:0:0:
392,232,151552,1,0,0:0:0:0:
428,176,151708,1,8,0:0:0:0:
428,136,151864,1,0,0:0:0:0:
378,148,151942,1,0,0:0:0:0:
280,172,152021,1,0,0:0:0:0:
424,164,152177,1,0,0:0:0:0:
280,164,152333,1,8,0:0:0:0:
408,198,152489,1,0,0:0:0:0:
408,198,152567,1,0,0:0:0:0:
396,184,152646,1,0,0:0:0:0:
416,148,152802,1,0,0:0:0:0:
408,188,152958,1,8,0:0:0:0:
368,168,153114,1,0,0:0:0:0:
464,180,153271,1,8,0:0:0:0:
319,169,153349,1,0,0:0:0:0:
408,168,153427,1,0,0:0:0:0:
408,168,153505,1,0,0:0:0:0:
388,176,153583,1,8,0:0:0:0:
408,160,153739,1,0,0:0:0:0:
464,180,153896,1,8,0:0:0:0:
368,168,153974,1,8,0:0:0:0:
408,160,154052,1,0,0:0:0:0:
408,160,154130,1,0,0:0:0:0:
400,160,154208,1,8,0:0:0:0:
376,188,154286,1,0,0:0:0:0:
384,188,154364,1,0,0:0:0:0:
440,176,154442,1,0,0:0:0:0:
432,168,154521,1,8,0:0:0:0:
372,164,154599,1,8,0:0:0:0:
408,172,154677,1,0,0:0:0:0:
408,172,154755,1,0,0:0:0:0:
400,160,154833,1,8,0:0:0:0:
424,156,154911,1,0,0:0:0:0:
368,168,154989,1,8,0:0:0:0:
368,168,155067,1,8,0:0:0:0:
256,192,155146,12,0,156083,0:0:0:0:
448,160,156239,5,0,0:0:0:0:
448,160,156291,1,0,0:0:0:0:
448,160,156343,1,0,0:0:0:0:
396,144,156396,1,8,0:0:0:0:
399,208,156552,1,0,0:0:0:0:
412,152,156630,1,8,0:0:0:0:
412,152,156708,1,8,0:0:0:0:
444,232,156864,1,8,0:0:0:0:
424,200,156942,1,8,0:0:0:0:
484,184,157021,1,0,0:0:0:0:
444,184,157099,1,8,0:0:0:0:
276,172,157177,1,0,0:0:0:0:
360,200,157255,1,0,0:0:0:0:
400,208,157333,1,8,0:0:0:0:
400,208,157385,1,8,0:0:0:0:
400,208,157437,1,8,0:0:0:0:
400,208,157489,1,8,0:0:0:0:
400,208,157541,1,8,0:0:0:0:
400,208,157593,1,8,0:0:0:0:
392,240,157646,1,0,0:0:0:0:
328,168,157802,1,0,0:0:0:0:
436,172,157880,1,0,0:0:0:0:
276,212,157958,1,8,0:0:0:0:
456,184,158114,1,0,0:0:0:0:
492,168,158271,1,0,0:0:0:0:
492,168,158349,1,0,0:0:0:0:
492,168,158427,1,0,0:0:0:0:
492,168,158505,1,0,0:0:0:0:
416,160,158583,1,8,0:0:0:0:
472,164,158739,1,0,0:0:0:0:
368,176,158896,1,8,0:0:0:0:
425,182,158974,1,0,0:0:0:0:
384,172,159052,1,0,0:0:0:0:
384,172,159130,1,0,0:0:0:0:
324,184,159208,1,8,0:0:0:0:
472,160,159364,1,8,0:0:0:0:
456,184,159442,1,0,0:0:0:0:
436,160,159521,1,8,0:0:0:0:
424,172,159677,1,0,0:0:0:0:
440,176,159833,1,8,0:0:0:0:
456,172,159911,1,8,0:0:0:0:
460,165,159989,1,0,0:0:0:0:
458,164,160067,1,0,0:0:0:0:
428,168,160146,1,8,0:0:0:0:
472,236,160302,1,0,0:0:0:0:
452,168,160380,1,0,0:0:0:0:
308,168,160458,1,8,0:0:0:0:
436,169,160614,1,0,0:0:0:0:
356,176,160771,1,8,0:0:0:0:
326,171,160849,1,0,0:0:0:0:
432,240,160927,1,0,0:0:0:0:
484,168,161005,1,0,0:0:0:0:
405,167,161083,1,8,0:0:0:0:
356,176,161161,1,0,0:0:0:0:
312,180,161239,1,8,0:0:0:0:
308,180,161317,1,8,0:0:0:0:
336,180,161396,1,0,0:0:0:0:
480,216,161552,1,0,0:0:0:0:
401,177,161630,1,0,0:0:0:0:
424,180,161708,1,8,0:0:0:0:
440,188,161864,1,0,0:0:0:0:
360,152,162021,1,8,0:0:0:0:
449,229,162099,1,0,0:0:0:0:
360,152,162177,1,8,0:0:0:0:
460,196,162255,1,0,0:0:0:0:
416,176,162333,1,8,0:0:0:0:
424,180,162411,1,8,0:0:0:0:
464,384,162489,1,0,0:0:0:0:
460,184,162567,1,0,0:0:0:0:
404,164,162646,1,8,0:0:0:0:
388,216,162802,1,0,0:0:0:0:
446,222,162880,1,0,0:0:0:0:
480,164,162958,1,8,0:0:0:0:
432,170,163114,1,0,0:0:0:0:
430,173,163271,1,0,0:0:0:0:
416,176,163349,1,0,0:0:0:0:
475,173,163427,1,0,0:0:0:0:
417,165,163505,1,0,0:0:0:0:
463,192,163583,1,8,0:0:0:0:
419,201,163739,1,0,0:0:0:0:
458,189,163896,1,8,0:0:0:0:
402,166,163974,1,8,0:0:0:0:
391,159,164052,1,0,0:0:0:0:
402,166,164208,1,8,0:0:0:0:
416,176,164364,1,0,0:0:0:0:
417,165,164442,1,0,0:0:0:0:
463,192,164521,1,8,0:0:0:0:
416,186,164599,1,0,0:0:0:0:
416,186,164677,1,0,0:0:0:0:
413,162,164833,1,8,0:0:0:0:
412,184,164911,1,0,0:0:0:0:
256,173,164989,1,8,0:0:0:0:
460,181,165067,1,8,0:0:0:0:
370,165,165146,1,0,0:0:0:0:
426,152,165302,1,0,0:0:0:0:
426,152,165380,1,0,0:0:0:0:
355,185,165458,1,8,0:0:0:0:
376,172,165614,1,8,0:0:0:0:
304,160,165692,1,0,0:0:0:0:
356,168,165771,1,8,0:0:0:0:
480,188,165849,1,8,0:0:0:0:
308,168,165927,1,0,0:0:0:0:
496,216,166005,1,0,0:0:0:0:
327,167,166083,1,8,0:0:0:0:
429,224,166239,1,8,0:0:0:0:
484,199,166396,1,0,0:0:0:0:
485,214,166474,1,0,0:0:0:0:
485,214,166552,1,0,0:0:0:0:
485,214,166630,1,0,0:0:0:0:
380,166,166708,1,8,0:0:0:0:
433,173,166864,1,0,0:0:0:0:
376,189,167021,1,8,0:0:0:0:
379,164,167099,1,8,0:0:0:0:
359,167,167177,1,0,0:0:0:0:
359,167,167255,1,0,0:0:0:0:
304,167,167333,1,8,0:0:0:0:
360,168,167411,1,0,0:0:0:0:
378,154,167489,1,0,0:0:0:0:
423,163,167567,1,0,0:0:0:0:
489,164,167646,1,8,0:0:0:0:
444,152,167802,1,0,0:0:0:0:
368,168,167880,1,0,0:0:0:0:
388,168,167958,1,8,0:0:0:0:
368,168,168114,1,0,0:0:0:0:
420,156,168271,1,0,0:0:0:0:
420,156,168349,1,0,0:0:0:0:
420,156,168427,1,0,0:0:0:0:
420,156,168505,1,0,0:0:0:0:
352,176,168583,1,8,0:0:0:0:
360,148,168739,1,0,0:0:0:0:
392,180,168896,1,8,0:0:0:0:
324,144,168974,1,0,0:0:0:0:
408,156,169052,1,0,0:0:0:0:
440,152,169208,1,8,0:0:0:0:
420,156,169364,1,0,0:0:0:0:
324,144,169442,1,0,0:0:0:0:
356,140,169521,1,8,0:0:0:0:
472,184,169599,1,8,0:0:0:0:
508,144,169677,1,0,0:0:0:0:
384,148,169755,1,0,0:0:0:0:
424,156,169833,1,8,0:0:0:0:
440,172,169989,1,0,0:0:0:0:
396,156,170146,1,8,0:0:0:0:
488,156,170302,1,0,0:0:0:0:
488,156,170380,1,0,0:0:0:0:
424,168,170458,1,8,0:0:0:0:
456,196,170614,1,8,0:0:0:0:
376,168,170692,1,0,0:0:0:0:
468,176,170771,1,8,0:0:0:0:
352,196,170849,1,8,0:0:0:0:
440,172,170927,1,0,0:0:0:0:
432,232,171005,1,0,0:0:0:0:
392,184,171083,1,0,0:0:0:0:
344,188,171239,1,8,0:0:0:0:
476,168,171396,1,0,0:0:0:0:
410,189,171474,1,0,0:0:0:0:
464,168,171552,1,0,0:0:0:0:
464,168,171630,1,0,0:0:0:0:
356,168,171708,1,8,0:0:0:0:
424,184,171864,1,0,0:0:0:0:
444,176,172021,1,8,0:0:0:0:
435,264,172099,1,0,0:0:0:0:
420,168,172177,1,0,0:0:0:0:
420,168,172255,1,0,0:0:0:0:
400,172,172333,1,8,0:0:0:0:
468,177,172411,1,0,0:0:0:0:
400,176,172489,1,8,0:0:0:0:
400,176,172567,1,8,0:0:0:0:
468,177,172646,1,0,0:0:0:0:
442,218,172802,1,0,0:0:0:0:
442,218,172880,1,0,0:0:0:0:
426,168,172958,1,8,0:0:0:0:
352,173,173114,1,8,0:0:0:0:
504,203,173271,1,0,0:0:0:0:
436,200,173349,1,8,0:0:0:0:
400,184,173427,1,0,0:0:0:0:
386,180,173505,1,0,0:0:0:0:
292,178,173583,1,8,0:0:0:0:
465,232,173739,1,0,0:0:0:0:
364,188,173896,1,8,0:0:0:0:
505,210,173974,1,8,0:0:0:0:
418,170,174052,1,0,0:0:0:0:
418,170,174130,1,0,0:0:0:0:
394,168,174208,1,8,0:0:0:0:
384,150,174364,1,0,0:0:0:0:
485,168,174521,1,8,0:0:0:0:
506,162,174599,1,8,0:0:0:0:
410,200,174677,1,0,0:0:0:0:
410,200,174755,1,0,0:0:0:0:
456,164,174833,1,8,0:0:0:0:
363,173,174911,1,0,0:0:0:0:
453,164,174989,1,8,0:0:0:0:
450,162,175067,1,8,0:0:0:0:
321,184,175146,1,0,0:0:0:0:
442,278,175302,1,0,0:0:0:0:
443,264,175380,1,0,0:0:0:0:
341,178,175458,1,8,0:0:0:0:
396,184,175614,1,8,0:0:0:0:
408,172,175692,1,0,0:0:0:0:
416,168,175771,1,8,0:0:0:0:
320,168,175849,1,8,0:0:0:0:
388,156,175927,1,0,0:0:0:0:
460,208,176005,1,0,0:0:0:0:
452,216,176083,1,0,0:0:0:0:
408,165,176239,1,8,0:0:0:0:
472,177,176396,1,0,0:0:0:0:
344,164,176474,1,0,0:0:0:0:
472,177,176552,1,0,0:0:0:0:
472,177,176630,1,0,0:0:0:0:
411,134,176708,1,8,0:0:0:0:
345,158,176864,1,0,0:0:0:0:
345,158,176916,1,0,0:0:0:0:
345,158,176968,1,0,0:0:0:0:
394,152,177021,1,8,0:0:0:0:
288,156,177099,1,8,0:0:0:0:
470,169,177177,1,0,0:0:0:0:
416,150,177255,1,8,0:0:0:0:
390,178,177333,1,0,0:0:0:0:
470,169,177411,1,0,0:0:0:0:
421,192,177489,1,8,0:0:0:0:
341,206,177646,1,4,0:0:0:0:
443,203,177958,1,8,0:0:0:0:
304,176,178114,1,0,0:0:0:0:
304,176,178427,1,0,0:0:0:0:
324,177,178583,1,8,0:0:0:0:
390,177,178739,1,0,0:0:0:0:
422,201,179052,1,8,0:0:0:0:
384,182,179208,1,8,0:0:0:0:
375,185,179364,1,0,0:0:0:0:
412,174,179677,1,8,0:0:0:0:
356,184,179833,1,0,0:0:0:0:
355,183,179911,1,0,0:0:0:0:
442,176,179989,1,8,0:0:0:0:
441,176,180067,1,8,0:0:0:0:
372,175,180146,1,0,0:0:0:0:
446,241,180302,1,8,0:0:0:0:
394,240,180458,1,0,0:0:0:0:
412,174,180614,1,8,0:0:0:0:
408,228,180927,1,0,0:0:0:0:
306,200,181083,1,8,0:0:0:0:
453,162,181239,1,0,0:0:0:0:
453,162,181317,1,0,0:0:0:0:
447,195,181396,1,8,0:0:0:0:
421,146,181552,1,0,0:0:0:0:
340,176,181630,1,8,0:0:0:0:
422,153,181708,1,8,0:0:0:0:
422,153,181786,1,8,0:0:0:0:
422,153,181864,1,8,0:0:0:0:
486,162,182021,1,0,0:0:0:0:
486,162,182099,1,0,0:0:0:0:
363,172,182177,1,8,0:0:0:0:
363,172,182255,1,8,0:0:0:0:
363,172,182333,1,8,0:0:0:0:
476,227,182489,1,8,0:0:0:0:
476,227,182567,1,8,0:0:0:0:
363,172,182646,1,0,0:0:0:0:
330,188,182958,1,8,0:0:0:0:
394,185,183271,1,0,0:0:0:0:
394,184,183427,1,0,0:0:0:0:
394,173,183583,1,8,0:0:0:0:
441,176,183739,1,0,0:0:0:0:
438,176,183896,1,8,0:0:0:0:
344,176,184208,1,0,0:0:0:0:
293,208,184364,1,0,0:0:0:0:
387,175,184521,1,8,0:0:0:0:
334,186,184677,1,0,0:0:0:0:
357,194,184833,1,8,0:0:0:0:
406,189,184911,1,0,0:0:0:0:
357,194,184989,1,8,0:0:0:0:
416,211,185067,1,8,0:0:0:0:
313,203,185146,1,0,0:0:0:0:
387,175,185458,1,0,0:0:0:0:
439,189,185771,1,8,0:0:0:0:
353,175,185927,1,0,0:0:0:0:
353,175,186083,1,0,0:0:0:0:
363,168,186239,1,8,0:0:0:0:
336,210,186317,1,8,0:0:0:0:
279,178,186396,1,0,0:0:0:0:
433,290,186552,1,8,0:0:0:0:
344,194,186708,1,0,0:0:0:0:
344,194,186864,1,0,0:0:0:0:
458,170,187021,1,8,0:0:0:0:
405,145,187099,1,8,0:0:0:0:
412,166,187177,1,0,0:0:0:0:
412,166,187255,1,0,0:0:0:0:
426,178,187333,1,8,0:0:0:0:
387,178,187411,1,0,0:0:0:0:
362,165,187489,1,8,0:0:0:0:
381,147,187646,1,0,0:0:0:0:
423,191,187958,1,8,0:0:0:0:
485,224,188427,1,0,0:0:0:0:
363,179,188583,1,8,0:0:0:0:
472,171,188739,1,0,0:0:0:0:
412,200,189052,1,8,0:0:0:0:
452,160,189208,1,8,0:0:0:0:
380,172,189364,1,0,0:0:0:0:
392,164,189677,1,8,0:0:0:0:
510,169,189833,1,8,0:0:0:0:
400,188,189989,1,8,0:0:0:0:
426,170,190146,1,0,0:0:0:0:
296,160,190302,1,0,0:0:0:0:
428,156,190458,1,8,0:0:0:0:
347,171,190614,1,8,0:0:0:0:
455,177,190927,1,0,0:0:0:0:
422,180,191239,1,8,0:0:0:0:
458,194,191396,1,0,0:0:0:0:
440,176,191552,1,8,0:0:0:0:
440,176,191630,1,8,0:0:0:0:
419,174,191708,1,8,0:0:0:0:
419,174,191786,1,8,0:0:0:0:
419,174,191864,1,8,0:0:0:0:
449,196,192021,1,0,0:0:0:0:
440,176,192099,1,8,0:0:0:0:
440,176,192177,1,8,0:0:0:0:
440,176,192255,1,8,0:0:0:0:
498,178,192333,1,8,0:0:0:0:
356,168,192489,1,8,0:0:0:0:
470,231,192567,1,8,0:0:0:0:
426,201,192646,1,0,0:0:0:0:
415,173,192958,1,8,0:0:0:0:
472,196,193271,1,0,0:0:0:0:
350,158,193427,1,0,0:0:0:0:
368,172,193583,1,8,0:0:0:0:
408,172,193896,1,8,0:0:0:0:
413,146,194052,1,0,0:0:0:0:
378,180,194208,1,8,0:0:0:0:
344,168,194364,1,8,0:0:0:0:
460,192,194521,1,0,0:0:0:0:
433,199,194677,1,0,0:0:0:0:
391,171,194833,1,8,0:0:0:0:
351,155,194989,1,0,0:0:0:0:
351,155,195146,1,0,0:0:0:0:
435,168,195458,1,8,0:0:0:0:
330,168,195614,1,0,0:0:0:0:
321,169,195927,1,0,0:0:0:0:
392,168,196239,1,8,0:0:0:0:
392,168,196552,1,0,0:0:0:0:
357,157,196708,1,8,0:0:0:0:
445,175,196864,1,0,0:0:0:0:
445,175,196942,1,0,0:0:0:0:
400,158,197021,1,8,0:0:0:0:
400,158,197099,1,8,0:0:0:0:
400,158,197177,1,8,0:0:0:0:
423,161,197255,1,0,0:0:0:0:
458,176,197333,1,8,0:0:0:0:
458,176,197411,1,8,0:0:0:0:
388,178,197489,1,0,0:0:0:0:
317,158,197646,1,4,0:0:0:0:
404,176,197958,1,0,0:0:0:0:
360,169,198271,1,8,0:0:0:0:
360,169,198583,1,8,0:0:0:0:
404,176,198896,1,0,0:0:0:0:
389,189,199208,1,8,0:0:0:0:
389,189,199521,1,8,0:0:0:0:
404,166,199833,1,0,0:0:0:0:
469,180,200146,1,8,0:0:0:0:
436,149,200614,1,0,0:0:0:0:
357,173,200771,1,8,0:0:0:0:
364,179,201396,1,0,0:0:0:0:
469,180,202021,1,0,0:0:0:0:
456,173,202333,1,8,0:0:0:0:
456,173,202489,1,8,0:0:0:0:
499,181,202646,1,0,0:0:0:0:
469,180,202958,1,0,0:0:0:0:
459,203,203271,1,0,0:0:0:0:
459,203,203583,1,0,0:0:0:0:
473,195,203896,1,8,0:0:0:0:
466,189,204208,1,0,0:0:0:0:
480,156,204521,1,8,0:0:0:0:
480,156,204833,1,8,0:0:0:0:
399,173,205146,1,0,0:0:0:0:
440,232,205458,1,0,0:0:0:0:
304,200,205614,1,8,0:0:0:0:
409,185,205771,1,8,0:0:0:0:
462,203,206396,1,0,0:0:0:0:
392,190,206708,1,8,0:0:0:0:
367,155,207021,1,0,0:0:0:0:
355,164,207333,1,8,0:0:0:0:
355,164,207489,1,8,0:0:0:0:
367,155,207646,1,0,0:0:0:0:
465,184,207958,1,0,0:0:0:0:
314,185,208271,1,8,0:0:0:0:
314,185,208583,1,8,0:0:0:0:
445,239,208896,1,8,0:0:0:0:
434,193,209208,1,0,0:0:0:0:
394,216,209521,1,8,0:0:0:0:
464,211,209833,1,8,0:0:0:0:
452,304,209989,1,0,0:0:0:0:
318,178,210146,1,0,0:0:0:0:
436,158,211083,1,0,0:0:0:0:
474,168,211396,1,8,0:0:0:0:
451,184,212021,1,0,0:0:0:0:
437,203,212333,1,8,0:0:0:0:
436,203,212489,1,8,0:0:0:0:
362,184,212646,1,0,0:0:0:0:
401,181,213114,1,0,0:0:0:0:
354,180,213271,1,8,0:0:0:0:
426,266,213583,1,0,0:0:0:0:
488,270,214208,1,0,0:0:0:0:
493,205,214521,1,8,0:0:0:0:
493,205,214833,1,8,0:0:0:0:
140,212,215146,2,0,L|172:200,20,31.4999990386963
272,184,217021,1,8,0:0:0:0:
256,192,217646,12,0,220146,0:0:0:0:
415,194,223271,5,0,0:0:0:0:
383,188,223583,1,8,0:0:0:0:
452,193,223896,1,0,0:0:0:0:
441,262,224833,1,0,0:0:0:0:
453,218,225146,1,8,0:0:0:0:
464,248,225771,1,8,0:0:0:0:
385,189,226396,1,0,0:0:0:0:
309,178,226864,1,8,0:0:0:0:
461,232,227021,1,8,0:0:0:0:
405,253,228271,1,0,0:0:0:0:
394,184,228583,1,8,0:0:0:0:
407,209,228896,1,0,0:0:0:0:
434,205,229833,1,0,0:0:0:0:
468,267,230146,1,8,0:0:0:0:
434,155,230771,1,8,0:0:0:0:
394,170,231396,1,0,0:0:0:0:
403,168,231708,1,8,0:0:0:0:
403,168,231864,1,8,0:0:0:0:
138,162,232021,1,0,0:0:0:0:
431,226,233271,1,0,0:0:0:0:
437,200,233583,1,0,0:0:0:0:
331,211,233896,1,8,0:0:0:0:
349,216,234833,1,0,0:0:0:0:
314,195,235146,1,8,0:0:0:0:
434,179,235771,1,8,0:0:0:0:
359,155,236396,1,8,0:0:0:0:
345,218,236864,1,0,0:0:0:0:
345,218,237021,1,0,0:0:0:0:
491,196,238271,1,0,0:0:0:0:
376,181,238583,1,0,0:0:0:0:
365,166,238896,1,8,0:0:0:0:
459,286,239208,1,0,0:0:0:0:
464,192,239364,1,8,0:0:0:0:
404,178,240458,1,8,0:0:0:0:
415,186,240771,1,8,0:0:0:0:
389,178,241083,1,0,0:0:0:0:
260,200,241396,1,8,0:0:0:0:
256,192,241552,12,0,243739,0:0:0:0:
241,191,243896,5,4,0:0:0:0:
389,184,244521,1,8,0:0:0:0:
472,168,245146,1,8,0:0:0:0:
503,173,245771,1,8,0:0:0:0:
325,157,246396,1,0,0:0:0:0:
469,182,247646,1,0,0:0:0:0:
452,196,248271,1,8,0:0:0:0:
444,194,248583,1,8,0:0:0:0:
450,210,248739,1,0,0:0:0:0:
477,191,248896,1,0,0:0:0:0:
389,138,249521,1,8,0:0:0:0:
430,232,250146,1,8,0:0:0:0:
398,218,250771,1,8,0:0:0:0:
464,262,251396,1,0,0:0:0:0:
501,158,252333,1,8,0:0:0:0:
458,162,252646,1,0,0:0:0:0:
324,172,253271,1,8,0:0:0:0:
396,212,253896,1,0,0:0:0:0:
394,216,254208,1,0,0:0:0:0:
396,212,254521,1,0,0:0:0:0:
413,240,254833,1,8,0:0:0:0:
511,186,255146,1,8,0:0:0:0:
464,181,255302,1,0,0:0:0:0:
388,178,255458,1,8,0:0:0:0:
416,177,255771,1,8,0:0:0:0:
355,111,256083,1,0,0:0:0:0:
338,129,256239,1,0,0:0:0:0:
308,183,256396,1,8,0:0:0:0:
445,178,256708,1,0,0:0:0:0:
401,194,256864,1,8,0:0:0:0:
401,194,257021,1,8,0:0:0:0:
423,180,257333,1,0,0:0:0:0:
350,180,257646,1,8,0:0:0:0:
448,180,257802,1,0,0:0:0:0:
408,156,257958,1,8,0:0:0:0:
408,156,258114,1,8,0:0:0:0:
444,132,258271,1,0,0:0:0:0:
458,175,258427,1,0,0:0:0:0:
409,188,258583,1,8,0:0:0:0:
455,291,258896,1,0,0:0:0:0:
455,291,259052,1,0,0:0:0:0:
429,173,259130,1,0,0:0:0:0:
426,239,259208,1,8,0:0:0:0:
391,165,259364,1,0,0:0:0:0:
371,155,259521,1,0,0:0:0:0:
338,161,259599,1,0,0:0:0:0:
380,176,259677,1,0,0:0:0:0:
392,188,259755,1,0,0:0:0:0:
429,173,259833,1,8,0:0:0:0:
371,155,259989,1,0,0:0:0:0:
352,156,260146,1,8,0:0:0:0:
380,176,260224,1,8,0:0:0:0:
338,161,260302,1,0,0:0:0:0:
393,138,260458,1,8,0:0:0:0:
338,161,260614,1,0,0:0:0:0:
338,161,260692,1,0,0:0:0:0:
422,184,260771,1,8,0:0:0:0:
338,161,260849,1,0,0:0:0:0:
484,188,260927,1,0,0:0:0:0:
313,186,261005,1,0,0:0:0:0:
416,192,261083,1,8,0:0:0:0:
432,224,261239,1,0,0:0:0:0:
500,196,261396,1,8,0:0:0:0:
500,216,261474,1,0,0:0:0:0:
500,196,261552,1,0,0:0:0:0:
500,196,261630,1,0,0:0:0:0:
477,188,261708,1,8,0:0:0:0:
415,199,261786,1,0,0:0:0:0:
500,196,261864,1,0,0:0:0:0:
500,196,261942,1,0,0:0:0:0:
500,196,262021,1,0,0:0:0:0:
500,196,262099,1,0,0:0:0:0:
500,196,262177,1,0,0:0:0:0:
500,196,262255,1,0,0:0:0:0:
437,202,262333,1,8,0:0:0:0:
466,176,262411,1,8,0:0:0:0:
500,183,262489,1,0,0:0:0:0:
497,181,262567,1,0,0:0:0:0:
466,176,262646,1,8,0:0:0:0:
448,177,262802,1,0,0:0:0:0:
458,220,262880,1,8,0:0:0:0:
462,215,262958,1,8,0:0:0:0:
477,190,263114,1,8,0:0:0:0:
474,190,263192,1,8,0:0:0:0:
380,186,263271,1,0,0:0:0:0:
400,192,263349,1,8,0:0:0:0:
392,184,263427,1,0,0:0:0:0:
404,152,263505,1,0,0:0:0:0:
448,172,263583,1,8,0:0:0:0:
488,168,263635,1,8,0:0:0:0:
488,168,263687,1,8,0:0:0:0:
488,168,263739,1,8,0:0:0:0:
488,168,263791,1,8,0:0:0:0:
488,168,263843,1,8,0:0:0:0:
392,196,263896,1,0,0:0:0:0:
420,164,264208,1,12,0:0:0:0:
428,192,264364,1,0,0:0:0:0:
428,192,264442,1,0,0:0:0:0:
428,192,264521,1,0,0:0:0:0:
428,192,264677,1,0,0:0:0:0:
284,208,264755,1,0,0:0:0:0:
428,188,264833,1,8,0:0:0:0:
388,192,264989,1,0,0:0:0:0:
440,196,265146,1,8,0:0:0:0:
356,168,265224,1,8,0:0:0:0:
452,212,265302,1,0,0:0:0:0:
452,212,265380,1,0,0:0:0:0:
356,168,265458,1,8,0:0:0:0:
378,194,265614,1,0,0:0:0:0:
460,184,265771,1,8,0:0:0:0:
444,188,265849,1,8,0:0:0:0:
356,168,265927,1,0,0:0:0:0:
356,168,266005,1,0,0:0:0:0:
460,192,266083,1,8,0:0:0:0:
448,172,266161,1,0,0:0:0:0:
448,192,266239,1,8,0:0:0:0:
448,192,266317,1,8,0:0:0:0:
444,172,266396,1,0,0:0:0:0:
432,180,266552,1,0,0:0:0:0:
432,180,266630,1,0,0:0:0:0:
352,216,266708,1,8,0:0:0:0:
452,248,266864,1,8,0:0:0:0:
424,184,266942,1,0,0:0:0:0:
392,176,267021,1,8,0:0:0:0:
392,176,267099,1,8,0:0:0:0:
368,168,267177,1,0,0:0:0:0:
364,168,267255,1,0,0:0:0:0:
364,168,267333,1,0,0:0:0:0:
384,164,267489,1,8,0:0:0:0:
396,168,267567,1,8,0:0:0:0:
448,168,267646,1,0,0:0:0:0:
428,160,267802,1,0,0:0:0:0:
428,160,267880,1,0,0:0:0:0:
440,168,267958,1,8,0:0:0:0:
468,168,268114,1,0,0:0:0:0:
432,241,268271,1,8,0:0:0:0:
360,176,268349,1,0,0:0:0:0:
412,176,268427,1,0,0:0:0:0:
408,172,268505,1,0,0:0:0:0:
380,172,268583,1,8,0:0:0:0:
436,148,268661,1,0,0:0:0:0:
456,168,268739,1,8,0:0:0:0:
324,184,268817,1,8,0:0:0:0:
407,173,268896,1,0,0:0:0:0:
437,186,269052,1,0,0:0:0:0:
437,186,269130,1,0,0:0:0:0:
390,168,269208,1,8,0:0:0:0:
354,157,269364,1,0,0:0:0:0:
348,157,269521,1,0,0:0:0:0:
293,166,269599,1,0,0:0:0:0:
348,157,269677,1,0,0:0:0:0:
348,157,269755,1,0,0:0:0:0:
420,168,269833,1,8,0:0:0:0:
423,116,269989,1,0,0:0:0:0:
435,222,270146,1,8,0:0:0:0:
429,141,270224,1,8,0:0:0:0:
388,155,270302,1,0,0:0:0:0:
396,200,270458,1,8,0:0:0:0:
393,193,270536,1,0,0:0:0:0:
484,195,270614,1,0,0:0:0:0:
484,195,270692,1,0,0:0:0:0:
403,213,270771,1,8,0:0:0:0:
445,136,270927,1,0,0:0:0:0:
388,155,271005,1,0,0:0:0:0:
387,174,271083,1,8,0:0:0:0:
456,215,271161,1,8,0:0:0:0:
389,162,271239,1,0,0:0:0:0:
389,162,271317,1,0,0:0:0:0:
319,176,271396,1,8,0:0:0:0:
447,200,271552,1,0,0:0:0:0:
348,189,271630,1,0,0:0:0:0:
345,191,271708,1,8,0:0:0:0:
397,173,271864,1,8,0:0:0:0:
436,186,271942,1,0,0:0:0:0:
443,182,272021,1,8,0:0:0:0:
397,173,272099,1,8,0:0:0:0:
449,176,272177,1,0,0:0:0:0:
449,176,272255,1,0,0:0:0:0:
384,176,272333,1,8,0:0:0:0:
397,173,272489,1,8,0:0:0:0:
428,228,272646,1,0,0:0:0:0:
428,228,272724,1,0,0:0:0:0:
428,228,272802,1,0,0:0:0:0:
428,228,272880,1,0,0:0:0:0:
468,184,272958,1,8,0:0:0:0:
408,184,273114,1,0,0:0:0:0:
384,172,273192,1,0,0:0:0:0:
440,168,273271,1,8,0:0:0:0:
384,176,273349,1,0,0:0:0:0:
468,184,273427,1,8,0:0:0:0:
468,184,273505,1,8,0:0:0:0:
432,168,273583,1,0,0:0:0:0:
432,168,273661,1,0,0:0:0:0:
436,196,273739,1,8,0:0:0:0:
372,168,273817,1,0,0:0:0:0:
392,184,273896,1,8,0:0:0:0:
484,232,274052,1,0,0:0:0:0:
468,240,274130,1,0,0:0:0:0:
424,180,274208,1,8,0:0:0:0:
364,172,274364,1,0,0:0:0:0:
344,200,274521,1,0,0:0:0:0:
440,216,274599,1,0,0:0:0:0:
440,216,274677,1,0,0:0:0:0:
440,216,274755,1,0,0:0:0:0:
408,160,274833,1,8,0:0:0:0:
364,172,274989,1,0,0:0:0:0:
424,200,275067,1,0,0:0:0:0:
456,172,275146,1,8,0:0:0:0:
328,172,275224,1,8,0:0:0:0:
476,172,275302,1,0,0:0:0:0:
396,168,275380,1,0,0:0:0:0:
392,192,275458,1,8,0:0:0:0:
388,192,275614,1,8,0:0:0:0:
372,144,275692,1,0,0:0:0:0:
432,172,275771,1,8,0:0:0:0:
424,176,275927,1,0,0:0:0:0:
456,172,276083,1,8,0:0:0:0:
456,172,276161,1,8,0:0:0:0:
404,172,276239,1,0,0:0:0:0:
396,168,276317,1,0,0:0:0:0:
468,188,276396,1,8,0:0:0:0:
484,260,276552,1,0,0:0:0:0:
376,188,276630,1,0,0:0:0:0:
328,184,276708,1,8,0:0:0:0:
328,184,276864,1,8,0:0:0:0:
376,176,276942,1,0,0:0:0:0:
368,184,277021,1,8,0:0:0:0:
356,204,277099,1,8,0:0:0:0:
408,184,277177,1,0,0:0:0:0:
408,184,277255,1,0,0:0:0:0:
408,184,277333,1,0,0:0:0:0:
380,176,277489,1,8,0:0:0:0:
452,140,277567,1,8,0:0:0:0:
424,176,277646,1,0,0:0:0:0:
416,192,277802,1,0,0:0:0:0:
372,156,277880,1,0,0:0:0:0:
336,192,277958,1,8,0:0:0:0:
408,172,278114,1,0,0:0:0:0:
408,172,278192,1,0,0:0:0:0:
428,192,278271,1,8,0:0:0:0:
400,188,278349,1,0,0:0:0:0:
376,188,278427,1,0,0:0:0:0:
376,188,278505,1,0,0:0:0:0:
420,180,278583,1,8,0:0:0:0:
348,224,278661,1,0,0:0:0:0:
420,180,278739,1,8,0:0:0:0:
420,180,278817,1,8,0:0:0:0:
320,220,278896,1,0,0:0:0:0:
440,256,279052,1,0,0:0:0:0:
428,200,279130,1,0,0:0:0:0:
408,184,279208,1,8,0:0:0:0:
216,180,279364,1,8,0:0:0:0:
436,200,279521,1,0,0:0:0:0:
388,185,279599,1,8,0:0:0:0:
405,220,279677,1,0,0:0:0:0:
402,174,279755,1,0,0:0:0:0:
400,180,279833,1,8,0:0:0:0:
416,173,279989,1,0,0:0:0:0:
436,183,280146,1,8,0:0:0:0:
462,219,280224,1,8,0:0:0:0:
442,201,280302,1,0,0:0:0:0:
478,179,280380,1,0,0:0:0:0:
452,189,280458,1,8,0:0:0:0:
418,189,280614,1,0,0:0:0:0:
327,177,280771,1,8,0:0:0:0:
436,204,280849,1,0,0:0:0:0:
467,146,280927,1,0,0:0:0:0:
467,146,281005,1,0,0:0:0:0:
469,176,281083,1,8,0:0:0:0:
485,175,281161,1,0,0:0:0:0:
345,173,281239,1,8,0:0:0:0:
342,170,281317,1,8,0:0:0:0:
424,178,281396,1,0,0:0:0:0:
490,191,281552,1,0,0:0:0:0:
453,182,281630,1,0,0:0:0:0:
428,153,281708,1,8,0:0:0:0:
383,205,281864,1,8,0:0:0:0:
437,191,281942,1,0,0:0:0:0:
398,201,282021,1,8,0:0:0:0:
401,184,282099,1,8,0:0:0:0:
366,171,282177,1,0,0:0:0:0:
366,171,282255,1,0,0:0:0:0:
364,192,282333,1,0,0:0:0:0:
408,176,282489,1,8,0:0:0:0:
336,192,282567,1,8,0:0:0:0:
410,168,282646,1,0,0:0:0:0:
460,225,282802,1,0,0:0:0:0:
397,178,282880,1,0,0:0:0:0:
348,193,282958,1,8,0:0:0:0:
434,216,283114,1,0,0:0:0:0:
433,216,283166,1,0,0:0:0:0:
433,216,283218,1,0,0:0:0:0:
455,185,283271,1,8,0:0:0:0:
384,160,283349,1,8,0:0:0:0:
456,192,283427,1,0,0:0:0:0:
376,184,283505,1,8,0:0:0:0:
401,173,283583,1,0,0:0:0:0:
401,173,283661,1,0,0:0:0:0:
256,180,283739,1,8,0:0:0:0:
425,199,283896,1,4,0:0:0:0:
460,131,284052,1,0,0:0:0:0:
341,176,284130,1,8,0:0:0:0:
340,176,284208,1,8,0:0:0:0:
386,182,284364,1,0,0:0:0:0:
419,163,284442,1,8,0:0:0:0:
435,235,284521,1,8,0:0:0:0:
419,180,284599,1,8,0:0:0:0:
455,167,284677,1,0,0:0:0:0:
414,173,284755,1,0,0:0:0:0:
401,183,284833,1,8,0:0:0:0:
320,173,284911,1,0,0:0:0:0:
401,183,284989,1,8,0:0:0:0:
401,183,285067,1,8,0:0:0:0:
320,173,285146,1,0,0:0:0:0:
416,240,285302,1,0,0:0:0:0:
414,164,285380,1,0,0:0:0:0:
421,191,285458,1,8,0:0:0:0:
430,211,285614,1,8,0:0:0:0:
435,200,285771,1,0,0:0:0:0:
355,162,285849,1,0,0:0:0:0:
435,200,285927,1,0,0:0:0:0:
368,172,286005,1,0,0:0:0:0:
409,179,286083,1,8,0:0:0:0:
378,173,286161,1,0,0:0:0:0:
289,176,286239,1,8,0:0:0:0:
289,176,286317,1,8,0:0:0:0:
312,178,286396,1,0,0:0:0:0:
422,162,286552,1,0,0:0:0:0:
412,236,286630,1,0,0:0:0:0:
364,156,286708,1,8,0:0:0:0:
467,240,286864,1,8,0:0:0:0:
372,202,286942,1,0,0:0:0:0:
466,189,287021,1,8,0:0:0:0:
508,182,287099,1,8,0:0:0:0:
443,222,287177,1,0,0:0:0:0:
296,168,287255,1,8,0:0:0:0:
332,168,287333,1,0,0:0:0:0:
412,220,287489,1,0,0:0:0:0:
391,202,287541,1,8,0:0:0:0:
382,195,287593,1,8,0:0:0:0:
408,181,287646,1,0,0:0:0:0:
438,230,287802,1,0,0:0:0:0:
372,178,287958,1,8,0:0:0:0:
403,189,288036,1,8,0:0:0:0:
325,193,288114,1,0,0:0:0:0:
325,193,288192,1,0,0:0:0:0:
426,211,288271,1,8,0:0:0:0:
426,211,288349,1,8,0:0:0:0:
426,211,288427,1,8,0:0:0:0:
392,172,288505,1,0,0:0:0:0:
456,180,288583,1,8,0:0:0:0:
400,208,288661,1,0,0:0:0:0:
456,180,288739,1,8,0:0:0:0:
456,180,288817,1,8,0:0:0:0:
400,208,288896,1,0,0:0:0:0:
376,232,289052,1,0,0:0:0:0:
448,232,289130,1,8,0:0:0:0:
448,232,289208,1,8,0:0:0:0:
468,192,289364,1,8,0:0:0:0:
408,208,289442,1,0,0:0:0:0:
468,192,289521,1,8,0:0:0:0:
456,180,289599,1,8,0:0:0:0:
388,188,289677,1,0,0:0:0:0:
453,221,289755,1,0,0:0:0:0:
451,166,289833,1,8,0:0:0:0:
440,184,289911,1,0,0:0:0:0:
292,188,289989,1,8,0:0:0:0:
292,188,290067,1,8,0:0:0:0:
324,180,290146,1,0,0:0:0:0:
475,214,290302,1,0,0:0:0:0:
475,214,290380,1,0,0:0:0:0:
442,164,290458,1,8,0:0:0:0:
475,239,290614,1,8,0:0:0:0:
401,194,290771,1,0,0:0:0:0:
400,194,290849,1,0,0:0:0:0:
427,171,290927,1,8,0:0:0:0:
393,180,291005,1,0,0:0:0:0:
426,172,291083,1,8,0:0:0:0:
469,185,291161,1,0,0:0:0:0:
442,164,291239,1,8,0:0:0:0:
442,164,291317,1,8,0:0:0:0:
488,178,291396,1,0,0:0:0:0:
455,189,291552,1,0,0:0:0:0:
434,192,291708,1,8,0:0:0:0:
500,209,291786,1,8,0:0:0:0:
387,178,291864,1,0,0:0:0:0:
393,180,291942,1,0,0:0:0:0:
408,172,292021,1,8,0:0:0:0:
422,200,292177,1,0,0:0:0:0:
481,189,292333,1,8,0:0:0:0:
477,188,292411,1,0,0:0:0:0:
450,183,292489,1,0,0:0:0:0:
448,184,292567,1,0,0:0:0:0:
459,186,292646,1,8,0:0:0:0:
448,172,292724,1,0,0:0:0:0:
412,187,292802,1,8,0:0:0:0:
442,209,292880,1,0,0:0:0:0:
401,185,292958,1,8,0:0:0:0:
431,178,293036,1,8,0:0:0:0:
444,180,293114,1,0,0:0:0:0:
447,177,293192,1,0,0:0:0:0:
468,168,293271,1,8,0:0:0:0:
488,167,293349,1,0,0:0:0:0:
432,162,293427,1,8,0:0:0:0:
432,162,293505,1,8,0:0:0:0:
453,172,293583,1,0,0:0:0:0:
446,172,293661,1,0,0:0:0:0:
414,160,293739,1,8,0:0:0:0:
436,141,293817,1,8,0:0:0:0:
444,175,293896,1,0,0:0:0:0:
455,163,294052,1,0,0:0:0:0:
436,152,294130,1,8,0:0:0:0:
424,166,294208,1,8,0:0:0:0:
457,200,294364,1,8,0:0:0:0:
452,217,294442,1,0,0:0:0:0:
455,169,294521,1,8,0:0:0:0:
444,154,294599,1,8,0:0:0:0:
454,169,294677,1,8,0:0:0:0:
498,169,294755,1,0,0:0:0:0:
444,154,294833,1,8,0:0:0:0:
389,171,294911,1,8,0:0:0:0:
450,225,294989,1,0,0:0:0:0:
389,171,295067,1,0,0:0:0:0:
388,171,295146,1,8,0:0:0:0:
392,240,295302,1,0,0:0:0:0:
373,205,295380,1,0,0:0:0:0:
371,213,295458,1,8,0:0:0:0:
453,170,295614,1,0,0:0:0:0:
424,185,295771,1,8,0:0:0:0:
424,185,295849,1,8,0:0:0:0:
367,182,295927,1,0,0:0:0:0:
362,183,296005,1,0,0:0:0:0:
328,188,296083,1,8,0:0:0:0:
362,183,296161,1,0,0:0:0:0:
334,184,296239,1,8,0:0:0:0:
334,184,296317,1,8,0:0:0:0:
409,206,296396,1,0,0:0:0:0:
469,179,296552,1,0,0:0:0:0:
465,180,296630,1,0,0:0:0:0:
350,179,296708,1,8,0:0:0:0:
490,187,296864,1,8,0:0:0:0:
462,164,296942,1,0,0:0:0:0:
422,170,297021,1,8,0:0:0:0:
422,170,297099,1,8,0:0:0:0:
348,168,297177,1,0,0:0:0:0:
348,168,297255,1,0,0:0:0:0:
348,168,297333,1,0,0:0:0:0:
410,173,297489,1,8,0:0:0:0:
468,160,297541,1,0,0:0:0:0:
468,160,297593,1,0,0:0:0:0:
300,200,297646,1,8,0:0:0:0:
458,228,297802,1,0,0:0:0:0:
422,182,297958,1,8,0:0:0:0:
438,191,298036,1,8,0:0:0:0:
462,183,298114,1,0,0:0:0:0:
462,183,298192,1,0,0:0:0:0:
455,177,298271,1,8,0:0:0:0:
464,172,298349,1,8,0:0:0:0:
397,168,298427,1,8,0:0:0:0:
469,166,298505,1,0,0:0:0:0:
330,160,298583,1,8,0:0:0:0:
471,166,298661,1,0,0:0:0:0:
399,168,298739,1,8,0:0:0:0:
429,165,298817,1,8,0:0:0:0:
355,170,298896,1,0,0:0:0:0:
426,232,299052,1,0,0:0:0:0:
312,172,299130,1,8,0:0:0:0:
455,168,299208,1,8,0:0:0:0:
458,227,299286,1,0,0:0:0:0:
453,184,299364,1,8,0:0:0:0:
373,167,299442,1,0,0:0:0:0:
404,178,299521,1,8,0:0:0:0:
445,184,299599,1,8,0:0:0:0:
328,164,299677,1,8,0:0:0:0:
431,162,299755,1,0,0:0:0:0:
412,178,299833,1,8,0:0:0:0:
308,184,299911,1,8,0:0:0:0:
360,176,299989,1,0,0:0:0:0:
461,175,300067,1,0,0:0:0:0:
421,180,300146,1,8,0:0:0:0:
417,166,300302,1,0,0:0:0:0:
346,173,300458,1,8,0:0:0:0:
284,160,300536,1,0,0:0:0:0:
429,162,300614,1,0,0:0:0:0:
429,162,300692,1,0,0:0:0:0:
439,168,300771,1,8,0:0:0:0:
400,180,300849,1,8,0:0:0:0:
437,169,300927,1,8,0:0:0:0:
368,200,301005,1,0,0:0:0:0:
308,192,301083,1,8,0:0:0:0:
340,184,301161,1,0,0:0:0:0:
424,176,301239,1,8,0:0:0:0:
424,176,301317,1,8,0:0:0:0:
432,184,301396,1,0,0:0:0:0:
466,250,301552,1,0,0:0:0:0:
466,250,301630,1,0,0:0:0:0:
437,162,301708,1,8,0:0:0:0:
396,193,301786,1,0,0:0:0:0:
348,157,301864,1,0,0:0:0:0:
475,202,301942,1,8,0:0:0:0:
430,170,302021,1,0,0:0:0:0:
385,166,302099,1,8,0:0:0:0:
385,166,302177,1,8,0:0:0:0:
385,166,302255,1,8,0:0:0:0:
432,190,302333,1,0,0:0:0:0:
432,190,302411,1,0,0:0:0:0:
448,207,302489,1,8,0:0:0:0:
412,182,302567,1,0,0:0:0:0:
418,210,302646,1,8,0:0:0:0:
418,210,302724,1,8,0:0:0:0:
365,173,302802,1,0,0:0:0:0:
365,173,302880,1,0,0:0:0:0:
384,197,302958,1,8,0:0:0:0:
409,204,303114,1,8,0:0:0:0:
384,279,303166,1,0,0:0:0:0:
384,279,303218,1,0,0:0:0:0:
369,184,303271,1,8,0:0:0:0:
389,236,303349,1,8,0:0:0:0:
365,210,303427,1,0,0:0:0:0:
389,236,303505,1,8,0:0:0:0:
389,236,303583,1,8,0:0:0:0:
365,210,303661,1,0,0:0:0:0:
389,236,303739,1,8,0:0:0:0:
388,180,303896,1,4,0:0:0:0:
453,221,304208,1,8,0:0:0:0:
488,194,304677,1,0,0:0:0:0:
506,173,304833,1,8,0:0:0:0:
396,173,304989,1,0,0:0:0:0:
480,184,305302,1,8,0:0:0:0:
473,184,305458,1,8,0:0:0:0:
369,157,305614,1,0,0:0:0:0:
428,180,305927,1,8,0:0:0:0:
437,185,306083,1,0,0:0:0:0:
422,203,306239,1,8,0:0:0:0:
397,197,306396,1,0,0:0:0:0:
397,197,306552,1,0,0:0:0:0:
361,180,306708,1,8,0:0:0:0:
361,180,306864,1,8,0:0:0:0:
408,235,307333,1,0,0:0:0:0:
344,208,307489,1,8,0:0:0:0:
410,125,307646,1,8,0:0:0:0:
509,168,307802,1,0,0:0:0:0:
412,153,307958,1,0,0:0:0:0:
375,205,308114,1,8,0:0:0:0:
340,182,308271,1,8,0:0:0:0:
459,184,308427,1,0,0:0:0:0:
351,214,308583,1,8,0:0:0:0:
434,233,308896,1,0,0:0:0:0:
304,188,309208,1,0,0:0:0:0:
304,188,309364,1,0,0:0:0:0:
341,242,309521,1,8,0:0:0:0:
444,178,309677,1,0,0:0:0:0:
444,178,309833,1,0,0:0:0:0:
429,187,309989,1,8,0:0:0:0:
487,184,310146,1,8,0:0:0:0:
459,180,310302,1,0,0:0:0:0:
452,181,310458,1,0,0:0:0:0:
456,240,310614,1,8,0:0:0:0:
465,221,310927,1,0,0:0:0:0:
459,189,311083,1,8,0:0:0:0:
402,188,311239,1,8,0:0:0:0:
467,200,311396,1,0,0:0:0:0:
459,189,311552,1,8,0:0:0:0:
418,186,311708,1,0,0:0:0:0:
462,208,311864,1,8,0:0:0:0:
382,176,312177,1,8,0:0:0:0:
428,216,312489,1,0,0:0:0:0:
466,265,312802,1,8,0:0:0:0:
417,196,312958,1,8,0:0:0:0:
332,198,313114,1,0,0:0:0:0:
407,234,313271,1,8,0:0:0:0:
453,205,313427,1,0,0:0:0:0:
448,192,313583,1,0,0:0:0:0:
448,192,313661,1,0,0:0:0:0:
404,220,313739,1,8,0:0:0:0:
404,220,313817,1,8,0:0:0:0:
408,231,313896,1,8,0:0:0:0:
426,170,314052,1,0,0:0:0:0:
426,170,314208,1,0,0:0:0:0:
394,173,314364,1,8,0:0:0:0:
208,178,314677,1,0,0:0:0:0:
461,236,314989,1,0,0:0:0:0:
392,168,315146,1,0,0:0:0:0:
314,201,315302,1,8,0:0:0:0:
470,225,315458,1,0,0:0:0:0:
470,225,315614,1,0,0:0:0:0:
470,225,315771,1,0,0:0:0:0:
409,181,315927,1,8,0:0:0:0:
410,189,316083,1,0,0:0:0:0:
329,215,316239,1,8,0:0:0:0:
370,247,316396,1,0,0:0:0:0:
364,172,316552,1,0,0:0:0:0:
328,184,316708,1,8,0:0:0:0:
308,196,316864,1,8,0:0:0:0:
448,181,317333,1,0,0:0:0:0:
454,189,317489,1,8,0:0:0:0:
464,186,317646,1,8,0:0:0:0:
435,182,317802,1,0,0:0:0:0:
359,182,317958,1,8,0:0:0:0:
352,220,318114,1,8,0:0:0:0:
448,280,318271,1,8,0:0:0:0:
376,176,318427,1,0,0:0:0:0:
352,220,318583,1,8,0:0:0:0:
445,221,318896,1,8,0:0:0:0:
445,221,319052,1,8,0:0:0:0:
485,214,319208,1,8,0:0:0:0:
384,202,319364,1,0,0:0:0:0:
384,202,319521,1,0,0:0:0:0:
469,204,319833,1,0,0:0:0:0:
364,136,319989,1,8,0:0:0:0:
484,184,320146,1,8,0:0:0:0:
458,268,320302,1,0,0:0:0:0:
458,268,320458,1,0,0:0:0:0:
486,216,320614,1,8,0:0:0:0:
422,192,320771,1,0,0:0:0:0:
422,192,320927,1,0,0:0:0:0:
472,190,321083,1,8,0:0:0:0:
440,216,321239,1,0,0:0:0:0:
256,172,321396,1,8,0:0:0:0:
284,176,321552,1,0,0:0:0:0:
456,168,321708,1,0,0:0:0:0:
388,168,321864,1,8,0:0:0:0:
408,196,322177,1,8,0:0:0:0:
408,196,322333,1,8,0:0:0:0:
496,160,322489,1,0,0:0:0:0:
400,184,322646,1,8,0:0:0:0:
468,176,323114,1,0,0:0:0:0:
468,176,323192,1,0,0:0:0:0:
468,176,323271,1,8,0:0:0:0:
468,176,323349,1,8,0:0:0:0:
432,184,323427,1,8,0:0:0:0:
444,172,323505,1,0,0:0:0:0:
412,172,323583,1,8,0:0:0:0:
432,184,323661,1,8,0:0:0:0:
376,152,323739,1,0,0:0:0:0:
284,232,323817,1,0,0:0:0:0:
256,192,323896,12,0,334677,0:0:0:0:
