osu file format v14

[General]
AudioFilename: audio.mp3
AudioLeadIn: 0
PreviewTime: 224343
Countdown: 0
SampleSet: Soft
StackLeniency: 0.2
Mode: 0
LetterboxInBreaks: 0
EpilepsyWarning: 1
WidescreenStoryboard: 1

[Editor]
DistanceSpacing: 1.3
BeatDivisor: 4
GridSize: 32
TimelineZoom: 2.1

[Metadata]
Title:Petals
TitleUnicode:Petals
Artist:Nanahira
ArtistUnicode:ななひら
Creator:b00
Version:Fluorescence
Source:
Tags:nathanial292, secretale confetto, cametek, camellia, かめりあ
BeatmapID:1541347
BeatmapSetID:707371

[Difficulty]
HPDrainRate:6
CircleSize:4.4
OverallDifficulty:8.4
ApproachRate:9.4
SliderMultiplier:2
SliderTickRate:1

[Events]
//Background and Video events
0,0,"1_hatsune_miku.jpg",0,0
//Break Periods
2,181418,188178
//Storyboard Layer 0 (Background)
//Storyboard Layer 1 (Fail)
//Storyboard Layer 2 (Pass)
//Storyboard Layer 3 (Foreground)
//Storyboard Sound Samples

[TimingPoints]
-1282,312.5,4,2,0,40,1,0
1218,-200,4,2,0,40,0,0
27389,-200,4,2,0,5,0,0
27468,-200,4,2,0,40,0,0
29968,-142.857142857143,4,2,0,40,0,0
30514,-125,4,2,0,40,0,0
31218,-200,4,2,0,40,0,0
34186,-200,4,2,0,40,0,0
38718,-166.666666666667,4,2,0,50,0,0
41218,-200,4,2,0,40,0,0
43718,-166.666666666667,4,2,0,50,0,0
44108,-166.666666666667,4,2,0,5,0,0
44186,-166.666666666667,4,2,0,40,0,0
44655,-200,4,2,0,40,0,0
46686,-142.857142857143,4,2,0,40,0,0
47468,-200,4,2,0,40,0,0
48718,-166.666666666667,4,2,0,40,0,0
49968,-166.666666666667,4,2,2,50,0,0
50593,-166.666666666667,4,2,0,40,0,0
51843,-200,4,2,0,40,0,0
59968,-133.333333333334,4,2,0,50,0,0
60593,-133.333333333334,4,2,2,50,0,0
60905,-200,4,2,0,40,0,0
69186,-158.730158730159,4,2,0,40,0,0
71218,-166.666666666667,4,2,0,40,0,0
74968,-166.666666666667,4,2,2,40,0,0
75749,-142.857142857143,4,2,0,40,0,0
77468,-125,4,2,0,40,0,0
78718,-142.857142857143,4,2,2,40,0,0
78952,-142.857142857143,4,2,0,40,0,0
79343,-125,4,2,0,40,0,0
79655,-142.857142857143,4,2,0,40,0,0
79968,-142.857142857143,4,2,2,40,0,0
80436,-142.857142857143,4,2,0,40,0,0
81218,-133.333333333333,4,2,0,40,0,0
83718,-133.333333333333,4,2,2,40,0,0
83874,-133.333333333333,4,2,3,40,0,0
84655,-181.818181818181,4,2,3,40,0,0
84968,-133.333333333333,4,2,3,50,0,0
85280,-128.205128205128,4,2,3,50,0,0
85593,-123.456790123457,4,2,3,50,0,0
85905,-200,4,2,0,50,0,0
86218,-119.047619047619,4,2,3,50,0,0
86530,-114.942528735632,4,2,3,50,0,0
86843,-111.111111111111,4,2,3,50,0,0
87155,-200,4,2,0,50,0,0
87468,-107.52688172043,4,2,3,50,0,0
87780,-104.166666666667,4,2,3,50,0,0
88093,-101.010101010101,4,2,3,50,0,0
88405,-200,4,2,0,50,0,0
88718,-98.0392156862745,4,2,3,50,0,0
89030,-95.2380952380952,4,2,3,50,0,0
89343,-92.5925925925926,4,2,3,50,0,0
89655,-200,4,2,3,50,0,0
89968,-100,4,2,3,50,0,0
92468,-100,4,2,3,50,0,0
93093,-125,4,2,3,60,0,0
94186,-100,4,2,3,60,0,0
94343,-66.6666666666667,4,2,3,60,0,0
94499,-50,4,2,3,60,0,0
94655,-333.333333333333,4,2,3,60,0,0
94968,-83.3333333333333,4,2,2,60,0,1
95593,-83.3333333333333,4,2,0,60,0,1
95749,-83.3333333333333,4,2,3,60,0,1
95905,-83.3333333333333,4,2,2,60,0,1
96218,-83.3333333333333,4,2,0,60,0,1
96374,-83.3333333333333,4,2,3,60,0,1
96530,-83.3333333333333,4,2,2,60,0,1
96843,-83.3333333333333,4,2,0,60,0,1
96999,-83.3333333333333,4,2,3,60,0,1
97155,-83.3333333333333,4,2,2,60,0,1
97311,-83.3333333333333,4,2,3,60,0,1
97468,-83.3333333333333,4,2,3,60,0,1
97780,-83.3333333333333,4,2,2,60,0,1
98718,-83.3333333333333,4,2,2,60,0,1
98874,-83.3333333333333,4,2,3,60,0,1
99030,-83.3333333333333,4,2,2,60,0,1
99343,-83.3333333333333,4,2,2,60,0,1
99655,-83.3333333333333,4,2,2,60,0,1
99733,-83.3333333333333,4,2,3,60,0,1
99968,-83.3333333333333,4,2,2,60,0,1
100280,-83.3333333333333,4,2,2,60,0,1
100436,-83.3333333333333,4,2,3,60,0,1
100593,-83.3333333333333,4,2,2,60,0,1
100749,-83.3333333333333,4,2,3,60,0,1
100905,-83.3333333333333,4,2,2,60,0,1
101218,-83.3333333333333,4,2,2,60,0,1
101530,-83.3333333333333,4,2,2,60,0,1
101686,-83.3333333333333,4,2,3,60,0,1
101843,-83.3333333333333,4,2,2,60,0,1
101999,-83.3333333333333,4,2,3,60,0,1
102155,-83.3333333333333,4,2,2,60,0,1
102311,-83.3333333333333,4,2,3,60,0,1
102468,-83.3333333333333,4,2,2,60,0,1
102780,-83.3333333333333,4,2,2,60,0,1
102936,-83.3333333333333,4,2,3,60,0,1
103249,-83.3333333333333,4,2,3,60,0,1
103405,-83.3333333333333,4,2,2,60,0,1
103561,-83.3333333333334,4,2,4,60,0,1
103639,-142.857142857143,4,2,3,60,0,1
103718,-142.857142857143,4,2,2,60,0,1
104030,-142.857142857143,4,2,2,60,0,1
104186,-142.857142857143,4,2,3,60,0,1
104655,-142.857142857143,4,2,2,60,0,1
104733,-142.857142857143,4,2,3,60,0,1
104968,-83.3333333333334,4,2,2,60,0,1
105280,-83.3333333333334,4,2,2,60,0,1
105593,-83.3333333333334,4,2,2,60,0,1
105749,-83.3333333333334,4,2,3,60,0,1
105905,-83.3333333333334,4,2,2,60,0,1
106218,-83.3333333333334,4,2,2,60,0,1
106374,-83.3333333333334,4,2,3,60,0,1
106530,-83.3333333333334,4,2,2,60,0,1
106843,-83.3333333333334,4,2,2,60,0,1
106999,-83.3333333333334,4,2,3,60,0,1
107155,-83.3333333333334,4,2,2,60,0,1
107233,-83.3333333333334,4,2,3,60,0,1
107468,-83.3333333333333,4,2,2,60,0,1
107780,-83.3333333333333,4,2,2,60,0,1
108249,-83.3333333333333,4,2,3,60,0,1
108405,-83.3333333333333,4,2,2,60,0,1
108561,-83.3333333333333,4,2,4,60,0,1
108718,-83.3333333333333,4,2,3,60,0,1
109030,-83.3333333333333,4,2,2,60,0,1
109186,-83.3333333333333,4,2,3,60,0,1
109343,-83.3333333333333,4,2,2,60,0,1
109499,-83.3333333333333,4,2,3,60,0,1
109655,-83.3333333333333,4,2,2,60,0,1
109733,-83.3333333333333,4,2,3,60,0,1
109968,-83.3333333333333,4,2,2,60,0,1
110593,-83.3333333333333,4,2,2,60,0,1
111218,-83.3333333333333,4,2,2,60,0,1
111374,-83.3333333333333,4,2,3,60,0,1
111530,-83.3333333333333,4,2,2,60,0,1
111686,-83.3333333333333,4,2,3,60,0,1
111843,-83.3333333333333,4,2,2,60,0,1
111999,-83.3333333333333,4,2,3,60,0,1
112155,-83.3333333333333,4,2,2,60,0,1
112468,-83.3333333333333,4,2,2,60,0,1
113093,-83.3333333333333,4,2,3,60,0,1
113405,-90.9090909090909,4,2,2,60,0,1
113718,-90.9090909090909,4,2,3,60,0,1
114030,-90.9090909090909,4,2,2,60,0,1
114186,-90.9090909090909,4,2,3,60,0,1
114343,-90.9090909090909,4,2,2,60,0,1
114499,-111.111111111111,4,2,3,60,0,1
114577,-111.111111111111,4,2,2,60,0,1
114733,-111.111111111111,4,2,3,60,0,1
114811,-111.111111111111,4,2,2,60,0,1
114968,-111.111111111111,4,2,3,60,0,0
115436,-90.9090909090909,4,2,0,60,0,0
115905,-111.111111111111,4,2,4,60,0,0
116218,-90.9090909090908,4,2,0,60,0,0
116530,-90.9090909090908,4,2,4,60,0,0
117468,-83.3333333333333,4,2,4,60,0,0
118093,-83.3333333333333,4,2,0,60,0,0
118249,-83.3333333333333,4,2,3,60,0,0
118405,-83.3333333333333,4,2,0,60,0,0
118561,-83.3333333333333,4,2,4,60,0,0
118874,-83.3333333333333,4,2,3,60,0,0
119030,-100,4,2,4,60,0,0
119499,-100,4,2,3,60,0,0
119655,-111.111111111111,4,2,3,60,0,0
119968,-100,4,2,4,60,0,0
120436,-111.111111111111,4,2,4,60,0,0
121218,-111.111111111111,4,2,2,60,0,0
121374,-111.111111111111,4,2,3,60,0,0
121530,-111.111111111111,4,2,4,60,0,0
121999,-111.111111111111,4,2,3,60,0,0
122155,-111.111111111111,4,2,4,60,0,0
122468,-99.9999999999999,4,2,3,60,0,0
122780,-99.9999999999999,4,2,4,60,0,0
123249,-99.9999999999999,4,2,3,60,0,0
123561,-99.9999999999999,4,2,4,60,0,0
123718,-99.9999999999999,4,2,3,60,0,0
124030,-99.9999999999999,4,2,4,60,0,0
124343,-99.9999999999999,4,2,3,60,0,0
124655,-90.9090909090909,4,2,4,60,0,0
124811,-90.9090909090909,4,2,3,60,0,0
124968,-83.3333333333333,4,2,2,60,0,0
125436,-90.9090909090909,4,2,4,60,0,0
125749,-83.3333333333333,4,2,3,60,0,0
125905,-100,4,2,4,60,0,0
126374,-83.3333333333333,4,2,3,60,0,0
126530,-111.111111111111,4,2,4,60,0,0
126999,-111.111111111111,4,2,3,60,0,0
127155,-111.111111111111,4,2,4,60,0,0
127468,-111.111111111111,4,2,3,60,0,0
127780,-111.111111111111,4,2,4,60,0,0
128249,-111.111111111111,4,2,3,60,0,0
128561,-142.857142857143,4,2,4,60,0,0
128874,-111.111111111111,4,2,3,60,0,0
129030,-111.111111111111,4,2,4,60,0,0
129343,-111.111111111111,4,2,4,60,0,0
129499,-111.111111111111,4,2,3,60,0,0
129811,-111.111111111111,4,2,4,60,0,0
129968,-111.111111111111,4,2,2,60,0,0
130436,-111.111111111111,4,2,4,60,0,0
131218,-111.111111111111,4,2,3,60,0,0
131530,-111.111111111111,4,2,4,60,0,0
131999,-111.111111111111,4,2,3,60,0,0
132155,-111.111111111111,4,2,4,60,0,0
132468,-90.9090909090908,4,2,0,60,0,0
132780,-90.9090909090908,4,2,4,60,0,0
132936,-125,4,2,0,60,0,0
133249,-100,4,2,3,60,0,0
134030,-100,4,2,4,60,0,0
134499,-100,4,2,3,60,0,0
134655,-100,4,2,2,60,0,0
134968,-200,4,2,3,60,0,0
136530,-200,4,2,4,50,0,0
141218,-166.666666666667,4,2,4,50,0,0
144343,-166.666666666667,4,2,2,50,0,0
144499,-166.666666666667,4,2,4,50,0,0
144968,-166.666666666667,4,2,3,60,0,0
146218,-142.857142857143,4,2,3,60,0,0
147468,-125,4,2,3,60,0,0
148718,-111.111111111111,4,2,3,60,0,0
149968,-111.111111111111,4,2,4,60,0,0
150436,-111.111111111111,4,2,4,60,0,0
150749,-111.111111111111,4,2,4,60,0,0
151218,-111.111111111111,4,2,2,60,0,0
151530,-111.111111111111,4,2,4,60,0,0
152468,-111.111111111111,4,2,3,60,0,0
155593,-142.857142857143,4,2,3,60,0,0
156218,-142.857142857143,4,2,2,60,0,0
157468,-125,4,2,0,60,0,0
157936,-100,4,2,0,60,0,0
158093,-66.6666666666667,4,2,0,60,0,0
158249,-50,4,2,0,60,0,0
158405,-58.8235294117647,4,2,3,60,0,0
158718,-333.333333333333,4,2,3,60,0,1
159030,-58.8235294117647,4,2,2,60,0,1
159343,-83.3333333333333,4,2,2,60,0,1
159499,-83.3333333333333,4,2,3,60,0,1
159655,-83.3333333333333,4,2,2,60,0,1
159968,-83.3333333333333,4,2,0,60,0,1
160280,-83.3333333333333,4,2,2,60,0,1
160593,-83.3333333333333,4,2,3,60,0,1
160749,-83.3333333333333,4,2,3,60,0,1
160905,-83.3333333333333,4,2,2,60,0,1
161061,-83.3333333333333,4,2,3,60,0,1
161218,-83.3333333333333,4,2,3,60,0,1
161530,-83.3333333333333,4,2,2,60,0,1
161686,-83.3333333333333,4,2,0,60,0,1
161999,-83.3333333333333,4,2,3,60,0,1
162155,-83.3333333333333,4,2,2,60,0,1
162468,-125,4,2,3,60,0,1
162780,-83.3333333333333,4,2,2,60,0,1
162936,-83.3333333333333,4,2,3,60,0,1
163093,-83.3333333333333,4,2,0,60,0,1
163327,-83.3333333333333,4,2,3,60,0,1
163405,-83.3333333333333,4,2,2,60,0,1
163483,-83.3333333333333,4,2,3,60,0,1
163718,-66.6666666666667,4,2,2,60,0,1
164030,-83.3333333333333,4,2,2,60,0,1
164499,-83.3333333333333,4,2,3,60,0,1
164655,-83.3333333333333,4,2,2,60,0,1
164968,-83.3333333333333,4,2,0,60,0,1
165124,-83.3333333333333,4,2,3,60,0,1
165280,-83.3333333333333,4,2,2,60,0,1
165749,-83.3333333333333,4,2,3,60,0,1
165905,-83.3333333333333,4,2,2,60,0,1
166218,-83.3333333333333,4,2,3,60,0,1
166530,-83.3333333333333,4,2,2,60,0,1
166843,-83.3333333333333,4,2,3,60,0,1
166999,-83.3333333333333,4,2,3,60,0,1
167155,-83.3333333333333,4,2,2,60,0,1
167311,-83.3333333333333,4,2,0,60,0,1
167468,-83.3333333333333,4,2,2,60,0,1
167624,-83.3333333333333,4,2,3,60,0,1
167780,-83.3333333333333,4,2,2,60,0,1
168093,-83.3333333333333,4,2,3,60,0,1
168405,-83.3333333333333,4,2,2,60,0,1
168561,-83.3333333333333,4,2,3,60,0,1
169030,-83.3333333333333,4,2,2,60,0,1
169186,-83.3333333333333,4,2,3,60,0,1
169655,-83.3333333333333,4,2,2,60,0,1
169968,-83.3333333333333,4,2,0,60,0,1
170280,-83.3333333333333,4,2,2,60,0,1
170436,-83.3333333333333,4,2,3,60,0,1
170749,-83.3333333333333,4,2,2,60,0,1
171843,-83.3333333333333,4,2,3,60,0,1
172155,-83.3333333333333,4,2,2,60,0,1
172624,-83.3333333333333,4,2,3,60,0,1
172780,-83.3333333333333,4,2,2,60,0,1
173093,-83.3333333333333,4,2,3,60,0,1
173405,-83.3333333333333,4,2,2,60,0,1
173718,-83.3333333333333,4,2,3,60,0,1
174030,-83.3333333333333,4,2,2,60,0,1
174186,-83.3333333333333,4,2,0,60,0,1
174499,-83.3333333333333,4,2,3,60,0,1
174655,-83.3333333333333,4,2,2,60,0,1
174968,-83.3333333333333,4,2,0,60,0,1
175280,-83.3333333333333,4,2,2,60,0,1
175358,-83.3333333333333,4,2,3,60,0,1
175593,-83.3333333333333,4,2,0,60,0,1
175905,-83.3333333333333,4,2,2,60,0,1
176218,-83.3333333333333,4,2,3,60,0,1
176530,-83.3333333333333,4,2,2,60,0,1
176686,-83.3333333333333,4,2,3,60,0,1
177155,-83.3333333333333,4,2,2,60,0,1
177311,-83.3333333333333,4,2,3,60,0,1
177936,-83.3333333333333,4,2,2,60,0,1
178093,-111.111111111111,4,2,4,60,0,1
178171,-111.111111111111,4,2,3,60,0,1
178327,-111.111111111111,4,2,4,60,0,1
178405,-111.111111111111,4,2,3,60,0,1
178561,-111.111111111111,4,2,4,60,0,1
178639,-111.111111111111,4,2,3,60,0,1
178718,-111.111111111111,4,2,3,60,0,0
188718,-200,4,2,4,60,0,0
189499,-200,4,2,4,60,0,0
189968,-200,4,2,4,60,0,0
190749,-200,4,2,2,60,0,0
190905,-200,4,2,4,60,0,0
191218,-166.666666666667,4,2,2,60,0,0
191530,-166.666666666667,4,2,4,60,0,0
191999,-166.666666666667,4,2,4,60,0,0
192780,-166.666666666667,4,2,4,60,0,0
193405,-166.666666666667,4,2,4,60,0,0
193718,-153.846153846154,4,2,3,60,0,0
194030,-153.846153846154,4,2,4,60,0,0
194655,-153.846153846154,4,2,4,60,0,0
195280,-153.846153846154,4,2,4,60,0,0
195593,-153.846153846154,4,2,2,60,0,0
195905,-153.846153846154,4,2,4,60,0,0
196218,-153.846153846154,4,2,3,60,0,0
196530,-153.846153846154,4,2,4,60,0,0
197311,-153.846153846154,4,2,4,60,0,0
197624,-153.846153846154,4,2,3,60,0,0
197780,-153.846153846154,4,2,4,60,0,0
199030,-153.846153846154,4,2,4,50,0,0
201218,-200,4,2,4,60,0,0
201843,-166.666666666667,4,2,4,60,0,0
203405,-166.666666666667,4,2,3,60,0,0
204030,-166.666666666667,4,2,4,60,0,0
208405,-166.666666666667,4,2,3,60,0,0
209030,-166.666666666667,4,2,4,60,0,0
212468,-200,4,2,4,60,0,0
213405,-200,4,2,3,60,0,0
214030,-200,4,2,4,60,0,0
216218,-500,4,2,4,40,0,0
228093,-333.333333333333,4,2,4,40,0,0
228718,-333.333333333333,4,2,2,40,0,0
229343,-333.333333333333,4,2,4,40,0,0
233718,-333.333333333333,4,2,2,40,0,0
233874,-333.333333333333,4,2,4,40,0,0
234968,-500,4,2,4,40,0,0
242468,-285.714285714286,4,2,4,40,0,0
243718,-250,4,2,4,40,0,0
244264,-142.857142857143,4,2,0,40,0,0
244577,-111.111111111111,4,2,0,40,0,0
244968,-200,4,2,3,40,0,0
245593,-142.857142857143,4,2,4,50,0,0
247468,-200,4,2,2,50,0,0
248718,-142.857142857143,4,2,2,50,0,0
249968,-142.857142857143,4,2,4,50,0,0
250593,-200,4,2,4,50,0,0
252468,-142.857142857143,4,2,4,50,0,0
253405,-142.857142857143,4,2,2,50,0,0
254030,-142.857142857143,4,2,4,50,0,0
254968,-142.857142857143,4,2,3,50,0,0
256218,-142.857142857143,4,2,2,60,0,0
256530,-142.857142857143,4,2,3,60,0,0
258718,-142.857142857143,4,2,2,60,0,0
259030,-142.857142857143,4,2,3,60,0,0
262468,-100,4,2,3,60,0,0
264343,-100,4,2,2,60,0,0
264499,-100,4,2,4,60,0,0
264655,-66.6666666666667,4,2,3,60,0,0
264968,-500,4,2,3,60,0,0
265280,-58.8235294117647,4,2,2,60,0,1
265593,-83.3333333333333,4,2,2,60,0,1
265749,-83.3333333333333,4,2,3,60,0,1
265905,-83.3333333333333,4,2,2,60,0,1
266218,-83.3333333333333,4,2,4,60,0,1
266374,-83.3333333333333,4,2,3,60,0,1
266530,-83.3333333333333,4,2,2,60,0,1
266843,-83.3333333333333,4,2,3,60,0,1
267155,-83.3333333333333,4,2,2,60,0,1
267468,-83.3333333333333,4,2,3,60,0,1
267780,-83.3333333333333,4,2,2,60,0,1
267936,-83.3333333333333,4,2,0,60,0,1
268405,-83.3333333333333,4,2,2,60,0,1
268718,-83.3333333333333,4,2,2,60,0,1
269343,-83.3333333333333,4,2,3,60,0,1
269655,-83.3333333333333,4,2,2,60,0,1
269968,-83.3333333333333,4,2,3,60,0,1
270280,-83.3333333333333,4,2,2,60,0,1
270436,-83.3333333333333,4,2,3,60,0,1
270905,-83.3333333333333,4,2,2,60,0,1
271218,-83.3333333333333,4,2,4,60,0,1
271530,-83.3333333333333,4,2,2,60,0,1
271686,-83.3333333333333,4,2,3,60,0,1
272155,-83.3333333333333,4,2,2,60,0,1
272624,-83.3333333333333,4,2,3,60,0,1
272780,-83.3333333333333,4,2,2,60,0,1
272936,-83.3333333333333,4,2,4,60,0,1
273405,-83.3333333333333,4,2,2,60,0,1
273561,-83.3333333333333,4,2,3,60,0,1
274030,-83.3333333333333,4,2,2,60,0,1
274186,-83.3333333333333,4,2,3,60,0,1
274655,-83.3333333333333,4,2,2,60,0,1
274811,-83.3333333333333,4,2,3,60,0,1
274968,-83.3333333333333,4,2,2,60,0,1
275514,-83.3333333333333,4,2,3,60,0,1
275905,-83.3333333333333,4,2,2,60,0,1
276218,-83.3333333333333,4,2,4,60,0,1
276374,-83.3333333333333,4,2,3,60,0,1
276530,-83.3333333333333,4,2,2,60,0,1
276686,-83.3333333333333,4,2,3,60,0,1
276843,-83.3333333333333,4,2,4,60,0,1
277077,-83.3333333333333,4,2,3,60,0,1
277155,-83.3333333333333,4,2,2,60,0,1
277311,-83.3333333333333,4,2,3,60,0,1
277468,-83.3333333333333,4,2,3,60,0,1
277780,-83.3333333333333,4,2,2,60,0,1
277936,-83.3333333333333,4,2,3,60,0,1
278405,-83.3333333333333,4,2,2,60,0,1
278561,-83.3333333333333,4,2,3,60,0,1
278718,-83.3333333333333,4,2,2,60,0,1
278874,-83.3333333333333,4,2,3,60,0,1
279030,-83.3333333333333,4,2,2,60,0,1
279343,-83.3333333333333,4,2,3,60,0,1
279655,-83.3333333333333,4,2,2,60,0,1
279733,-83.3333333333333,4,2,3,60,0,1
279968,-83.3333333333333,4,2,2,60,0,1
280124,-83.3333333333333,4,2,3,60,0,1
280280,-83.3333333333333,4,2,2,60,0,1
280436,-83.3333333333333,4,2,4,60,0,1
280749,-83.3333333333333,4,2,3,60,0,1
280905,-83.3333333333333,4,2,2,60,0,1
281374,-83.3333333333333,4,2,3,60,0,1
281530,-83.3333333333333,4,2,2,60,0,1
282468,-83.3333333333333,4,2,3,60,0,1
282780,-83.3333333333333,4,2,2,60,0,1
283093,-83.3333333333333,4,2,4,60,0,1
283249,-83.3333333333333,4,2,3,60,0,1
283405,-83.3333333333333,4,2,2,60,0,1
283718,-83.3333333333333,4,2,2,60,0,0
283874,-83.3333333333333,4,2,3,60,0,0
284030,-83.3333333333333,4,2,2,60,0,0
284186,-83.3333333333333,4,2,3,60,0,0
284655,-83.3333333333333,4,2,2,60,0,0
284733,-83.3333333333333,4,2,3,60,0,0
284968,-100,4,2,2,60,0,1
285124,-100,4,2,3,60,0,1
285280,-100,4,2,2,60,0,1
285593,-100,4,2,4,60,0,1
285905,-100,4,2,2,60,0,1
286218,-100,4,2,4,60,0,1
286530,-100,4,2,2,60,0,1
286843,-100,4,2,4,60,0,1
287155,-100,4,2,2,60,0,1
287311,-100,4,2,3,60,0,1
287780,-100,4,2,2,60,0,1
288718,-100,4,2,4,60,0,1
288874,-100,4,2,3,60,0,1
289030,-111.111111111111,4,2,2,50,0,1
289108,-111.111111111111,4,2,3,50,0,1
289343,-90.9090909090909,4,2,3,50,0,1
289655,-90.9090909090909,4,2,2,50,0,1
289733,-90.9090909090909,4,2,3,50,0,1
289968,-90.9090909090909,4,2,3,50,0,1
290280,-90.9090909090909,4,2,2,60,0,1
290593,-90.9090909090909,4,2,4,60,0,1
290749,-90.9090909090909,4,2,3,60,0,1
290905,-90.9090909090909,4,2,2,60,0,1
291218,-90.9090909090909,4,2,4,60,0,1
291530,-90.9090909090909,4,2,2,60,0,1
291843,-90.9090909090909,4,2,3,60,0,1
292155,-90.9090909090909,4,2,2,60,0,1
292233,-90.9090909090909,4,2,3,60,0,1
292468,-90.9090909090909,4,2,2,60,0,1
292624,-90.9090909090909,4,2,3,60,0,1
292780,-90.9090909090909,4,2,2,60,0,1
292936,-90.9090909090909,4,2,3,60,0,1
293093,-90.9090909090909,4,2,2,60,0,1
293249,-90.9090909090909,4,2,3,60,0,1
293405,-90.9090909090909,4,2,2,60,0,1
293483,-90.9090909090909,4,2,3,50,0,1
294030,-90.9090909090909,4,2,2,60,0,1
294108,-90.9090909090909,4,2,3,50,0,1
294655,-90.9090909090909,4,2,2,60,0,1
295436,-90.9090909090909,4,2,3,60,0,1
295749,-90.9090909090909,4,2,3,60,0,1
295905,-90.9090909090909,4,2,2,60,0,1
296843,-90.9090909090909,4,2,3,60,0,1
297155,-90.9090909090909,4,2,2,60,0,1
297233,-90.9090909090909,4,2,3,50,0,1
297468,-100,4,2,3,60,0,1
297780,-100,4,2,2,60,0,1
297936,-100,4,2,3,60,0,1
298561,-100,4,2,2,60,0,1
298718,-100,4,2,3,50,0,1
299030,-100,4,2,2,50,0,1
299108,-100,4,2,3,50,0,1
299655,-100,4,2,4,50,0,1
299968,-90.9090909090909,4,2,3,60,0,1
300280,-90.9090909090909,4,2,2,60,0,1
300593,-90.9090909090909,4,2,3,50,0,1
300905,-90.9090909090909,4,2,2,50,0,1
300983,-90.9090909090909,4,2,3,50,0,1
301218,-100,4,2,2,60,0,1
301843,-100,4,2,3,50,0,1
302155,-100,4,2,2,60,0,1
303093,-100,4,2,3,50,0,1
303405,-100,4,2,2,50,0,1
303483,-100,4,2,3,50,0,1
303718,-100,4,2,2,50,0,1
303874,-100,4,2,3,50,0,1
304030,-83.3333333333333,4,2,2,60,0,1
304343,-83.3333333333333,4,2,2,60,0,1
304733,-83.3333333333333,4,2,3,60,0,1
304811,-83.3333333333333,4,2,2,60,0,1
304889,-83.3333333333333,4,2,3,60,0,1
304968,-200,4,2,2,60,0,0
309968,-200,4,2,2,40,0,0
311139,-200,4,2,2,5,0,0
311218,-142.857142857143,4,2,2,60,0,0
311764,-200,4,2,2,5,0,0
311843,-500,4,2,2,60,0,0
312389,-500,4,2,2,5,0,0
312468,-200,4,2,2,60,0,0
314968,-222.222222222222,4,2,2,60,0,0
318718,-222.222222222222,4,2,2,60,0,0
320593,-222.222222222222,4,2,2,60,0,0
321139,-222.222222222222,4,2,2,5,0,0
321218,-222.222222222222,4,2,2,60,0,0
321764,-222.222222222222,4,2,2,5,0,0
321843,-222.222222222222,4,2,2,60,0,0
322389,-222.222222222222,4,2,2,5,0,0
322468,-166.666666666667,4,2,2,60,0,0
323718,-153.846153846154,4,2,2,60,0,0

[Colours]
Combo1 : 255,62,158
Combo2 : 128,128,255
Combo3 : 255,128,192
Combo4 : 0,111,164
Combo5 : 145,219,255

[HitObjects]
62,126,11218,6,0,B|135:138|170:117|204:46|204:46|244:98|269:201|163:220,1,400,2|2,0:0|0:0,0:0:0:0:
395,56,13093,2,0,B|347:84|296:51|296:51|247:24|187:55,1,200,2|2,0:0|0:0,0:0:0:0:
242,140,14968,6,0,P|224:290|157:155,1,400,2|2,0:0|0:0,0:0:0:0:
211,212,16843,6,0,P|310:203|347:107,1,200,2|2,0:0|0:0,0:0:0:0:
211,212,18093,6,0,P|254:297|349:302,1,200,2|2,0:0|0:0,0:0:0:0:
34,194,19811,5,2,0:0:0:0:
34,194,19889,1,2,0:0:0:0:
34,194,19968,2,0,P|87:166|217:222,1,200,2|2,0:0|0:0,0:0:0:0:
485,275,21061,5,0,0:0:0:0:
485,275,21139,1,0,0:0:0:0:
485,275,21218,2,0,B|382:337|310:240|310:240|235:342|132:282,1,400,2|2,0:0|0:0,0:0:0:0:
306,143,23093,2,0,L|310:255,1,100,2|0,0:0|0:0,0:0:0:0:
312,340,23561,5,2,0:0:0:0:
312,340,23639,1,2,0:0:0:0:
312,340,23718,2,0,P|249:327|216:236,2,150,0|2|0,0:0|0:0|0:0,0:0:0:0:
213,255,24968,6,0,B|171:234|114:261|114:261|66:286|24:259|24:259|54:206|25:147,1,300,2|0,0:0|0:0,0:0:0:0:
213,255,26218,5,2,0:0:0:0:
368,220,26843,6,0,P|269:211|210:259,1,175,2|0,0:0|0:0,0:0:0:0:
212,254,27468,6,0,P|193:195|215:101,1,150,2|0,0:0|0:0,0:0:0:0:
212,254,28093,1,2,0:0:0:0:
212,254,28249,2,0,P|164:267|118:251,1,100,0|2,0:0|0:0,0:0:0:0:
368,220,28718,6,0,P|440:238|366:282,1,200,2|2,0:0|0:0,0:0:0:0:
212,254,29655,1,2,0:0:0:0:
43,346,29968,6,0,P|112:307|118:248,1,139.999995727539,2|0,0:0|0:0,0:0:0:0:
128,154,30436,5,0,0:0:0:0:
143,140,30514,1,0,0:0:0:0:
162,134,30592,1,0,0:0:0:0:
182,133,30670,1,0,0:0:0:0:
200,138,30748,1,0,0:0:0:0:
212,142,30827,1,0,0:0:0:0:
225,150,30905,2,0,P|261:165|321:147,1,80
398,228,31218,6,0,L|399:124,1,100,2|2,0:0|0:0,0:0:0:0:
399,46,31686,2,0,B|323:88|278:42|276:45|276:50|218:13|151:60,1,250,2|0,0:0|0:0,0:0:0:0:
399,46,32780,5,2,0:0:0:0:
400,137,33093,1,2,0:0:0:0:
398,228,33405,1,2,0:0:0:0:
195,202,33718,6,0,P|159:196|126:206,1,50,2|0,0:0|0:0,0:0:0:0:
32,205,34030,1,2,0:0:0:0:
32,205,34186,2,0,P|24:155|51:99,1,100,2|0,0:0|0:0,0:0:0:0:
130,61,34655,2,0,P|184:74|238:53,1,100,2|0,0:0|0:0,0:0:0:0:
226,62,35905,2,0,P|223:87|224:112,1,50,2|0,0:0|0:0,0:0:0:0:
258,192,36218,6,0,P|278:178|294:159,1,50,2|2,0:0|0:0,0:0:0:0:
315,67,36530,1,2,0:0:0:0:
315,67,36686,2,0,P|382:120|378:195,1,150,2|2,0:0|0:0,0:0:0:0:
385,180,37468,5,2,0:0:0:0:
276,280,38093,1,2,0:0:0:0:
276,280,38718,6,0,B|205:270|205:270|137:288|137:288|50:241|50:241|192:200,1,359.999989013672,2|0,0:0|0:0,0:0:0:0:
276,280,39968,6,0,B|347:270|347:270|415:288|415:288|502:241|502:241|360:200,1,359.999989013672,2|0,0:0|0:0,0:0:0:0:
276,280,41218,6,0,L|279:181,1,100,2|2,0:0|0:0,0:0:0:0:
279,78,41686,2,0,P|285:179|224:110,1,250,2|0,0:0|0:0,0:0:0:0:
279,78,42780,6,0,L|347:69,1,50,2|0,0:0|0:0,0:0:0:0:
411,139,43093,2,0,L|467:142,1,50,2|0,0:0|0:0,0:0:0:0:
328,185,43405,2,0,L|265:178,1,50,2|0,0:0|0:0,0:0:0:0:
148,172,43718,6,0,B|127:207|146:237|146:237|171:276|137:320,1,149.999995422363,2|2,0:0|0:0,0:0:0:0:
142,312,44186,2,0,L|280:300,1,119.999996337891,2|0,0:0|0:0,0:0:0:0:
247,176,44655,6,0,L|148:172,1,100,2|2,0:0|0:0,0:0:0:0:
148,172,45905,2,0,P|123:176|83:190,1,50,2|0,0:0|0:0,0:0:0:0:
247,176,46218,6,0,P|276:174|314:153,1,50,2|0,0:0|0:0,0:0:0:0:
380,104,46530,1,2,0:0:0:0:
380,104,46686,2,0,B|386:263|386:263|425:231,1,209.999993591309,2|2,0:0|0:0,0:0:0:0:
295,246,47468,6,0,L|285:32,1,200,2|2,0:0|0:0,0:0:0:0:
295,246,48718,6,0,P|239:371|332:300,1,359.999989013672,2|2,0:0|0:0,0:0:0:0:
264,307,49968,5,4,0:0:0:0:
262,94,50593,5,2,0:0:0:0:
262,165,50749,1,2,0:0:0:0:
262,236,50905,1,2,0:0:0:0:
264,307,51061,1,2,0:0:0:0:
266,379,51218,5,2,0:0:0:0:
425,187,51843,6,0,P|331:162|260:224,1,200,2|2,0:0|0:0,0:0:0:0:
259,224,52780,2,0,P|289:214|316:212,1,50,2|0,0:0|0:0,0:0:0:0:
425,187,53093,2,0,P|400:190|375:189,1,50,2|0,0:0|0:0,0:0:0:0:
312,86,53405,2,0,P|312:117|319:143,1,50,2|0,0:0|0:0,0:0:0:0:
447,280,53718,6,0,B|468:218|423:187|423:187|466:145|444:100,1,200,2|0,0:0|0:0,0:0:0:0:
347,276,54655,6,0,L|447:280,1,100,2|2,0:0|0:0,0:0:0:0:
347,276,55593,5,2,0:0:0:0:
272,273,55749,1,2,0:0:0:0:
197,270,55905,1,2,0:0:0:0:
121,276,56061,1,2,0:0:0:0:
121,276,56139,1,2,0:0:0:0:
121,276,56218,6,0,B|82:203|133:133|133:133|152:193,1,200,2|2,0:0|0:0,0:0:0:0:
147,178,57468,6,0,L|267:170,1,100,2|2,0:0|0:0,0:0:0:0:
292,152,58093,2,0,P|269:163|246:171,1,50,2|0,0:0|0:0,0:0:0:0:
195,279,58405,2,0,P|217:268|241:259,1,50,2|0,0:0|0:0,0:0:0:0:
401,210,58718,6,0,P|471:253|388:264,1,200,2|0,0:0|0:0,0:0:0:0:
238,227,59655,2,0,L|243:162,1,50,2|0,0:0|0:0,0:0:0:0:
145,279,59968,6,0,B|217:305|217:305|332:258|332:258|217:220,1,300.000011444092,2|4,0:0|0:0,0:0:0:0:
146,200,60905,2,0,L|85:177,1,50,2|0,0:0|0:0,0:0:0:0:
237,226,61218,6,0,P|346:231|243:287,1,300,2|2,0:0|0:0,0:0:0:0:
419,184,62468,6,0,L|425:296,1,100,2|0,0:0|0:0,0:0:0:0:
432,379,62936,1,2,0:0:0:0:
373,202,63405,2,0,L|434:179,1,50,2|0,0:0|0:0,0:0:0:0:
281,228,63718,6,0,P|172:233|275:291,1,300,2|2,0:0|0:0,0:0:0:0:
102,180,64968,6,0,L|96:292,1,100,2|0,0:0|0:0,0:0:0:0:
89,378,65436,1,2,0:0:0:0:
102,180,65905,1,2,0:0:0:0:
176,178,66061,1,2,0:0:0:0:
255,177,66218,6,0,P|240:131|187:100,1,100,2|2,0:0|0:0,0:0:0:0:
255,177,66686,2,0,B|244:240|299:266|299:266|359:234|357:123|321:115|310:97|310:97|341:107|364:118|406:96,1,400,2|2,0:0|0:0,0:0:0:0:
294,264,68405,1,2,0:0:0:0:
219,264,68561,1,2,0:0:0:0:
141,263,68718,6,0,P|154:220|221:190,1,100,2|2,0:0|0:0,0:0:0:0:
302,59,69186,6,0,B|330:101|302:148|302:148|483:200|399:389|342:391|250:387|213:337,1,503.999984619141,2|2,0:0|0:0,0:0:0:0:
474,265,70593,6,0,P|384:240|294:263,1,188.999994232178,2|0,0:0|0:0,0:0:0:0:
144,313,71218,6,0,P|83:273|153:252,1,179.999994506836,2|0,0:0|0:0,0:0:0:0:
293,263,71843,1,2,0:0:0:0:
151,250,71999,2,0,P|146:197|209:150,1,119.999996337891,2|0,0:0|0:0,0:0:0:0:
274,154,72389,1,2,0:0:0:0:
294,162,72468,6,0,B|329:158|367:170|367:170|347:122|359:88|359:88|387:33|341:-12,1,239.999992675781,2|2,0:0|0:0,0:0:0:0:
366,169,73249,2,0,L|367:245,1,59.9999981689454,2|0,0:0|0:0,0:0:0:0:
369,344,73561,1,2,0:0:0:0:
256,192,73639,12,0,74811,0:0:0:0:
76,79,74968,6,0,P|44:142|97:233,1,179.999994506836,4|2,0:0|0:0,0:0:0:0:
197,147,75593,2,0,P|167:143|137:148,1,59.9999981689454,0|2,0:0|0:0,0:0:0:0:
184,313,75905,2,0,P|175:276|180:234,1,69.9999978637696,2|0,0:0|0:0,0:0:0:0:
262,85,76218,6,0,P|286:150|266:216,1,139.999995727539,2|2,0:0|0:0,0:0:0:0:
184,313,76686,1,0,0:0:0:0:
184,313,76843,2,0,P|216:343|325:320,1,139.999995727539,2|2,0:0|0:0,0:0:0:0:
383,282,77311,1,0,0:0:0:0:
383,282,77468,6,0,L|374:105,1,160,2|0,0:0|0:0,0:0:0:0:
215,54,77936,1,0,0:0:0:0:
215,54,78093,2,0,L|293:67,1,80,2|0,0:0|0:0,0:0:0:0:
285,164,78405,1,2,0:0:0:0:
287,269,78561,1,2,0:0:0:0:
161,312,78718,2,0,L|150:213,1,69.9999978637696,4|0,0:0|0:0,0:0:0:0:
121,165,78952,1,2,0:0:0:0:
121,165,79030,2,0,L|38:164,1,69.9999978637696,2|0,0:0|0:0,0:0:0:0:
287,269,79343,6,0,B|323:281|365:265,1,80,2|0,0:0|0:0,0:0:0:0:
189,165,79655,2,0,B|152:152|110:168,1,69.9999978637696,2|0,0:0|0:0,0:0:0:0:
319,144,79968,6,0,P|382:120|448:142,1,139.999995727539,4|0,0:0|0:0,0:0:0:0:
471,298,80436,2,0,P|405:294|386:231,1,139.999995727539
287,269,80905,2,0,P|249:281|191:269,1,69.9999978637696,2|0,0:0|0:0,0:0:0:0:
105,146,81218,6,0,B|163:186|220:151|220:151|275:117|343:156,1,225.000008583069,2|0,0:0|0:0,0:0:0:0:
451,147,81843,2,0,P|366:117|300:170,1,150.000005722046,2|0,0:0|0:0,0:0:0:0:
384,212,82311,1,0,0:0:0:0:
287,269,82468,6,0,P|216:281|172:225,1,150.000005722046,2|0,0:0|0:0,0:0:0:0:
166,78,82936,1,0,0:0:0:0:
30,149,83093,2,0,L|126:145,1,75.0000028610231,2|0,0:0|0:0,0:0:0:0:
317,143,83405,6,0,L|242:139,1,75.0000028610231,0|0,0:0|0:0,0:0:0:0:
287,270,83718,2,0,P|271:199|318:141,1,150.000005722046,4|0,0:0|0:0,0:0:0:0:
417,87,84186,1,0,0:0:0:0:
436,227,84343,6,0,P|396:219|336:222,1,75.0000028610231,2|0,0:0|0:0,0:0:0:0:
143,103,84655,2,0,P|186:101|210:89,1,55.0000016784668,2|0,0:0|0:0,0:0:0:0:
287,270,84968,6,0,L|293:360,1,75.0000028610231,8|0,0:0|0:0,0:0:0:0:
362,219,85280,2,0,L|371:303,1,78.0000026184083,8|0,0:0|0:0,0:0:0:0:
429,146,85593,2,0,L|437:243,1,81.0000019775391,8|0,0:0|0:0,0:0:0:0:
287,270,85905,6,0,L|290:328,1,50,2|0,0:0|0:0,0:0:0:0:
227,211,86218,6,0,L|231:123,1,83.9999974365235,8|0,0:0|0:0,0:0:0:0:
104,181,86531,2,0,L|109:91,1,87.0000007301331,8|0,0:0|0:0,0:0:0:0:
0,133,86843,2,0,L|3:44,1,89.9999972534181,8|0,0:0|0:0,0:0:0:0:
231,128,87155,6,0,L|233:77,1,50,2|0,0:0|0:0,0:0:0:0:
365,312,87468,6,0,L|383:209,1,93.0000029090882,8|0,0:0|0:0,0:0:0:0:
233,223,87781,2,0,L|230:117,1,96.0000023437501,8|0,0:0|0:0,0:0:0:0:
109,141,88093,2,0,L|95:40,1,98.999999697876,8|0,0:0|0:0,0:0:0:0:
163,337,88405,6,0,L|105:349,1,50,2|0,0:0|0:0,0:0:0:0:
271,346,88718,6,0,L|261:229,1,102.000000622559,8|0,0:0|0:0,0:0:0:0:
364,169,89030,2,0,L|388:21,1,104.999996795654,8|0,0:0|0:0,0:0:0:0:
164,119,89343,2,0,L|145:-9,1,108.000002636719,8|0,0:0|0:0,0:0:0:0:
380,65,89655,6,0,L|392:-4,1,50,10|0,0:2|0:0,0:0:0:0:
366,188,89968,5,8,0:2:0:0:
368,207,90124,1,8,0:0:0:0:
369,226,90280,1,8,0:0:0:0:
371,245,90436,1,8,0:0:0:0:
374,314,90593,5,8,0:0:0:0:
308,339,90749,1,8,0:0:0:0:
244,308,90905,1,8,0:0:0:0:
176,326,91061,1,8,0:0:0:0:
95,323,91218,5,8,0:0:0:0:
41,250,91374,1,8,0:0:0:0:
85,171,91530,1,8,0:0:0:0:
51,77,91686,1,8,0:0:0:0:
133,19,91843,5,8,0:0:0:0:
214,182,91999,1,8,0:0:0:0:
334,6,92155,1,8,0:0:0:0:
221,192,92311,1,8,0:0:0:0:
407,140,92468,5,8,0:0:0:0:
442,174,92546,1,8,0:0:0:0:
454,222,92624,1,8,0:0:0:0:
434,266,92702,1,8,0:0:0:0:
388,283,92780,1,8,0:0:0:0:
338,283,92858,1,8,0:0:0:0:
288,286,92936,1,8,0:0:0:0:
244,308,93014,1,8,0:0:0:0:
221,352,93093,5,8,0:0:0:0:
221,312,93171,1,8,0:0:0:0:
221,272,93249,1,8,0:0:0:0:
221,232,93327,1,8,0:0:0:0:
221,192,93405,6,0,L|221:118,1,40,2|0,0:0|0:0,0:0:0:0:
219,50,93561,1,0,0:0:0:0:
179,56,93639,1,0,0:0:0:0:
138,61,93718,6,0,L|40:69,1,80,2|0,0:0|0:0,0:0:0:0:
40,198,93952,1,2,0:0:0:0:
40,198,94030,1,2,0:0:0:0:
61,289,94186,6,0,P|69:312|65:336,1,50,2|0,0:0|0:0,0:0:0:0:
40,198,94343,1,2,0:0:0:0:
155,256,94499,1,2,0:0:0:0:
263,192,94655,1,4,0:0:0:0:
255,196,94733,1,0,0:0:0:0:
247,201,94811,1,0,0:0:0:0:
240,206,94889,1,0,0:0:0:0:
234,210,94968,6,0,B|189:166|227:83|227:83|235:113|263:129,1,179.999994506836,4|0,0:0|0:0,0:0:0:0:
141,85,95280,2,0,P|189:118|248:119,1,119.999996337891,8|0,0:0|0:0,0:0:0:0:
485,173,95593,6,0,P|422:155|365:177,1,119.999996337891,2|0,0:0|0:0,0:0:0:0:
288,289,95905,1,8,0:0:0:0:
424,325,96061,2,0,P|430:296|426:262,1,59.9999981689454,0|0,0:0|0:0,0:0:0:0:
361,57,96218,6,0,P|352:119|376:177,1,119.999996337891,2|0,0:0|0:0,0:0:0:0:
288,289,96530,2,0,L|169:287,1,119.999996337891,8|0,0:0|0:0,0:0:0:0:
31,223,96764,1,0,0:0:0:0:
31,223,96843,6,0,L|164:212,1,119.999996337891
290,187,97155,1,8,0:0:0:0:
64,74,97311,1,8,0:0:0:0:
79,52,97389,1,8,0:0:0:0:
105,38,97468,6,0,P|181:57|207:149,1,179.999994506836,10|0,0:0|0:0,0:0:0:0:
226,255,97780,2,0,P|197:203|208:145,1,119.999996337891,8|0,0:0|0:0,0:0:0:0:
292,21,98014,1,0,0:0:0:0:
292,21,98093,6,0,L|291:101,1,59.9999981689454
438,233,98249,2,0,P|458:180|418:102,1,119.999996337891,2|0,0:0|0:0,0:0:0:0:
290,187,98561,1,0,0:0:0:0:
497,238,98718,6,0,P|461:231|412:245,1,59.9999981689454,2|0,0:0|0:0,0:0:0:0:
358,328,98874,1,8,0:0:0:0:
349,344,98952,1,8,0:0:0:0:
348,361,99030,2,0,P|402:386|459:371,1,119.999996337891,8|0,0:0|0:0,0:0:0:0:
452,176,99264,1,0,0:0:0:0:
452,176,99343,6,0,P|439:211|440:253,1,59.9999981689454,2|0,0:0|0:0,0:0:0:0:
226,255,99499,2,0,P|213:219|214:177,1,59.9999981689454,2|0,0:0|0:0,0:0:0:0:
292,21,99655,5,8,0:0:0:0:
327,49,99733,1,8,0:0:0:0:
346,90,99811,1,8,0:0:0:0:
343,135,99889,1,8,0:0:0:0:
330,178,99968,6,0,P|340:93|421:64,1,179.999994506836,4|0,0:1|0:0,0:0:0:0:
452,176,100280,2,0,P|429:156|401:145,1,59.9999981689454,8|0,0:0|0:0,0:0:0:0:
225,95,100436,1,8,0:0:0:0:
210,93,100514,1,8,0:0:0:0:
195,94,100593,6,0,P|131:131|123:191,1,119.999996337891,2|8,0:0|0:0,0:0:0:0:
139,362,100905,2,0,P|196:375|246:345,1,119.999996337891,8|0,0:0|0:0,0:0:0:0:
114,274,101139,1,0,0:0:0:0:
114,274,101218,6,0,P|51:294|-14:276,1,119.999996337891,2|0,0:0|0:0,0:0:0:0:
51,107,101530,1,8,0:0:0:0:
213,193,101686,1,8,0:0:0:0:
230,194,101764,1,8,0:0:0:0:
248,196,101843,6,0,L|373:206,1,119.999996337891,2|0,0:0|0:0,0:0:0:0:
420,63,102155,1,8,0:0:0:0:
283,110,102311,1,8,0:0:0:0:
266,116,102389,1,8,0:0:0:0:
252,127,102468,6,0,P|212:205|237:290,1,179.999994506836,2|0,0:0|0:0,0:0:0:0:
367,205,102780,2,0,P|345:199|304:206,1,59.9999981689454,8|0,0:0|0:0,0:0:0:0:
178,366,102936,1,8,0:0:0:0:
194,372,103014,1,8,0:0:0:0:
211,375,103093,6,0,P|247:378|284:363,1,59.9999981689454,8|0,0:0|0:0,0:0:0:0:
367,205,103249,1,8,0:0:0:0:
132,191,103405,2,0,P|125:154|132:113,1,59.9999981689454,10|0,0:0|0:0,0:0:0:0:
244,82,103561,1,8,0:0:0:0:
255,103,103639,1,8,0:0:0:0:
252,127,103718,6,0,L|198:125,2,34.9999989318848,2|0|0,0:0|0:0|0:0,0:0:0:0:
364,125,104030,1,8,0:0:0:0:
364,328,104186,5,8,0:0:0:0:
383,297,104264,1,8,0:0:0:0:
390,263,104342,1,8,0:0:0:0:
384,229,104420,1,8,0:0:0:0:
366,199,104498,1,8,0:0:0:0:
92,266,104655,5,8,0:0:0:0:
137,266,104733,1,8,0:0:0:0:
182,266,104811,1,8,0:0:0:0:
227,266,104889,1,8,0:0:0:0:
271,263,104968,6,0,B|284:187|284:187|263:149|263:149|269:64,1,179.999994506836,2|0,0:0|0:0,0:0:0:0:
370,65,105280,2,0,L|362:140,1,59.9999981689454,8|0,0:0|0:0,0:0:0:0:
192,165,105436,1,0,0:0:0:0:
184,170,105514,1,0,0:0:0:0:
178,175,105593,6,0,P|128:183|76:145,1,119.999996337891,2|8,0:0|0:0,0:0:0:0:
69,127,105827,1,8,0:0:0:0:
64,110,105905,2,0,L|62:239,1,119.999996337891,8|0,0:0|0:0,0:0:0:0:
387,348,106218,6,0,L|389:229,1,119.999996337891,2|0,0:0|0:0,0:0:0:0:
269,317,106530,2,0,L|396:294,1,119.999996337891,8|0,0:0|0:0,0:0:0:0:
507,247,106764,1,0,0:0:0:0:
507,247,106843,6,0,L|381:227,1,119.999996337891,2|8,0:0|0:0,0:0:0:0:
203,193,107155,1,8,0:0:0:0:
173,190,107233,1,8,0:0:0:0:
144,200,107311,1,8,0:0:0:0:
121,220,107389,1,8,0:0:0:0:
104,246,107468,6,0,P|59:189|97:93,1,179.999994506836,2|0,0:0|0:0,0:0:0:0:
251,97,107780,2,0,P|217:105|187:97,1,59.9999981689454,8|0,0:0|0:0,0:0:0:0:
140,0,107936,1,0,0:0:0:0:
140,0,108014,1,0,0:0:0:0:
140,0,108093,5,2,0:0:0:0:
324,153,108249,2,0,P|347:99|310:28,1,119.999996337891
203,193,108561,1,8,0:0:0:0:
382,308,108718,6,0,P|391:280|386:251,1,59.9999981689454,2|0,0:0|0:0,0:0:0:0:
272,308,108874,1,8,0:0:0:0:
263,338,108952,1,8,0:0:0:0:
271,368,109030,1,8,0:0:0:0:
490,282,109186,5,8,0:0:0:0:
466,274,109264,1,8,0:0:0:0:
443,268,109343,2,0,L|374:246,1,59.9999981689454,2|0,0:0|0:0,0:0:0:0:
203,193,109499,1,8,0:0:0:0:
374,121,109655,5,8,0:0:0:0:
321,92,109733,1,8,0:0:0:0:
263,98,109811,1,8,0:0:0:0:
218,136,109889,1,8,0:0:0:0:
203,193,109968,6,0,P|206:93|144:40,1,179.999994506836,4|0,0:0|0:0,0:0:0:0:
69,165,110280,2,0,P|125:122|93:183,1,179.999994506836,8|0,0:0|0:0,0:0:0:0:
2,86,110593,6,0,P|17:64|61:38,1,59.9999981689454,2|0,0:0|0:0,0:0:0:0:
203,193,110749,1,0,0:0:0:0:
151,42,110905,2,0,P|204:21|280:49,1,119.999996337891,8|0,0:0|0:0,0:0:0:0:
443,166,111218,6,0,P|409:167|359:178,1,59.9999981689454,2|0,0:0|0:0,0:0:0:0:
203,193,111374,1,0,0:0:0:0:
341,97,111530,1,8,0:0:0:0:
205,314,111686,1,8,0:0:0:0:
204,283,111764,1,8,0:0:0:0:
204,252,111843,6,0,L|202:181,1,59.9999981689454,2|0,0:0|0:0,0:0:0:0:
207,21,111999,1,8,0:0:0:0:
118,202,112155,2,0,P|106:229|99:258,1,59.9999981689454,8|0,0:0|0:0,0:0:0:0:
332,329,112311,2,0,P|325:299|313:272,1,59.9999981689454,0|0,0:0|0:0,0:0:0:0:
122,105,112468,6,0,P|202:139|282:103,1,179.999994506836,4|0,0:1|0:0,0:0:0:0:
393,79,112780,2,0,P|334:75|282:103,1,119.999996337891,8|0,0:0|0:0,0:0:0:0:
405,244,113014,1,0,0:0:0:0:
402,208,113093,5,8,0:0:0:0:
401,173,113171,1,8,0:0:0:0:
399,138,113249,2,0,L|390:51,1,59.9999981689454,8|0,0:0|0:0,0:0:0:0:
281,103,113405,1,8,0:0:0:0:
495,23,113561,1,0,0:0:0:0:
493,160,113718,5,8,0:0:0:0:
491,175,113796,1,8,0:0:0:0:
490,190,113874,2,0,L|482:261,1,55.0000016784668,8|0,0:0|0:0,0:0:0:0:
470,375,114030,1,8,0:0:0:0:
302,173,114186,5,0,0:0:0:0:
303,189,114264,1,8,0:0:0:0:
304,205,114342,2,0,L|306:270,1,55.0000016784668,8|0,0:0|0:0,0:0:0:0:
215,351,114499,5,8,0:0:0:0:
214,359,114577,2,0,L|220:290,1,44.999998626709,8|0,0:0|0:0,0:0:0:0:
197,165,114733,1,8,0:0:0:0:
197,156,114811,2,0,L|196:223,1,44.999998626709,8|0,0:0|0:0,0:0:0:0:
66,293,114968,6,0,P|34:212|110:151,1,179.999994506836,10|0,0:0|0:0,0:0:0:0:
301,155,115436,2,0,B|251:122|198:150|198:156|194:160|149:194|92:153,1,220.000006713867,2|0,0:0|0:0,0:0:0:0:
126,20,115905,2,0,B|150:-17|150:-17|149:74,1,134.999995880127,8|0,0:0|0:0,0:0:0:0:
149,74,116218,6,0,L|261:54,1,110.000003356934,2|0,0:0|0:0,0:0:0:0:
445,148,116530,2,0,P|375:185|292:144,1,165.000005035401,10|0,0:2|0:0,0:0:0:0:
372,91,116843,1,2,0:0:0:0:
372,91,116921,1,0,0:0:0:0:
372,91,116999,1,0,0:0:0:0:
383,264,117155,2,0,B|507:266|507:266|471:246,1,165.000005035401,2|0,0:0|0:0,0:0:0:0:
414,173,117468,6,0,P|315:197|297:298,1,179.999994506836,8|0,0:2|0:0,0:0:0:0:
290,274,117780,1,0,0:0:0:0:
291,384,117936,1,0,0:0:0:0:
291,384,118014,1,0,0:0:0:0:
291,384,118093,1,2,0:0:0:0:
128,331,118249,1,8,0:0:0:0:
205,168,118405,1,2,0:0:0:0:
118,224,118561,6,0,L|-33:197,2,119.999996337891,8|8|0,0:0|0:0|0:0,0:0:0:0:
205,168,119030,2,0,L|216:91,1,50
248,0,119186,1,8,0:0:0:0:
239,3,119264,1,0,0:0:0:0:
230,6,119342,1,0,0:0:0:0:
221,9,119421,1,0,0:0:0:0:
212,11,119499,1,0,0:0:0:0:
113,28,119655,6,0,P|103:68|119:117,1,89.9999972534181,8|8,0:0|0:0,0:0:0:0:
124,124,119889,1,0,0:0:0:0:
135,133,119968,6,0,P|56:113|14:237,1,200,10|0,0:0|0:0,0:0:0:0:
99,308,120436,2,0,B|145:318|179:274|179:274|216:321|281:297,1,179.999994506836,2|0,0:0|0:0,0:0:0:0:
460,310,120905,2,0,P|402:269|418:348,1,179.999994506836,10|4,0:0|0:0,0:0:0:0:
496,177,121374,5,8,0:0:0:0:
390,131,121530,2,0,P|346:147|281:131,1,89.9999972534181,8|0,0:0|0:0,0:0:0:0:
291,136,121764,1,0,0:0:0:0:
280,130,121843,2,0,P|290:183|279:222,1,89.9999972534181,0|8,0:0|0:0,0:0:0:0:
130,188,122155,1,8,0:0:0:0:
139,185,122233,1,0,0:0:0:0:
148,183,122311,1,0,0:0:0:0:
157,181,122389,1,0,0:0:0:0:
166,177,122468,6,0,P|126:61|45:64,1,200,8|8,0:0|0:0,0:0:0:0:
0,182,122936,1,0,0:0:0:0:
0,191,123014,1,0,0:0:0:0:
1,201,123093,1,0,0:0:0:0:
1,210,123171,1,0,0:0:0:0:
1,219,123249,6,0,P|39:249|94:244,1,100,8|2,0:0|0:0,0:0:0:0:
274,167,123561,2,0,P|221:157|169:180,1,100,8|8,0:0|0:0,0:0:0:0:
174,181,123796,1,0,0:0:0:0:
171,190,123874,1,8,0:0:0:0:
261,52,124030,1,8,0:0:0:0:
356,171,124186,1,0,0:0:0:0:
355,180,124264,1,0,0:0:0:0:
354,190,124343,1,8,0:0:0:0:
353,199,124421,1,8,0:0:0:0:
352,208,124499,1,8,0:0:0:0:
346,384,124655,6,0,L|276:364,1,55.0000016784668,8|0,0:0|0:0,0:0:0:0:
169,184,124811,2,0,L|229:201,1,55.0000016784668,8|0,0:0|0:0,0:0:0:0:
366,298,124968,6,0,B|290:276|290:276|223:298|223:298|135:275,1,239.999992675781,4|0,0:1|0:0,0:0:0:0:
74,118,125436,2,0,B|105:166|60:215|60:215|22:261|54:320,1,220.000006713867,2|8,0:0|0:0,0:0:0:0:
301,163,125905,2,0,B|169:185|169:185|225:149,1,200,8|0,0:0|0:0,0:0:0:0:
443,81,126374,1,8,0:0:0:0:
388,262,126530,6,0,L|373:166,1,89.9999972534181,8|0,0:0|0:0,0:0:0:0:
354,91,126764,1,2,0:0:0:0:
354,91,126843,2,0,L|476:78,1,89.9999972534181,2|8,0:0|0:0,0:0:0:0:
224,14,127155,2,0,L|225:170,1,134.999995880127,8|2,0:0|0:0,0:0:0:0:
284,251,127468,6,0,P|302:170|221:150,1,179.999994506836,8|8,0:0|0:0,0:0:0:0:
205,343,127936,2,0,B|156:375|101:338|101:338|31:343,1,179.999994506836,2|8,0:0|0:0,0:0:0:0:
0,139,128405,1,2,0:0:0:0:
170,193,128561,2,0,P|171:227|159:260,2,69.9999978637696,8|0|8,0:0|0:0|0:0,0:0:0:0:
224,14,129030,2,0,P|206:50|225:98,1,89.9999972534181,0|0,0:0|0:0,0:0:0:0:
378,47,129343,5,8,0:0:0:0:
369,47,129421,1,8,0:0:0:0:
360,47,129499,2,0,L|316:53,1,44.999998626709,8|0,0:0|0:0,0:0:0:0:
295,258,129655,2,0,L|296:146,1,89.9999972534181,8|0,0:0|0:0,0:0:0:0:
394,149,129889,1,0,0:0:0:0:
400,159,129968,6,0,P|390:228|286:254,1,179.999994506836,4|0,0:1|0:0,0:0:0:0:
0,197,130436,2,0,B|44:226|92:195|92:195|141:165|195:209,1,179.999994506836,2|0,0:0|0:0,0:0:0:0:
138,352,130905,2,0,P|145:304|134:263,1,89.9999972534181,2|0,0:0|0:0,0:0:0:0:
30,10,131218,6,0,P|11:73|43:130,1,134.999995880127,2|0,0:0|0:0,0:0:0:0:
128,108,131530,2,0,P|83:109|31:143,1,89.9999972534181,8|0,0:0|0:0,0:0:0:0:
219,11,131843,2,0,P|264:12|316:46,1,89.9999972534181,2|8,0:0|0:0,0:0:0:0:
330,230,132155,2,0,P|285:229|233:195,1,89.9999972534181,8|0,0:0|0:0,0:0:0:0:
42,266,132468,6,0,B|91:291|87:359|87:359|90:291|146:255,1,220.000006713867,0|0,0:0|0:0,0:0:0:0:
360,352,132936,2,0,P|284:331|211:360,1,160,0|8,0:0|0:0,0:0:0:0:
134,264,133405,1,2,0:0:0:0:
330,230,133561,1,8,0:0:0:0:
160,128,133718,6,0,P|203:106|250:119,1,100,2|0,0:0|0:0,0:0:0:0:
449,334,134030,2,0,P|408:360|360:352,1,100,8|0,0:0|0:0,0:0:0:0:
135,313,134343,5,0,0:0:0:0:
135,313,134421,1,0,0:0:0:0:
135,313,134499,2,0,L|133:263,1,50,0|0,0:0|0:0,0:0:0:0:
160,128,134655,1,0,0:0:0:0:
203,109,134733,1,0,0:0:0:0:
250,119,134811,1,0,0:0:0:0:
295,133,134889,1,0,0:0:0:0:
340,116,134968,6,0,P|441:127|404:186,2,200,8|0|0,0:0|0:0|0:0,0:0:0:0:
341,191,136530,1,2,0:0:0:0:
340,261,136843,1,2,0:0:0:0:
340,330,137155,1,2,0:0:0:0:
341,191,137468,6,0,B|285:248|340:331|340:331|306:325|294:335,1,200,2|0,0:0|0:0,0:0:0:0:
207,356,138249,1,0,0:0:0:0:
207,356,138405,2,0,P|205:337|209:303,1,50,2|0,0:0|0:0,0:0:0:0:
431,240,138718,6,0,P|380:266|321:250,1,100,2|8,0:0|0:0,0:0:0:0:
237,234,139186,1,0,0:0:0:0:
235,129,139343,1,0,0:0:0:0:
235,129,139499,2,0,L|232:70,2,50,0|8|0,0:0|0:0|0:0,0:0:0:0:
339,260,139968,6,0,P|358:204|338:157,1,100,0|8,0:0|0:0,0:0:0:0:
235,129,140436,1,0,0:0:0:0:
188,228,140593,2,0,P|223:236|256:225,2,50,2|0|8,0:0|0:0|0:0,0:0:0:0:
91,178,141061,1,0,0:0:0:0:
127,44,141218,6,0,L|208:58,1,59.9999981689454,2|0,0:0|0:0,0:0:0:0:
294,90,141530,2,0,L|367:83,1,59.9999981689454,10|0,0:0|0:0,0:0:0:0:
474,41,141843,2,0,L|482:104,1,59.9999981689454,2|0,0:0|0:0,0:0:0:0:
431,199,142155,2,0,L|426:281,1,59.9999981689454,10|0,0:0|0:0,0:0:0:0:
236,233,142468,6,0,P|239:306|288:221,1,239.999992675781,2|0,0:0|0:0,0:0:0:0:
151,196,143249,1,0,0:0:0:0:
151,196,143405,2,0,L|156:132,1,59.9999981689454,8|0,0:0|0:0,0:0:0:0:
238,9,143718,6,0,L|241:84,1,59.9999981689454,0|0,0:0|0:0,0:0:0:0:
260,208,144030,2,0,L|368:187,1,89.9999972534181,8|0,0:0|0:0,0:0:0:0:
348,190,144343,1,4,0:0:0:0:
454,167,144499,1,0,0:0:0:0:
392,88,144655,2,0,B|361:80|361:80|311:83,1,59.9999981689454,8|0,0:0|0:0,0:0:0:0:
148,213,144968,6,0,P|207:229|267:201,1,119.999996337891,8|0,0:0|0:0,0:0:0:0:
202,134,145436,1,0,0:0:0:0:
202,134,145593,2,0,L|206:206,1,59.9999981689454,8|0,0:0|0:0,0:0:0:0:
321,298,145905,2,0,L|326:227,1,59.9999981689454,2|0,0:0|0:0,0:0:0:0:
338,23,146218,6,0,P|356:105|308:159,1,139.999995727539,8|0,0:0|0:0,0:0:0:0:
264,79,146686,1,2,0:0:0:0:
264,79,146843,2,0,L|341:82,1,69.9999978637696,8|0,0:0|0:0,0:0:0:0:
450,202,147155,2,0,L|377:194,1,69.9999978637696,2|0,0:0|0:0,0:0:0:0:
197,253,147468,6,0,P|180:165|236:103,1,160,8|0,0:0|0:0,0:0:0:0:
271,193,147936,1,0,0:0:0:0:
271,193,148093,2,0,L|191:187,1,80,8|0,0:0|0:0,0:0:0:0:
61,303,148405,2,0,L|145:300,1,80,2|0,0:0|0:0,0:0:0:0:
306,289,148718,6,0,P|301:191|326:106,1,179.999994506836,8|0,0:0|0:0,0:0:0:0:
380,204,149186,1,0,0:0:0:0:
191,187,149343,2,0,L|126:180,2,44.999998626709,8|0|0,0:0|0:0|0:0,0:0:0:0:
301,200,149655,1,2,0:0:0:0:
301,200,149811,1,0,0:0:0:0:
197,98,149968,6,0,P|188:147|193:198,1,89.9999972534181,8|0,0:0|0:0,0:0:0:0:
229,314,150280,1,0,0:0:0:0:
308,207,150436,1,0,0:0:0:0:
308,207,150514,1,0,0:0:0:0:
308,207,150593,1,0,0:0:0:0:
330,332,150749,1,0,0:0:0:0:
229,314,150905,2,0,P|192:304|120:310,1,89.9999972534181,8|0,0:0|0:0,0:0:0:0:
63,250,151218,6,0,L|51:203,2,44.999998626709
157,196,151530,1,0,0:0:0:0:
84,108,151686,1,0,0:0:0:0:
84,108,151764,1,0,0:0:0:0:
84,108,151843,1,0,0:0:0:0:
197,98,151999,1,0,0:0:0:0:
387,194,152155,2,0,P|355:187|299:200,1,89.9999972534181
208,324,152468,5,8,0:0:0:0:
206,305,152624,1,8,0:0:0:0:
203,278,152780,1,8,0:0:0:0:
200,233,152936,1,8,0:0:0:0:
196,151,153093,5,8,0:0:0:0:
278,97,153249,1,8,0:0:0:0:
376,101,153405,1,8,0:0:0:0:
447,169,153561,1,8,0:0:0:0:
392,252,153718,5,8,0:0:0:0:
301,199,153874,1,8,0:0:0:0:
278,97,154030,1,8,0:0:0:0:
338,19,154186,1,8,0:0:0:0:
447,169,154343,5,8,0:0:0:0:
276,297,154499,1,8,0:0:0:0:
278,97,154655,5,8,0:0:0:0:
427,338,154811,1,8,0:0:0:0:
150,327,154968,5,8,0:0:0:0:
125,289,155046,1,8,0:0:0:0:
123,245,155124,1,8,0:0:0:0:
143,205,155202,1,8,0:0:0:0:
171,170,155280,1,8,0:0:0:0:
197,134,155358,1,8,0:0:0:0:
209,91,155436,1,8,0:0:0:0:
195,61,155514,1,8,0:0:0:0:
160,30,155593,5,8,0:0:0:0:
153,64,155671,1,8,0:0:0:0:
176,89,155749,1,8,0:0:0:0:
209,91,155827,1,8,0:0:0:0:
243,88,155905,6,0,L|296:77,1,34.9999989318848,8|8,0:0|0:0,0:0:0:0:
400,57,156061,1,8,0:0:0:0:
415,51,156139,1,8,0:0:0:0:
431,45,156218,5,2,0:0:0:0:
256,192,156296,12,0,157155,0:0:0:0:
145,189,157468,6,0,L|233:179,1,80,2|0,0:0|0:0,0:0:0:0:
328,169,157702,1,2,0:0:0:0:
328,169,157780,1,2,0:0:0:0:
237,357,157936,6,0,P|241:339|222:298,1,50,2|0,0:0|0:0,0:0:0:0:
232,309,158093,6,0,P|232:283|197:295,1,75.0000028610231,2|0,0:0|0:0,0:0:0:0:
197,294,158249,6,0,P|210:340|223:307,1,100,2|0,0:0|0:0,0:0:0:0:
316,282,158405,6,0,L|370:270,6,42.5000008106232,4|0|0|0|0|0|0,0:0|0:0|0:0|0:0|0:0|0:0|0:0,0:0:0:0:
328,246,158718,6,0,L|317:199,1,44.999998626709,8|0,0:0|0:0,0:0:0:0:
311,112,159030,54,0,P|223:149|332:181,1,255.000004863739,12|0,0:0|0:0,0:0:0:0:
369,110,159343,22,0,P|332:117|292:100,1,59.9999981689454,2|0,0:0|0:0,0:0:0:0:
140,38,159499,1,8,0:0:0:0:
140,38,159577,1,8,0:0:0:0:
140,38,159655,2,0,B|118:88|142:129|142:129|169:174|135:236,1,179.999994506836,8|0,0:0|0:0,0:0:0:0:
148,323,159968,6,0,B|126:270|126:270|156:182,1,119.999996337891,2|0,0:0|0:0,0:0:0:0:
325,278,160280,2,0,B|270:253|270:253|191:278,1,119.999996337891,8|0,0:0|0:0,0:0:0:0:
65,321,160593,1,10,0:0:0:0:
48,327,160671,1,8,0:0:0:0:
31,334,160749,2,0,L|13:268,1,59.9999981689454,8|0,0:0|0:0,0:0:0:0:
230,369,160905,1,8,0:0:0:0:
267,167,161061,1,0,0:0:0:0:
267,152,161139,1,0,0:0:0:0:
273,142,161218,6,0,P|341:89|421:122,1,179.999994506836,8|0,0:0|0:0,0:0:0:0:
473,202,161530,2,0,P|495:179|510:140,1,59.9999981689454,8|0,0:0|0:0,0:0:0:0:
463,0,161686,2,0,P|477:44|509:64,1,59.9999981689454,2|0,0:0|0:0,0:0:0:0:
353,176,161843,2,0,P|295:189|276:134,1,119.999996337891,2|8,0:0|0:0,0:0:0:0:
346,16,162155,1,8,0:0:0:0:
353,176,162311,2,0,P|357:212|351:254,1,59.9999981689454
175,322,162468,5,8,0:0:0:0:
168,311,162546,1,8,0:0:0:0:
164,287,162624,1,8,0:0:0:0:
173,260,162702,1,8,0:0:0:0:
184,245,162780,2,0,P|190:211|185:179,1,59.9999981689454,8|0,0:0|0:0,0:0:0:0:
110,63,162936,1,8,0:0:0:0:
104,77,163014,1,8,0:0:0:0:
105,91,163093,6,0,L|238:97,1,119.999996337891,2|0,0:0|0:0,0:0:0:0:
288,173,163327,1,8,0:0:0:0:
252,162,163405,1,8,0:0:0:0:
232,132,163483,1,8,0:0:0:0:
225,97,163561,1,8,0:0:0:0:
233,62,163639,1,8,0:0:0:0:
266,31,163718,6,0,P|357:42|279:94,1,225.000008583069,4|0,0:0|0:0,0:0:0:0:
90,210,164030,2,0,L|104:90,1,119.999996337891,8|0,0:0|0:0,0:0:0:0:
169,183,164264,1,0,0:0:0:0:
171,200,164343,1,0,0:0:0:0:
171,217,164421,1,0,0:0:0:0:
172,234,164499,1,8,0:0:0:0:
296,292,164655,2,0,L|286:158,1,119.999996337891,8|0,0:0|0:0,0:0:0:0:
235,42,164968,6,0,L|393:52,1,119.999996337891,2|8,0:0|0:0,0:0:0:0:
478,61,165280,1,8,0:0:0:0:
232,132,165436,2,0,L|167:137,2,59.9999981689454,0|0|0,0:0|0:0|0:0,0:0:0:0:
432,219,165749,1,8,0:0:0:0:
355,50,165905,2,0,L|351:180,1,119.999996337891,8|0,0:0|0:0,0:0:0:0:
338,266,166139,1,0,0:0:0:0:
335,289,166218,6,0,B|290:253|229:287|229:287|249:249|234:222,1,179.999994506836,8|0,0:0|0:0,0:0:0:0:
97,246,166530,2,0,P|127:249|157:244,1,59.9999981689454,8|0,0:0|0:0,0:0:0:0:
290,122,166686,2,0,P|260:124|231:132,1,59.9999981689454,2|0,0:0|0:0,0:0:0:0:
284,351,166843,1,8,0:0:0:0:
285,334,166921,1,8,0:0:0:0:
287,317,166999,2,0,L|291:252,1,59.9999981689454,8|0,0:0|0:0,0:0:0:0:
290,122,167155,1,8,0:0:0:0:
169,345,167311,1,0,0:0:0:0:
92,129,167468,6,0,L|95:200,1,59.9999981689454,2|0,0:0|0:0,0:0:0:0:
100,328,167624,1,8,0:0:0:0:
178,171,167780,1,8,0:0:0:0:
288,302,167936,1,0,0:0:0:0:
286,312,168014,1,0,0:0:0:0:
286,325,168093,2,0,L|277:401,2,59.9999981689454,2|0|8,0:0|0:0|0:0,0:0:0:0:
299,189,168405,1,8,0:0:0:0:
60,188,168561,1,8,0:0:0:0:
42,189,168639,1,8,0:0:0:0:
19,189,168717,6,0,B|42:227|21:273|21:273|73:262|103:311,1,179.999994506836,8|0,0:0|0:0,0:0:0:0:
156,376,169030,2,0,P|169:358|179:298,1,59.9999981689454,8|0,0:0|0:0,0:0:0:0:
131,112,169186,1,8,0:0:0:0:
131,130,169264,1,8,0:0:0:0:
132,148,169343,1,8,0:0:0:0:
131,166,169421,1,8,0:0:0:0:
131,184,169499,2,0,P|159:165|193:157,1,59.9999981689454,8|0,0:0|0:0,0:0:0:0:
330,155,169655,2,0,P|351:209|337:267,1,119.999996337891,8|0,0:0|0:0,0:0:0:0:
251,110,169968,6,0,P|318:58|398:90,1,179.999994506836,2|0,0:0|0:0,0:0:0:0:
398,90,170280,2,0,L|392:14,1,59.9999981689454,8|0,0:0|0:0,0:0:0:0:
495,175,170436,1,8,0:0:0:0:
495,175,170514,1,8,0:0:0:0:
495,175,170593,2,0,L|503:256,1,59.9999981689454,8|0,0:0|0:0,0:0:0:0:
511,350,170749,1,0,0:0:0:0:
221,275,170905,2,0,L|341:264,1,119.999996337891,8|0,0:0|0:0,0:0:0:0:
419,258,171139,1,0,0:0:0:0:
436,259,171218,6,0,B|420:147|420:147|399:183|350:187,1,179.999994506836,2|0,0:0|0:0,0:0:0:0:
313,64,171530,2,0,P|338:79|352:106,1,59.9999981689454,8|0,0:0|0:0,0:0:0:0:
246,327,171686,2,0,P|230:308|222:255,1,59.9999981689454,0|0,0:0|0:0,0:0:0:0:
166,59,171843,2,0,L|166:179,1,119.999996337891,8|8,0:0|0:0,0:0:0:0:
168,336,172155,1,8,0:0:0:0:
73,182,172311,1,0,0:0:0:0:
286,250,172468,6,0,L|278:122,1,119.999996337891,2|8,0:0|0:0,0:0:0:0:
277,45,172702,1,0,0:0:0:0:
276,30,172780,1,8,0:0:0:0:
166,179,172936,1,0,0:0:0:0:
434,143,173093,5,8,0:0:0:0:
395,121,173171,1,8,0:0:0:0:
350,118,173249,1,8,0:0:0:0:
309,135,173327,1,8,0:0:0:0:
280,169,173405,2,0,L|286:237,1,59.9999981689454,8|0,0:0|0:0,0:0:0:0:
167,90,173561,1,0,0:0:0:0:
171,77,173639,1,0,0:0:0:0:
179,69,173718,6,0,P|262:85|279:168,1,179.999994506836,8|0,0:0|0:0,0:0:0:0:
187,326,174030,2,0,P|189:306|207:269,1,59.9999981689454,8|0,0:0|0:0,0:0:0:0:
439,175,174186,2,0,B|385:173|361:207|361:207|325:170|258:166,1,179.999994506836,2|0,0:0|0:0,0:0:0:0:
279,168,174499,1,8,0:0:0:0:
364,0,174655,2,0,P|408:26|353:115,1,179.999994506836,8|0,0:0|0:0,0:0:0:0:
247,62,174968,6,0,P|279:55|320:61,1,59.9999981689454,2|0,0:0|0:0,0:0:0:0:
439,175,175124,2,0,P|416:186|373:190,1,59.9999981689454,2|0,0:0|0:0,0:0:0:0:
199,246,175280,1,8,0:0:0:0:
216,247,175358,1,8,0:0:0:0:
233,249,175436,2,0,L|310:243,1,59.9999981689454,8|0,0:0|0:0,0:0:0:0:
400,341,175593,6,0,B|389:295|421:259|421:259|455:224|439:175,1,179.999994506836,2|0,0:0|0:0,0:0:0:0:
438,174,175905,2,0,P|415:185|372:189,1,59.9999981689454,2|0,0:0|0:0,0:0:0:0:
400,341,176061,2,0,P|431:340|460:348,1,59.9999981689454
292,244,176218,6,0,L|147:248,1,119.999996337891,8|0,0:0|0:0,0:0:0:0:
8,254,176530,1,8,0:0:0:0:
176,342,176686,1,8,0:0:0:0:
175,325,176764,1,8,0:0:0:0:
174,307,176843,2,0,L|171:244,1,59.9999981689454,8|0,0:0|0:0,0:0:0:0:
163,110,176999,1,8,0:0:0:0:
323,240,177155,1,8,0:0:0:0:
393,58,177311,1,8,0:0:0:0:
234,200,177468,6,0,L|238:263,1,59.9999981689454,8|0,0:0|0:0,0:0:0:0:
321,362,177624,1,8,0:0:0:0:
321,362,177702,1,8,0:0:0:0:
321,362,177780,1,8,0:0:0:0:
396,199,177936,2,0,L|442:189,2,29.9999990844727,2|0|0,0:0|0:0|0:0,0:0:0:0:
323,240,178093,5,8,0:0:0:0:
282,258,178171,1,8,0:0:0:0:
238,260,178249,1,8,0:0:0:0:
201,234,178327,1,8,0:0:0:0:
168,204,178405,1,8,0:0:0:0:
127,188,178483,1,8,0:0:0:0:
88,205,178561,1,8,0:0:0:0:
72,247,178639,1,8,0:0:0:0:
81,291,178718,1,10,0:0:0:0:
256,192,178796,12,0,181218,0:0:0:0:
160,176,188718,6,0,L|278:165,1,100,0|8,0:0|0:0,0:0:0:0:
259,166,189499,1,0,0:0:0:0:
406,252,189655,6,0,L|302:250,1,100,8|0,0:0|0:0,0:0:0:0:
212,248,190124,1,0,0:0:0:0:
306,250,190280,1,8,0:0:0:0:
306,250,190749,5,0,0:0:0:0:
212,248,190905,1,8,0:0:0:0:
269,46,191218,6,0,L|257:182,1,119.999996337891,0|8,0:0|0:0,0:0:0:0:
258,165,191999,2,0,L|265:101,1,59.9999981689454,0|0,0:0|0:0,0:0:0:0:
258,165,192311,2,0,L|250:237,1,59.9999981689454,8|0,0:0|0:0,0:0:0:0:
245,322,192624,1,0,0:0:0:0:
371,293,192780,6,0,L|362:173,1,119.999996337891,8|0,0:0|0:0,0:0:0:0:
354,72,193249,1,0,0:0:0:0:
441,122,193405,1,8,0:0:0:0:
258,165,193561,1,0,0:0:0:0:
256,35,193718,6,0,L|258:173,1,129.999994049073,0|8,0:0|0:0,0:0:0:0:
258,165,194499,1,0,0:0:0:0:
167,127,194655,6,0,L|166:46,2,64.9999970245363,8|0|0,0:0|0:0|0:0,0:0:0:0:
171,220,195124,1,0,0:0:0:0:
171,350,195280,6,0,L|171:217,1,129.999994049073,8|0,0:0|0:0,0:0:0:0:
171,350,195749,1,0,0:0:0:0:
255,229,195905,2,0,L|258:154,1,64.9999970245363,8|0,0:0|0:0,0:0:0:0:
361,228,196218,6,0,L|372:361,1,129.999994049073,0|8,0:0|0:0,0:0:0:0:
371,357,196999,2,0,L|366:278,1,64.9999970245363,8|0,0:0|0:0,0:0:0:0:
459,219,197311,6,0,L|459:283,1,64.9999970245363,8|0,0:0|0:0,0:0:0:0:
462,370,197624,1,8,0:0:0:0:
361,228,197780,1,8,0:0:0:0:
256,192,197858,12,0,198718,0:0:0:0:
146,126,199030,5,2,0:0:0:0:
158,124,199343,1,2,0:0:0:0:
170,121,199655,1,2,0:0:0:0:
182,118,199968,1,2,0:0:0:0:
194,113,200280,1,2,0:0:0:0:
206,109,200593,1,2,0:0:0:0:
218,104,200905,1,2,0:0:0:0:
385,141,201218,6,0,L|379:241,1,100,2|0,0:0|0:0,0:0:0:0:
330,305,201686,1,2,0:0:0:0:
330,305,201843,2,0,B|301:282|298:243|298:243|257:282|220:264|219:260|218:255|179:240|141:277,2,239.999992675781,2|0|0,0:0|0:0|0:0,0:0:0:0:
330,305,203405,21,8,0:0:0:0:
408,167,203561,1,8,0:0:0:0:
425,374,203718,1,8,0:0:0:0:
425,374,204030,5,2,0:0:0:0:
424,349,204343,1,2,0:0:0:0:
421,325,204655,1,2,0:0:0:0:
418,301,204968,1,2,0:0:0:0:
416,277,205280,1,2,0:0:0:0:
412,253,205593,1,2,0:0:0:0:
408,229,205905,1,2,0:0:0:0:
381,136,206218,6,0,P|317:138|241:153,1,119.999996337891,2|0,0:0|0:0,0:0:0:0:
176,156,206686,1,2,0:0:0:0:
176,156,206843,2,0,P|134:64|205:111,2,239.999992675781,2|0|0,0:0|0:0|0:0,0:0:0:0:
176,156,208405,5,8,0:0:0:0:
329,157,208561,1,8,0:0:0:0:
475,159,208718,1,8,0:0:0:0:
475,159,209030,5,2,0:0:0:0:
438,159,209343,1,2,0:0:0:0:
402,159,209655,1,2,0:0:0:0:
365,158,209968,1,2,0:0:0:0:
329,157,210280,1,2,0:0:0:0:
292,157,210593,1,2,0:0:0:0:
256,157,210905,1,2,0:0:0:0:
134,150,211218,6,0,B|126:209|78:212|78:212|99:171|81:125|81:125|91:88|129:77,1,239.999992675781,2|0,0:0|0:0,0:0:0:0:
117,82,212155,1,2,0:0:0:0:
117,82,212468,6,0,P|236:92|325:78,1,200,2|2,0:0|0:0,0:0:0:0:
314,81,213405,5,8,0:0:0:0:
315,275,213561,1,8,0:0:0:0:
314,81,213718,1,8,0:0:0:0:
314,81,214030,5,2,0:0:0:0:
413,84,214343,2,0,L|294:80,2,100,2|0|0,0:0|0:0|0:0,0:0:0:0:
413,84,215280,5,2,0:0:0:0:
258,212,215593,1,2,0:0:0:0:
446,278,215905,1,2,0:0:0:0:
413,84,216218,6,0,P|325:127|416:160,1,240,2|0,0:0|0:0,0:0:0:0:
410,164,218718,6,0,B|416:200|394:243|394:243|355:370|155:249|340:135|394:243|394:243|423:289|419:327,1,480,0|0,0:0|0:0,0:0:0:0:
151,116,224343,5,2,0:0:0:0:
178,117,224655,1,2,0:0:0:0:
205,115,224968,2,0,L|293:113,1,80,2|0,0:0|0:0,0:0:0:0:
284,113,225905,1,2,0:0:0:0:
284,113,226218,6,0,L|290:192,2,80,2|2|2,0:0|0:0|0:0,0:0:0:0:
372,162,227936,1,2,0:0:0:0:
372,162,228093,6,0,L|377:290,1,119.999996337891
190,177,229343,5,2,0:0:0:0:
152,195,229655,1,2,0:0:0:0:
125,227,229968,2,0,P|186:282|256:226,1,179.999994506836,2|2,0:0|0:0,0:0:0:0:
258,112,231218,2,0,L|254:236,1,119.999996337891,2|2,0:0|0:0,0:0:0:0:
337,141,232468,2,0,L|338:69,1,59.9999981689454,2|0,0:0|0:0,0:0:0:0:
343,3,232936,1,2,0:0:0:0:
343,3,233093,2,0,B|278:-12|220:13,1,119.999996337891,2|2,0:0|0:0,0:0:0:0:
160,49,233874,5,2,0:0:0:0:
108,103,234030,1,2,0:0:0:0:
74,169,234186,1,2,0:0:0:0:
68,244,234343,5,2,0:0:0:0:
69,259,234655,1,2,0:0:0:0:
70,275,234968,6,0,P|127:291|185:279,1,120,2|2,0:0|0:0,0:0:0:0:
251,225,236218,2,0,P|271:268|265:305,1,80,2|2,0:0|0:0,0:0:0:0:
191,153,237468,6,0,P|209:141|230:132,1,40,2|0,0:0|0:0,0:0:0:0:
316,153,237936,1,2,0:0:0:0:
316,153,238093,6,0,L|311:71,1,80,2|0,0:0|0:0,0:0:0:0:
338,254,239343,1,2,0:0:0:0:
337,264,239655,1,0,0:0:0:0:
337,276,239968,6,0,L|337:338,2,60,2|2|2,0:0|0:0|0:0,0:0:0:0:
389,188,241061,1,2,0:0:0:0:
420,257,241218,1,2,0:0:0:0:
420,257,241530,6,0,L|426:304,1,40,2|2,0:0|0:0,0:0:0:0:
436,365,242155,1,0,0:0:0:0:
420,257,242468,6,0,P|357:168|256:235,1,244.999992523194,2|0,0:0|0:0,0:0:0:0:
236,133,243718,2,0,P|282:101|316:100,1,80,2|0,0:0|0:0,0:0:0:0:
327,97,244186,5,0,0:0:0:0:
338,106,244264,1,0,0:0:0:0:
349,123,244343,1,0,0:0:0:0:
359,156,244421,1,0,0:0:0:0:
354,190,244499,1,0,0:0:0:0:
339,226,244577,1,0,0:0:0:0:
299,247,244655,1,0,0:0:0:0:
255,252,244733,1,0,0:0:0:0:
212,240,244811,1,0,0:0:0:0:
176,213,244889,1,0,0:0:0:0:
155,163,244968,6,0,B|150:56|150:56|191:92,1,150,8|0,0:0|0:0,0:0:0:0:
212,240,245593,6,0,P|147:259|78:211,1,139.999995727539,2|0,0:0|0:0,0:0:0:0:
288,158,246218,2,0,P|353:139|422:187,1,139.999995727539,2|0,0:0|0:0,0:0:0:0:
372,262,246686,1,0,0:0:0:0:
372,262,246843,2,0,P|271:242|288:157,1,209.999993591309,2|0,0:0|0:0,0:0:0:0:
161,349,247468,6,0,P|172:242|164:140,1,200,4|0,0:0|0:0,0:0:0:0:
165,150,248405,1,0,0:0:0:0:
136,88,248718,6,0,P|158:120|164:171,1,69.9999978637696,2|0,0:0|0:0,0:0:0:0:
25,236,249030,2,0,P|24:198|42:158,1,69.9999978637696,2|0,0:0|0:0,0:0:0:0:
243,104,249343,6,0,P|319:99|407:112,1,139.999995727539,4|0,0:0|0:0,0:0:0:0:
309,169,249968,6,0,P|318:105|317:24,1,139.999995727539,2|0,0:0|0:0,0:0:0:0:
309,169,250593,6,0,P|362:173|405:217,1,100,2|0,0:0|0:0,0:0:0:0:
324,261,251218,2,0,P|275:257|232:204,1,100,2|0,0:0|0:0,0:0:0:0:
288,75,251843,2,0,P|311:122|300:188,1,100,2|0,0:0|0:0,0:0:0:0:
133,206,252468,6,0,P|133:171|150:124,1,69.9999978637696,2|0,0:0|0:0,0:0:0:0:
218,188,252780,2,0,P|224:222|215:271,1,69.9999978637696,2|0,0:0|0:0,0:0:0:0:
52,233,253093,2,0,P|45:198|54:149,1,69.9999978637696,2|0,0:0|0:0,0:0:0:0:
145,67,253405,6,0,L|142:150,1,69.9999978637696,4|0,0:0|0:0,0:0:0:0:
131,343,253718,2,0,L|136:267,1,69.9999978637696,4|0,0:0|0:0,0:0:0:0:
141,136,254030,1,2,0:0:0:0:
141,136,254343,6,0,P|217:145|298:128,1,139.999995727539,2|2,0:0|0:0,0:0:0:0:
415,76,254968,5,8,0:0:0:0:
410,173,255280,1,8,0:0:0:0:
409,271,255593,1,8,0:0:0:0:
409,368,255905,5,8,0:0:0:0:
409,368,256061,1,8,0:0:0:0:
409,368,256218,1,4,0:0:0:0:
311,369,256530,5,8,0:0:0:0:
207,368,256843,1,8,0:0:0:0:
102,365,257155,1,8,0:0:0:0:
119,238,257468,6,8,L|129:140,1,69.9999978637696,10|8,0:0|0:0,0:0:0:0:
144,48,257780,1,8,0:0:0:0:
144,48,257936,1,8,0:0:0:0:
144,48,258093,2,8,L|237:43,1,69.9999978637696,10|8,0:0|0:0,0:0:0:0:
326,149,258405,2,0,L|240:144,1,69.9999978637696,8|0,0:0|0:0,0:0:0:0:
396,82,258718,6,0,P|421:144|391:220,1,139.999995727539,2|0,0:0|0:0,0:0:0:0:
327,275,259186,1,0,0:0:0:0:
399,210,259343,2,0,P|432:201|467:205,1,69.9999978637696,2|0,0:0|0:0,0:0:0:0:
440,367,259655,2,0,P|445:332|439:297,1,69.9999978637696,2|0,0:0|0:0,0:0:0:0:
309,150,259968,5,8,0:0:0:0:
274,148,260124,1,8,0:0:0:0:
239,148,260280,1,8,0:0:0:0:
204,148,260436,1,8,0:0:0:0:
105,150,260593,5,8,0:0:0:0:
176,231,260749,1,8,0:0:0:0:
283,233,260905,1,8,0:0:0:0:
342,147,261061,1,8,0:0:0:0:
239,148,261218,5,8,0:0:0:0:
176,231,261374,1,8,0:0:0:0:
196,338,261530,1,8,0:0:0:0:
290,384,261686,1,8,0:0:0:0:
383,335,261843,5,8,0:0:0:0:
342,147,261999,1,8,0:0:0:0:
265,312,262155,5,8,0:0:0:0:
474,175,262311,1,8,0:0:0:0:
295,92,262468,5,8,0:0:0:0:
261,90,262546,1,8,0:0:0:0:
229,104,262624,1,8,0:0:0:0:
197,118,262702,1,8,0:0:0:0:
163,125,262780,1,8,0:0:0:0:
128,129,262858,1,8,0:0:0:0:
94,119,262936,1,8,0:0:0:0:
66,97,263014,1,8,0:0:0:0:
83,66,263092,5,8,0:0:0:0:
133,90,263170,1,8,0:0:0:0:
163,125,263248,1,8,0:0:0:0:
181,177,263326,1,8,0:0:0:0:
176,231,263404,1,8,0:0:0:0:
149,278,263482,1,8,0:0:0:0:
104,309,263561,1,8,0:0:0:0:
50,319,263639,1,8,0:0:0:0:
15,327,263718,6,0,L|14:277,1,50,2|0,0:0|0:0,0:0:0:0:
186,354,263874,1,8,0:0:0:0:
200,354,263952,1,8,0:0:0:0:
214,355,264030,2,0,L|282:365,1,50,2|0,0:0|0:0,0:0:0:0:
440,373,264186,5,2,0:0:0:0:
440,358,264264,1,0,0:0:0:0:
440,342,264343,2,0,L|441:268,1,50
341,187,264499,2,0,L|340:261,1,50
441,176,264655,6,0,L|441:115,6,37.5000014305115,4|0|0|0|0|0|0,0:0|0:0|0:0|0:0|0:0|0:0|0:0,0:0:0:0:
441,293,264968,6,0,L|441:258,1,30,8|0,0:0|0:0,0:0:0:0:
441,263,265280,6,0,B|372:244|318:283|318:283|252:326|183:278,1,255.000004863739,12|0,0:0|0:0,0:0:0:0:
61,238,265593,5,0,0:0:0:0:
43,231,265671,1,0,0:0:0:0:
33,221,265749,2,0,P|25:192|24:163,1,59.9999981689454,8|0,0:0|0:0,0:0:0:0:
203,61,265905,2,0,P|126:101|114:187,1,179.999994506836,8|0,0:0|0:0,0:0:0:0:
198,216,266218,6,0,L|203:157,1,59.9999981689454,2|0,0:0|0:0,0:0:0:0:
389,127,266374,1,8,0:0:0:0:
389,127,266452,1,8,0:0:0:0:
389,127,266530,2,0,L|394:203,1,59.9999981689454,8|0,0:0|0:0,0:0:0:0:
403,337,266686,1,0,0:0:0:0:
288,117,266843,5,8,0:0:0:0:
288,117,266921,1,8,0:0:0:0:
288,117,266999,1,8,0:0:0:0:
512,169,267155,2,0,L|370:191,1,119.999996337891,8|0,0:0|0:0,0:0:0:0:
222,209,267389,1,0,0:0:0:0:
198,216,267468,6,0,B|161:273|206:344|206:344|232:285,1,179.999994506836,8|0,0:0|0:0,0:0:0:0:
282,255,267780,1,8,0:0:0:0:
129,360,267936,2,0,P|100:361|73:350,1,59.9999981689454,2|0,0:0|0:0,0:0:0:0:
116,119,268093,2,0,L|110:239,1,119.999996337891,2|0,0:0|0:0,0:0:0:0:
227,107,268405,1,8,0:0:0:0:
30,52,268561,1,0,0:0:0:0:
198,216,268718,6,0,P|227:217|258:214,1,59.9999981689454,2|0,0:0|0:0,0:0:0:0:
365,161,268874,1,0,0:0:0:0:
383,174,268952,1,0,0:0:0:0:
392,186,269030,2,0,P|410:249|385:303,1,119.999996337891,8|0,0:0|0:0,0:0:0:0:
270,313,269264,1,0,0:0:0:0:
270,313,269343,6,0,P|183:294|98:321,1,179.999994506836,8|0,0:0|0:0,0:0:0:0:
16,369,269655,2,0,P|6:340|2:310,1,59.9999981689454,8|0,0:0|0:0,0:0:0:0:
15,157,269811,2,0,P|27:186|28:220,1,59.9999981689454
126,156,269968,6,0,B|172:126|213:139|213:139|268:163|312:126,1,179.999994506836,8|0,2:0|2:0,2:0:0:0:
275,0,270280,2,0,P|260:25|251:54,1,59.9999981689454,8|0,0:0|0:0,0:0:0:0:
292,243,270436,1,8,0:0:0:0:
296,231,270514,1,8,0:0:0:0:
299,220,270593,1,8,0:0:0:0:
299,207,270671,1,8,0:0:0:0:
301,195,270749,2,0,P|301:159|294:127,1,59.9999981689454,8|0,0:0|0:0,0:0:0:0:
130,112,270905,2,0,P|106:165|126:219,1,119.999996337891,8|0,0:0|0:0,0:0:0:0:
164,92,271139,1,0,0:0:0:0:
164,92,271218,6,0,L|44:85,1,119.999996337891,2|0,0:0|0:0,0:0:0:0:
14,167,271452,1,0,0:0:0:0:
17,183,271530,2,0,P|46:184|76:177,1,59.9999981689454,8|0,0:0|0:0,0:0:0:0:
296,135,271686,1,8,0:0:0:0:
303,152,271764,1,8,0:0:0:0:
305,174,271843,2,0,P|253:190|195:166,1,119.999996337891,8|8,0:0|0:0,0:0:0:0:
130,0,272155,2,0,P|112:56|130:112,1,119.999996337891,8|0,0:0|0:0,0:0:0:0:
209,263,272389,1,0,0:0:0:0:
209,263,272468,5,2,0:0:0:0:
76,177,272624,1,8,0:0:0:0:
76,194,272702,1,8,0:0:0:0:
75,211,272780,2,0,L|67:293,1,59.9999981689454,8|0,0:0|0:0,0:0:0:0:
199,352,272936,2,0,L|205:277,1,59.9999981689454,2|0,0:0|0:0,0:0:0:0:
198,45,273093,2,0,L|194:182,1,119.999996337891,2|0,0:0|0:0,0:0:0:0:
396,70,273405,2,0,L|326:76,1,59.9999981689454,8|0,0:0|0:0,0:0:0:0:
282,217,273561,1,8,0:0:0:0:
299,220,273639,1,8,0:0:0:0:
317,221,273718,6,0,L|394:226,1,59.9999981689454,8|0,0:0|0:0,0:0:0:0:
510,150,273874,1,8,0:0:0:0:
494,140,273952,1,8,0:0:0:0:
476,138,274030,2,0,P|441:138|409:154,1,59.9999981689454,8|0,0:0|0:0,0:0:0:0:
353,358,274186,1,8,0:0:0:0:
384,333,274264,1,8,0:0:0:0:
400,297,274342,5,8,0:0:0:0:
397,257,274420,1,8,0:0:0:0:
376,224,274499,2,0,P|350:228|310:258,1,59.9999981689454,8|0,0:0|0:0,0:0:0:0:
454,347,274655,2,0,P|484:349|511:340,1,59.9999981689454,8|0,0:0|0:0,0:0:0:0:
418,87,274811,2,0,L|418:149,1,59.9999981689454,8|0,0:0|0:0,0:0:0:0:
321,244,274968,6,0,B|324:186|324:186|302:122|302:122|307:61,1,179.999994506836,4|0,0:0|0:0,0:0:0:0:
218,161,275280,2,0,B|233:209|233:209|226:301,1,119.999996337891,8|0,0:0|0:0,0:0:0:0:
227,278,275514,1,8,0:0:0:0:
233,285,275593,6,0,L|152:281,1,59.9999981689454,8|0,0:0|0:0,0:0:0:0:
35,273,275749,1,8,0:0:0:0:
77,101,275905,2,0,B|103:87|103:87|102:184,1,119.999996337891,8|0,0:0|0:0,0:0:0:0:
101,325,276139,1,0,0:0:0:0:
102,343,276218,6,0,B|237:353,1,119.999996337891,2|8,0:0|0:0,0:0:0:0:
217,144,276452,1,8,0:0:0:0:
218,161,276530,2,0,L|223:240,1,59.9999981689454,8|0,0:0|0:0,0:0:0:0:
403,326,276686,1,8,0:0:0:0:
410,320,276764,1,8,0:0:0:0:
414,312,276843,6,0,B|415:281|396:255|396:255|416:225|409:193,1,119.999996337891,2|0,0:0|0:0,0:0:0:0:
283,60,277155,1,8,0:0:0:0:
281,220,277311,1,8,0:0:0:0:
282,232,277389,1,8,0:0:0:0:
282,245,277468,6,0,P|225:292|223:219,1,179.999994506836,8|0,0:0|0:0,0:0:0:0:
266,166,277780,1,8,0:0:0:0:
318,332,277936,1,8,0:0:0:0:
331,344,278014,1,8,0:0:0:0:
349,351,278093,6,0,P|377:341|402:325,1,59.9999981689454,8|0,0:0|0:0,0:0:0:0:
133,240,278249,2,0,P|105:250|80:266,1,59.9999981689454,8|0,0:0|0:0,0:0:0:0:
225,384,278405,2,0,L|227:314,1,59.9999981689454,8|0,0:0|0:0,0:0:0:0:
240,131,278561,1,8,0:0:0:0:
240,113,278639,1,8,0:0:0:0:
240,94,278718,6,0,B|297:64|297:64|353:89,1,119.999996337891,2|8,0:0|0:0,0:0:0:0:
482,218,278952,1,8,0:0:0:0:
464,221,279030,2,0,L|395:191,1,59.9999981689454,8|0,0:0|0:0,0:0:0:0:
221,220,279186,2,0,L|279:190,1,59.9999981689454
387,90,279343,5,8,0:0:0:0:
372,100,279421,1,8,0:0:0:0:
363,115,279499,1,8,0:0:0:0:
355,131,279577,1,8,0:0:0:0:
346,155,279655,5,8,0:0:0:0:
335,108,279733,1,8,0:0:0:0:
310,67,279811,1,8,0:0:0:0:
262,58,279889,1,8,0:0:0:0:
218,80,279968,6,0,P|166:99|91:81,1,119.999996337891,4|8,0:0|0:0,0:0:0:0:
157,8,280202,1,8,0:0:0:0:
157,8,280280,2,0,L|156:81,1,59.9999981689454,8|0,0:0|0:0,0:0:0:0:
107,262,280436,6,0,B|198:228|198:228|291:267,1,179.999994506836,2|0,0:0|0:0,0:0:0:0:
241,369,280749,1,8,0:0:0:0:
223,372,280827,1,8,0:0:0:0:
203,373,280905,2,0,L|197:314,1,59.9999981689454,8|0,0:0|0:0,0:0:0:0:
230,157,281061,2,0,L|285:182,1,59.9999981689454,0|0,0:0|0:0,0:0:0:0:
27,259,281218,6,0,P|9:164|56:87,1,179.999994506836,2|0,0:0|0:0,0:0:0:0:
159,14,281530,2,0,P|129:19|100:14,1,59.9999981689454,8|0,0:0|0:0,0:0:0:0:
145,110,281686,1,0,0:0:0:0:
482,64,281843,6,0,P|388:35|302:64,1,179.999994506836,2|0,0:0|0:0,0:0:0:0:
229,156,282155,2,0,P|223:127|230:98,1,59.9999981689454,8|0,0:0|0:0,0:0:0:0:
484,188,282311,1,0,0:0:0:0:
477,196,282389,1,0,0:0:0:0:
470,204,282468,6,0,B|459:206|459:206|385:249|286:182,1,179.999994506836,8|8,0:0|0:0,0:0:0:0:
171,107,282780,2,0,P|203:106|230:97,1,59.9999981689454,8|0,0:0|0:0,0:0:0:0:
482,64,282936,2,0,P|452:69|425:82,1,59.9999981689454
302,309,283093,6,0,P|311:249|300:191,1,119.999996337891,2|8,0:0|0:0,0:0:0:0:
234,100,283327,1,8,0:0:0:0:
234,100,283405,2,0,P|226:133|234:173,1,59.9999981689454,8|0,0:0|0:0,0:0:0:0:
302,309,283561,6,0,P|219:279|139:316,1,179.999994506836,2|0,0:0|0:0,0:0:0:0:
34,365,283874,1,8,0:0:0:0:
34,365,283952,1,8,0:0:0:0:
33,364,284030,2,0,P|59:380|88:385,1,59.9999981689454,8|0,0:0|0:0,0:0:0:0:
435,357,284186,5,2,0:0:0:0:
435,357,284264,1,2,0:0:0:0:
435,357,284343,2,0,P|411:338|382:329,1,59.9999981689454,8|0,0:0|0:0,0:0:0:0:
223,259,284499,1,8,0:0:0:0:
226,211,284577,1,8,0:0:0:0:
226,163,284655,5,8,0:0:0:0:
208,118,284733,1,8,0:0:0:0:
185,76,284811,1,8,0:0:0:0:
217,43,284889,1,8,0:0:0:0:
264,42,284968,6,0,P|316:48|378:42,1,100,4|8,0:0|0:0,0:0:0:0:
491,25,285202,1,8,0:0:0:0:
505,21,285280,2,0,L|503:85,1,50,8|0,0:0|0:0,0:0:0:0:
392,177,285436,2,0,L|387:110,1,50,2|0,0:0|0:0,0:0:0:0:
499,247,285593,6,0,B|446:240|446:240|389:261|389:261|325:251,1,150,2|0,0:0|0:0,0:0:0:0:
353,255,285905,2,0,P|354:283|359:322,1,50,10|0,0:0|0:0,0:0:0:0:
499,247,286061,2,0,P|496:223|488:181,1,50,2|0,0:0|0:0,0:0:0:0:
223,259,286218,6,0,P|292:225|358:261,1,150,2|0,0:0|0:0,0:0:0:0:
204,337,286530,2,0,P|179:325|155:305,1,50,8|0,0:0|0:0,0:0:0:0:
191,119,286686,2,0,P|196:148|196:176,1,50,0|0,0:0|0:0,0:0:0:0:
36,274,286843,6,0,L|52:108,1,150,2|0,0:0|0:0,0:0:0:0:
50,124,287155,1,8,0:0:0:0:
325,77,287311,1,8,0:0:0:0:
332,89,287389,1,8,0:0:0:0:
336,103,287468,6,0,P|264:125|190:118,1,150,10|0,0:0|0:0,0:0:0:0:
190,118,287780,2,0,P|188:91|175:55,1,50,8|0,0:0|0:0,0:0:0:0:
138,205,287936,2,0,P|140:229|148:253,1,50,0|0,0:0|0:0,0:0:0:0:
364,211,288093,2,0,B|322:211|322:211|290:203|290:203|245:201,1,100,2|0,0:0|0:0,0:0:0:0:
138,205,288405,1,8,0:0:0:0:
233,341,288561,2,0,P|239:312|239:284,1,50,0|0,0:0|0:0,0:0:0:0:
258,26,288718,6,0,L|262:146,1,100,2|2,0:0|0:0,0:0:0:0:
364,211,288952,1,2,0:0:0:0:
364,235,289030,2,0,L|319:242,1,44.999998626709,10|0,0:0|0:0,0:0:0:0:
177,227,289186,1,2,0:0:0:0:
138,205,289264,1,2,0:0:0:0:
111,170,289343,5,2,0:0:0:0:
166,174,289421,1,2,0:0:0:0:
208,207,289499,1,2,0:0:0:0:
226,258,289577,1,2,0:0:0:0:
214,311,289655,5,8,0:0:0:0:
169,349,289733,1,2,0:0:0:0:
110,350,289811,1,2,0:0:0:0:
65,312,289889,1,2,0:0:0:0:
48,259,289968,6,0,P|38:184|58:91,1,165.000005035401,10|0,0:0|0:0,0:0:0:0:
55,97,290280,2,0,P|89:97|131:118,1,55.0000016784668,8|0,0:0|0:0,0:0:0:0:
134,257,290436,2,0,P|129:225|144:195,1,55.0000016784668,0|0,0:0|0:0,0:0:0:0:
262,17,290593,6,0,P|269:79|259:133,1,110.000003356934,2|2,0:0|0:0,0:0:0:0:
265,202,290827,1,2,0:0:0:0:
265,202,290905,2,0,P|297:194|322:170,1,55.0000016784668,8|0,0:0|0:0,0:0:0:0:
262,17,291061,2,0,P|231:18|200:36,1,55.0000016784668,0|0,0:0|0:0,0:0:0:0:
352,80,291218,6,0,P|420:47|503:92,1,165.000005035401,2|0,0:0|0:0,0:0:0:0:
415,196,291530,2,0,P|415:169|424:143,1,55.0000016784668,8|0,0:0|0:0,0:0:0:0:
488,28,291686,2,0,P|496:52|495:87,1,55.0000016784668
350,280,291843,5,2,0:0:0:0:
342,264,291921,1,2,0:0:0:0:
336,248,291999,2,0,P|329:219|327:189,1,55.0000016784668,2|0,0:0|0:0,0:0:0:0:
498,239,292155,1,8,0:0:0:0:
500,255,292233,1,2,0:0:0:0:
503,271,292311,2,0,P|473:275|443:271,1,55.0000016784668,2|0,0:0|0:0,0:0:0:0:
227,239,292468,6,0,P|173:227|120:241,1,110.000003356934,2|2,0:0|0:0,0:0:0:0:
170,362,292702,1,2,0:0:0:0:
170,362,292780,6,0,P|176:335|176:308,1,55.0000016784668,8|0,0:0|0:0,0:0:0:0:
49,213,292936,2,0,P|45:244|54:280,1,55.0000016784668,8|0,0:0|0:0,0:0:0:0:
226,239,293093,2,0,P|233:212|235:184,1,55.0000016784668,2|0,0:0|0:0,0:0:0:0:
97,79,293249,2,0,P|92:109|98:153,1,55.0000016784668,8|0,0:0|0:0,0:0:0:0:
197,100,293405,5,8,0:0:0:0:
218,94,293483,1,2,0:0:0:0:
239,90,293561,1,2,0:0:0:0:
260,92,293639,1,2,0:0:0:0:
280,101,293718,1,2,0:0:0:0:
294,117,293796,1,2,0:0:0:0:
306,138,293874,2,0,L|305:69,1,55.0000016784668,2|0,0:0|0:0,0:0:0:0:
355,0,294030,5,8,0:0:0:0:
367,10,294108,1,2,0:0:0:0:
377,22,294186,1,2,0:0:0:0:
383,37,294264,1,2,0:0:0:0:
386,53,294343,5,2,0:0:0:0:
381,85,294421,1,2,0:0:0:0:
365,113,294499,1,2,0:0:0:0:
339,133,294577,1,2,0:0:0:0:
306,138,294655,6,0,L|251:141,1,55.0000016784668,8|0,0:0|0:0,0:0:0:0:
138,14,294811,2,0,L|204:18,1,55.0000016784668,2|0,0:0|0:0,0:0:0:0:
143,260,294968,6,0,P|165:175|146:75,1,165.000005035401,4|0,0:0|0:0,0:0:0:0:
155,99,295280,1,8,0:0:0:0:
61,288,295436,1,2,0:0:0:0:
76,283,295514,1,2,0:0:0:0:
91,279,295593,6,0,L|167:250,1,55.0000016784668,2|0,0:0|0:0,0:0:0:0:
237,166,295749,2,0,L|236:220,1,55.0000016784668,8|0,0:0|0:0,0:0:0:0:
266,342,295905,2,0,L|213:324,1,55.0000016784668,8|0,0:0|0:0,0:0:0:0:
23,224,296061,1,0,0:0:0:0:
23,224,296139,1,0,0:0:0:0:
23,224,296218,5,0,0:0:0:0:
237,166,296374,1,0,0:0:0:0:
68,141,296530,1,8,0:0:0:0:
154,44,296686,6,0,L|155:105,1,55.0000016784668
202,220,296843,1,2,0:0:0:0:
218,221,296921,1,2,0:0:0:0:
234,220,296999,2,0,L|237:144,1,55.0000016784668,2|0,0:0|0:0,0:0:0:0:
246,35,297155,1,8,0:0:0:0:
262,35,297233,1,2,0:0:0:0:
277,41,297311,1,2,0:0:0:0:
289,51,297389,1,2,0:0:0:0:
295,61,297468,6,0,P|369:87|431:57,1,150,8|0,0:0|0:0,0:0:0:0:
361,7,297780,2,0,L|363:127,1,100,8|0,0:0|0:0,0:0:0:0:
362,205,298014,1,2,0:0:0:0:
362,220,298093,5,2,0:0:0:0:
500,211,298249,2,0,P|446:191|355:226,1,150,8|0,0:0|0:0,0:0:0:0:
439,320,298561,2,0,P|441:295|436:271,1,50,8|0,0:0|0:0,0:0:0:0:
269,250,298718,5,2,0:0:0:0:
240,259,298796,1,2,0:0:0:0:
211,255,298874,1,8,0:0:0:0:
188,237,298952,1,2,0:0:0:0:
172,211,299030,5,8,0:0:0:0:
156,168,299108,1,2,0:0:0:0:
182,126,299186,1,2,0:0:0:0:
187,78,299264,1,2,0:0:0:0:
148,50,299343,2,0,L|87:57,1,50,2|0,0:0|0:0,0:0:0:0:
258,142,299499,2,0,L|338:132,1,50,2|0,0:0|0:0,0:0:0:0:
501,113,299655,5,8,0:0:0:0:
502,162,299733,1,8,0:0:0:0:
500,211,299811,1,8,0:0:0:0:
500,260,299889,1,8,0:0:0:0:
499,310,299968,6,0,B|468:332|426:315|426:315|380:294|327:328,1,165.000005035401,8|0,0:0|0:0,0:0:0:0:
389,384,300280,2,0,P|391:355|385:321,1,55.0000016784668,8|0,0:0|0:0,0:0:0:0:
257,211,300436,2,0,P|258:248|263:271,1,55.0000016784668,0|0,0:0|0:0,0:0:0:0:
352,207,300593,5,2,0:0:0:0:
340,164,300671,1,2,0:0:0:0:
310,131,300749,1,2,0:0:0:0:
268,115,300827,1,2,0:0:0:0:
223,121,300905,1,10,0:0:0:0:
187,146,300983,1,2,0:0:0:0:
165,185,301061,1,2,0:0:0:0:
150,227,301139,1,2,0:0:0:0:
129,267,301218,6,0,P|126:202|133:106,1,150,4|0,0:0|0:0,0:0:0:0:
160,0,301530,2,0,P|168:33|161:64,1,50,8|0,0:0|0:0,0:0:0:0:
48,184,301686,2,0,P|46:163|54:125,1,50,0|0,0:0|0:0,0:0:0:0:
223,121,301843,5,2,0:0:0:0:
276,114,301921,1,2,0:0:0:0:
325,138,301999,1,2,0:0:0:0:
351,186,302077,1,2,0:0:0:0:
346,239,302155,2,0,P|337:272|321:300,1,50,8|0,0:0|0:0,0:0:0:0:
218,170,302311,2,0,P|219:147|226:105,1,50,0|0,0:0|0:0,0:0:0:0:
372,27,302468,6,0,P|425:22|480:41,1,100,4|0,0:0|0:0,0:0:0:0:
502,116,302702,1,0,0:0:0:0:
502,116,302780,2,0,L|496:167,1,50,8|0,0:0|0:0,0:0:0:0:
333,335,302936,2,0,L|329:285,1,50,0|0,0:0|0:0,0:0:0:0:
222,120,303093,5,2,0:0:0:0:
175,101,303171,1,2,0:0:0:0:
126,105,303249,1,2,0:0:0:0:
84,132,303327,1,2,0:0:0:0:
58,174,303405,1,2,0:0:0:0:
54,224,303483,1,2,0:0:0:0:
74,269,303561,1,2,0:0:0:0:
112,301,303639,1,2,0:0:0:0:
151,311,303718,6,0,L|219:303,1,50,2|0,0:0|0:0,0:0:0:0:
337,293,303874,1,8,0:0:0:0:
337,293,303952,1,8,0:0:0:0:
337,293,304030,2,0,B|340:248|340:248|330:212|330:212|331:158,1,119.999996337891,8|0,0:0|0:0,0:0:0:0:
154,188,304264,5,0,0:0:0:0:
153,178,304343,2,0,L|157:246,1,59.9999981689454,8|0,0:0|0:0,0:0:0:0:
276,92,304499,5,0,0:0:0:0:
277,102,304578,2,0,L|273:34,1,59.9999981689454,8|0,0:0|0:0,0:0:0:0:
418,190,304733,5,0,0:0:0:0:
419,180,304812,2,0,L|415:248,1,59.9999981689454,8|0,0:0|0:0,0:0:0:0:
230,163,304967,1,8,0:0:0:0:
256,192,305046,12,0,309968,0:0:0:0:
201,244,310593,6,0,P|158:173|204:103,1,175,0|0,0:0|0:0,0:0:0:0:
239,174,311218,6,0,P|309:87|230:8,1,244.999992523194,0|0,0:0|0:0,0:0:0:0:
230,7,311843,6,0,L|300:8,1,70,0|0,0:0|0:0,0:0:0:0:
397,3,312468,6,0,P|310:88|424:188,1,300,0|0,0:0|0:0,0:0:0:0:
412,103,313561,5,0,0:0:0:0:
412,103,313639,1,0,0:0:0:0:
412,103,313718,2,0,B|366:73|309:102|309:102|267:122|208:93,1,200,0|0,0:0|0:0,0:0:0:0:
140,282,314968,6,0,B|203:309|264:263|264:263|308:304|362:276|362:276|365:381|490:414|558:268|473:230|430:224|430:224|400:157|321:173|321:173|321:206,1,719.999978027344,0|0,0:0|0:0,0:0:0:0:
0,220,318718,6,0,B|63:157|141:207|141:207|218:111|103:57|64:124,1,359.999989013672,0|0,0:0|0:0,0:0:0:0:
67,118,320593,6,0,P|146:88|209:116,1,157.499995193482,0|0,0:0|0:0,0:0:0:0:
208,115,321218,6,0,P|285:127|353:82,1,157.499995193482,0|0,0:0|0:0,0:0:0:0:
349,86,321843,6,0,B|384:142|347:200|347:200|395:168,1,157.499995193482,0|0,0:0|0:0,0:0:0:0:
377,179,322468,6,0,P|509:219|376:269,1,359.999989013672,0|0,0:0|0:0,0:0:0:0:
121,194,323718,6,0,B|141:146|215:135|219:197|219:197|245:307|341:287|350:163|219:197|219:197|163:223|162:266|189:300|212:310,1,519.99997619629,0|0,0:0|0:0,0:0:0:0:
