osu file format v14

[General]
AudioFilename: nanahira chan.mp3
AudioLeadIn: 0
PreviewTime: 223191
Countdown: 0
SampleSet: Soft
StackLeniency: 0.5
Mode: 0
LetterboxInBreaks: 0
WidescreenStoryboard: 0

[Editor]
Bookmarks: 10153,30149,73899,93899,113899,133895,157645,223895,243895,264207,303895
DistanceSpacing: 3.4
BeatDivisor: 4
GridSize: 4
TimelineZoom: 2.6

[Metadata]
Title:Petals
TitleUnicode:Petals
Artist:Nanahira
ArtistUnicode:ななひら
Creator:Kalibe
Version:Flower
Source:
Tags:secretale confetto cametek かめりあ camellia
BeatmapID:1601880
BeatmapSetID:592381

[Difficulty]
HPDrainRate:6
CircleSize:4
OverallDifficulty:8.3
ApproachRate:9.5
SliderMultiplier:1.7
SliderTickRate:1

[Events]
//Background and Video events
0,0,"waw.jpg",0,0
//Break Periods
2,180145,187120
2,220344,222745
//Storyboard Layer 0 (Background)
//Storyboard Layer 1 (Fail)
//Storyboard Layer 2 (Pass)
//Storyboard Layer 3 (Foreground)
//Storyboard Sound Samples

[TimingPoints]
145,312.5,4,2,4,40,1,0
145,-200,4,2,4,40,0,0
10145,-200,4,2,4,50,0,0
10223,-200,4,2,4,40,0,0
13895,-400,4,2,4,40,0,0
15145,-400,4,2,4,20,0,0
15770,-200,4,2,4,40,0,0
16316,-200,4,2,4,5,0,0
16395,-166.666666666667,4,2,4,40,0,0
16941,-166.666666666667,4,2,4,5,0,0
17020,-400.818181818182,4,2,4,40,0,0
17566,-400.818181818182,4,2,4,5,0,0
17645,-400.818181818182,4,2,4,40,0,0
18895,-200,4,2,4,40,0,0
19520,-200,4,2,4,30,0,0
19910,-200,4,2,4,40,0,0
20145,-200,4,2,4,40,0,0
21395,-133.333333333333,4,2,4,40,0,0
22020,-200,4,2,4,40,0,0
23895,-400,4,2,4,40,0,0
26316,-400,4,2,4,5,0,0
26395,-300,4,2,4,40,0,0
26941,-300,4,2,4,5,0,0
27020,-133.333333333333,4,2,4,40,0,0
27566,-133.333333333333,4,2,4,5,0,0
27645,-400,4,2,4,40,0,0
28895,-111.111111111111,4,2,4,40,0,0
29832,-71.4285714285714,4,2,4,50,0,0
30066,-71.4285714285714,4,2,4,5,0,0
30145,-200,4,2,1,35,0,0
38895,-166.666666666667,4,2,1,40,0,0
40145,-200,4,2,1,35,0,0
49520,-166.666666666667,4,2,1,40,0,0
49832,-133.333333333333,4,2,1,40,0,0
50145,-200,4,2,5,40,0,0
50223,-200,4,2,1,40,0,0
54520,-200,4,2,5,40,0,0
54598,-200,4,2,1,40,0,0
58426,-200,4,2,1,40,0,0
58582,-100,4,2,1,40,0,0
58895,-166.666666666667,4,2,1,40,0,0
59520,-166.666666666667,4,2,5,40,0,0
59598,-166.666666666667,4,2,1,40,0,0
64520,-166.666666666667,4,2,5,40,0,0
64598,-166.666666666667,4,2,1,40,0,0
68113,-133.333333333333,4,2,1,40,0,0
69520,-300,4,2,5,40,0,0
69598,-300,4,2,1,40,0,0
70926,-200,4,2,1,40,0,0
71395,-133.333333333333,4,2,1,50,0,0
73582,-66.6666666666667,4,2,1,50,0,0
73895,-133.333333333333,4,2,1,60,0,0
75145,-133.333333333333,4,2,5,60,0,0
75223,-133.333333333333,4,2,1,60,0,0
75770,-133.333333333333,4,2,5,60,0,0
75848,-133.333333333333,4,2,1,60,0,0
77645,-133.333333333333,4,2,5,60,0,0
77723,-133.333333333333,4,2,1,60,0,0
80145,-133.333333333333,4,2,5,60,0,0
80223,-133.333333333333,4,2,1,60,0,0
80770,-133.333333333333,4,2,5,60,0,0
80848,-133.333333333333,4,2,1,60,0,0
82332,-133.333333333333,4,2,5,60,0,0
82723,-133.333333333333,4,2,1,60,0,0
83270,-133.333333333333,4,2,5,60,0,0
83348,-133.333333333333,4,2,1,60,0,0
83895,-200,4,2,1,60,0,0
84520,-166.666666666667,4,2,1,60,0,0
85145,-142.857142857143,4,2,1,60,0,0
85770,-125,4,2,1,60,0,0
86395,-111.111111111111,4,2,1,60,0,0
88895,-100,4,2,1,60,0,0
91395,-76.9230769230769,4,2,1,65,0,0
92645,-100,4,2,1,65,0,0
92957,-133.333333333333,4,2,1,60,0,0
93270,-76.9230769230769,4,2,1,60,0,0
93582,-66.6666666666667,4,2,1,60,0,0
93895,-76.9230769230769,4,2,1,70,0,1
97176,-100,4,2,1,70,0,1
97645,-76.9230769230769,4,2,5,70,0,1
97723,-76.9230769230769,4,2,1,70,0,1
98270,-76.9230769230769,4,2,5,70,0,1
98348,-76.9230769230769,4,2,1,70,0,1
102176,-100,4,2,1,70,0,1
102332,-76.9230769230769,4,2,5,70,0,1
102410,-76.9230769230769,4,2,1,70,0,1
102645,-76.9230769230769,4,2,5,70,0,1
102723,-76.9230769230769,4,2,1,70,0,1
103270,-76.9230769230769,4,2,5,70,0,1
103348,-76.9230769230769,4,2,1,70,0,1
107176,-100,4,2,1,70,0,1
107645,-76.9230769230769,4,2,5,70,0,1
107723,-76.9230769230769,4,2,1,70,0,1
108270,-76.9230769230769,4,2,5,70,0,1
108348,-76.9230769230769,4,2,1,70,0,1
113270,-66.6666666666667,4,2,1,70,0,1
113895,-90.9090909090909,4,2,2,60,0,0
117488,-133.333333333333,4,2,2,60,0,0
118895,-90.9090909090909,4,2,2,60,0,0
127488,-100,4,2,2,60,0,0
128582,-90.9090909090909,4,2,2,60,0,0
133270,-76.9230769230769,4,2,2,60,0,0
133895,-133.333333333333,4,2,5,55,0,0
133973,-133.333333333333,4,2,2,60,0,0
138270,-133.333333333333,4,2,5,60,0,0
138348,-133.333333333333,4,2,2,60,0,0
143270,-133.333333333333,4,2,5,60,0,0
143348,-133.333333333333,4,2,2,60,0,0
148270,-133.333333333333,4,2,5,60,0,0
148348,-133.333333333333,4,2,2,60,0,0
155145,-133.333333333333,4,2,5,60,0,0
155223,-133.333333333333,4,2,2,60,0,0
155613,-86.9565217391303,4,2,2,60,0,0
157176,-100,4,2,2,60,0,0
157332,-66.6666666666667,4,2,1,60,0,0
157645,-76.9230769230769,4,2,1,70,0,1
158895,-76.9230769230769,4,2,5,70,0,1
158973,-76.9230769230769,4,2,1,70,0,1
159520,-76.9230769230769,4,2,5,70,0,1
159598,-76.9230769230769,4,2,1,70,0,1
160926,-100,4,2,1,70,0,1
161395,-76.9230769230769,4,2,5,70,0,1
161473,-76.9230769230769,4,2,1,70,0,1
162020,-76.9230769230769,4,2,5,70,0,1
162098,-76.9230769230769,4,2,1,70,0,1
163895,-76.9230769230769,4,2,5,70,0,1
163973,-76.9230769230769,4,2,1,70,0,1
164520,-76.9230769230769,4,2,5,70,0,1
164598,-76.9230769230769,4,2,1,70,0,1
165926,-100,4,2,1,70,0,1
166082,-76.9230769230769,4,2,5,70,0,1
166160,-76.9230769230769,4,2,1,70,0,1
166395,-76.9230769230769,4,2,5,70,0,1
166473,-76.9230769230769,4,2,1,70,0,1
167020,-76.9230769230769,4,2,5,70,0,1
167098,-76.9230769230769,4,2,1,70,0,1
168895,-76.9230769230769,4,2,5,70,0,1
168973,-76.9230769230769,4,2,1,70,0,1
169520,-76.9230769230769,4,2,5,70,0,1
169598,-76.9230769230769,4,2,1,70,0,1
170926,-100,4,2,1,70,0,1
171238,-76.9230769230769,4,2,1,70,0,1
171707,-100,4,2,1,70,0,1
172020,-76.9230769230769,4,2,5,70,0,1
172098,-76.9230769230769,4,2,1,70,0,1
173895,-76.9230769230769,4,2,5,70,0,1
173973,-76.9230769230769,4,2,1,70,0,1
174520,-76.9230769230769,4,2,5,70,0,1
174598,-76.9230769230769,4,2,1,70,0,1
177020,-66.6666666666667,4,2,1,70,0,1
177645,-111.111111111111,4,2,1,70,0,0
177723,-111.111111111111,4,2,2,70,0,0
179207,-111.111111111111,4,2,2,50,0,0
182645,-66.6666666666667,4,2,1,5,0,0
187645,-133.333333333333,4,2,2,50,0,0
189832,-100,4,2,2,50,0,0
190145,-133.333333333333,4,2,2,50,0,0
194832,-100,4,2,2,50,0,0
195926,-200,4,2,2,50,0,0
196395,-200,4,2,2,60,0,0
197332,-200,4,2,2,65,0,0
197645,-200,4,2,1,50,0,0
200770,-133.333333333333,4,2,1,50,0,0
202332,-133.333333333333,4,2,2,50,0,0
202957,-200,4,2,1,50,0,0
207020,-133.333333333333,4,2,1,50,0,0
207332,-133.333333333333,4,2,2,50,0,0
207957,-200,4,2,1,50,0,0
212332,-133.333333333333,4,2,2,50,0,0
212957,-200,4,2,1,50,0,0
214832,-200,4,2,2,50,0,0
215145,-300,4,2,1,50,0,0
216863,-300,4,2,1,5,0,0
217020,-166.666666666667,4,2,1,50,0,0
217488,-166.666666666667,4,2,1,5,0,0
217645,-450,4,2,1,50,0,0
220145,-450,4,2,1,30,0,0
223270,-450,4,2,1,30,0,0
241473,-450,4,2,1,20,0,0
242645,-200,4,2,1,40,0,0
243895,-133.333333333333,4,2,1,50,0,0
247645,-133.333333333333,4,2,5,50,0,0
248895,-133.333333333333,4,2,1,50,0,0
251395,-200,4,2,1,50,0,0
253270,-200,4,2,5,50,0,0
253348,-200,4,2,1,50,0,0
262645,-133.333333333333,4,2,1,50,0,0
263113,-100,4,2,1,50,0,0
263348,-66.6666666666667,4,2,1,50,0,0
263895,-200,4,2,1,50,0,0
264129,-200,4,2,1,5,0,0
264207,-62.5,4,2,1,70,0,1
264520,-76.9230769230769,4,2,1,70,0,1
265145,-76.9230769230769,4,2,5,70,0,1
265223,-76.9230769230769,4,2,1,70,0,1
265770,-76.9230769230769,4,2,5,70,0,1
265848,-76.9230769230769,4,2,1,70,0,1
268270,-76.9230769230769,4,2,5,70,0,1
268348,-76.9230769230769,4,2,1,70,0,1
270145,-76.9230769230769,4,2,5,70,0,1
270223,-76.9230769230769,4,2,1,70,0,1
270770,-76.9230769230769,4,2,5,70,0,1
270848,-76.9230769230769,4,2,1,70,0,1
272332,-76.9230769230769,4,2,5,70,0,1
272410,-76.9230769230769,4,2,1,70,0,1
272645,-76.9230769230769,4,2,5,70,0,1
272723,-76.9230769230769,4,2,1,70,0,1
273270,-76.9230769230769,4,2,5,70,0,1
273348,-76.9230769230769,4,2,1,70,0,1
275145,-76.9230769230769,4,2,5,70,0,1
275223,-76.9230769230769,4,2,1,70,0,1
275770,-76.9230769230769,4,2,5,70,0,1
275848,-76.9230769230769,4,2,1,70,0,1
278270,-76.9230769230769,4,2,5,70,0,1
278348,-76.9230769230769,4,2,1,70,0,1
280145,-76.9230769230769,4,2,5,70,0,1
280223,-76.9230769230769,4,2,1,70,0,1
280770,-76.9230769230769,4,2,5,70,0,1
280848,-76.9230769230769,4,2,1,70,0,1
283895,-66.6666666666667,4,2,1,70,0,0
284207,-90.9090909090909,4,2,1,70,0,0
293895,-66.6666666666667,4,2,1,70,0,0
294207,-76.9230769230769,4,2,1,70,0,0
294832,-90.9090909090909,4,2,1,70,0,0
297488,-76.9230769230769,4,2,1,70,0,0
297645,-90.9090909090909,4,2,1,70,0,0
302645,-66.6666666666667,4,2,1,70,0,0
303895,-200,4,2,4,70,0,0
305145,-66.6666666666667,4,2,4,50,0,0
306395,-200,4,2,4,40,0,0
307645,-400,4,2,4,40,0,0
310066,-200,4,2,4,5,0,0
310145,-166.666666666667,4,2,4,40,0,0
310691,-166.666666666667,4,2,4,5,0,0
310770,-400,4,2,4,40,0,0
311316,-400,4,2,4,5,0,0
311395,-200,4,2,4,40,0,0
313895,-250,4,2,4,40,0,0
317645,-400,4,2,4,40,0,0
320066,-400,4,2,4,5,0,0
320145,-200,4,2,4,43,0,0
320691,-200,4,2,4,5,0,0
320770,-133.333333333333,4,2,4,45,0,0
321316,-133.333333333333,4,2,4,5,0,0
321395,-200,4,2,4,40,0,0
322645,-100,4,2,4,40,0,0
323895,-100,4,2,4,5,0,0

[Colours]
Combo1 : 237,58,152
Combo2 : 133,133,133
Combo3 : 0,193,193
Combo4 : 201,193,105

[HitObjects]
256,192,7645,12,0,9988,0:0:0:0:
65,214,10145,6,0,B|76:151|0:102|0:102|84:131|180:104|116:33|238:-6|321:31|364:145|293:244|176:242|139:154,1,680,4|0,0:3|0:0,0:0:0:0:
147,168,13895,6,0,B|253:171|210:222|300:229,1,170,2|0,0:0|0:0,0:0:0:0:
469,361,15770,6,0,P|463:300|512:253,1,127.5,2|0,0:0|0:0,0:0:0:0:
300,229,16395,6,0,P|342:169|416:170,1,152.999995330811,2|0,0:0|0:0,0:0:0:0:
433,53,17020,6,0,P|467:66|485:91,1,63.6198693316055,2|0,0:0|0:0,0:0:0:0:
483,86,17645,6,0,L|356:74,1,127.239738663211,2|0,0:0|0:0,0:0:0:0:
293,44,18738,5,0,0:0:0:0:
293,44,18816,1,0,0:0:0:0:
293,44,18895,2,0,L|347:61,1,42.5,2|0,0:0|0:0,0:0:0:0:
416,170,19207,2,0,L|362:187,1,42.5
294,245,19520,1,2,0:0:0:0:
283,261,19832,5,0,0:0:0:0:
272,278,19910,1,0,0:0:0:0:
263,314,19988,1,2,0:0:0:0:
280,361,20066,1,2,0:0:0:0:
297,342,20145,6,0,B|257:295|187:285|151:337|151:337|114:386|49:403|-14:362,1,340,4|0,0:3|0:0,0:0:0:0:
0,369,21551,2,0,L|16:305,2,63.7500024318696,2|0|0,0:0|0:0|0:0,0:0:0:0:
106,248,22020,2,0,L|91:117,1,127.5,2|0,0:0|0:0,0:0:0:0:
29,78,22566,5,2,0:0:0:0:
29,78,22645,2,0,P|92:122|213:12,1,255,2|0,0:0|0:0,0:0:0:0:
259,164,23738,1,0,0:0:0:0:
319,117,23895,6,0,B|426:103|391:144|489:129,1,170,2|0,0:0|0:0,0:0:0:0:
486,129,25770,6,0,P|461:110|425:105,1,63.75,2|0,0:0|0:0,0:0:0:0:
318,12,26395,6,0,P|286:17|244:57,1,85,2|0,0:0|0:0,0:0:0:0:
92,81,27020,6,0,P|48:126|81:245,1,191.250007295609,2|0,0:0|0:0,0:0:0:0:
0,335,27645,6,0,B|46:324|46:324|72:332|72:332|104:318|104:318|150:322,1,148.75,2|0,0:0|0:0,0:0:0:0:
232,262,28895,6,0,B|388:265|322:343|438:350,1,229.499992996216,2|0,0:0|0:0,0:0:0:0:
459,364,29441,1,0,0:0:0:0:
459,364,29520,2,0,L|448:307,1,38.2499988327027,2|0,0:0|0:0,0:0:0:0:
436,248,29676,2,0,L|428:210,1,38.2499988327027,2|0,0:0|0:0,0:0:0:0:
397,192,29832,6,0,B|407:134|407:134|404:91|404:91|421:61|427:-4,1,178.499994552612,2|0,0:0|0:0,0:0:0:0:
425,18,30145,6,0,L|330:30,1,85,4|0,0:1|0:0,0:0:0:0:
446,120,30613,2,0,B|329:99|364:164|232:142,1,212.5
238,143,31707,2,0,P|239:100|231:55,1,85,0|0,0:0|0:0,0:0:0:0:
290,270,32332,2,0,P|282:311|284:354,1,85,0|2,0:0|0:0,0:0:0:0:
303,373,32957,5,0,0:0:0:0:
369,330,33113,2,0,L|457:343,1,85,0|0,0:0|0:0,0:0:0:0:
277,244,33582,1,0,0:0:0:0:
277,244,33895,2,0,B|191:243|207:291|116:291,1,170,2|0,0:0|0:0,0:0:0:0:
116,290,34832,2,0,P|113:247|104:187,1,85,0|2,0:0|0:0,0:0:0:0:
35,65,35457,5,0,0:0:0:0:
109,34,35613,2,0,P|145:28|199:23,1,85,0|0,0:0|0:0,0:0:0:0:
299,118,36082,1,0,0:0:0:0:
299,118,36395,6,0,P|251:115|185:169,1,127.5,2|0,0:0|0:0,0:0:0:0:
353,203,37020,2,0,P|389:171|397:86,1,127.5,2|0,0:0|0:0,0:0:0:0:
269,201,37645,2,0,B|242:293|281:275|256:373,1,170,2|0,0:0|0:0,0:0:0:0:
244,349,38895,6,0,B|300:303|300:303|328:374|393:391|452:355,1,254.999992218018,2|0,0:0|0:0,0:0:0:0:
512,289,39832,1,0,0:0:0:0:
512,289,40145,6,0,P|503:245|500:194,1,85,2|0,0:0|0:0,0:0:0:0:
386,241,40613,2,0,P|413:163|311:114,1,212.5,0|0,0:0|0:0,0:0:0:0:
314,112,41707,2,0,L|405:101,1,85,0|0,0:0|0:0,0:0:0:0:
212,266,42332,2,0,L|121:255,1,85,0|2,0:0|0:0,0:0:0:0:
112,268,42957,5,0,0:0:0:0:
56,197,43113,2,0,P|56:155|50:93,1,85,0|0,0:0|0:0,0:0:0:0:
158,49,43582,1,0,0:0:0:0:
158,49,43895,2,0,B|273:64|216:103|318:120,1,170,2|0,0:0|0:0,0:0:0:0:
464,61,44832,2,0,L|458:10,1,42.5
434,1,45145,6,0,L|443:103,1,85,2|0,0:0|0:0,0:0:0:0:
389,145,45613,2,0,L|380:247,1,85,0|0,0:0|0:0,0:0:0:0:
463,331,46082,1,0,0:0:0:0:
463,331,46395,6,0,P|402:325|349:363,1,127.5,2|0,0:0|0:0,0:0:0:0:
267,198,47020,2,0,P|318:234|381:229,1,127.5,2|0,0:0|0:0,0:0:0:0:
198,309,47645,6,0,B|83:306|121:369|-12:372,1,212.5,2|0,0:0|0:0,0:0:0:0:
0,371,48582,2,0,L|11:323,1,42.5,0|0,0:0|0:0,0:0:0:0:
130,217,48895,6,0,L|116:77,1,127.5,2|0,0:0|0:0,0:0:0:0:
57,37,49520,1,0,0:0:0:0:
142,71,49676,1,0,0:0:0:0:
207,180,49832,5,0,0:0:0:0:
309,135,49988,1,0,0:0:0:0:
313,118,50066,1,0,0:0:0:0:
316,102,50145,5,2,0:3:0:0:
271,45,50301,1,0,0:0:0:0:
210,103,50457,1,0,0:0:0:0:
228,191,50613,1,0,0:0:0:0:
288,239,50770,2,0,P|334:233|432:224,1,127.5
478,155,51395,6,0,P|454:149|421:139,1,42.5,0|0,0:0|0:0,0:0:0:0:
477,291,51707,2,0,P|453:296|420:307,1,42.5,0|0,0:0|0:0,0:0:0:0:
414,225,52020,2,0,P|370:220|321:216,1,85,2|0,0:0|0:0,0:0:0:0:
110,363,52645,2,0,P|151:333|228:338,1,127.5,2|0,0:0|0:0,0:0:0:0:
295,375,53270,2,0,L|353:365,1,42.5,0|0,0:0|0:0,0:0:0:0:
271,249,53582,2,0,L|329:259,1,42.5,0|0,0:0|0:0,0:0:0:0:
153,304,53895,1,0,0:0:0:0:
140,232,54051,1,0,0:0:0:0:
173,167,54207,2,0,P|177:146|176:112,1,42.5
106,19,54520,5,2,0:3:0:0:
72,92,54676,2,0,B|160:80|128:108|199:96,1,127.5,0|2,0:0|0:0,0:0:0:0:
317,38,55301,5,0,0:0:0:0:
240,14,55457,1,0,0:0:0:0:
211,80,55613,1,0,0:0:0:0:
294,139,55770,2,0,L|431:127,1,127.5,0|0,0:0|0:0,0:0:0:0:
501,36,56395,6,0,L|494:79,1,42.5,0|0,0:0|0:0,0:0:0:0:
361,174,56707,2,0,L|368:217,1,42.5,0|0,0:0|0:0,0:0:0:0:
448,275,57020,2,0,L|441:318,1,42.5,2|0,0:0|0:0,0:0:0:0:
376,362,57332,1,0,0:0:0:0:
376,362,57488,1,0,0:0:0:0:
471,260,57645,6,0,B|394:245|384:301|298:285,1,170,2|0,0:0|0:0,0:0:0:0:
248,240,58426,2,0,L|257:192,1,42.5,2|0,0:0|0:0,0:0:0:0:
148,324,58738,1,0,0:0:0:0:
92,272,58895,2,0,L|81:113,1,152.999995330811,2|0,0:0|0:0,0:0:0:0:
168,39,59520,1,2,0:3:0:0:
168,39,59832,2,0,P|127:28|105:21,1,50.9999984436036,0|0,0:0|0:0,0:0:0:0:
270,124,60145,6,0,P|317:85|458:116,1,203.999993774414,2|0,0:0|0:0,0:0:0:0:
512,146,60926,1,0,0:0:0:0:
445,194,61082,2,0,L|394:186,1,50.9999984436036,2|0,0:0|0:0,0:0:0:0:
470,22,61395,6,0,L|359:36,1,101.999996887207,2|0,0:0|0:0,0:0:0:0:
270,124,61863,1,2,0:0:0:0:
344,108,62020,1,0,0:0:0:0:
279,150,62176,1,0,0:0:0:0:
317,247,62332,1,2,0:0:0:0:
317,247,62645,5,2,0:0:0:0:
217,215,62801,1,0,0:0:0:0:
151,255,62957,1,0,0:0:0:0:
166,351,63113,1,0,0:0:0:0:
141,282,63270,2,0,P|84:290|34:295,1,101.999996887207,0|0,0:0|0:0,0:0:0:0:
185,378,63738,5,0,0:0:0:0:
247,334,63895,2,0,P|292:337|356:368,1,101.999996887207,2|0,0:0|0:0,0:0:0:0:
432,310,64363,1,0,0:0:0:0:
322,251,64520,2,0,P|332:225|337:190,1,50.9999984436036,2|0,0:3|0:0,0:0:0:0:
442,123,64832,1,0,0:0:0:0:
383,62,64988,1,0,0:0:0:0:
402,45,65145,6,0,L|289:62,1,101.999996887207,2|0,0:0|0:0,0:0:0:0:
196,109,65613,2,0,P|125:40|25:60,1,203.999993774414,2|0,0:0|0:0,0:0:0:0:
29,57,66395,6,0,L|40:115,1,50.9999984436036,0|0,0:0|0:0,0:0:0:0:
112,142,66707,2,0,L|101:200,1,50.9999984436036,0|2,0:0|0:0,0:0:0:0:
0,284,67020,2,0,L|11:342,1,50.9999984436036,2|2,0:0|0:0,0:0:0:0:
148,384,67332,1,0,0:1:0:0:
148,384,67488,1,0,0:0:0:0:
100,319,67645,6,0,P|108:273|113:208,1,101.999996887207,2|0,0:0|0:0,0:0:0:0:
189,171,68113,2,0,B|337:172|273:272|417:278,1,255.000009727478,2|0,0:0|0:0,0:0:0:0:
476,219,68895,6,0,P|465:188|462:149,1,63.7500024318696,2|0,0:0|0:0,0:0:0:0:
299,83,69207,2,0,P|331:82|369:72,1,63.7500024318696,0|0,0:0|0:0,0:0:0:0:
493,18,69520,6,0,L|455:70,1,56.6666666666667,2|0,0:3|0:0,0:0:0:0:
459,63,69988,1,0,0:0:0:0:
384,86,70145,2,0,L|378:53,1,28.3333333333333,2|0,0:0|0:0,0:0:0:0:
297,103,70457,6,0,L|288:169,1,56.6666666666667,2|0,0:0|0:0,0:0:0:0:
187,94,70926,6,0,L|174:-1,1,85,2|0,0:0|0:0,0:0:0:0:
150,30,71316,1,0,0:0:0:0:
140,15,71395,6,0,P|150:142|135:209,1,191.250007295609,2|0,0:0|0:0,0:0:0:0:
58,213,72020,1,0,0:0:0:0:
174,361,72176,2,0,P|167:329|171:288,1,63.7500024318696,2|0,0:0|0:0,0:0:0:0:
54,357,72488,6,0,B|131:382|199:341|151:313|223:275|291:304,1,255.000009727478,2|0,0:0|0:0,0:0:0:0:
390,345,73270,6,0,P|381:299|383:250,1,95.6250036478044,0|0,0:0|0:0,0:0:0:0:
417,269,73582,6,0,P|444:190|427:71,1,191.250007295609,2|0,2:1|0:0,0:0:0:0:
500,50,73895,6,0,P|439:41|366:143,1,191.250007295609,4|0,0:1|0:0,0:0:0:0:
365,133,74520,2,0,P|421:151|490:181,1,127.500004863739,0|0,0:0|0:0,0:0:0:0:
222,58,75145,6,0,B|122:46|150:122|27:110,1,191.250007295609,2|0,0:0|0:0,0:0:0:0:
44,111,75770,2,0,P|78:137|67:223,1,127.500004863739,2|0,0:3|0:0,0:0:0:0:
74,215,76395,6,0,L|220:243,1,127.500004863739,4|0,0:3|0:0,0:0:0:0:
105,364,76863,1,0,0:0:0:0:
166,321,77020,2,0,L|237:314,1,63.7500024318696,0|0,0:0|0:0,0:0:0:0:
152,211,77332,2,0,L|225:225,1,63.7500024318696,0|0,0:0|0:0,0:0:0:0:
291,379,77645,5,2,0:0:0:0:
355,330,77801,1,0,0:0:0:0:
361,317,77879,1,0,0:0:0:0:
361,303,77957,1,0,0:0:0:0:
306,246,78113,1,0,0:0:0:0:
481,182,78270,5,2,0:0:0:0:
383,142,78426,1,0,0:0:0:0:
383,142,78504,1,0,0:0:0:0:
383,142,78582,1,0,0:0:0:0:
306,246,78738,1,0,0:0:0:0:
212,177,78895,6,0,P|197:66|281:44,1,191.250007295609,4|0,0:3|0:0,0:0:0:0:
254,39,79520,2,0,L|121:18,1,127.500004863739,0|0,0:0|0:0,0:0:0:0:
50,204,79988,1,0,0:0:0:0:
32,118,80145,6,0,B|164:130|89:194|211:201,1,191.250007295609,2|0,0:0|0:0,0:0:0:0:
196,199,80770,2,0,P|148:201|86:262,1,127.500004863739,2|0,0:3|0:0,0:0:0:0:
16,282,81238,1,0,0:0:0:0:
103,351,81395,6,0,B|153:372|227:325|227:325|258:343|227:387,1,191.250007295609,4|0,0:3|0:0,0:0:0:0:
233,376,82020,2,0,B|225:313|254:319|246:246,1,127.500004863739,0|2,0:0|0:0,0:0:0:0:
493,147,82645,2,0,B|485:210|514:204|506:277,1,127.500004863739,2|0,0:0|0:0,0:0:0:0:
476,342,83113,1,0,0:0:0:0:
396,231,83270,2,0,L|469:216,1,63.7500024318696,2|0,0:3|0:0,0:0:0:0:
339,331,83582,2,0,L|266:316,1,63.7500024318696,0|0,0:0|0:0,0:0:0:0:
56,260,83895,5,8,0:1:0:0:
219,207,84207,5,8,0:1:0:0:
219,207,84363,1,0,0:0:0:0:
141,242,84520,5,8,0:1:0:0:
136,226,84832,1,8,0:1:0:0:
458,218,85145,5,8,0:1:0:0:
295,165,85457,5,8,0:1:0:0:
295,165,85613,1,0,0:0:0:0:
380,184,85770,5,8,0:1:0:0:
375,200,86082,1,8,0:1:0:0:
299,0,86395,5,8,0:1:0:0:
179,134,86707,5,8,0:1:0:0:
153,59,86863,1,0,0:0:0:0:
265,189,87020,5,8,0:1:0:0:
270,171,87332,1,8,0:1:0:0:
251,365,87645,5,8,0:1:0:0:
371,231,87957,5,8,0:1:0:0:
397,306,88113,1,0,0:0:0:0:
285,176,88270,5,8,0:1:0:0:
279,202,88582,1,8,0:1:0:0:
273,228,88895,5,8,0:1:0:0:
279,202,89051,1,8,0:1:0:0:
285,176,89207,1,8,0:1:0:0:
348,96,89363,5,8,0:1:0:0:
364,188,89519,1,8,0:1:0:0:
380,280,89675,1,8,0:1:0:0:
296,360,89832,5,8,0:1:0:0:
364,188,89988,1,8,0:1:0:0:
480,344,90145,5,8,0:1:0:0:
380,280,90301,1,8,0:1:0:0:
464,100,90457,1,8,0:1:0:0:
352,60,90613,1,8,0:1:0:0:
188,192,90769,5,8,0:1:0:0:
208,308,90925,1,8,0:1:0:0:
72,336,91082,1,8,0:1:0:0:
52,220,91238,1,8,0:1:0:0:
117,52,91395,5,8,0:1:0:0:
159,77,91473,1,8,0:1:0:0:
208,79,91551,1,8,0:1:0:0:
254,62,91629,1,8,0:1:0:0:
271,40,91707,5,8,0:1:0:0:
298,35,91785,1,8,0:1:0:0:
325,39,91863,1,8,0:1:0:0:
349,52,91941,1,8,0:1:0:0:
381,44,92020,5,8,0:1:0:0:
407,71,92098,1,8,0:1:0:0:
412,109,92176,1,8,0:1:0:0:
397,144,92254,1,8,0:1:0:0:
350,171,92332,5,8,0:1:0:0:
317,134,92410,1,8,0:1:0:0:
309,85,92488,1,8,0:1:0:0:
325,39,92566,1,8,0:1:0:0:
325,39,92645,6,0,B|338:107|332:151|291:163|277:223|306:286,1,255,2|0,0:0|0:0,0:0:0:0:
206,382,93270,6,0,P|208:356|220:314,1,55.2499974708558,0|0,0:0|0:0,0:0:0:0:
390,243,93426,2,0,P|391:216|379:178,1,55.2499974708558,8|0,0:1|0:0,0:0:0:0:
248,102,93582,2,0,L|254:58,6,31.8750012159348,8|0|0|0|0|0|0,0:0|0:0|0:0|0:0|0:0|0:0|0:0,0:0:0:0:
325,39,93895,6,0,B|259:24|236:80|154:62,1,165.749992412568,12|0,0:1|0:0,0:0:0:0:
143,45,94207,1,8,0:0:0:0:
256,279,94363,2,0,P|257:254|276:204,1,55.2499974708558,0|0,0:0|0:0,0:0:0:0:
326,133,94520,1,2,0:0:0:0:
326,133,94598,1,0,0:0:0:0:
326,133,94676,2,0,L|202:149,1,110.499994941712,8|8,0:1|0:0,0:0:0:0:
15,332,94988,6,0,P|29:328|91:319,1,55.2499974708558,0|0,0:0|0:0,0:0:0:0:
173,247,95145,1,2,0:0:0:0:
67,150,95301,6,0,P|55:175|54:208,1,55.2499974708558,8|0,0:1|0:0,0:0:0:0:
253,354,95457,2,0,P|281:307|271:248,1,110.499994941712,8|0,0:0|0:0,0:0:0:0:
263,237,95691,1,0,0:0:0:0:
263,237,95770,1,2,0:0:0:0:
397,56,95926,6,0,P|387:77|380:122,1,55.2499974708558,8|0,0:1|0:0,0:0:0:0:
493,236,96082,1,8,0:0:0:0:
507,219,96160,1,0,0:0:0:0:
512,191,96238,1,0,0:0:0:0:
502,159,96316,1,0,0:0:0:0:
473,131,96395,6,0,B|396:120|384:171|307:161,1,165.749992412568,8|0,0:1|0:0,0:0:0:0:
294,151,96707,1,8,0:0:0:0:
322,19,96863,6,0,P|332:45|338:90,1,55.2499974708558,0|0,0:0|0:0,0:0:0:0:
431,259,97020,2,0,P|436:231|446:206,1,55.2499974708558,0|0,0:0|0:0,0:0:0:0:
476,119,97176,6,0,B|408:111|418:150|342:144,1,127.5,8|0,0:1|0:0,0:0:0:0:
270,114,97488,1,8,0:0:0:0:
221,296,97645,5,2,0:3:0:0:
221,296,97723,1,0,0:0:0:0:
221,296,97801,2,0,L|232:231,1,55.2499974708558,8|0,0:1|0:0,0:0:0:0:
148,143,97957,6,0,P|174:138|224:132,1,55.2499974708558,8|0,0:0|0:0,0:0:0:0:
315,67,98113,2,0,P|289:72|239:78,1,55.2499974708558,0|0,0:0|0:0,0:0:0:0:
110,29,98270,6,0,P|134:41|169:46,1,55.2499974708558,2|0,0:0|0:0,0:0:0:0:
337,151,98426,2,0,P|309:155|285:168,1,55.2499974708558,8|0,0:1|0:0,0:0:0:0:
143,262,98582,5,8,0:0:0:0:
190,249,98660,1,0,0:0:0:0:
236,265,98738,1,8,0:1:0:0:
270,301,98816,1,8,0:1:0:0:
276,350,98895,5,12,0:1:0:0:
375,252,99051,1,0,0:0:0:0:
202,134,99207,1,8,0:0:0:0:
380,5,99363,5,0,0:0:0:0:
380,5,99441,1,0,0:0:0:0:
380,5,99520,2,0,P|373:28|367:61,1,55.2499974708558,2|0,0:0|0:0,0:0:0:0:
401,169,99676,2,0,P|341:155|283:148,1,110.499994941712,8|8,0:1|0:0,0:0:0:0:
62,21,99988,6,0,P|93:16|134:2,1,55.2499974708558,0|0,0:0|0:0,0:0:0:0:
222,69,100145,1,2,0:0:0:0:
55,177,100301,6,0,P|44:150|47:116,1,55.2499974708558,0|0,0:0|0:0,0:0:0:0:
286,2,100457,2,0,P|317:43|311:101,1,110.499994941712,8|0,0:0|0:0,0:0:0:0:
293,131,100691,1,0,0:0:0:0:
293,131,100770,1,2,0:0:0:0:
101,254,100926,5,8,0:1:0:0:
87,271,101004,1,0,0:0:0:0:
73,288,101082,2,0,B|66:314|66:314|76:349,1,55.2499974708558,8|0,0:0|0:0,0:0:0:0:
171,139,101238,2,0,B|178:113|178:113|168:78,1,55.2499974708558,0|0,0:0|0:0,0:0:0:0:
52,189,101395,6,0,B|118:202|118:202|137:231|137:231|209:247,1,165.749992412568,8|0,0:1|0:0,0:0:0:0:
216,228,101707,1,8,0:0:0:0:
151,378,101863,6,0,B|160:350|160:350|159:323,1,55.2499974708558,0|0,0:0|0:0,0:0:0:0:
192,82,102020,2,0,B|201:110|201:110|200:137,1,55.2499974708558,0|0,0:0|0:0,0:0:0:0:
49,176,102176,6,0,B|97:186|97:186|117:209|117:209|168:223,1,127.5,8|0,0:1|0:0,0:0:0:0:
252,194,102488,1,8,0:0:0:0:
442,253,102645,5,2,0:0:0:0:
442,253,102723,1,0,0:0:0:0:
442,253,102801,2,0,P|445:222|454:183,1,55.2499974708558,8|0,0:1|0:0,0:0:0:0:
347,130,102957,5,8,0:0:0:0:
376,356,103113,1,0,0:0:0:0:
238,256,103270,5,2,0:3:0:0:
243,234,103348,1,0,0:0:0:0:
248,212,103426,1,8,0:1:0:0:
253,190,103504,1,0,0:0:0:0:
244,152,103582,5,8,0:0:0:0:
207,185,103660,1,0,0:0:0:0:
204,234,103738,1,0,0:0:0:0:
235,272,103816,1,0,0:0:0:0:
289,217,103895,6,0,B|216:209|199:267|121:254,1,165.749992412568,12|0,0:1|0:0,0:0:0:0:
108,241,104207,1,8,0:0:0:0:
227,1,104363,1,0,0:0:0:0:
227,1,104441,1,0,0:0:0:0:
227,1,104520,2,0,P|228:25|234:60,1,55.2499974708558,2|0,0:0|0:0,0:0:0:0:
107,150,104676,2,0,B|80:105|80:105|105:51,1,110.499994941712,8|8,0:1|0:0,0:0:0:0:
340,92,104988,6,0,P|340:119|344:160,1,55.2499974708558
346,282,105145,1,2,0:0:0:0:
486,183,105301,6,0,L|417:198,1,55.2499974708558,8|0,0:1|0:0,0:0:0:0:
211,271,105457,2,0,L|332:282,1,110.499994941712,8|0,0:0|0:0,0:0:0:0:
353,289,105691,1,0,0:0:0:0:
353,289,105770,1,2,0:0:0:0:
443,82,105926,6,0,P|436:52|437:15,1,55.2499974708558,0|0,0:0|0:0,0:0:0:0:
233,126,106082,1,8,0:0:0:0:
265,117,106160,1,0,0:0:0:0:
304,124,106238,1,0,0:0:0:0:
342,147,106316,1,0,0:0:0:0:
360,171,106395,6,0,P|348:92|340:31,1,110.499994941712,8|0,0:1|0:0,0:0:0:0:
339,36,106629,1,0,0:0:0:0:
339,36,106707,1,8,0:0:0:0:
267,258,106863,6,0,L|278:191,2,55.2499974708558,0|0|0,0:0|0:0|0:0,0:0:0:0:
211,346,107098,1,8,0:1:0:0:
211,346,107176,2,0,P|290:335|342:336,1,127.5,8|0,0:1|0:0,0:0:0:0:
423,356,107488,1,8,0:0:0:0:
293,175,107645,5,2,0:3:0:0:
293,175,107723,1,0,0:0:0:0:
293,175,107801,2,0,P|266:179|239:182,1,55.2499974708558,8|0,0:1|0:0,0:0:0:0:
164,80,107957,6,0,P|159:106|171:140,1,55.2499974708558,8|0,0:0|0:0,0:0:0:0:
225,327,108113,2,0,P|225:299|243:269,1,55.2499974708558,0|0,0:0|0:0,0:0:0:0:
349,41,108270,6,0,L|339:100,1,55.2499974708558,2|0,0:0|0:0,0:0:0:0:
462,318,108426,2,0,L|452:259,1,55.2499974708558,8|0,0:1|0:0,0:0:0:0:
505,174,108582,5,8,0:0:0:0:
462,160,108660,1,0,0:0:0:0:
412,167,108738,1,0,0:0:0:0:
368,200,108816,1,0,0:0:0:0:
320,260,108895,6,0,P|270:281|161:216,1,165.749992412568,12|0,0:1|0:0,0:0:0:0:
157,216,109207,1,8,0:0:0:0:
218,362,109363,2,0,L|233:302,1,55.2499974708558,0|0,0:0|0:0,0:0:0:0:
319,182,109520,1,2,0:0:0:0:
319,182,109598,1,0,0:0:0:0:
319,182,109676,2,0,P|268:156|211:162,1,110.499994941712,8|8,0:1|0:0,0:0:0:0:
440,317,109988,6,0,L|457:240,1,55.2499974708558,0|0,0:0|0:0,0:0:0:0:
400,155,110145,1,2,0:0:0:0:
512,30,110301,6,0,P|484:33|457:38,1,55.2499974708558,8|0,0:1|0:0,0:0:0:0:
274,117,110457,2,0,P|328:115|380:138,1,110.499994941712,8|0,0:0|0:0,0:0:0:0:
407,162,110691,1,0,0:0:0:0:
407,162,110770,2,0,L|399:94,1,55.2499974708558,2|0,0:0|0:0,0:0:0:0:
275,22,110926,5,8,0:1:0:0:
302,26,111004,1,0,0:0:0:0:
330,30,111082,1,8,0:0:0:0:
512,239,111238,1,0,0:0:0:0:
485,243,111316,1,2,0:0:0:0:
457,247,111394,1,8,0:1:0:0:
400,107,111551,5,0,0:0:0:0:
304,363,111707,2,0,B|292:311|292:311|310:253,1,110.499994941712,8|0,0:0|0:0,0:0:0:0:
316,263,111941,1,2,0:0:0:0:
316,263,112020,2,0,L|372:272,1,55.2499974708558,8|0,0:1|0:0,0:0:0:0:
176,184,112176,2,0,B|114:177|114:177|66:219|15:210,1,165.749992412568,0|0,0:0|0:0,0:0:0:0:
0,190,112488,1,8,0:0:0:0:
93,384,112645,6,0,B|115:335|115:335|102:268,1,110.499994941712,2|8,0:0|0:1,0:0:0:0:
181,190,112879,1,8,0:1:0:0:
181,190,112957,2,0,L|190:249,1,55.2499974708558,8|0,0:0|0:0,0:0:0:0:
276,371,113113,6,0,L|283:336,2,27.6249987354279,8|0|8,0:1|0:0|0:1,0:0:0:0:
440,320,113270,5,8,0:0:0:0:
428,310,113348,2,0,P|380:322|354:344,1,63.7500024318696,0|8,0:0|0:1,0:0:0:0:
293,225,113504,5,8,0:0:0:0:
272,238,113582,2,0,P|224:226|198:204,1,63.7500024318696,0|8,0:0|0:1,0:0:0:0:
44,298,113738,6,0,P|72:283|104:279,1,63.7500024318696,8|0,0:0|0:0,0:0:0:0:
125,302,113895,6,0,B|106:232|144:239|118:161,1,140.25000428009,12|0,0:1|0:0,0:0:0:0:
83,152,114207,1,8,0:0:0:0:
165,50,114363,2,0,B|213:74|265:50|265:50|265:110|305:126,1,187.000005706787,2|8,0:0|0:1,0:0:0:0:
512,59,114832,6,0,L|413:44,1,93.5000028533936,8|0,0:0|0:0,0:0:0:0:
342,41,115066,1,0,0:0:0:0:
340,61,115145,1,2,0:0:0:0:
441,264,115301,2,0,B|456:220|456:220|445:159,1,93.5000028533936,8|10,0:1|0:0,0:0:0:0:
199,16,115613,6,0,L|191:68,1,46.7500014266968
176,196,115770,1,2,0:0:0:0:
176,196,115848,1,8,0:1:0:0:
176,196,115926,1,8,0:1:0:0:
447,173,116082,6,0,L|339:187,1,93.5000028533936,8|0,0:0|0:0,0:0:0:0:
267,256,116316,1,2,0:0:0:0:
267,256,116395,6,0,B|376:255|327:334|429:344,1,187.000005706787,8|8,0:1|0:0,0:0:0:0:
268,152,116863,2,0,P|268:125|261:89,2,46.7500014266968,2|2|0,0:0|0:0|0:0,0:0:0:0:
114,330,117176,2,0,B|100:285|100:285|118:238,1,93.5000028533936,8|2,0:1|0:0,0:0:0:0:
237,357,117488,1,8,0:0:0:0:
360,152,117645,6,0,L|368:110,3,31.8750012159348,2|0|0|0,0:0|0:0|0:0|0:0,0:0:0:0:
235,54,117957,2,0,L|240:85,3,31.8750012159348,8|0|0|0,0:0|0:0|0:0|0:0,0:0:0:0:
162,153,118270,5,2,0:0:0:0:
130,146,118348,1,0,0:0:0:0:
98,140,118426,1,8,0:1:0:0:
66,134,118504,1,8,0:1:0:0:
38,106,118582,5,8,0:0:0:0:
72,88,118660,1,8,0:1:0:0:
110,90,118738,1,8,0:0:0:0:
143,109,118816,1,8,0:0:0:0:
162,153,118895,6,0,L|141:250,1,93.5000028533936,8|0,0:1|0:0,0:0:0:0:
106,317,119129,1,8,0:1:0:0:
106,317,119207,2,0,P|130:321|166:329,1,46.7500014266968,8|0,0:0|0:0,0:0:0:0:
359,244,119363,2,0,P|336:248|313:252,1,46.7500014266968,2|8,0:0|0:0,0:0:0:0:
226,283,119520,1,0,0:0:0:0:
221,262,119598,1,0,0:0:0:0:
223,240,119676,1,8,0:1:0:0:
427,182,119832,2,0,P|450:221|446:272,1,93.5000028533936,10|0,0:0|0:0,0:0:0:0:
481,354,120066,5,0,0:0:0:0:
481,354,120145,2,0,P|430:344|379:339,1,93.5000028533936,2|8,0:0|0:1,0:0:0:0:
141,244,120457,2,0,P|192:234|243:229,1,93.5000028533936,8|0,0:0|0:0,0:0:0:0:
317,240,120691,1,0,0:0:0:0:
317,240,120770,2,0,P|313:216|310:182,2,46.7500014266968,2|8|8,0:0|0:1|0:1,0:0:0:0:
83,164,121082,1,8,0:0:0:0:
77,127,121160,1,0,0:0:0:0:
92,93,121238,1,2,0:0:0:0:
84,56,121316,1,8,0:0:0:0:
84,56,121395,6,0,B|136:63|136:63|166:89|166:89|227:97,1,140.25000428009,0|0,0:0|0:0,0:0:0:0:
226,80,121707,1,8,0:0:0:0:
363,21,121863,1,0,0:0:0:0:
363,21,121941,1,8,0:0:0:0:
363,21,122020,2,0,L|308:12,2,46.7500014266968,2|8|8,0:0|0:1|0:0,0:0:0:0:
456,192,122332,1,2,0:0:0:0:
505,80,122488,6,0,P|439:98|383:104,1,93.5000028533936,8|2,0:0|0:0,0:0:0:0:
341,125,122723,1,8,0:0:0:0:
341,125,122801,2,0,P|345:146|345:184,1,46.7500014266968,8|0,0:1|0:0,0:0:0:0:
287,312,122957,1,8,0:0:0:0:
455,278,123113,6,0,P|428:269|390:264,1,46.7500014266968,2|8,0:0|0:0,0:0:0:0:
221,198,123270,2,0,P|242:190|265:186,1,46.7500014266968,0|8,0:0|0:1,0:0:0:0:
415,106,123426,1,8,0:1:0:0:
141,317,123582,5,10,0:0:0:0:
109,282,123660,1,8,0:1:0:0:
107,235,123738,1,8,0:0:0:0:
133,196,123816,1,8,0:0:0:0:
173,170,123895,6,0,B|211:101|170:45|170:45|168:73|140:95,1,187.000005706787,12|8,0:1|0:0,0:0:0:0:
144,91,124363,2,0,P|193:84|298:72,1,140.25000428009,2|0,0:0|0:0,0:0:0:0:
283,73,124676,1,8,0:1:0:0:
439,155,124832,2,0,P|460:114|453:64,1,93.5000028533936,8|0,0:0|0:0,0:0:0:0:
444,51,125066,1,8,0:1:0:0:
444,51,125145,5,0,0:0:0:0:
296,170,125301,2,0,P|305:216|308:265,1,93.5000028533936,8|0,0:1|0:0,0:0:0:0:
121,115,125613,2,0,P|128:91|138:49,1,46.7500014266968,0|0,0:0|0:0,0:0:0:0:
227,19,125770,1,2,0:0:0:0:
236,40,125848,1,2,0:0:0:0:
236,63,125926,1,0,0:0:0:0:
43,224,126082,2,0,L|150:209,1,93.5000028533936,10|0,0:0|0:0,0:0:0:0:
226,236,126316,5,0,0:0:0:0:
226,236,126395,2,0,B|167:245|135:211|135:211|149:268|102:304,1,187.000005706787,8|8,0:1|0:0,0:0:0:0:
229,366,126863,1,2,0:0:0:0:
229,366,126941,1,8,0:0:0:0:
229,366,127020,2,0,P|251:363|297:359,2,46.7500014266968,2|8|8,0:0|0:1|0:1,0:0:0:0:
305,169,127332,1,2,0:0:0:0:
462,284,127488,6,0,L|367:294,1,85,8|0,0:0|0:0,0:0:0:0:
314,253,127723,1,2,0:0:0:0:
314,253,127801,2,0,L|251:261,1,42.5
124,324,127957,5,8,0:0:0:0:
105,298,128035,1,0,0:0:0:0:
103,266,128113,1,0,0:0:0:0:
117,237,128191,1,0,0:0:0:0:
145,215,128270,5,2,0:0:0:0:
160,183,128348,1,0,0:0:0:0:
160,148,128426,1,8,0:1:0:0:
143,117,128504,1,8,0:1:0:0:
101,85,128582,6,0,L|181:92,1,46.7500014266968,8|8,0:0|0:0,0:0:0:0:
373,25,128738,2,0,L|327:21,1,46.7500014266968,8|8,0:1|0:1,0:0:0:0:
232,17,128895,6,0,L|245:120,1,93.5000028533936,8|0,0:1|0:0,0:0:0:0:
257,187,129129,1,2,0:0:0:0:
259,198,129207,1,8,0:0:0:0:
442,106,129363,2,0,L|487:114,2,46.7500014266968,2|2|0,0:0|0:0|0:0,0:0:0:0:
347,144,129598,1,8,0:1:0:0:
352,148,129676,2,0,P|357:102|342:44,1,93.5000028533936,0|8,0:0|0:0,0:0:0:0:
432,268,129988,2,0,P|423:289|414:325,1,46.7500014266968,2|8,0:0|0:0,0:0:0:0:
455,381,130145,5,8,0:1:0:0:
334,323,130301,1,8,0:1:0:0:
169,384,130457,1,8,0:0:0:0:
55,330,130613,1,2,0:0:0:0:
52,309,130691,1,2,0:0:0:0:
63,289,130770,2,0,L|141:283,2,46.7500014266968,0|8|8,0:0|0:1|0:1,0:0:0:0:
0,132,131082,2,0,L|95:144,1,93.5000028533936,8|0,0:0|0:0,0:0:0:0:
187,161,131316,5,8,0:1:0:0:
187,161,131395,2,0,B|164:113|204:44|204:44|175:75|133:75,1,187.000005706787,8|8,0:1|0:0,0:0:0:0:
284,221,131863,1,0,0:0:0:0:
284,221,131941,1,8,0:0:0:0:
284,221,132020,2,0,P|288:198|298:160,2,46.7500014266968,2|8|0,0:0|0:1|0:0,0:0:0:0:
461,86,132332,2,0,P|418:104|364:107,1,93.5000028533936,2|8,0:0|0:0,0:0:0:0:
139,236,132645,6,0,P|159:240|209:257,1,46.7500014266968,2|0,0:0|0:0,0:0:0:0:
289,326,132801,1,8,0:1:0:0:
464,176,132957,6,0,B|451:222|451:222|462:270,1,93.5000028533936,8|0,0:0|0:0,0:0:0:0:
461,266,133191,1,8,0:1:0:0:
461,266,133270,2,0,L|384:256,1,55.2499974708558,2|0,0:0|0:0,0:0:0:0:
294,175,133426,2,0,L|239:182,1,55.2499974708558,8|0,0:1|0:0,0:0:0:0:
46,274,133582,5,8,0:0:0:0:
80,257,133660,1,2,0:0:0:0:
129,261,133738,1,2,0:0:0:0:
175,290,133816,1,2,0:0:0:0:
200,340,133895,1,6,0:0:0:0:
34,110,134520,6,0,B|146:119|102:189|211:192,1,191.250007295609,2|0,0:0|0:0,0:0:0:0:
255,105,135145,2,0,P|224:100|191:86,1,63.7500024318696
226,283,135457,2,0,P|251:264|284:251,1,63.7500024318696
103,164,135770,2,0,P|108:194|107:230,1,63.7500024318696,2|0,0:0|0:0,0:0:0:0:
200,191,136082,1,2,0:0:0:0:
0,368,136395,6,0,P|45:333|174:344,1,191.250007295609,2|0,0:0|0:0,0:0:0:0:
242,378,137020,2,0,L|323:386,1,63.7500024318696,0|8,0:0|0:1,0:0:0:0:
461,313,137332,5,8,0:0:0:0:
391,286,137488,1,0,0:0:0:0:
477,226,137645,1,0,0:0:0:0:
407,253,137801,1,0,0:0:0:0:
318,154,137957,6,0,P|323:186|324:222,1,63.7500024318696,8|0,0:0|0:0,0:0:0:0:
248,356,138270,1,2,0:3:0:0:
305,295,138426,1,8,0:1:0:0:
161,223,138582,1,8,0:1:0:0:
97,296,138738,1,8,0:1:0:0:
97,296,138816,1,0,0:0:0:0:
97,296,138895,6,0,P|103:328|104:363,1,63.7500024318696,8|0,0:1|0:0,0:0:0:0:
238,197,139207,2,0,P|232:165|231:130,1,63.7500024318696,8|0,0:0|0:0,0:0:0:0:
138,81,139520,1,0,0:0:0:0:
103,174,139676,5,8,0:1:0:0:
304,84,139832,2,0,P|317:53|314:14,1,63.7500024318696,8|0,0:0|0:0,0:0:0:0:
386,179,140145,2,0,P|408:203|445:217,1,63.7500024318696,0|8,0:0|0:1,0:0:0:0:
289,301,140457,2,0,P|264:323|250:360,1,63.7500024318696,8|0,0:0|0:0,0:0:0:0:
373,290,140770,5,0,0:0:0:0:
303,215,140926,1,8,0:1:0:0:
455,140,141082,2,0,P|448:108|445:66,1,63.7500024318696,8|0,0:0|0:0,0:0:0:0:
334,0,141395,6,0,P|326:86|318:134,1,127.500004863739,8|8,0:1|0:0,0:0:0:0:
366,206,141863,2,0,P|320:212|290:217,1,63.7500024318696,0|0,0:0|0:0,0:0:0:0:
101,118,142176,2,0,P|157:127|188:134,1,63.7500024318696,8|0,0:1|0:0,0:0:0:0:
223,75,142488,1,8,0:1:0:0:
147,24,142645,6,0,P|114:20|81:14,1,63.7500024318696,2|8,0:0|0:1,0:0:0:0:
306,114,142957,2,0,P|339:118|372:124,1,63.7500024318696,8|0,0:0|0:0,0:0:0:0:
136,272,143270,5,2,0:3:0:0:
284,209,143426,1,8,0:1:0:0:
250,295,143582,5,8,0:0:0:0:
182,193,143738,1,8,0:1:0:0:
392,258,143895,6,0,B|321:263|336:287|266:295,1,127.500004863739,6|8,0:0|0:1,0:0:0:0:
224,359,144363,1,0,0:0:0:0:
274,209,144520,2,0,P|242:206|210:200,1,63.7500024318696,8|0,0:1|0:0,0:0:0:0:
380,355,144832,2,0,P|404:350|459:347,1,63.7500024318696,8|0,0:1|0:0,0:0:0:0:
491,272,145145,6,0,P|465:233|484:153,1,127.500004863739,2|8,0:0|0:1,0:0:0:0:
335,74,145613,2,0,P|374:48|454:67,1,127.500004863739,2|0,0:0|0:0,0:0:0:0:
450,63,146082,2,0,L|462:-21,1,63.7500024318696,8|0,0:1|0:0,0:0:0:0:
368,156,146395,6,0,L|233:174,1,127.500004863739,2|8,0:0|0:1,0:0:0:0:
187,114,146863,2,0,P|195:82|200:44,1,63.7500024318696,2|0,0:0|0:0,0:0:0:0:
113,183,147176,1,0,0:0:0:0:
113,183,147332,2,0,P|81:175|43:170,1,63.7500024318696,8|0,0:1|0:0,0:0:0:0:
154,261,147645,6,0,P|123:318|118:382,1,127.500004863739,2|0,0:0|0:0,0:0:0:0:
194,365,148113,1,2,0:0:0:0:
278,260,148270,2,0,P|272:228|262:198,1,63.7500024318696,2|0,0:3|0:0,0:0:0:0:
358,341,148582,2,0,P|388:350|419:356,1,63.7500024318696,0|0,0:0|0:0,0:0:0:0:
442,362,148816,1,0,0:0:0:0:
442,362,148895,6,0,P|471:318|441:250,1,127.500004863739,8|8,0:1|0:1,0:0:0:0:
512,152,149363,2,0,B|454:144|441:183|381:170,1,127.500004863739,0|0,0:0|0:0,0:0:0:0:
344,68,149832,2,0,P|363:75|423:83,1,63.7500024318696,8|0,0:1|0:0,0:0:0:0:
480,48,150145,6,0,P|461:55|401:63,1,63.7500024318696,8|0,0:1|0:0,0:0:0:0:
293,167,150457,2,0,P|261:162|231:152,1,63.7500024318696,8|0,0:1|0:0,0:0:0:0:
147,149,150770,6,0,P|177:138|208:134,1,63.7500024318696,8|0,0:1|0:0,0:0:0:0:
424,267,151082,2,0,P|393:256|362:252,1,63.7500024318696,8|0,0:1|0:0,0:0:0:0:
213,337,151395,5,8,0:1:0:0:
269,283,151551,1,8,0:1:0:0:
202,228,151707,1,8,0:1:0:0:
133,285,151863,1,8,0:1:0:0:
288,364,152020,5,8,0:1:0:0:
361,250,152176,1,8,0:1:0:0:
245,150,152332,1,8,0:1:0:0:
133,285,152488,1,8,0:1:0:0:
372,332,152645,5,8,0:1:0:0:
202,228,152801,1,8,0:1:0:0:
318,83,152957,1,8,0:1:0:0:
456,192,153113,1,8,0:1:0:0:
269,283,153270,5,8,0:1:0:0:
160,108,153426,1,8,0:1:0:0:
372,8,153582,1,8,0:1:0:0:
456,192,153738,1,8,0:1:0:0:
327,343,153895,5,8,0:1:0:0:
314,317,153973,1,8,0:1:0:0:
311,288,154051,1,8,0:1:0:0:
322,261,154129,1,8,0:1:0:0:
352,240,154207,5,8,0:1:0:0:
360,209,154285,1,8,0:1:0:0:
351,178,154363,1,8,0:1:0:0:
333,151,154441,1,8,0:1:0:0:
328,112,154520,5,8,0:1:0:0:
294,100,154598,1,8,0:1:0:0:
259,104,154676,1,8,0:1:0:0:
230,123,154754,1,8,0:1:0:0:
192,152,154832,5,8,0:1:0:0:
216,184,154910,1,8,0:1:0:0:
267,196,154988,1,2,0:0:0:0:
320,176,155066,1,2,0:0:0:0:
380,124,155145,6,0,B|392:79|392:79|386:53|386:53|398:-3,1,127.500004863739,2|0,0:3|0:0,0:0:0:0:
380,124,155613,6,0,B|331:98|263:108|312:158|228:186|148:133|193:25|263:54,1,293.2500055933,2|0,0:0|0:0,0:0:0:0:
344,240,156238,2,0,L|341:216,2,24.4375004661083,2|2|0,0:0|0:0|0:0,0:0:0:0:
257,257,156395,6,0,L|362:269,1,97.7500018644333,8|0,0:1|0:0,0:0:0:0:
456,235,156629,5,8,0:0:0:0:
441,228,156707,2,0,L|336:240,1,97.7500018644333,8|8,0:0|0:1,0:0:0:0:
216,273,156941,5,0,0:0:0:0:
231,289,157020,2,0,L|290:297,1,48.8750009322167,8|0,0:1|0:0,0:0:0:0:
462,206,157176,6,0,L|389:215,1,42.5,8|0,0:0|0:0,0:0:0:0:
264,132,157332,6,0,L|254:81,6,31.8750012159348,8|0|0|0|0|0|0,0:0|0:0|0:0|0:0|0:0|0:0|0:0,0:0:0:0:
330,196,157645,6,0,B|363:146|350:85|350:85|366:119|389:126,1,165.749992412568,12|0,0:1|0:0,0:0:0:0:
400,135,157957,1,8,0:0:0:0:
268,15,158113,2,0,P|239:20|200:25,1,55.2499974708558,0|0,0:0|0:0,0:0:0:0:
56,112,158270,1,0,0:0:0:0:
56,112,158348,1,0,0:0:0:0:
56,112,158426,2,0,B|124:126|124:126|145:88,1,110.499994941712,8|10,0:1|0:0,0:0:0:0:
397,220,158738,6,0,B|369:222|369:222|338:238,1,55.2499974708558,0|0,0:0|0:0,0:0:0:0:
229,299,158895,1,2,0:3:0:0:
380,364,159051,6,0,L|393:303,1,55.2499974708558,8|0,0:1|0:0,0:0:0:0:
276,101,159207,2,0,L|245:229,1,110.499994941712,8|0,0:0|0:0,0:0:0:0:
232,283,159441,1,0,0:0:0:0:
229,299,159520,1,2,0:0:0:0:
105,165,159676,6,0,P|132:168|169:175,1,55.2499974708558,8|0,0:1|0:0,0:0:0:0:
282,72,159832,1,8,0:0:0:0:
263,61,159910,1,0,0:0:0:0:
236,55,159988,1,0,0:0:0:0:
204,63,160066,1,0,0:0:0:0:
173,94,160145,6,0,B|155:156|155:156|165:193|165:193|147:263,1,165.749992412568,8|0,0:1|0:0,0:0:0:0:
142,278,160457,1,8,0:0:0:0:
62,139,160613,6,0,P|68:166|69:194,1,55.2499974708558,2|0,0:0|0:0,0:0:0:0:
280,149,160770,2,0,P|281:176|287:204,1,55.2499974708558,2|0,0:0|0:0,0:0:0:0:
193,84,160926,6,0,B|177:136|177:136|187:163|187:163|174:216,1,127.5,8|0,0:1|0:0,0:0:0:0:
152,291,161238,1,8,0:0:0:0:
316,287,161395,6,0,P|342:290|376:304,1,55.2499974708558,2|0,0:0|0:0,0:0:0:0:
431,335,161551,2,0,P|405:332|371:318,1,55.2499974708558,8|0,0:1|0:0,0:0:0:0:
227,209,161707,6,0,P|196:213|163:233,1,55.2499974708558,8|0,0:0|0:0,0:0:0:0:
64,319,161863,2,0,P|95:315|128:295,1,55.2499974708558,0|0,0:0|0:0,0:0:0:0:
311,178,162020,6,0,P|310:149|300:117,1,55.2499974708558,2|0,0:3|0:0,0:0:0:0:
160,20,162176,2,0,P|152:46|152:74,1,55.2499974708558,8|0,0:1|0:0,0:0:0:0:
293,260,162332,5,10,0:0:0:0:
340,273,162410,1,0,0:0:0:0:
389,265,162488,1,8,0:1:0:0:
429,235,162566,1,8,0:1:0:0:
448,188,162645,5,12,0:1:0:0:
328,120,162801,1,0,0:0:0:0:
200,264,162957,1,8,0:0:0:0:
61,203,163113,5,0,0:0:0:0:
61,203,163191,1,0,0:0:0:0:
61,203,163270,2,0,L|125:190,1,55.2499974708558,0|0,0:0|0:0,0:0:0:0:
244,68,163426,2,0,P|221:97|226:175,1,110.499994941712,8|10,0:1|0:0,0:0:0:0:
470,342,163738,6,0,P|480:316|480:267,1,55.2499974708558,0|0,0:0|0:0,0:0:0:0:
363,194,163895,1,2,0:3:0:0:
498,134,164051,6,0,P|510:157|511:193,1,55.2499974708558,0|0,0:0|0:0,0:0:0:0:
300,365,164207,2,0,P|282:315|300:258,1,110.499994941712,8|0,0:0|0:0,0:0:0:0:
352,204,164441,1,0,0:0:0:0:
363,194,164520,1,2,0:0:0:0:
220,19,164676,5,8,0:1:0:0:
246,28,164754,1,0,0:0:0:0:
272,37,164832,2,0,P|259:61|250:103,1,55.2499974708558,8|0,0:0|0:0,0:0:0:0:
168,250,164988,2,0,P|155:226|146:184,1,55.2499974708558,0|0,0:0|0:0,0:0:0:0:
85,133,165145,6,0,B|192:143|145:185|244:194,1,165.749992412568,8|0,0:1|0:0,0:0:0:0:
255,179,165457,1,8,0:0:0:0:
222,34,165613,6,0,P|223:65|232:101,1,55.2499974708558,0|0,0:0|0:0,0:0:0:0:
111,273,165770,2,0,P|110:242|101:206,1,55.2499974708558,0|0,0:0|0:0,0:0:0:0:
85,112,165926,6,0,B|167:123|131:151|210:166,1,127.5,8|0,0:1|0:0,0:0:0:0:
288,140,166238,1,8,0:0:0:0:
439,228,166395,5,2,0:0:0:0:
439,228,166473,1,0,0:0:0:0:
439,228,166551,2,0,P|462:231|522:243,1,55.2499974708558,8|0,0:1|0:0,0:0:0:0:
504,140,166707,5,8,0:0:0:0:
332,292,166863,1,2,0:0:0:0:
227,88,167020,5,2,0:0:0:0:
251,75,167098,1,0,0:0:0:0:
278,71,167176,1,0,0:0:0:0:
304,79,167254,1,0,0:0:0:0:
342,81,167332,5,8,0:0:0:0:
314,115,167410,1,0,0:0:0:0:
265,123,167488,1,2,0:0:0:0:
213,104,167566,1,0,0:0:0:0:
152,52,167645,6,0,B|110:83|110:83|142:158|119:199,1,165.749992412568,12|0,0:1|0:0,0:0:0:0:
102,210,167957,1,8,0:0:0:0:
236,384,168113,1,0,0:0:0:0:
236,384,168191,1,0,0:0:0:0:
236,384,168270,2,0,P|239:356|250:321,1,55.2499974708558,0|0,0:0|0:0,0:0:0:0:
296,233,168426,2,0,P|242:248|183:250,1,110.499994941712,8|10,0:1|0:0,0:0:0:0:
57,76,168738,6,0,P|84:77|111:83,1,55.2499974708558,0|0,0:0|0:0,0:0:0:0:
235,167,168895,1,2,0:3:0:0:
76,235,169051,6,0,P|82:208|88:181,1,55.2499974708558,0|0,0:0|0:0,0:0:0:0:
303,6,169207,2,0,P|304:67|312:118,1,110.499994941712,8|0,0:0|0:0,0:0:0:0:
240,145,169441,1,0,0:0:0:0:
235,167,169520,2,0,P|233:196|226:235,2,55.2499974708558,2|0|8,0:0|0:0|0:1,0:0:0:0:
469,38,169832,1,8,0:0:0:0:
485,79,169910,1,0,0:0:0:0:
474,121,169988,1,0,0:0:0:0:
490,161,170066,1,8,0:1:0:0:
490,161,170145,6,0,B|428:151|428:151|384:174|384:174|317:166,1,165.749992412568,8|0,0:1|0:0,0:0:0:0:
314,146,170457,1,8,0:0:0:0:
370,301,170613,6,0,P|358:276|353:242,1,55.2499974708558,0|0,0:0|0:0,0:0:0:0:
393,23,170770,2,0,P|381:48|376:82,1,55.2499974708558,0|0,0:0|0:0,0:0:0:0:
501,151,170926,6,0,B|449:144|449:144|423:158|423:158|351:149,1,127.5,8|0,0:1|0:0,0:0:0:0:
292,108,171238,1,8,0:0:0:0:
451,278,171395,6,0,L|463:215,2,55.2499974708558,0|0|8,0:0|0:0|0:1,0:0:0:0:
480,362,171629,1,8,0:1:0:0:
480,362,171707,2,0,P|411:344|345:343,1,127.5,8|0,0:0|0:0,0:0:0:0:
274,384,172020,1,2,0:0:0:0:
351,164,172176,5,8,0:1:0:0:
351,164,172254,1,0,0:0:0:0:
351,164,172332,2,0,P|334:187|331:222,1,55.2499974708558,8|0,0:0|0:0,0:0:0:0:
182,359,172488,2,0,P|165:336|162:301,1,55.2499974708558,8|0,0:1|0:0,0:0:0:0:
62,183,172645,6,0,P|157:179|208:228,1,165.749992412568,12|0,0:1|0:0,0:0:0:0:
217,250,172957,1,8,0:0:0:0:
386,42,173113,2,0,P|349:49|308:52,1,55.2499974708558,0|0,0:0|0:0,0:0:0:0:
228,125,173270,1,0,0:0:0:0:
228,125,173348,1,0,0:0:0:0:
228,125,173426,2,0,P|269:129|344:160,1,110.499994941712,8|10,0:1|0:0,0:0:0:0:
512,324,173738,6,0,P|471:328|427:344,1,55.2499974708558,0|0,0:0|0:0,0:0:0:0:
308,383,173895,1,2,0:3:0:0:
167,245,174051,6,0,P|208:249|252:265,1,55.2499974708558,8|0,0:1|0:0,0:0:0:0:
372,327,174207,1,8,0:0:0:0:
391,228,174363,5,0,0:0:0:0:
391,228,174441,1,0,0:0:0:0:
391,228,174520,2,0,P|364:234|330:236,1,55.2499974708558,2|0,0:0|0:0,0:0:0:0:
117,337,174676,2,0,P|162:332|233:373,1,110.499994941712,0|8,0:0|0:0,0:0:0:0:
235,373,174910,1,0,0:0:0:0:
235,373,174988,2,0,L|226:305,1,55.2499974708558,0|0,0:0|0:0,0:0:0:0:
70,221,175145,6,0,B|170:187|170:187|176:207|193:227|211:232,1,165.749992412568,8|0,0:1|0:0,0:0:0:0:
230,223,175457,1,8,0:0:0:0:
24,112,175613,2,0,L|89:123,1,55.2499974708558,0|0,0:0|0:0,0:0:0:0:
193,62,175770,1,0,0:0:0:0:
187,36,175848,1,8,0:1:0:0:
181,11,175926,1,8,0:1:0:0:
322,212,176082,1,0,0:0:0:0:
316,237,176160,1,2,0:0:0:0:
310,263,176238,1,8,0:0:0:0:
480,227,176395,6,0,P|451:232|421:244,1,55.2499974708558,2|0,0:0|0:0,0:0:0:0:
211,358,176551,1,8,0:1:0:0:
213,362,176629,1,0,0:0:0:0:
216,366,176707,2,0,P|241:375|269:380,1,55.2499974708558,8|0,0:0|0:0,0:0:0:0:
370,334,176863,6,0,L|374:368,2,27.6249987354279
310,263,177020,6,0,P|265:268|236:274,1,63.7500024318696,8|0,0:0|0:0,0:0:0:0:
356,183,177176,5,8,0:1:0:0:
325,161,177254,2,0,P|291:152|249:147,1,63.7500024318696,8|0,0:0|0:0,0:0:0:0:
61,210,177410,5,8,0:1:0:0:
134,232,177488,1,8,0:0:0:0:
205,199,177566,1,8,0:0:0:0:
244,123,177645,6,0,B|210:95|160:77|83:103|46:180|75:261|183:336|332:237|238:155|345:124|416:184|416:184|393:202|351:180,1,611.999981323243,12|2,0:1|0:0,0:0:0:0:
244,123,179207,1,8,0:3:0:0:
12,22,187645,6,0,P|44:27|88:39,1,63.7500024318696,8|0,0:1|0:0,0:0:0:0:
208,141,187957,1,8,0:0:0:0:
132,152,188113,1,2,0:0:0:0:
128,140,188191,1,2,0:0:0:0:
129,127,188270,1,2,0:0:0:0:
134,115,188348,1,2,0:0:0:0:
141,104,188426,1,8,0:1:0:0:
232,28,188582,1,8,0:0:0:0:
374,99,188738,2,0,L|430:93,1,31.8750012159348,2|2,0:0|0:0,0:0:0:0:
426,86,188895,6,0,L|413:164,1,63.7500024318696,2|8,0:0|0:1,0:0:0:0:
388,308,189207,1,8,0:3:0:0:
429,244,189363,1,2,0:0:0:0:
418,237,189441,1,2,0:0:0:0:
405,233,189520,1,2,0:0:0:0:
392,232,189598,1,2,0:0:0:0:
379,235,189676,1,8,0:1:0:0:
267,317,189832,1,8,0:0:0:0:
98,240,189988,2,0,L|20:253,1,42.5,2|2,0:0|0:0,0:0:0:0:
35,268,190145,6,0,P|36:234|26:187,1,63.7500024318696,8|0,0:1|0:0,0:0:0:0:
163,89,190457,1,8,0:0:0:0:
80,22,190613,1,2,0:0:0:0:
78,41,190691,1,2,0:0:0:0:
74,60,190770,1,2,0:0:0:0:
70,78,190848,1,2,0:0:0:0:
67,96,190926,2,0,P|103:92|174:88,1,95.6250036478044,8|0,0:1|0:0,0:0:0:0:
243,64,191238,6,0,L|253:16,1,31.8750012159348,8|0,0:0|0:0,0:0:0:0:
255,10,191395,1,2,0:0:0:0:
339,118,191551,1,8,0:1:0:0:
361,105,191629,1,0,0:0:0:0:
381,72,191707,5,8,0:0:0:0:
405,101,191785,1,2,0:0:0:0:
414,137,191863,1,2,0:0:0:0:
403,173,191941,1,2,0:0:0:0:
436,198,192020,5,2,0:0:0:0:
403,224,192098,1,2,0:0:0:0:
361,221,192176,1,8,0:1:0:0:
326,197,192254,1,2,0:0:0:0:
287,222,192332,5,8,0:0:0:0:
268,181,192410,1,2,0:0:0:0:
279,137,192488,1,8,0:1:0:0:
316,112,192566,1,2,0:0:0:0:
339,118,192645,5,8,0:1:0:0:
251,63,192801,2,0,L|257:18,2,31.8750012159348,0|2|8,0:0|0:0|0:0,0:0:0:0:
120,179,193113,1,2,0:0:0:0:
116,153,193191,1,2,0:0:0:0:
111,127,193270,1,2,0:0:0:0:
106,102,193348,1,2,0:0:0:0:
99,77,193426,2,0,L|136:82,1,31.8750012159348,8|0,0:1|0:0,0:0:0:0:
34,194,193582,6,0,L|102:184,1,63.7500024318696,8|0,0:0|0:0,0:0:0:0:
172,169,193816,1,2,0:0:0:0:
186,166,193895,1,2,0:0:0:0:
136,373,194051,6,0,L|147:329,1,31.8750012159348,8|0,0:1|0:0,0:0:0:0:
165,250,194207,1,8,0:0:0:0:
40,276,194363,6,0,L|90:286,1,31.8750012159348,0|0,0:0|0:0,0:0:0:0:
233,357,194520,1,0,0:0:0:0:
236,340,194598,1,2,0:0:0:0:
238,323,194676,1,8,0:1:0:0:
432,201,194832,1,8,0:0:0:0:
427,163,194910,1,2,0:0:0:0:
420,125,194988,1,2,0:0:0:0:
414,87,195066,1,2,0:0:0:0:
425,69,195145,6,0,P|376:62|328:51,1,85,8|0,0:1|0:0,0:0:0:0:
193,180,195457,1,8,0:0:0:0:
148,103,195613,2,0,P|230:98|285:162,1,170,2|8,0:0|0:1,0:0:0:0:
284,159,196238,1,8,0:0:0:0:
236,20,196395,6,0,L|227:66,1,42.5,6|8,0:0|0:1,0:0:0:0:
320,301,196707,2,0,L|328:259,1,42.5,8|0,0:0|0:0,0:0:0:0:
275,134,196941,5,0,0:0:0:0:
275,134,197020,2,0,L|268:170,1,21.25,0|8,0:0|0:0,0:0:0:0:
291,184,197176,2,0,L|298:150,1,21.25,8|8,0:1|0:0,0:0:0:0:
446,48,197332,5,8,0:0:0:0:
404,27,197410,1,8,0:0:0:0:
353,34,197488,1,8,0:0:0:0:
307,65,197566,1,8,0:0:0:0:
275,134,197645,1,4,0:1:0:0:
493,380,197957,5,0,0:0:0:0:
425,350,198270,1,2,0:0:0:0:
339,380,198582,1,0,0:0:0:0:
224,342,198895,1,0,0:0:0:0:
158,226,199207,1,0,0:0:0:0:
228,59,199520,1,2,0:0:0:0:
432,27,199832,1,8,0:1:0:0:
432,27,199988,1,8,0:1:0:0:
410,122,200145,6,0,P|330:118|300:76,1,127.5,0|0,0:0|0:0,0:0:0:0:
68,235,200770,2,0,P|148:231|195:132,1,191.250007295609,2|0,0:0|0:0,0:0:0:0:
148,81,201395,5,0,0:0:0:0:
101,141,201551,1,0,0:0:0:0:
144,211,201707,1,0,0:0:0:0:
277,155,201863,1,0,0:0:0:0:
436,260,202020,5,2,0:0:0:0:
369,224,202176,1,0,0:0:0:0:
278,256,202332,1,4,0:3:0:0:
379,359,202488,6,0,L|387:311,1,31.8750012159348,4|0,0:3|0:0,0:0:0:0:
416,159,202645,2,0,L|440:13,1,127.500004863739,4|0,0:3|0:0,0:0:0:0:
436,33,203270,5,2,0:0:0:0:
362,8,203582,1,0,0:0:0:0:
259,32,203895,1,0,0:0:0:0:
187,141,204207,1,0,0:0:0:0:
221,300,204520,1,2,0:0:0:0:
404,367,204832,1,8,0:1:0:0:
404,367,204988,1,0,0:0:0:0:
335,243,205145,6,0,B|268:246|287:272|212:279,1,127.5,2|0,0:0|0:0,0:0:0:0:
124,344,205770,2,0,L|136:297,1,42.5,2|0,0:0|0:0,0:0:0:0:
57,212,206082,2,0,L|104:224,1,42.5
181,135,206395,2,0,L|169:182,1,42.5
214,278,206707,5,8,0:1:0:0:
266,41,207020,1,2,0:0:0:0:
299,227,207332,5,4,0:3:0:0:
274,128,207488,1,4,0:3:0:0:
251,28,207645,1,4,0:3:0:0:
251,28,207957,6,0,P|306:44|345:49,1,85,8|2,0:1|0:0,0:0:0:0:
170,176,208582,2,0,P|115:192|76:197,1,85,8|0,0:1|0:0,0:0:0:0:
15,179,209207,1,0,0:0:0:0:
161,304,209520,2,0,P|195:308|239:339,1,85,2|8,0:0|0:1,0:0:0:0:
306,367,209988,1,8,0:1:0:0:
400,308,210145,6,0,B|378:224|424:239|398:134,1,170,2|2,0:0|0:0,0:0:0:0:
399,140,211082,2,0,L|343:149,1,42.5,0|0,0:0|0:0,0:0:0:0:
246,170,211395,1,0,0:0:0:0:
262,94,211707,1,0,0:0:0:0:
276,8,212020,1,2,0:0:0:0:
228,272,212332,1,4,0:3:0:0:
69,142,212488,6,0,L|113:148,1,31.8750012159348,4|0,0:3|0:0,0:0:0:0:
246,170,212645,2,0,L|97:148,1,127.500004863739,4|0,0:3|0:0,0:0:0:0:
15,224,213113,5,0,0:0:0:0:
73,273,213270,2,0,L|123:264,1,42.5,2|0,0:0|0:0,0:0:0:0:
214,351,213582,2,0,L|255:358,1,42.5,8|0,0:1|0:0,0:0:0:0:
320,313,213895,2,0,P|356:310|411:306,1,85,0|0,0:0|0:0,0:0:0:0:
484,249,214520,5,2,0:0:0:0:
88,191,214832,5,4,0:3:0:0:
386,131,215145,6,0,B|331:144|284:116|275:63|275:63|196:120|196:120|225:152|218:188,1,311.666666666667,2|0,0:0|0:0,0:0:0:0:
164,259,217020,6,0,P|198:220|298:229,1,152.999995330811,2|0,0:0|0:0,0:0:0:0:
292,224,217645,6,0,B|221:277|117:239|190:193|84:143|15:194,1,302.222222222222,4|0,0:1|0:0,0:0:0:0:
19,191,223270,6,0,L|24:231,2,37.7777777777778,0|2|4,0:0|0:0|0:3,0:0:0:0:
370,283,224832,5,0,0:0:0:0:
382,291,224988,1,0,0:0:0:0:
395,290,225145,2,0,P|407:268|406:213,1,75.5555555555556,2|0,0:0|0:0,0:0:0:0:
512,19,226395,6,0,L|450:29,1,56.6666666666667,2|2,0:0|0:0,0:0:0:0:
401,82,227020,2,0,L|323:75,1,75.5555555555556,0|2,0:0|0:0,0:0:0:0:
153,7,227957,1,0,0:0:0:0:
118,78,228113,1,0,0:0:0:0:
93,51,228270,2,0,L|49:46,1,37.7777777777778,2|0,0:0|0:0,0:0:0:0:
121,194,228738,5,0,0:0:0:0:
180,149,228895,2,0,P|236:153|277:192,1,113.333333333333,2|0,0:0|0:0,0:0:0:0:
336,233,229988,1,2,0:0:0:0:
279,285,230145,2,0,L|221:274,1,56.6666666666667,2|0,0:0|0:0,0:0:0:0:
220,352,230770,2,0,L|157:360,1,56.6666666666667,2|0,0:0|0:0,0:0:0:0:
0,357,231395,6,0,L|44:354,1,37.7777777777778,2|0,0:0|0:0,0:0:0:0:
105,312,231863,1,0,0:0:0:0:
17,274,232020,2,0,L|97:288,1,75.5555555555556,2|2,0:0|0:0,0:0:0:0:
276,371,232957,1,2,0:0:0:0:
345,330,233113,1,0,0:0:0:0:
321,311,233270,2,0,L|314:268,1,37.7777777777778,2|0,0:0|0:0,0:0:0:0:
219,138,233895,6,0,L|235:24,1,113.333333333333,2|0,0:0|0:0,0:0:0:0:
307,4,234988,1,0,0:0:0:0:
389,59,235145,2,0,L|431:55,1,37.7777777777778,2|0,0:0|0:0,0:0:0:0:
137,83,235770,2,0,L|95:87,1,37.7777777777778,0|0,0:0|0:0,0:0:0:0:
29,66,236238,1,0,0:0:0:0:
42,165,236395,6,0,P|50:191|52:223,1,56.6666666666667,2|2,0:0|0:0,0:0:0:0:
98,280,237020,2,0,P|84:314|81:354,1,75.5555555555556,0|2,0:0|0:0,0:0:0:0:
244,217,237957,1,2,0:0:0:0:
199,155,238113,1,0,0:0:0:0:
179,178,238270,2,0,L|137:184,1,37.7777777777778,2|0,0:0|0:0,0:0:0:0:
181,335,238738,5,0,0:0:0:0:
255,315,238895,2,0,L|299:322,1,37.7777777777778,2|0,0:0|0:0,0:0:0:0:
373,370,239363,2,0,L|433:365,1,56.6666666666667,0|0,0:0|0:0,0:0:0:0:
494,318,239988,1,0,0:0:0:0:
395,276,240145,1,2,0:0:0:0:
395,276,240457,6,0,L|401:253,1,18.8888888888889,0|0,0:0|0:0,0:0:0:0:
318,156,240770,2,0,L|341:162,1,18.8888888888889,2|0,0:0|0:0,0:0:0:0:
444,88,241082,2,0,L|438:111,1,18.8888888888889,0|0,0:0|0:0,0:0:0:0:
479,192,241395,6,0,L|345:164,1,132.222222222222,2|0,0:0|0:0,0:0:0:0:
206,238,242645,6,0,B|241:249|278:237|278:237|257:264|263:293,1,127.5,2|0,0:0|0:0,0:0:0:0:
275,300,243191,1,0,0:0:0:0:
256,292,243270,1,2,0:0:0:0:
228,288,243348,1,0,0:0:0:0:
192,296,243426,1,2,0:0:0:0:
152,320,243504,1,2,0:0:0:0:
104,336,243582,1,2,0:0:0:0:
48,324,243660,1,2,0:0:0:0:
12,284,243738,1,2,0:0:0:0:
24,272,243816,1,2,0:0:0:0:
40,268,243895,6,0,B|196:280|104:360|264:380,1,255.000009727478,4|0,0:3|0:0,0:0:0:0:
359,340,244676,2,0,B|380:303|380:303|354:211,1,127.500004863739,2|2,0:0|0:2,0:0:0:0:
242,111,245145,2,0,B|202:223|202:223|220:256|265:251,1,191.250007295609,4|2,0:3|0:2,0:0:0:0:
426,176,245770,2,0,P|373:139|311:150,1,127.500004863739,0|0,0:0|0:0,0:0:0:0:
202,222,246238,2,0,L|148:234,1,31.8750012159348,0|0,0:0|0:0,0:0:0:0:
63,254,246395,6,0,B|45:194|45:194|72:135|72:135|53:66,1,191.250007295609,4|2,0:3|0:2,0:0:0:0:
117,23,247020,2,0,P|136:32|179:39,1,63.7500024318696,0|0,0:0|0:0,0:0:0:0:
362,113,247332,2,0,P|330:116|301:129,1,63.7500024318696,0|0,0:0|0:0,0:0:0:0:
180,209,247645,2,0,L|191:161,2,31.8750012159348,2|0|0,0:0|0:0|0:0,0:0:0:0:
166,288,247879,5,2,0:3:0:0:
166,288,247957,2,0,P|206:283|254:283,1,63.7500024318696,2|0,0:1|0:0,0:0:0:0:
315,232,248191,1,0,0:0:0:0:
307,219,248270,2,0,L|254:207,1,31.8750012159348,2|0,0:3|0:0,0:0:0:0:
339,321,248426,2,0,L|327:374,1,31.8750012159348,2|0,0:3|0:0,0:0:0:0:
441,263,248582,5,2,0:0:0:0:
448,246,248660,1,0,0:1:0:0:
430,196,248738,5,2,0:0:0:0:
438,179,248816,1,0,0:1:0:0:
510,149,248895,6,0,B|400:126|374:219|252:182,1,255.000009727478,4|0,0:3|0:1,0:0:0:0:
192,243,249676,2,0,B|164:211|164:211|191:118,1,127.500004863739,2|2,0:0|0:2,0:0:0:0:
329,11,250145,2,0,B|352:143|352:143|324:121|285:105,1,191.250007295609,4|2,0:3|0:2,0:0:0:0:
121,54,250770,2,0,P|166:26|239:39,1,127.500004863739,0|0,0:1|0:0,0:0:0:0:
353,143,251238,2,0,L|399:138,1,31.8750012159348,2|0,0:1|0:0,0:0:0:0:
413,130,251395,6,0,L|401:220,1,85,4|0,0:3|0:0,0:0:0:0:
492,283,251863,1,0,0:0:0:0:
492,283,252020,2,0,P|463:288|441:294,1,42.5,8|0,0:1|0:0,0:0:0:0:
262,370,252332,2,0,P|290:375|313:381,1,42.5,2|0,0:0|0:0,0:0:0:0:
380,335,252645,5,4,0:3:0:0:
313,124,252957,5,8,0:1:0:0:
313,124,253113,1,0,0:0:0:0:
260,64,253270,6,0,L|206:54,1,42.5,2|0,0:3|0:0,0:0:0:0:
384,170,253582,2,0,L|438:160,1,42.5,0|0,0:0|0:0,0:0:0:0:
227,282,253895,2,0,L|128:299,1,85,8|8,0:1|0:1,0:0:0:0:
143,296,254363,1,0,0:0:0:0:
0,288,254520,6,0,P|5:310|12:345,1,42.5,8|0,0:1|0:0,0:0:0:0:
86,195,254832,2,0,P|81:217|74:252,1,42.5,8|0,0:1|0:0,0:0:0:0:
202,144,255145,6,0,L|189:4,1,127.5,8|0,0:1|0:0,0:0:0:0:
291,147,255770,6,0,P|286:167|281:188,1,42.5,8|0,0:1|0:0,0:0:0:0:
352,260,256082,2,0,P|357:238|364:203,1,42.5,8|0,0:1|0:0,0:0:0:0:
504,34,256395,6,0,P|456:26|400:86,1,127.5,8|0,0:1|0:0,0:0:0:0:
441,163,257020,6,0,P|462:166|494:176,1,42.5,8|0,0:1|0:0,0:0:0:0:
314,39,257332,2,0,P|292:42|261:52,1,42.5,8|0,0:1|0:0,0:0:0:0:
504,34,257645,5,8,0:1:0:0:
312,119,257801,1,0,0:0:0:0:
305,138,257879,1,0,0:0:0:0:
307,158,257957,1,8,0:1:0:0:
371,246,258113,1,0,0:0:0:0:
456,196,258270,5,8,0:1:0:0:
399,143,258426,1,0,0:0:0:0:
383,156,258582,1,8,0:1:0:0:
388,165,258738,1,0,0:0:0:0:
399,143,258895,5,10,0:1:0:0:
372,64,259051,1,8,0:1:0:0:
272,28,259207,1,8,0:1:0:0:
140,64,259363,1,8,0:1:0:0:
40,192,259520,5,8,0:1:0:0:
209,282,259676,1,8,0:1:0:0:
309,177,259832,5,8,0:1:0:0:
122,230,259988,1,8,0:1:0:0:
296,348,260145,5,8,0:1:0:0:
412,256,260301,1,8,0:1:0:0:
364,80,260457,1,8,0:1:0:0:
232,12,260613,1,8,0:1:0:0:
64,108,260770,5,8,0:1:0:0:
296,180,260926,1,8,0:1:0:0:
364,80,261082,5,8,0:1:0:0:
117,197,261238,1,8,0:1:0:0:
480,72,261395,5,8,0:1:0:0:
452,60,261473,1,8,0:1:0:0:
408,60,261551,1,8,0:1:0:0:
364,80,261629,1,8,0:1:0:0:
328,120,261707,1,8,0:1:0:0:
284,152,261785,1,8,0:1:0:0:
224,156,261863,1,8,0:1:0:0:
160,124,261941,1,8,0:1:0:0:
176,100,262020,5,8,0:1:0:0:
208,116,262098,1,8,0:1:0:0:
224,156,262176,1,8,0:1:0:0:
200,196,262254,1,8,0:1:0:0:
163,231,262332,1,8,0:1:0:0:
148,288,262410,1,8,0:1:0:0:
164,348,262488,1,8,0:1:0:0:
231,383,262566,1,8,0:1:0:0:
231,383,262645,6,0,P|275:287|147:240,1,255.000009727478,2|0,0:1|0:0,0:0:0:0:
163,231,263426,6,0,P|167:260|169:307,1,63.7500024318696,2|0,1:0|0:0,0:0:0:0:
454,227,263582,6,0,L|449:172,6,31.8750012159348,8|0|0|0|0|0|0,0:0|0:0|0:0|0:0|0:0|0:0|0:0,0:0:0:0:
362,196,263895,6,0,P|367:226|369:264,1,63.75,8|0,0:1|0:0,0:0:0:0:
453,211,264207,6,0,B|338:195|370:280|251:260,1,204,12|0,0:1|0:0,0:0:0:0:
244,243,264520,1,2,0:0:0:0:
506,56,264676,2,0,B|515:82|515:82|512:116,1,55.2499974708558,8|0,0:1|0:0,0:0:0:0:
361,195,264832,2,0,B|335:147|335:147|360:86,1,110.499994941712,10|0,0:0|0:0,0:0:0:0:
351,4,265066,5,0,0:0:0:0:
351,4,265145,2,0,P|375:9|421:14,1,55.2499974708558,2|0,0:3|0:0,0:0:0:0:
202,135,265301,2,0,P|207:111|212:65,1,55.2499974708558,8|0,0:1|0:0,0:0:0:0:
449,197,265457,2,0,B|351:189|375:248|264:238,1,165.749992412568,8|0,0:0|0:0,0:0:0:0:
280,161,265770,6,0,L|286:224,1,55.2499974708558,2|0,0:0|0:0,0:0:0:0:
300,384,265926,2,0,L|294:328,1,55.2499974708558,0|0,0:0|0:0,0:0:0:0:
449,197,266082,6,0,L|386:191,1,55.2499974708558,8|0,0:0|0:0,0:0:0:0:
181,60,266238,2,0,L|236:65,1,55.2499974708558,0|0,0:0|0:0,0:0:0:0:
502,69,266395,6,0,B|392:49|392:49|381:73|353:99,1,165.749992412568,8|0,0:1|0:0,0:0:0:0:
335,96,266707,1,8,0:0:0:0:
112,192,266863,6,0,P|139:184|175:181,1,55.2499974708558,2|0,0:0|0:0,0:0:0:0:
251,258,267020,1,2,0:0:0:0:
251,258,267098,1,0,0:0:0:0:
251,258,267176,2,0,B|229:195|279:166|245:91,1,165.749992412568,8|0,0:1|0:0,0:0:0:0:
228,72,267488,1,8,0:0:0:0:
84,87,267645,6,0,P|116:91|179:104,1,55.2499974708558,0|0,0:0|0:0,0:0:0:0:
286,168,267801,2,0,P|313:163|340:160,1,55.2499974708558,8|0,0:1|0:0,0:0:0:0:
444,248,267957,6,0,P|412:252|349:265,1,55.2499974708558,8|0,0:0|0:0,0:0:0:0:
216,368,268113,2,0,P|188:363|161:360,1,55.2499974708558,0|0,0:0|0:0,0:0:0:0:
108,241,268270,5,2,0:0:0:0:
151,217,268348,1,0,0:0:0:0:
200,219,268426,1,0,0:0:0:0:
243,243,268504,1,0,0:0:0:0:
276,286,268582,5,10,0:0:0:0:
331,310,268660,1,0,0:0:0:0:
391,307,268738,1,0,0:0:0:0:
441,273,268816,1,0,0:0:0:0:
485,208,268895,6,0,B|383:176|383:176|346:188|356:239,1,165.749992412568,12|0,0:1|0:0,0:0:0:0:
369,238,269207,1,8,0:0:0:0:
512,69,269363,2,0,L|421:81,1,55.2499974708558,0|0,0:0|0:0,0:0:0:0:
298,42,269520,1,0,0:0:0:0:
298,42,269598,1,0,0:0:0:0:
298,42,269676,2,0,B|272:110|272:110|301:145,1,110.499994941712,8|10,0:1|0:0,0:0:0:0:
46,230,269988,6,0,L|137:242,1,55.2499974708558,0|0,0:0|0:0,0:0:0:0:
245,313,270145,1,2,0:3:0:0:
67,384,270301,6,0,P|77:354|92:293,1,55.2499974708558,8|0,0:1|0:0,0:0:0:0:
190,169,270457,2,0,P|180:118|171:29,1,110.499994941712,8|0,0:0|0:0,0:0:0:0:
86,95,270691,1,0,0:0:0:0:
86,95,270770,2,0,L|95:-2,1,55.2499974708558,2|0,0:0|0:0,0:0:0:0:
270,90,270926,2,0,L|257:34,1,55.2499974708558,2|0,0:0|0:0,0:0:0:0:
2,163,271082,6,0,B|44:172|44:172|61:192|61:192|115:205,1,110.499994941712,8|0,0:0|0:0,0:0:0:0:
185,259,271316,5,2,0:0:0:0:
185,259,271395,2,0,B|146:260|118:234|118:234|96:291|40:305,1,165.749992412568,8|0,0:1|0:0,0:0:0:0:
27,293,271707,1,8,0:0:0:0:
227,172,271863,2,0,P|250:175|281:187,1,55.2499974708558,2|0,0:0|0:0,0:0:0:0:
375,303,272020,1,0,0:0:0:0:
375,303,272098,1,0,0:0:0:0:
375,303,272176,2,0,P|322:334|263:325,1,110.499994941712,0|2,0:0|0:0,0:0:0:0:
119,152,272488,2,0,L|136:84,1,55.2499974708558,8|0,0:0|0:0,0:0:0:0:
155,14,272645,5,2,0:0:0:0:
303,174,272801,1,8,0:1:0:0:
91,281,272957,1,8,0:0:0:0:
294,83,273113,5,0,0:0:0:0:
294,83,273191,1,0,0:0:0:0:
294,83,273270,2,0,P|326:92|378:98,1,55.2499974708558,2|0,0:3|0:0,0:0:0:0:
498,204,273426,2,0,P|470:208|444:216,1,55.2499974708558,8|0,0:1|0:0,0:0:0:0:
278,365,273582,1,10,0:0:0:0:
249,331,273660,1,0,0:0:0:0:
243,281,273738,1,0,0:0:0:0:
268,232,273816,1,0,0:0:0:0:
343,191,273895,6,0,P|408:237|387:322,1,165.749992412568,12|0,0:1|0:0,0:0:0:0:
373,335,274207,1,8,0:0:0:0:
153,216,274363,2,0,L|167:140,1,55.2499974708558,0|0,0:0|0:0,0:0:0:0:
227,50,274520,1,0,0:0:0:0:
227,50,274598,1,0,0:0:0:0:
227,50,274676,2,0,B|246:88|246:88|236:119|236:119|250:162,1,110.499994941712,8|10,0:1|0:0,0:0:0:0:
512,52,274988,6,0,P|485:46|441:43,1,55.2499974708558,0|0,0:0|0:0,0:0:0:0:
334,109,275145,1,2,0:3:0:0:
487,362,275301,6,0,P|496:334|495:308,1,55.2499974708558,8|0,0:1|0:0,0:0:0:0:
266,168,275457,2,0,P|233:210|237:268,1,110.499994941712,8|0,0:0|0:0,0:0:0:0:
306,313,275691,1,0,0:0:0:0:
306,313,275770,2,0,P|347:307|370:280,1,55.2499974708558,2|0,0:0|0:0,0:0:0:0:
471,215,275926,2,0,P|436:212|411:187,1,55.2499974708558,8|0,0:1|0:0,0:0:0:0:
194,26,276082,2,0,B|292:47|244:89|346:112,1,165.749992412568,8|0,0:0|0:0,0:0:0:0:
359,93,276395,5,8,0:1:0:0:
153,178,276551,1,0,0:0:0:0:
372,333,276707,1,8,0:0:0:0:
269,197,276863,5,2,0:0:0:0:
269,197,276941,1,0,0:0:0:0:
269,197,277020,2,0,P|249:217|254:254,1,55.2499974708558,2|0,0:0|0:0,0:0:0:0:
80,380,277176,2,0,B|68:323|68:323|78:272|78:272|62:203,1,165.749992412568,8|0,0:1|0:0,0:0:0:0:
43,205,277488,1,8,0:0:0:0:
157,102,277645,6,0,P|166:127|169:155,1,55.2499974708558,2|0,0:0|0:0,0:0:0:0:
257,336,277801,2,0,P|266:310|269:282,1,55.2499974708558,8|0,0:1|0:0,0:0:0:0:
354,155,277957,6,0,P|335:157|287:179,1,55.2499974708558,8|0,0:0|0:0,0:0:0:0:
117,278,278113,2,0,P|144:281|170:290,1,55.2499974708558
359,302,278269,6,0,B|351:280|351:280|355:269|355:269|350:247,1,55.2499974708558,2|0,0:3|0:0,0:0:0:0:
260,45,278425,2,0,B|256:67|256:67|248:77|248:77|245:97,1,55.2499974708558,8|0,0:1|0:0,0:0:0:0:
33,212,278582,5,10,0:0:0:0:
85,193,278660,1,0,0:0:0:0:
143,209,278738,1,0,0:0:0:0:
191,254,278816,1,0,0:0:0:0:
147,313,278895,6,0,B|127:228|191:245|170:143,1,165.749992412568,12|0,0:1|0:0,0:0:0:0:
150,132,279207,1,8,0:0:0:0:
452,19,279363,2,0,L|362:28,1,55.2499974708558,2|0,0:0|0:0,0:0:0:0:
289,107,279520,1,0,0:0:0:0:
289,107,279598,1,0,0:0:0:0:
289,107,279676,2,0,B|332:113|332:113|348:132|348:132|409:142,1,110.499994941712,8|10,0:1|0:0,0:0:0:0:
162,14,279988,6,0,B|140:16|140:16|124:25|124:25|77:32,1,55.2499974708558,0|0,0:0|0:0,0:0:0:0:
0,100,280145,1,2,0:3:0:0:
177,307,280301,6,0,B|155:305|155:305|139:296|139:296|92:289,1,55.2499974708558,8|0,0:1|0:0,0:0:0:0:
11,197,280457,2,0,B|48:171|48:171|122:191,1,110.499994941712,8|0,0:0|0:0,0:0:0:0:
185,213,280691,1,0,0:0:0:0:
200,219,280770,1,2,0:0:0:0:
30,347,280926,6,0,B|22:320|22:320|31:281,1,55.2499974708558,0|0,0:0|0:0,0:0:0:0:
177,133,281082,1,8,0:0:0:0:
226,128,281160,1,0,0:0:0:0:
273,155,281238,1,0,0:0:0:0:
295,211,281316,1,0,0:0:0:0:
266,291,281395,6,0,B|232:325|232:325|183:287|202:208,1,165.749992412568,8|0,0:1|0:0,0:0:0:0:
214,202,281707,1,8,0:0:0:0:
512,366,281863,2,0,L|439:354,1,55.2499974708558,0|0,0:0|0:0,0:0:0:0:
365,304,282020,1,2,0:0:0:0:
365,304,282098,1,0,0:0:0:0:
365,304,282176,2,0,B|361:244|361:244|388:212|388:212|376:130,1,165.749992412568,8|0,0:1|0:0,0:0:0:0:
352,136,282488,1,8,0:0:0:0:
492,33,282645,6,0,L|399:46,1,55.2499974708558,0|0,0:0|0:0,0:0:0:0:
210,194,282801,1,8,0:1:0:0:
212,198,282879,1,0,0:0:0:0:
214,202,282957,2,0,L|307:215,1,55.2499974708558,8|0,0:0|0:0,0:0:0:0:
352,136,283113,6,0,L|360:95,2,27.6249987354279,2|0|2,0:0|0:0|0:0,0:0:0:0:
270,62,283270,6,0,P|223:47|192:32,1,55.2499974708558,10|0,0:0|0:0,0:0:0:0:
445,152,283426,5,8,0:1:0:0:
460,163,283504,2,0,P|485:153|512:145,1,55.2499974708558,10|0,0:0|0:0,0:0:0:0:
300,290,283660,5,2,0:0:0:0:
306,311,283738,2,0,P|296:336|288:363,1,55.2499974708558,10|2,0:0|0:0,0:0:0:0:
332,212,283895,6,0,B|230:193|251:272|135:252,1,191.250007295609,4|0,0:3|0:0,0:0:0:0:
136,239,284207,1,8,0:0:0:0:
352,104,284363,2,0,L|364:28,1,46.7500014266968,0|0,0:0|0:0,0:0:0:0:
240,24,284520,1,2,0:0:0:0:
240,24,284598,1,0,0:0:0:0:
240,24,284676,6,0,B|218:65|218:65|225:111,1,93.5000028533936,0|8,0:0|0:0,0:0:0:0:
464,148,284988,2,0,B|485:106|485:106|478:60,1,93.5000028533936,0|2,0:0|0:0,0:0:0:0:
368,0,285301,6,0,L|356:68,1,46.7500014266968,0|0,0:0|0:0,0:0:0:0:
332,212,285457,1,8,0:0:0:0:
368,142,285613,6,0,L|356:201,1,46.7500014266968,0|0,0:0|0:0,0:0:0:0:
308,311,285770,1,2,0:0:0:0:
335,311,285848,1,0,0:0:0:0:
359,324,285926,1,0,0:0:0:0:
492,276,286082,6,0,P|471:289|440:297,1,46.7500014266968,8|0,0:0|0:0,0:0:0:0:
285,384,286238,2,0,P|262:376|243:364,1,46.7500014266968,0|0,0:0|0:0,0:0:0:0:
167,287,286395,6,0,P|120:274|29:333,1,140.25000428009,8|0,0:1|0:0,0:0:0:0:
24,330,286707,1,8,0:0:0:0:
175,200,286863,2,0,P|185:164|189:123,1,46.7500014266968,0|0,0:0|0:0,0:0:0:0:
147,58,287020,5,0,0:0:0:0:
147,58,287098,1,0,0:0:0:0:
147,58,287176,2,0,B|238:62|207:103|284:107,1,140.25000428009,8|0,0:1|0:0,0:0:0:0:
298,92,287488,1,8,0:0:0:0:
116,163,287645,6,0,L|174:177,1,46.7500014266968,2|2,0:0|0:0,0:0:0:0:
237,249,287801,2,0,L|282:238,1,46.7500014266968,8|2,0:1|0:0,0:0:0:0:
376,158,287957,5,8,0:0:0:0:
396,152,288035,1,0,0:0:0:0:
428,156,288113,1,0,0:0:0:0:
464,180,288191,1,0,0:0:0:0:
488,224,288270,5,2,0:0:0:0:
447,193,288348,1,2,0:0:0:0:
385,185,288426,1,8,0:1:0:0:
324,201,288504,1,2,0:0:0:0:
282,237,288582,5,8,0:0:0:0:
247,264,288660,1,0,0:0:0:0:
200,274,288738,1,0,0:0:0:0:
146,262,288816,1,0,0:0:0:0:
115,232,288895,6,0,P|112:191|100:128,1,93.5000028533936,12|0,0:1|0:0,0:0:0:0:
102,139,289129,1,0,0:0:0:0:
102,139,289207,2,0,L|200:150,1,93.5000028533936,8|0,0:0|0:0,0:0:0:0:
438,21,289520,5,2,0:0:0:0:
438,21,289598,1,0,0:0:0:0:
438,21,289676,2,0,L|429:67,1,46.7500014266968,8|0,0:1|0:0,0:0:0:0:
308,135,289832,2,0,P|280:98|288:45,1,93.5000028533936,8|0,0:0|0:0,0:0:0:0:
300,29,290066,1,0,0:0:0:0:
300,29,290145,1,2,0:0:0:0:
512,173,290301,6,0,P|480:177|456:184,1,46.7500014266968,0|0,0:0|0:0,0:0:0:0:
299,261,290457,2,0,P|331:265|355:272,1,46.7500014266968,8|0,0:0|0:0,0:0:0:0:
453,379,290613,1,0,0:0:0:0:
479,353,290691,1,0,0:0:0:0:
486,315,290770,1,2,0:0:0:0:
470,280,290848,1,0,0:0:0:0:
450,267,290926,2,0,L|434:328,1,46.7500014266968,8|0,0:1|0:0,0:0:0:0:
298,380,291082,2,0,B|255:366|209:363|209:363|197:339|221:317,1,140.25000428009,8|0,0:0|0:0,0:0:0:0:
196,302,291395,6,0,L|295:292,1,93.5000028533936,8|0,0:1|0:0,0:0:0:0:
196,64,291707,2,0,L|295:74,1,93.5000028533936,8|2,0:0|0:0,0:0:0:0:
373,81,291941,1,2,0:0:0:0:
373,81,292020,2,0,L|365:13,1,46.7500014266968,2|0,0:0|0:0,0:0:0:0:
256,180,292176,2,0,L|188:188,1,46.7500014266968,8|0,0:1|0:0,0:0:0:0:
324,292,292332,5,0,0:0:0:0:
358,306,292410,1,0,0:0:0:0:
400,304,292488,1,8,0:0:0:0:
440,276,292566,1,0,0:0:0:0:
456,252,292645,5,2,0:0:0:0:
432,236,292723,1,2,0:0:0:0:
380,232,292801,1,8,0:1:0:0:
332,256,292879,1,2,0:0:0:0:
296,296,292957,5,8,0:0:0:0:
256,324,293035,1,0,0:0:0:0:
196,328,293113,1,0,0:0:0:0:
140,304,293191,1,0,0:0:0:0:
96,244,293270,6,0,L|112:176,1,46.7500014266968,0|0,0:0|0:0,0:0:0:0:
294,81,293426,2,0,L|310:149,1,46.7500014266968,8|2,0:1|0:0,0:0:0:0:
217,249,293582,5,8,0:0:0:0:
211,228,293660,1,2,0:0:0:0:
220,173,293738,5,2,0:0:0:0:
214,150,293816,1,2,0:0:0:0:
127,119,293895,6,0,B|179:102|179:102|216:121|216:121|259:106|259:106|318:132,1,191.250007295609,4|0,0:3|0:0,0:0:0:0:
394,74,294207,6,0,P|410:50|388:30,1,55.2499974708558,8|0,0:0|0:0,0:0:0:0:
512,178,294363,5,2,0:0:0:0:
512,178,294441,1,2,0:0:0:0:
512,178,294520,2,0,P|500:153|491:106,1,55.2499974708558,2|2,0:0|0:0,0:0:0:0:
288,270,294676,2,0,P|302:238|308:205,1,55.2499974708558,8|0,0:1|0:0,0:0:0:0:
442,343,294832,1,8,0:0:0:0:
408,170,294988,5,0,0:0:0:0:
408,170,295066,1,0,0:0:0:0:
408,170,295145,2,0,L|395:214,1,46.7500014266968,2|0,0:0|0:0,0:0:0:0:
329,361,295301,2,0,B|364:353|364:353|386:359|386:359|435:350,1,93.5000028533936,8|8,0:1|0:0,0:0:0:0:
280,187,295613,6,0,B|216:198,1,46.7500014266968
92,298,295770,1,2,0:0:0:0:
92,298,295848,1,8,0:1:0:0:
92,298,295926,1,8,0:1:0:0:
212,351,296082,6,0,P|227:321|232:293,1,46.7500014266968,8|0,0:0|0:0,0:0:0:0:
115,140,296238,2,0,P|130:170|135:198,1,46.7500014266968
0,314,296395,6,0,L|102:297,1,93.5000028533936,8|0,0:1|0:0,0:0:0:0:
160,255,296629,1,0,0:0:0:0:
174,251,296707,1,8,0:0:0:0:
267,129,296863,6,0,L|210:115,1,46.7500014266968
56,212,297020,1,2,0:0:0:0:
56,212,297098,1,8,0:1:0:0:
56,212,297176,1,8,0:1:0:0:
271,138,297332,1,0,0:0:0:0:
102,63,297488,6,0,B|94:80|94:80|98:97|98:97|89:129,1,55.2499974708558,8|0,0:0|0:0,0:0:0:0:
136,320,297645,5,2,0:0:0:0:
160,308,297723,1,2,0:0:0:0:
200,304,297801,1,8,0:1:0:0:
244,320,297879,1,0,0:0:0:0:
288,352,297957,5,8,0:0:0:0:
340,364,298035,1,0,0:0:0:0:
396,344,298113,1,2,0:0:0:0:
440,300,298191,1,2,0:0:0:0:
436,260,298270,5,2,0:0:0:0:
408,228,298348,1,2,0:0:0:0:
360,216,298426,1,0,0:0:0:0:
312,232,298504,1,0,0:0:0:0:
272,268,298582,5,8,0:0:0:0:
308,316,298660,1,2,0:0:0:0:
376,332,298738,1,2,0:0:0:0:
440,300,298816,1,2,0:0:0:0:
484,232,298895,6,0,L|472:120,1,93.5000028533936,12|0,0:1|0:0,0:0:0:0:
463,64,299129,1,0,0:0:0:0:
463,64,299207,2,0,P|437:60|393:53,1,46.7500014266968,8|0,0:0|0:0,0:0:0:0:
332,152,299363,2,0,P|306:156|262:163,1,46.7500014266968,0|0,0:0|0:0,0:0:0:0:
128,104,299520,1,2,0:0:0:0:
272,8,299676,6,0,L|260:72,1,46.7500014266968,8|0,0:1|0:0,0:0:0:0:
52,153,299832,2,0,B|36:111|36:111|49:51,1,93.5000028533936,8|0,0:0|0:0,0:0:0:0:
57,37,300066,1,2,0:0:0:0:
57,37,300145,1,2,0:0:0:0:
172,197,300301,6,0,L|161:261,1,46.7500014266968,0|0,0:0|0:0,0:0:0:0:
48,320,300457,5,8,0:0:0:0:
83,309,300535,1,0,0:0:0:0:
120,313,300613,1,0,0:0:0:0:
150,334,300691,1,0,0:0:0:0:
188,368,300770,5,2,0:0:0:0:
236,384,300848,1,2,0:0:0:0:
292,372,300926,1,2,0:0:0:0:
332,328,301004,1,2,0:0:0:0:
348,292,301082,5,8,0:0:0:0:
328,268,301160,1,0,0:0:0:0:
292,256,301238,1,0,0:0:0:0:
252,260,301316,1,0,0:0:0:0:
216,292,301395,1,8,0:1:0:0:
440,376,301551,6,0,L|456:304,1,46.7500014266968,0|0,0:0|0:0,0:0:0:0:
476,200,301707,5,8,0:0:0:0:
438,181,301785,1,0,0:0:0:0:
395,180,301863,1,0,0:0:0:0:
356,197,301941,1,0,0:0:0:0:
312,232,302020,5,2,0:0:0:0:
260,264,302098,1,2,0:0:0:0:
192,272,302176,1,2,0:0:0:0:
124,240,302254,1,2,0:0:0:0:
92,212,302332,5,0,0:0:0:0:
84,176,302410,1,0,0:0:0:0:
112,128,302488,1,8,0:0:0:0:
148,112,302566,1,0,0:0:0:0:
176,120,302645,6,0,P|192:148|192:184,1,63.7500024318696,0|0,0:0|0:0,0:0:0:0:
29,364,302801,1,8,0:1:0:0:
23,366,302879,1,8,0:1:0:0:
17,368,302957,2,0,P|1:340|1:304,1,63.7500024318696,8|0,0:0|0:0,0:0:0:0:
92,234,303113,6,0,L|135:241,2,31.8750012159348,0|0|0,0:0|0:0|0:0,0:0:0:0:
112,336,303270,6,0,P|152:332|201:330,1,63.7500024318696,8|0,0:0|0:0,0:0:0:0:
224,144,303426,5,8,0:1:0:0:
248,164,303504,2,0,P|288:168|337:170,1,63.7500024318696,8|0,0:0|0:0,0:0:0:0:
352,372,303660,5,8,0:1:0:0:
416,324,303738,2,0,P|456:320|505:318,1,63.7500024318696,8|0,0:0|0:0,0:0:0:0:
506,301,303895,6,0,B|427:254|309:300|387:343|276:397|188:360,1,340,4|0,0:3|0:0,0:0:0:0:
194,362,306395,6,0,B|216:295|216:295|206:265|206:265|253:193|253:193|138:220,1,297.5,2|0,0:0|0:0,0:0:0:0:
146,217,307645,6,0,B|262:215|215:273|304:280,1,170,2|0,0:0|0:0,0:0:0:0:
369,242,309051,1,2,0:0:0:0:
369,242,309207,1,2,0:0:0:0:
369,242,309520,6,0,P|362:211|366:177,1,63.75,2|0,0:0|0:0,0:0:0:0:
327,43,310145,6,0,P|358:36|448:108,1,152.999995330811,2|0,0:0|0:0,0:0:0:0:
511,185,310770,6,0,P|486:198|448:205,1,63.75,2|0,0:0|0:0,0:0:0:0:
299,275,311395,6,0,B|235:294|195:245|195:245|238:325|183:378,1,255,2|0,0:0|0:0,0:0:0:0:
86,216,312488,5,0,0:0:0:0:
89,201,312566,1,0,0:0:0:0:
100,190,312645,2,0,L|88:138,1,42.5,2|0,0:0|0:0,0:0:0:0:
195,245,312957,2,0,L|213:188,1,42.5,2|0,0:0|0:0,0:0:0:0:
294,116,313270,1,2,0:0:0:0:
477,218,313582,5,0,0:0:0:0:
449,208,313660,1,0,0:0:0:0:
407,218,313738,1,2,0:0:0:0:
365,254,313816,1,2,0:0:0:0:
348,278,313895,6,0,B|184:314|261:187|90:219,1,272,4|0,0:3|0:0,0:0:0:0:
34,266,315301,1,2,0:0:0:0:
99,300,315457,1,2,0:0:0:0:
162,254,315613,1,0,0:0:0:0:
98,217,315770,6,0,L|120:103,1,102,2|0,0:0|0:0,0:0:0:0:
40,82,316316,5,2,0:0:0:0:
40,82,316395,2,0,P|123:117|239:29,1,238,2|0,0:0|0:0,0:0:0:0:
365,142,317645,6,0,P|301:159|210:107,1,170,2|0,0:0|0:0,0:0:0:0:
165,56,319051,1,2,0:0:0:0:
165,56,319207,1,2,0:0:0:0:
165,56,319520,6,0,P|133:44|100:42,1,63.75,0|0,0:0|0:0,0:0:0:0:
218,143,320145,6,0,P|186:145|130:219,1,127.5,2|0,0:0|0:0,0:0:0:0:
275,236,320770,6,0,P|277:267|406:322,1,191.250007295609,2|0,0:0|0:0,0:0:0:0:
416,308,321395,6,0,B|306:284|325:384|200:346,1,212.5,2|0,0:0|0:0,0:0:0:0:
117,282,322332,2,0,L|128:231,1,42.5,0|0,0:0|0:0,0:0:0:0:
212,177,322645,6,0,B|170:163|155:123|155:123|119:159|59:155,1,170,2|0,0:1|0:0,0:0:0:0:
74,155,323113,2,0,L|91:82,1,42.5,0|0,0:0|0:0,0:0:0:0:
201,30,323270,5,2,0:0:0:0:
232,20,323348,1,0,0:0:0:0:
276,28,323426,1,2,0:0:0:0:
312,60,323504,1,0,0:0:0:0:
352,96,323582,1,2,0:0:0:0:
420,104,323660,1,0,0:0:0:0:
468,80,323738,1,0,0:0:0:0:
484,56,323816,2,0,L|476:8,1,42.5,2|2,0:0|0:1,0:0:0:0:
