osu file format v14

[General]
AudioFilename: audio.mp3
AudioLeadIn: 0
PreviewTime: 224068
Countdown: 0
SampleSet: Soft
StackLeniency: 0.7
Mode: 3
LetterboxInBreaks: 0
SpecialStyle: 0
WidescreenStoryboard: 0

[Editor]
Bookmarks: 29850,51100,86568,284850,285475,286100,286725,287350,287975,288600,289225,289850,290475,291100,291725,292350,292975,293600,294225,294850,295475,296100,296725,297350,297975,298600,299225,299850,300475,301100,301725,302350,302975,303600,304225,304850
DistanceSpacing: 0.5
BeatDivisor: 4
GridSize: 4
TimelineZoom: 2.400001

[Metadata]
Title:Petals
TitleUnicode:Petals
Artist:Nanahira
ArtistUnicode:ななひら
Creator:Arzenvald
Version:~ furrows of tomorrow ~ // four key
Source:
Tags:Featured Artist FA japanese pop electronic drum and bass dnb d'n'b secretale confetto cametek camellia かめりあ artcore Marathon Comiket コミケット Comic Market コミックマーケット 91 リリース C91 Evaine Sjao Alisa Spring 2018 Fanart
BeatmapID:1345838
BeatmapSetID:634241

[Difficulty]
HPDrainRate:8.9
CircleSize:4
OverallDifficulty:8.5
ApproachRate:5
SliderMultiplier:1.4
SliderTickRate:1

[Events]
//Background and Video events
0,0,"bg.jpg",0,0
//Break Periods
//Storyboard Layer 0 (Background)
//Storyboard Layer 1 (Fail)
//Storyboard Layer 2 (Pass)
//Storyboard Layer 3 (Foreground)
//Storyboard Layer 4 (Overlay)
//Storyboard Sound Samples
Sample,99225,0,"normal-hitfinish.wav",50
Sample,109225,0,"normal-hitfinish.wav",50
Sample,188287,0,"B_A4.wav",40
Sample,188365,0,"B_B4B.wav",40
Sample,188443,0,"B_D5B.wav",40
Sample,188521,0,"B_E5B.wav",40
Sample,237506,0,"B_B4B.wav",8
Sample,238287,0,"B_B4B.wav",8
Sample,238600,0,"A6S.wav",8
Sample,238756,0,"B_B4B.wav",8
Sample,238912,0,"B_F#5B.wav",8
Sample,239068,0,"B_G5B.wav",8
Sample,239381,0,"B_G5B.wav",8
Sample,239537,0,"B_F#5B.wav",8
Sample,240006,0,"G5S.wav",8
Sample,240162,0,"D6S.wav",8
Sample,240318,0,"E6S.wav",8
Sample,244850,0,"B_E5B.wav",8

[TimingPoints]
1100,312.5,4,2,1,60,1,0
94850,-100,4,2,1,60,0,1
114850,-100,4,2,1,60,0,0
158600,-100,4,2,1,60,0,1
178600,-100,4,2,1,60,0,0
224068,-55.5556,4,2,1,55,0,0
224107,-59.2728,4,2,1,55,0,0
224146,-63.45,4,2,1,55,0,0
224185,-68.0949,4,2,1,55,0,0
224224,-73.1955,4,2,1,55,0,0
224263,-78.7122,4,2,1,55,0,0
224302,-84.5709,4,2,1,55,0,0
224341,-90.6594,4,2,1,55,0,0
224381,-96.8289,4,2,1,55,0,0
224420,-102.904,4,2,1,55,0,0
224459,-108.703,4,2,1,55,0,0
224498,-114.064,4,2,1,55,0,0
224537,-118.877,4,2,1,55,0,0
224576,-123.109,4,2,1,55,0,0
224615,-126.816,4,2,1,55,0,0
224654,-130.147,4,2,1,55,0,0
224693,-133.333,4,2,1,55,0,0
242350,-125,4,2,1,60,0,0
242662,-117.647058823529,4,2,1,60,0,0
242975,-111.111111111111,4,2,1,40,0,0
243287,-105.263157894737,4,2,1,40,0,0
243600,-100,4,2,1,40,0,0
264850,-250,4,2,1,60,0,0
264928,-125,4,2,1,40,0,0
265006,-83.3333333333333,4,2,1,40,0,0
265084,-62.5,4,2,1,40,0,0
265162,-100,4,2,1,60,0,1
304850,-100,4,2,1,60,0,0

[HitObjects]
64,192,1100,5,0,0:0:0:70:E5S.wav
192,192,1256,1,0,0:0:0:70:F#5S_Gb5S.wav
448,192,1412,1,0,0:0:0:70:G5S.wav
192,192,1568,1,0,0:0:0:70:F#5S_Gb5S.wav
64,192,1881,1,0,0:0:0:70:A5S.wav
448,192,2193,1,0,0:0:0:70:F#6S_Gb6S.wav
320,192,2506,1,0,0:0:0:70:D6S.wav
192,192,2662,1,0,0:0:0:70:A5S.wav
64,192,2818,1,0,0:0:0:70:F#5S_Gb5S.wav
448,192,3131,1,0,0:0:0:70:D6S.wav
64,192,3443,1,0,0:0:0:70:B5S.wav
192,192,3756,1,0,0:0:0:70:D6S.wav
320,192,3912,1,0,0:0:0:70:E6S.wav
448,192,4068,1,0,0:0:0:70:A6S.wav
320,192,4537,1,0,0:0:0:70:D6S.wav
192,192,5006,1,0,0:0:0:70:B5S.wav
64,192,5162,1,0,0:0:0:70:D5S.wav
192,192,5318,1,0,0:0:0:70:E5S.wav
320,192,5475,1,0,0:0:0:70:F#5S_Gb5S.wav
64,192,5631,1,0,0:0:0:70:B4S.wav
448,192,5787,1,0,0:0:0:70:G5S.wav
192,192,5943,1,0,0:0:0:70:B4S.wav
64,192,6100,1,0,0:0:0:70:E5S.wav
192,192,6256,1,0,0:0:0:70:F#5S_Gb5S.wav
448,192,6412,1,0,0:0:0:70:G5S.wav
192,192,6568,1,0,0:0:0:70:F#5S_Gb5S.wav
64,192,6881,1,0,0:0:0:70:A5S.wav
448,192,7193,1,0,0:0:0:70:F#6S_Gb6S.wav
320,192,7506,1,0,0:0:0:70:D6S.wav
192,192,7662,1,0,0:0:0:70:A5S.wav
64,192,7818,1,0,0:0:0:70:F#5S_Gb5S.wav
448,192,8131,1,0,0:0:0:70:D6S.wav
192,192,8443,1,0,0:0:0:70:B5S.wav
64,192,8600,128,0,10787:0:0:0:20:B5S.wav
192,192,8756,1,0,0:0:0:70:D6S.wav
320,192,8912,1,0,0:0:0:70:E6S.wav
448,192,9068,1,0,0:0:0:70:A6S.wav
192,192,9537,1,0,0:0:0:70:D6S.wav
320,192,10006,1,0,0:0:0:70:B5S.wav
192,192,10162,1,0,0:0:0:70:D5S.wav
320,192,10318,1,0,0:0:0:70:E5S.wav
448,192,10475,1,0,0:0:0:70:F#5S_Gb5S.wav
192,192,10631,1,0,0:0:0:70:B4S.wav
320,192,10787,1,0,0:0:0:70:G5S.wav
64,192,10943,1,0,0:0:0:70:B4S.wav
448,192,11100,1,0,0:0:0:0:
320,192,11100,128,0,12350:0:0:0:70:B_F#5B.wav
192,192,11100,128,4,13600:1:0:0:0:
448,192,12350,128,0,12975:0:0:0:70:B_G5B.wav
320,192,12975,128,0,14850:0:0:0:70:B_F#5B.wav
64,192,13600,128,0,16100:0:0:0:70:B_E5B.wav
448,192,14850,128,0,16100:0:0:0:70:B_B5B.wav
192,192,16725,128,0,17975:0:0:0:70:B_A5B.wav
448,192,17350,128,0,18600:0:0:0:70:B_D6B.wav
64,192,17975,128,0,19771:0:0:0:70:B_G5B.wav
192,192,18600,128,0,19693:0:0:0:70:B_F#5B.wav
448,192,19693,128,0,19850:0:0:0:70:B_G5B.wav
320,192,19771,128,0,20475:0:0:0:70:B_F#5B.wav
192,192,19850,128,0,20865:0:0:0:70:B_E5B.wav
64,192,20475,128,0,20787:0:0:0:70:B_A4.wav
320,192,20787,128,0,20943:0:0:0:70:B_A4.wav
448,192,20865,128,0,21021:0:0:0:70:B_B4B.wav
64,192,20943,128,0,21100:0:0:0:70:B_D5B.wav
192,192,21021,128,0,22975:0:0:0:70:B_E5B.wav
320,192,21100,128,0,22350:0:0:0:70:B_F#5B.wav
448,192,22350,128,0,23521:0:0:0:70:B_G5B.wav
64,192,22975,128,0,23443:0:0:0:70:B_F#5B.wav
320,192,23443,128,0,23600:0:0:0:70:B_G5B.wav
192,192,23521,128,0,24850:0:0:0:70:B_F#5B.wav
64,192,23600,128,0,26100:0:0:0:70:B_E5B.wav
448,192,24850,128,0,26100:0:0:0:70:B_B5B.wav
64,192,26725,128,0,27975:0:0:0:70:B_E5B.wav
192,192,27350,128,0,28600:0:0:0:70:B_G5B.wav
448,192,27975,128,0,28600:0:0:0:70:B_A5B.wav
320,192,28600,128,0,30318:0:0:0:0:
64,192,28600,128,0,30162:0:0:0:70:B_G5B.wav
448,192,29850,128,0,30396:0:0:0:0:
192,192,29850,128,0,30240:0:0:0:70:B_D6B.wav
64,192,30240,128,0,30631:0:0:0:0:
192,192,30318,128,0,30553:0:0:0:0:
320,192,30396,128,0,30475:0:0:0:0:
448,192,30475,128,0,30709:0:0:0:0:
320,192,30553,128,0,30787:0:0:0:0:
192,192,30631,128,0,30865:0:0:0:0:
64,192,30709,128,0,30943:0:0:0:0:
448,192,30787,128,0,31021:0:0:0:0:
320,192,30865,128,0,30943:0:0:0:0:
192,192,30943,128,0,31021:0:0:0:0:
320,192,31021,128,0,31100:0:0:0:0:
448,192,31100,128,0,33600:0:0:0:0:
64,192,31100,1,4,1:0:0:0:
320,192,31412,1,0,0:0:0:0:
64,192,31568,128,0,33600:0:0:0:0:
192,192,33600,1,0,0:0:0:0:
320,192,33626,1,0,0:0:0:0:
448,192,33652,1,0,0:0:0:0:
320,192,34850,1,0,0:0:0:0:
64,192,36100,1,0,0:0:0:0:
192,192,36169,1,0,0:0:0:0:
320,192,36236,1,0,0:0:0:0:
448,192,36308,1,0,0:0:0:0:
64,192,37350,1,0,0:0:0:0:
320,192,37975,1,0,0:0:0:0:
64,192,38600,1,0,0:0:0:0:
192,192,38652,1,0,0:0:0:0:
448,192,38678,1,0,0:0:0:0:
320,192,39850,1,0,0:0:0:0:
64,192,39928,1,0,0:0:0:0:
448,192,39954,1,0,0:0:0:0:
64,192,41100,1,0,0:0:0:0:
448,192,41178,1,0,0:0:0:0:
320,192,41204,1,0,0:0:0:0:
192,192,41230,1,0,0:0:0:0:
320,192,43600,1,0,0:0:0:0:
192,192,43600,1,0,0:0:0:0:
448,192,44850,1,0,0:0:0:0:
64,192,45475,1,0,0:0:0:0:
64,192,46100,1,0,0:0:0:0:
448,192,46169,1,0,0:0:0:0:
192,192,46256,1,0,0:0:0:0:
448,192,46308,1,0,0:0:0:0:
192,192,47350,1,0,0:0:0:0:
64,192,47350,1,0,0:0:0:0:
320,192,47975,1,0,0:0:0:0:
320,192,48600,1,0,0:0:0:0:
192,192,48600,1,0,0:0:0:0:
448,192,49850,1,0,0:0:0:0:
320,192,49850,1,0,0:0:0:0:
64,192,49850,1,0,0:0:0:0:
192,192,50475,128,0,50631:0:0:0:0:
448,192,50631,128,0,50787:0:0:0:0:
64,192,50787,128,0,50943:0:0:0:0:
320,192,50943,128,0,51100:0:0:0:0:
448,192,51100,1,0,0:0:0:0:
64,192,51100,128,0,51412:0:0:0:0:
320,192,51178,1,0,0:0:0:0:
192,192,51256,1,0,0:0:0:0:
192,192,51412,1,0,0:0:0:0:
320,192,51568,1,0,0:0:0:0:
448,192,51646,1,0,0:0:0:0:
192,192,51725,1,0,0:0:0:0:
448,192,51803,1,0,0:0:0:0:
64,192,51881,1,0,0:0:0:0:
448,192,52037,1,0,0:0:0:0:
192,192,52115,1,0,0:0:0:0:
320,192,52193,1,0,0:0:0:0:
192,192,52350,128,0,52662:0:0:0:0:
448,192,52506,1,0,0:0:0:0:
448,192,52662,1,0,0:0:0:0:
64,192,52818,1,0,0:0:0:0:
192,192,52896,1,0,0:0:0:0:
64,192,52975,1,0,0:0:0:0:
320,192,53053,1,0,0:0:0:0:
448,192,53131,1,0,0:0:0:0:
192,192,53287,1,0,0:0:0:0:
448,192,53365,1,0,0:0:0:0:
64,192,53443,1,0,0:0:0:0:
320,192,53521,1,0,0:0:0:0:
448,192,53600,128,0,53912:0:0:0:0:
192,192,53678,1,0,0:0:0:0:
64,192,53756,1,0,0:0:0:0:
64,192,53912,1,0,0:0:0:0:
320,192,54068,1,0,0:0:0:0:
192,192,54146,1,0,0:0:0:0:
320,192,54225,1,0,0:0:0:0:
64,192,54303,1,0,0:0:0:0:
448,192,54381,1,0,0:0:0:0:
448,192,54537,1,0,0:0:0:0:
192,192,54615,1,0,0:0:0:0:
320,192,54693,1,0,0:0:0:0:
64,192,54693,1,0,0:0:0:0:
320,192,54850,1,0,0:0:0:0:
64,192,54850,1,0,0:0:0:0:
192,192,55006,1,0,0:0:0:0:
448,192,55084,1,0,0:0:0:0:
192,192,55162,1,0,0:0:0:0:
320,192,55318,1,0,0:0:0:0:
448,192,55475,1,0,0:0:0:0:
192,192,55475,1,0,0:0:0:0:
64,192,55475,1,4,1:0:0:0:
320,192,55553,1,0,0:0:0:0:
64,192,55631,1,0,0:0:0:0:
192,192,55787,1,0,0:0:0:0:
64,192,55865,1,0,0:0:0:0:
320,192,55943,1,0,0:0:0:0:
192,192,56021,1,0,0:0:0:0:
448,192,56100,128,0,56412:0:0:0:0:
320,192,56178,1,0,0:0:0:0:
64,192,56256,1,0,0:0:0:0:
64,192,56412,1,0,0:0:0:0:
192,192,56568,1,0,0:0:0:0:
192,192,56725,1,0,0:0:0:0:
448,192,56803,1,0,0:0:0:0:
64,192,56881,1,0,0:0:0:0:
320,192,56959,1,0,0:0:0:0:
64,192,57037,1,0,0:0:0:0:
320,192,57115,1,0,0:0:0:0:
192,192,57193,1,0,0:0:0:0:
64,192,57350,1,0,0:0:0:0:
192,192,57506,1,0,0:0:0:0:
448,192,57662,1,0,0:0:0:0:
320,192,57740,1,0,0:0:0:0:
64,192,57818,1,0,0:0:0:0:
64,192,57975,1,0,0:0:0:0:
320,192,58053,1,0,0:0:0:0:
448,192,58131,1,0,0:0:0:0:
64,192,58209,1,0,0:0:0:0:
192,192,58287,1,0,0:0:0:0:
448,192,58365,1,0,0:0:0:0:
320,192,58443,1,0,0:0:0:0:
192,192,58521,1,0,0:0:0:0:
448,192,58600,128,0,58912:0:0:0:0:
320,192,58639,1,0,0:0:0:0:
192,192,58678,1,0,0:0:0:0:
64,192,58756,1,0,0:0:0:0:
64,192,58912,1,0,0:0:0:0:
192,192,59068,1,0,0:0:0:0:
192,192,59225,1,0,0:0:0:0:
448,192,59381,1,0,0:0:0:0:
320,192,59459,1,0,0:0:0:0:
64,192,59537,1,0,0:0:0:0:
448,192,59693,1,0,0:0:0:0:
320,192,59693,1,0,0:0:0:0:
448,192,59850,128,0,60162:0:0:0:0:
320,192,59850,1,0,0:0:0:0:
192,192,60006,1,0,0:0:0:0:
192,192,60162,1,0,0:0:0:0:
448,192,60318,1,0,0:0:0:0:
192,192,60396,1,0,0:0:0:0:
448,192,60475,1,0,0:0:0:0:
320,192,60475,1,0,0:0:0:0:
64,192,60475,1,4,1:0:0:0:
192,192,60553,1,0,0:0:0:0:
64,192,60631,1,0,0:0:0:0:
320,192,60787,1,0,0:0:0:0:
192,192,60943,1,0,0:0:0:0:
448,192,61100,1,0,0:0:0:0:
64,192,61100,128,0,61412:0:0:0:0:
320,192,61139,1,0,0:0:0:0:
192,192,61178,1,0,0:0:0:0:
448,192,61256,1,0,0:0:0:0:
320,192,61412,1,0,0:0:0:0:
192,192,61568,1,0,0:0:0:0:
64,192,61725,1,0,0:0:0:0:
320,192,61803,1,0,0:0:0:0:
192,192,61881,1,0,0:0:0:0:
448,192,61959,1,0,0:0:0:0:
64,192,62037,1,0,0:0:0:0:
192,192,62115,1,0,0:0:0:0:
448,192,62193,1,0,0:0:0:0:
192,192,62350,1,0,0:0:0:0:
448,192,62428,1,0,0:0:0:0:
192,192,62584,1,0,0:0:0:0:
448,192,62662,1,0,0:0:0:0:
448,192,62818,1,0,0:0:0:0:
192,192,62896,1,0,0:0:0:0:
448,192,62975,1,0,0:0:0:0:
64,192,63053,1,0,0:0:0:0:
320,192,63131,1,0,0:0:0:0:
64,192,63209,1,0,0:0:0:0:
192,192,63287,1,0,0:0:0:0:
64,192,63365,1,0,0:0:0:0:
320,192,63443,1,0,0:0:0:0:
192,192,63521,1,0,0:0:0:0:
448,192,63600,128,0,63912:0:0:0:0:
320,192,63639,1,0,0:0:0:0:
192,192,63678,1,0,0:0:0:0:
64,192,63756,1,0,0:0:0:0:
192,192,63912,1,0,0:0:0:0:
320,192,64068,1,0,0:0:0:0:
192,192,64146,1,0,0:0:0:0:
448,192,64225,1,0,0:0:0:0:
192,192,64303,1,0,0:0:0:0:
320,192,64381,1,0,0:0:0:0:
448,192,64537,1,0,0:0:0:0:
192,192,64615,1,0,0:0:0:0:
64,192,64693,1,0,0:0:0:0:
448,192,64850,1,0,0:0:0:0:
320,192,64928,1,0,0:0:0:0:
192,192,65006,1,0,0:0:0:0:
64,192,65084,1,0,0:0:0:0:
192,192,65162,1,0,0:0:0:0:
320,192,65318,1,0,0:0:0:0:
448,192,65475,1,0,0:0:0:0:
192,192,65475,1,0,0:0:0:0:
64,192,65475,1,4,1:0:0:0:
320,192,65553,1,0,0:0:0:0:
64,192,65631,1,0,0:0:0:0:
448,192,65709,1,0,0:0:0:0:
192,192,65787,1,0,0:0:0:0:
320,192,65865,1,0,0:0:0:0:
64,192,65943,1,0,0:0:0:0:
192,192,66021,1,0,0:0:0:0:
448,192,66100,128,0,66412:0:0:0:0:
320,192,66139,1,0,0:0:0:0:
192,192,66178,1,0,0:0:0:0:
64,192,66256,1,0,0:0:0:0:
320,192,66412,1,0,0:0:0:0:
192,192,66568,1,0,0:0:0:0:
64,192,66725,1,0,0:0:0:0:
192,192,66803,1,0,0:0:0:0:
448,192,66881,1,0,0:0:0:0:
64,192,66881,1,0,0:0:0:0:
64,192,67037,1,0,0:0:0:0:
448,192,67037,1,0,0:0:0:0:
320,192,67193,1,0,0:0:0:0:
192,192,67350,1,0,0:0:0:0:
448,192,67350,1,0,0:0:0:0:
192,192,67506,1,0,0:0:0:0:
448,192,67506,1,0,0:0:0:0:
320,192,67662,1,0,0:0:0:0:
448,192,67818,1,0,0:0:0:0:
192,192,67818,1,0,0:0:0:0:
320,192,67975,1,0,0:0:0:0:
64,192,68053,1,0,0:0:0:0:
448,192,68131,1,0,0:0:0:0:
320,192,68131,1,0,0:0:0:0:
192,192,68209,1,0,0:0:0:0:
448,192,68287,1,0,0:0:0:0:
320,192,68287,1,0,0:0:0:0:
192,192,68365,1,0,0:0:0:0:
448,192,68443,1,0,0:0:0:0:
64,192,68521,1,0,0:0:0:0:
192,192,68600,128,0,68912:0:0:0:0:
320,192,68639,1,0,0:0:0:0:
448,192,68678,1,0,0:0:0:0:
64,192,68756,1,0,0:0:0:0:
320,192,68912,1,0,0:0:0:0:
448,192,69068,1,0,0:0:0:0:
192,192,69225,1,0,0:0:0:0:
320,192,69381,1,0,0:0:0:0:
64,192,69537,1,0,0:0:0:0:
448,192,69693,128,0,70006:0:0:0:0:
192,192,69693,1,0,0:0:0:0:
320,192,69850,1,0,0:0:0:0:
64,192,70006,1,0,0:0:0:0:
192,192,70162,1,0,0:0:0:0:
320,192,70318,1,0,0:0:0:0:
192,192,70475,1,0,0:0:0:0:
64,192,70475,1,4,1:0:0:0:
320,192,70475,128,0,70631:0:0:0:0:
448,192,70631,128,0,71100:0:0:0:0:
192,192,70787,1,0,0:0:0:0:
320,192,70943,128,0,71100:0:0:0:0:
64,192,71100,1,0,0:0:0:0:
192,192,71139,1,0,0:0:0:0:
320,192,71178,1,0,0:0:0:0:
192,192,71256,1,0,0:0:0:0:
192,192,71412,128,0,72350:0:0:0:0:
448,192,71568,1,0,0:0:0:0:
320,192,71646,1,0,0:0:0:0:
64,192,71725,1,0,0:0:0:0:
64,192,71881,128,0,72350:0:0:0:0:
320,192,72037,1,0,0:0:0:0:
448,192,72193,128,0,72271:0:0:0:0:
320,192,72271,128,0,72350:0:0:0:0:
448,192,72350,128,0,73287:0:0:0:0:
320,192,72506,128,0,72662:0:0:0:0:
192,192,72662,128,0,72818:0:0:0:0:
320,192,72818,128,0,73131:0:0:0:0:
64,192,72975,128,0,73131:0:0:0:0:
192,192,73131,128,0,73443:0:0:0:0:
320,192,73287,128,0,73443:0:0:0:0:
64,192,73443,128,0,74771:0:0:0:0:
448,192,73600,128,0,74771:0:0:0:0:
192,192,73600,128,0,74771:0:0:0:0:
320,192,74225,128,0,74771:0:0:0:0:
320,192,74850,1,0,0:0:0:0:
192,192,74850,1,0,0:0:0:0:
64,192,74850,1,4,0:0:0:0:
448,192,74928,1,0,0:0:0:0:
320,192,75006,1,0,0:0:0:0:
192,192,75084,1,0,0:0:0:0:
448,192,75162,1,0,0:0:0:0:
320,192,75240,1,0,0:0:0:0:
192,192,75318,1,0,0:0:0:0:
64,192,75396,1,0,0:0:0:0:
192,192,75475,1,0,0:0:0:0:
448,192,75553,1,0,0:0:0:0:
320,192,75631,1,0,0:0:0:0:
64,192,75709,1,0,0:0:0:0:
448,192,75787,1,0,0:0:0:0:
320,192,75865,1,0,0:0:0:0:
192,192,75943,1,0,0:0:0:0:
64,192,76021,1,0,0:0:0:0:
448,192,76100,1,0,0:0:0:0:
320,192,76100,1,4,1:0:0:0:
192,192,76178,1,0,0:0:0:0:
64,192,76256,1,0,0:0:0:0:
192,192,76334,1,0,0:0:0:0:
448,192,76412,1,0,0:0:0:0:
320,192,76490,1,0,0:0:0:0:
192,192,76568,1,0,0:0:0:0:
64,192,76646,1,0,0:0:0:0:
320,192,76725,1,0,0:0:0:0:
448,192,76803,1,0,0:0:0:0:
320,192,76881,1,0,0:0:0:0:
64,192,76959,1,0,0:0:0:0:
448,192,77037,1,0,0:0:0:0:
320,192,77115,1,0,0:0:0:0:
192,192,77193,1,0,0:0:0:0:
448,192,77271,1,0,0:0:0:0:
64,192,77350,1,0,0:0:0:0:
320,192,77350,1,4,1:0:0:0:
192,192,77428,1,0,0:0:0:0:
448,192,77506,1,0,0:0:0:0:
64,192,77584,1,0,0:0:0:0:
192,192,77662,1,0,0:0:0:0:
320,192,77740,1,0,0:0:0:0:
192,192,77818,1,0,0:0:0:0:
64,192,77896,1,0,0:0:0:0:
448,192,77975,1,0,0:0:0:0:
320,192,78053,1,0,0:0:0:0:
192,192,78131,1,0,0:0:0:0:
448,192,78209,1,0,0:0:0:0:
320,192,78287,1,0,0:0:0:0:
192,192,78365,1,0,0:0:0:0:
64,192,78443,1,0,0:0:0:0:
192,192,78521,1,0,0:0:0:0:
448,192,78600,1,0,0:0:0:0:
64,192,78600,1,4,1:0:0:0:
320,192,78678,1,0,0:0:0:0:
448,192,78756,1,0,0:0:0:0:
192,192,78834,1,0,0:0:0:0:
320,192,78912,1,0,0:0:0:0:
64,192,78990,1,0,0:0:0:0:
192,192,79068,1,0,0:0:0:0:
320,192,79146,1,0,0:0:0:0:
192,192,79225,1,0,0:0:0:0:
448,192,79225,1,4,1:0:0:0:
64,192,79303,1,0,0:0:0:0:
320,192,79381,1,0,0:0:0:0:
192,192,79459,1,0,0:0:0:0:
448,192,79537,1,0,0:0:0:0:
320,192,79615,1,0,0:0:0:0:
64,192,79693,1,0,0:0:0:0:
448,192,79771,1,0,0:0:0:0:
192,192,79850,1,0,0:0:0:0:
64,192,79850,1,4,1:0:0:0:
448,192,79928,1,0,0:0:0:0:
320,192,80006,1,0,0:0:0:0:
64,192,80084,1,0,0:0:0:0:
448,192,80162,1,0,0:0:0:0:
192,192,80240,1,0,0:0:0:0:
320,192,80318,1,0,0:0:0:0:
448,192,80396,1,0,0:0:0:0:
64,192,80475,1,0,0:0:0:0:
192,192,80553,1,0,0:0:0:0:
64,192,80631,1,0,0:0:0:0:
448,192,80709,1,0,0:0:0:0:
320,192,80787,1,0,0:0:0:0:
192,192,80865,1,0,0:0:0:0:
64,192,80943,1,0,0:0:0:0:
448,192,81021,1,0,0:0:0:0:
320,192,81100,1,0,0:0:0:0:
64,192,81100,1,4,1:0:0:0:
192,192,81178,1,0,0:0:0:0:
320,192,81256,1,0,0:0:0:0:
448,192,81334,1,0,0:0:0:0:
320,192,81412,1,0,0:0:0:0:
192,192,81490,1,0,0:0:0:0:
64,192,81568,1,0,0:0:0:0:
448,192,81646,1,0,0:0:0:0:
320,192,81725,1,0,0:0:0:0:
192,192,81803,1,0,0:0:0:0:
320,192,81881,1,0,0:0:0:0:
448,192,81959,1,0,0:0:0:0:
192,192,82037,1,0,0:0:0:0:
64,192,82115,1,0,0:0:0:0:
448,192,82193,1,0,0:0:0:0:
320,192,82271,1,0,0:0:0:0:
192,192,82350,1,0,0:0:0:0:
64,192,82350,1,4,1:0:0:0:
320,192,82428,1,0,0:0:0:0:
448,192,82506,1,0,0:0:0:0:
192,192,82584,1,0,0:0:0:0:
64,192,82662,1,0,0:0:0:0:
192,192,82740,1,0,0:0:0:0:
320,192,82818,1,0,0:0:0:0:
448,192,82896,1,0,0:0:0:0:
320,192,82975,1,0,0:0:0:0:
192,192,83053,1,0,0:0:0:0:
64,192,83131,1,0,0:0:0:0:
320,192,83209,1,0,0:0:0:0:
448,192,83287,1,0,0:0:0:0:
192,192,83287,1,4,1:0:0:0:
64,192,83365,1,0,0:0:0:0:
448,192,83443,1,0,0:0:0:0:
192,192,83521,1,0,0:0:0:0:
320,192,83600,1,0,0:0:0:0:
64,192,83600,1,4,1:0:0:0:
448,192,83678,1,0,0:0:0:0:
320,192,83756,1,0,0:0:0:0:
192,192,83834,1,0,0:0:0:0:
320,192,83912,1,0,0:0:0:0:
192,192,83990,1,0,0:0:0:0:
64,192,84068,1,0,0:0:0:0:
448,192,84146,1,0,0:0:0:0:
192,192,84225,1,4,1:0:0:0:
320,192,84225,1,0,0:0:0:0:
64,192,84303,1,0,0:0:0:0:
320,192,84381,1,0,0:0:0:0:
64,192,84459,1,0,0:0:0:0:
448,192,84537,1,0,0:0:0:0:
192,192,84615,1,0,0:0:0:0:
448,192,84693,1,0,0:0:0:0:
192,192,84771,1,0,0:0:0:0:
448,192,84850,1,4,1:0:0:0:
64,192,84850,1,2,0:0:0:0:
320,192,84928,1,0,0:0:0:0:
192,192,85006,1,0,0:0:0:0:
320,192,85084,1,0,0:0:0:0:
448,192,85162,1,2,0:0:0:0:
64,192,85162,1,8,0:0:0:0:
192,192,85240,1,0,0:0:0:0:
320,192,85318,1,0,0:0:0:0:
192,192,85396,1,0,0:0:0:0:
448,192,85475,1,0,0:0:0:0:
64,192,85475,1,2,0:0:0:0:
320,192,85553,1,0,0:0:0:0:
192,192,85631,1,0,0:0:0:0:
320,192,85709,1,0,0:0:0:0:
448,192,85787,1,2,0:0:0:0:
64,192,85787,1,8,0:0:0:0:
320,192,85865,1,0,0:0:0:0:
192,192,85943,1,0,0:0:0:0:
64,192,86021,1,0,0:0:0:0:
448,192,86100,1,2,0:0:0:0:
192,192,86100,1,4,1:0:0:0:
320,192,86178,1,0,0:0:0:0:
64,192,86256,1,0,0:0:0:0:
192,192,86334,1,0,0:0:0:0:
448,192,86412,1,2,0:0:0:0:
320,192,86412,1,8,0:0:0:0:
192,192,86490,1,0,0:0:0:0:
64,192,86568,1,2,0:0:0:0:
320,192,86568,1,0,0:0:0:0:
448,192,86646,1,0,0:0:0:0:
320,192,86725,1,0,0:0:0:0:
192,192,86725,1,2,0:0:0:0:
64,192,86803,1,0,0:0:0:0:
192,192,86881,1,0,0:0:0:0:
320,192,86959,1,0,0:0:0:0:
448,192,87037,1,2,0:0:0:0:
192,192,87037,1,8,0:0:0:0:
64,192,87115,1,0,0:0:0:0:
320,192,87193,1,0,0:0:0:0:
192,192,87271,1,0,0:0:0:0:
448,192,87350,1,2,0:0:0:0:
320,192,87350,1,4,1:0:0:0:
192,192,87428,1,0,0:0:0:0:
64,192,87506,1,0,0:0:0:0:
448,192,87584,1,0,0:0:0:0:
320,192,87662,1,2,0:0:0:0:
64,192,87662,1,8,0:0:0:0:
192,192,87740,1,0,0:0:0:0:
448,192,87818,1,0,0:0:0:0:
64,192,87818,1,2,0:0:0:0:
320,192,87896,1,0,0:0:0:0:
448,192,87975,1,0,0:0:0:0:
192,192,87975,1,2,0:0:0:0:
320,192,88053,1,0,0:0:0:0:
64,192,88131,1,0,0:0:0:0:
192,192,88209,1,0,0:0:0:0:
320,192,88287,1,2,0:0:0:0:
64,192,88287,1,8,0:0:0:0:
192,192,88365,1,0,0:0:0:0:
448,192,88443,1,0,0:0:0:0:
320,192,88521,1,0,0:0:0:0:
448,192,88600,1,4,1:0:0:0:
64,192,88600,1,2,0:0:0:0:
192,192,88678,1,0,0:0:0:0:
320,192,88756,1,0,0:0:0:0:
192,192,88834,1,0,0:0:0:0:
448,192,88912,1,2,0:0:0:0:
64,192,88912,1,8,0:0:0:0:
320,192,88990,1,0,0:0:0:0:
448,192,89068,1,0,0:0:0:0:
192,192,89068,1,2,0:0:0:0:
64,192,89146,1,0,0:0:0:0:
448,192,89225,1,2,0:0:0:0:
320,192,89225,1,4,1:0:0:0:
192,192,89303,1,0,0:0:0:0:
64,192,89381,1,0,0:0:0:0:
192,192,89459,1,0,0:0:0:0:
448,192,89537,1,2,0:0:0:0:
64,192,89537,1,8,0:0:0:0:
320,192,89615,1,0,0:0:0:0:
192,192,89693,1,0,0:0:0:0:
64,192,89771,1,0,0:0:0:0:
448,192,89850,1,2,0:0:0:0:
320,192,89850,1,4,1:0:0:0:
448,192,90006,1,0,0:0:0:0:
320,192,90006,1,2,0:0:0:0:
64,192,90162,1,10,0:0:0:0:
320,192,90318,1,0,0:0:0:0:
192,192,90318,1,2,0:0:0:0:
320,192,90475,1,0,0:0:0:0:
192,192,90475,1,2,0:0:0:0:
320,192,90631,1,0,0:0:0:0:
192,192,90631,1,2,0:0:0:0:
448,192,90787,1,10,0:0:0:0:
192,192,90943,1,0,0:0:0:0:
64,192,90943,1,2,0:0:0:0:
192,192,91100,1,4,1:0:0:0:
64,192,91100,1,2,0:0:0:0:
192,192,91256,1,0,0:0:0:0:
64,192,91256,1,2,0:0:0:0:
448,192,91412,1,10,0:0:0:0:
320,192,91568,1,0,0:0:0:0:
192,192,91568,1,2,0:0:0:0:
320,192,91725,1,4,1:0:0:0:
192,192,91725,1,2,0:0:0:0:
320,192,91881,1,0,0:0:0:0:
192,192,91881,1,2,0:0:0:0:
64,192,92037,1,10,0:0:0:0:
448,192,92193,1,0,0:0:0:0:
320,192,92193,1,2,0:0:0:0:
192,192,92350,1,4,1:0:0:0:
64,192,92350,1,2,0:0:0:0:
320,192,92428,1,2,0:0:0:0:
64,192,92506,1,2,0:0:0:0:
320,192,92584,1,2,0:0:0:0:
64,192,92662,1,2,0:0:0:0:
448,192,92662,1,8,0:0:0:0:
192,192,92740,1,2,0:0:0:0:
448,192,92818,1,2,0:0:0:0:
192,192,92896,1,2,0:0:0:0:
448,192,92975,1,0,0:0:0:0:
320,192,92975,1,2,0:0:0:0:
64,192,93053,1,2,0:0:0:0:
448,192,93131,1,0,0:0:0:0:
320,192,93131,1,2,0:0:0:0:
64,192,93209,1,2,0:0:0:0:
448,192,93287,1,2,0:0:0:0:
320,192,93287,1,8,0:0:0:0:
192,192,93365,1,2,0:0:0:0:
64,192,93365,1,8,0:0:0:0:
448,192,93443,1,2,0:0:0:0:
320,192,93443,1,8,0:0:0:0:
192,192,93521,1,2,0:0:0:0:
64,192,93521,1,8,0:0:0:0:
448,192,93600,1,2,0:0:0:0:
448,192,93834,1,8,0:0:0:0:
448,192,93912,1,8,0:0:0:0:
192,192,94068,128,0,94146:0:0:0:0:
64,192,94146,128,0,94225:0:0:0:0:
320,192,94225,128,0,94303:0:0:0:0:
448,192,94303,128,0,94381:0:0:0:0:
192,192,94381,128,0,94459:0:0:0:0:
64,192,94459,128,0,94537:0:0:0:0:
448,192,94537,1,8,0:0:0:0:
320,192,94576,1,8,0:0:0:0:
192,192,94615,1,8,0:0:0:0:
64,192,94654,1,8,0:0:0:0:
448,192,94693,1,8,0:0:0:0:
320,192,94732,1,8,0:0:0:0:
192,192,94771,1,8,0:0:0:0:
64,192,94810,1,8,0:0:0:0:
448,192,94850,1,2,0:0:0:0:
320,192,94850,1,4,0:0:0:0:
192,192,95006,1,0,0:0:0:0:
448,192,95162,1,0,0:0:0:0:
320,192,95162,1,0,0:0:0:0:
64,192,95162,1,8,1:0:0:0:
192,192,95318,1,0,0:0:0:0:
448,192,95396,1,0,0:0:0:0:
192,192,95475,128,0,96100:0:0:0:70:B_G5B.wav
448,192,95553,1,0,0:0:0:0:
64,192,95631,1,2,0:0:0:0:
448,192,95787,1,0,0:0:0:0:
320,192,95787,1,0,0:0:0:0:
64,192,95787,1,8,1:0:0:0:
320,192,95943,1,0,0:0:0:0:
448,192,96021,1,0,0:0:0:0:
64,192,96100,128,0,96725:0:0:0:70:B_F#5B.wav
192,192,96256,1,2,0:0:0:0:
448,192,96412,1,0,0:0:0:0:
320,192,96412,1,0,0:0:0:0:
192,192,96412,1,8,1:0:0:0:
448,192,96568,1,0,0:0:0:0:
192,192,96646,1,0,0:0:0:0:
448,192,96725,128,0,97350:0:0:0:70:B_D5B.wav
192,192,96803,1,0,0:0:0:0:
320,192,96881,1,2,0:0:0:0:
64,192,97037,1,0,0:0:0:0:
192,192,97037,1,8,1:0:0:0:
320,192,97115,1,0,0:0:0:0:
64,192,97193,1,0,0:0:0:0:
320,192,97271,1,0,0:0:0:0:
192,192,97350,1,0,0:0:0:70:B_B4B.wav
64,192,97350,128,2,97662:0:0:0:0:
320,192,97506,1,0,0:0:0:0:
448,192,97662,1,0,0:0:0:0:
320,192,97662,1,0,0:0:0:0:
192,192,97662,1,8,1:0:0:0:
192,192,97818,1,0,0:0:0:0:
64,192,97896,1,0,0:0:0:0:
192,192,97975,1,0,0:0:0:0:
64,192,98053,1,0,0:0:0:0:
448,192,98131,1,0,0:0:0:0:
320,192,98131,1,2,0:0:0:0:
192,192,98287,1,0,0:0:0:0:
448,192,98443,1,0,0:0:0:0:
320,192,98443,1,0,0:0:0:0:
64,192,98443,1,8,1:0:0:0:
448,192,98600,128,4,98756:1:0:0:70:G6S.wav
320,192,98678,1,0,0:0:0:0:
192,192,98756,1,0,0:0:0:0:
64,192,98756,1,2,0:0:0:0:
320,192,98834,1,0,0:0:0:0:
448,192,98912,1,0,0:0:0:0:
192,192,98912,1,0,0:0:0:0:
64,192,98912,1,8,1:0:0:0:
192,192,99068,1,0,0:0:0:0:
448,192,99146,1,0,0:0:0:0:
192,192,99225,128,4,99381:1:0:0:70:F#6S_Gb6S.wav
448,192,99303,1,0,0:0:0:0:
64,192,99381,1,2,0:0:0:0:
320,192,99459,1,0,0:0:0:0:
64,192,99537,128,0,99615:0:0:0:0:
192,192,99537,1,8,1:0:0:0:
448,192,99615,128,0,99693:0:0:0:0:
320,192,99615,1,2,0:0:0:0:
64,192,99693,1,0,0:0:0:0:
192,192,99693,128,2,99771:0:0:0:0:
448,192,99771,1,2,0:0:0:0:
320,192,99771,128,0,99850:0:0:0:0:
192,192,99850,1,2,0:0:0:0:
64,192,99850,128,4,100006:1:0:0:70:E6S.wav
320,192,100006,1,0,0:0:0:0:
448,192,100162,1,0,0:0:0:0:
192,192,100162,1,0,0:0:0:0:
64,192,100162,1,8,1:0:0:0:
320,192,100318,1,0,0:0:0:0:
64,192,100396,1,0,0:0:0:0:
320,192,100475,128,0,101100:0:0:0:70:B_G5B.wav
64,192,100553,1,0,0:0:0:0:
448,192,100631,1,2,0:0:0:0:
448,192,100787,1,0,0:0:0:0:
192,192,100787,1,0,0:0:0:0:
64,192,100787,1,8,1:0:0:0:
192,192,100943,1,0,0:0:0:0:
64,192,101021,1,0,0:0:0:0:
448,192,101100,128,0,101725:0:0:0:70:B_F#5B.wav
320,192,101256,1,2,0:0:0:0:
320,192,101412,1,0,0:0:0:0:
192,192,101412,1,0,0:0:0:0:
64,192,101412,1,8,1:0:0:0:
64,192,101568,1,0,0:0:0:0:
320,192,101646,1,0,0:0:0:0:
64,192,101725,128,0,102350:0:0:0:70:B_D5B.wav
320,192,101803,1,0,0:0:0:0:
448,192,101881,1,2,0:0:0:0:
320,192,102037,1,0,0:0:0:0:
192,192,102037,1,8,1:0:0:0:
448,192,102115,1,0,0:0:0:0:
192,192,102193,1,0,0:0:0:0:
448,192,102271,1,0,0:0:0:0:
320,192,102350,128,0,102662:0:0:0:70:B_A4.wav
192,192,102350,1,2,0:0:0:0:
64,192,102506,1,0,0:0:0:0:
448,192,102662,1,0,0:0:0:0:
192,192,102662,1,0,0:0:0:0:
64,192,102662,1,8,1:0:0:0:
320,192,102818,1,0,0:0:0:0:
448,192,102896,1,0,0:0:0:0:
320,192,102975,1,0,0:0:0:0:
448,192,103053,1,0,0:0:0:0:
192,192,103131,1,0,0:0:0:0:
64,192,103131,1,2,0:0:0:0:
320,192,103287,128,4,103443:1:0:0:70:D6S.wav
448,192,103443,1,0,0:0:0:0:
192,192,103443,1,0,0:0:0:0:
64,192,103443,1,8,1:0:0:0:
64,192,103600,128,4,103756:1:0:0:70:C#6S_Db6S.wav
192,192,103678,1,0,0:0:0:0:
448,192,103756,1,0,0:0:0:0:
320,192,103756,1,2,0:0:0:0:
448,192,103912,1,0,0:0:0:0:
320,192,103912,1,0,0:0:0:0:
64,192,103912,1,8,1:0:0:0:
320,192,104068,128,4,104225:1:0:0:50:G5S.wav
64,192,104146,1,0,0:0:0:0:
192,192,104225,1,0,0:0:0:50:normal-hitfinish.wav
64,192,104303,1,0,0:0:0:0:
320,192,104381,1,2,0:0:0:0:
192,192,104459,1,0,0:0:0:0:
320,192,104537,1,0,0:0:0:0:
448,192,104537,128,8,104615:1:0:0:0:
192,192,104615,1,2,0:0:0:0:
64,192,104615,128,0,104693:0:0:0:0:
320,192,104693,128,0,104771:0:0:0:0:
448,192,104693,1,2,0:0:0:0:
192,192,104771,128,0,104850:0:0:0:0:
64,192,104771,1,2,0:0:0:0:
320,192,104850,1,0,0:0:0:0:
448,192,104850,128,2,105006:0:0:0:0:
192,192,105006,1,0,0:0:0:0:
448,192,105162,1,0,0:0:0:0:
320,192,105162,1,0,0:0:0:0:
64,192,105162,1,8,1:0:0:0:
192,192,105318,1,0,0:0:0:0:
64,192,105396,1,0,0:0:0:0:
192,192,105475,128,0,106100:0:0:0:70:B_G5B.wav
64,192,105553,1,0,0:0:0:0:
320,192,105631,1,2,0:0:0:0:
448,192,105787,1,0,0:0:0:0:
320,192,105787,1,0,0:0:0:0:
64,192,105787,1,8,1:0:0:0:
448,192,105943,1,0,0:0:0:0:
320,192,106021,1,0,0:0:0:0:
64,192,106100,128,0,106725:0:0:0:70:B_F#5B.wav
192,192,106256,1,2,0:0:0:0:
448,192,106412,1,0,0:0:0:0:
320,192,106412,1,0,0:0:0:0:
192,192,106412,1,8,1:0:0:0:
448,192,106568,1,0,0:0:0:0:
320,192,106646,1,0,0:0:0:0:
448,192,106725,128,0,107350:0:0:0:70:B_D5B.wav
320,192,106803,1,0,0:0:0:0:
64,192,106881,1,2,0:0:0:0:
320,192,107037,1,0,0:0:0:0:
192,192,107037,1,8,1:0:0:0:
64,192,107115,1,0,0:0:0:0:
192,192,107193,1,0,0:0:0:0:
320,192,107271,1,0,0:0:0:0:
192,192,107350,128,0,107662:0:0:0:70:B_B4B.wav
64,192,107350,1,2,0:0:0:0:
448,192,107506,1,0,0:0:0:0:
448,192,107662,1,0,0:0:0:0:
320,192,107662,1,0,0:0:0:0:
64,192,107662,1,8,1:0:0:0:
320,192,107818,1,0,0:0:0:0:
64,192,107896,1,0,0:0:0:0:
320,192,107975,1,0,0:0:0:0:
64,192,108053,1,0,0:0:0:0:
448,192,108131,1,0,0:0:0:0:
192,192,108131,1,2,0:0:0:0:
320,192,108287,128,4,108443:1:0:0:70:F#6S_Gb6S.wav
448,192,108443,1,0,0:0:0:0:
192,192,108443,1,0,0:0:0:0:
64,192,108443,1,8,1:0:0:0:
448,192,108600,128,4,108756:1:0:0:70:G6S.wav
64,192,108678,1,0,0:0:0:0:
320,192,108756,1,2,0:0:0:0:
448,192,108834,1,0,0:0:0:0:
320,192,108912,1,0,0:0:0:0:
192,192,108912,1,0,0:0:0:0:
64,192,108912,1,8,1:0:0:0:
448,192,108990,1,0,0:0:0:0:
192,192,109068,1,0,0:0:0:0:
320,192,109146,1,0,0:0:0:0:
64,192,109225,128,4,109381:1:0:0:70:F#6S_Gb6S.wav
192,192,109303,1,0,0:0:0:0:
448,192,109381,1,0,0:0:0:0:
320,192,109381,1,2,0:0:0:0:
192,192,109459,1,0,0:0:0:0:
448,192,109537,1,0,0:0:0:0:
320,192,109537,1,0,0:0:0:0:
64,192,109537,128,8,109615:1:0:0:0:
192,192,109615,128,2,109693:0:0:0:0:
448,192,109693,128,0,109771:0:0:0:0:
64,192,109693,1,2,0:0:0:0:
320,192,109771,128,2,109850:0:0:0:0:
192,192,109850,1,4,1:0:0:70:E6S.wav
64,192,109850,128,2,110006:0:0:0:0:
320,192,110006,1,0,0:0:0:0:
448,192,110162,1,0,0:0:0:0:
192,192,110162,1,0,0:0:0:0:
64,192,110162,1,8,1:0:0:0:
320,192,110318,1,0,0:0:0:0:
64,192,110396,1,0,0:0:0:0:
448,192,110475,128,0,111100:0:0:0:0:
320,192,110475,1,0,0:0:0:70:B_B4B.wav
192,192,110553,1,0,0:0:0:0:
64,192,110631,1,2,0:0:0:0:
320,192,110787,1,0,0:0:0:0:
192,192,110787,1,0,0:0:0:0:
64,192,110787,1,8,1:0:0:0:
320,192,110943,1,0,0:0:0:0:
192,192,111021,1,0,0:0:0:0:
320,192,111100,1,0,0:0:0:0:
64,192,111100,128,0,111725:0:0:0:70:B_D5B.wav
192,192,111256,1,2,0:0:0:0:
448,192,111412,1,0,0:0:0:0:
320,192,111412,1,0,0:0:0:0:
192,192,111412,1,8,1:0:0:0:
448,192,111568,1,0,0:0:0:0:
192,192,111646,1,0,0:0:0:0:
448,192,111725,128,0,112350:0:0:0:0:
320,192,111725,1,0,0:0:0:70:B_F#5B.wav
64,192,111803,1,0,0:0:0:0:
192,192,111881,1,2,0:0:0:0:
320,192,112037,1,0,0:0:0:0:
192,192,112037,1,8,1:0:0:0:
64,192,112115,1,0,0:0:0:0:
320,192,112193,1,2,0:0:0:0:
192,192,112271,1,0,0:0:0:0:
320,192,112350,1,0,0:0:0:70:B_E5B.wav
64,192,112350,128,2,112662:0:0:0:0:
192,192,112506,1,0,0:0:0:0:
448,192,112662,1,0,0:0:0:0:
320,192,112662,1,0,0:0:0:0:
192,192,112662,1,8,1:0:0:0:
64,192,112818,1,0,0:0:0:0:
448,192,112896,1,0,0:0:0:0:
64,192,112975,1,0,0:0:0:0:
448,192,113053,1,0,0:0:0:0:
192,192,113131,1,0,0:0:0:0:
64,192,113131,1,2,0:0:0:0:
320,192,113209,1,0,0:0:0:0:
448,192,113287,1,0,0:0:0:0:
448,192,113443,1,0,0:0:0:0:
320,192,113443,1,0,0:0:0:0:
192,192,113443,1,8,1:0:0:0:
64,192,113600,1,0,0:0:0:60:B_D5B.wav
192,192,113756,1,2,0:0:0:0:
192,192,113834,1,2,0:0:0:0:
448,192,113912,1,0,0:0:0:0:
320,192,113912,1,0,0:0:0:0:
64,192,113912,1,8,1:0:0:0:
448,192,114068,1,2,0:0:0:0:
320,192,114107,1,2,0:0:0:0:
192,192,114146,1,2,0:0:0:0:
64,192,114185,1,2,0:0:0:0:
448,192,114225,1,0,0:0:0:0:
320,192,114225,1,8,1:0:0:0:
192,192,114303,1,2,0:0:0:0:
64,192,114381,1,2,0:0:0:0:
320,192,114459,1,0,0:0:0:0:
192,192,114459,1,8,1:0:0:0:
448,192,114537,1,2,0:0:0:0:
320,192,114615,1,2,0:0:0:0:
192,192,114693,1,0,0:0:0:0:
64,192,114693,1,8,1:0:0:0:
320,192,114771,1,2,0:0:0:0:
448,192,114850,1,0,0:0:0:0:
192,192,114850,1,2,0:0:0:0:
64,192,114850,128,4,115162:0:0:0:0:
320,192,115162,1,0,0:0:0:0:
192,192,115162,1,8,0:0:0:0:
448,192,115162,128,0,115318:0:0:0:0:
64,192,115318,128,0,115631:0:0:0:0:
192,192,115396,1,0,0:0:0:0:
320,192,115475,1,0,0:0:0:0:
192,192,115631,1,2,0:0:0:0:
192,192,115787,1,0,0:0:0:0:
64,192,115787,1,0,0:0:0:0:
320,192,115787,1,8,0:0:0:0:
448,192,115943,1,0,0:0:0:0:
320,192,116021,1,0,0:0:0:0:
192,192,116100,1,0,0:0:0:0:
320,192,116256,1,2,0:0:0:0:
192,192,116412,128,0,116568:0:0:0:0:
64,192,116412,1,0,0:0:0:0:
320,192,116412,1,8,0:0:0:0:
64,192,116568,1,0,0:0:0:0:
192,192,116646,1,0,0:0:0:0:
320,192,116725,128,0,116881:0:0:0:0:
448,192,116725,1,0,0:0:0:0:
192,192,116803,1,0,0:0:0:0:
64,192,116881,1,2,0:0:0:0:
64,192,117037,1,0,0:0:0:0:
448,192,117037,128,0,117193:0:0:0:0:
192,192,117037,1,8,0:0:0:0:
320,192,117115,1,0,0:0:0:0:
64,192,117193,1,0,0:0:0:0:
192,192,117271,1,0,0:0:0:0:
320,192,117350,128,2,117662:0:0:0:0:
448,192,117350,1,0,0:0:0:0:
64,192,117506,1,0,0:0:0:0:
64,192,117662,1,0,0:0:0:0:
192,192,117662,1,8,0:0:0:0:
448,192,117662,128,0,117818:0:0:0:0:
320,192,117818,128,0,118053:0:0:0:0:
192,192,117896,1,0,0:0:0:0:
64,192,117975,1,0,0:0:0:0:
448,192,118053,1,0,0:0:0:0:
320,192,118131,128,0,118287:0:0:0:0:
64,192,118131,1,2,0:0:0:0:
192,192,118287,128,0,118600:0:0:0:0:
448,192,118443,1,0,0:0:0:0:
320,192,118443,1,0,0:0:0:0:
64,192,118443,1,8,0:0:0:0:
320,192,118600,1,0,0:0:0:0:
64,192,118678,1,0,0:0:0:0:
448,192,118756,1,2,0:0:0:0:
64,192,118834,1,0,0:0:0:0:
448,192,118912,1,0,0:0:0:0:
320,192,118912,1,0,0:0:0:0:
192,192,118912,1,8,0:0:0:0:
64,192,118990,1,0,0:0:0:0:
448,192,119068,1,0,0:0:0:0:
192,192,119146,1,0,0:0:0:0:
448,192,119225,1,0,0:0:0:0:
320,192,119303,1,0,0:0:0:0:
64,192,119381,1,2,0:0:0:0:
448,192,119459,1,0,0:0:0:0:
192,192,119537,1,0,0:0:0:0:
64,192,119537,1,8,0:0:0:0:
320,192,119537,128,0,119693:0:0:0:0:
448,192,119615,1,8,0:0:0:0:
192,192,119693,1,2,0:0:0:0:
64,192,119693,1,8,0:0:0:0:
320,192,119771,1,8,0:0:0:0:
64,192,119850,128,2,120084:0:0:0:0:
192,192,120006,1,0,0:0:0:0:
448,192,120162,1,0,0:0:0:0:
320,192,120162,128,0,120318:0:0:0:0:
64,192,120162,1,8,0:0:0:0:
448,192,120318,128,0,120709:0:0:0:0:
192,192,120318,1,0,0:0:0:0:
64,192,120396,1,0,0:0:0:0:
192,192,120475,1,0,0:0:0:0:
64,192,120553,1,0,0:0:0:0:
320,192,120631,1,2,0:0:0:0:
448,192,120787,1,0,0:0:0:0:
320,192,120787,1,0,0:0:0:0:
192,192,120787,128,8,122037:0:0:0:0:
64,192,120943,1,0,0:0:0:0:
320,192,121021,1,0,0:0:0:0:
448,192,121100,128,0,121256:0:0:0:0:
64,192,121256,1,2,0:0:0:0:
448,192,121412,1,0,0:0:0:0:
64,192,121412,1,8,0:0:0:0:
320,192,121412,1,0,0:0:0:0:
448,192,121568,1,0,0:0:0:0:
320,192,121646,1,0,0:0:0:0:
64,192,121725,128,0,121881:0:0:0:0:
448,192,121803,1,0,0:0:0:0:
320,192,121881,1,2,0:0:0:0:
448,192,122037,1,0,0:0:0:0:
64,192,122037,1,8,0:0:0:0:
320,192,122037,1,0,0:0:0:0:
192,192,122115,1,0,0:0:0:0:
448,192,122193,1,0,0:0:0:0:
192,192,122271,1,0,0:0:0:0:
320,192,122350,128,2,122506:0:0:0:0:
192,192,122506,1,0,0:0:0:0:
320,192,122584,1,0,0:0:0:0:
448,192,122662,1,0,0:0:0:0:
192,192,122662,1,0,0:0:0:0:
64,192,122662,1,8,0:0:0:0:
320,192,122818,1,0,0:0:0:0:
64,192,122896,1,0,0:0:0:0:
320,192,122975,1,0,0:0:0:0:
64,192,123053,1,0,0:0:0:0:
192,192,123131,1,2,0:0:0:0:
320,192,123287,1,0,0:0:0:0:
448,192,123443,1,0,0:0:0:0:
192,192,123443,1,0,0:0:0:0:
64,192,123443,1,8,0:0:0:0:
320,192,123600,1,0,0:0:0:0:
192,192,123678,1,0,0:0:0:0:
64,192,123756,1,2,0:0:0:0:
320,192,123912,1,0,0:0:0:0:
192,192,123912,1,0,0:0:0:0:
64,192,123912,1,8,0:0:0:0:
448,192,124068,1,0,0:0:0:0:
64,192,124146,1,0,0:0:0:0:
192,192,124225,1,0,0:0:0:0:
448,192,124303,1,0,0:0:0:0:
320,192,124381,1,2,0:0:0:0:
320,192,124537,1,0,0:0:0:0:
192,192,124537,1,8,0:0:0:0:
448,192,124537,128,0,124771:0:0:0:0:
64,192,124615,1,0,0:0:0:0:
320,192,124693,1,2,0:0:0:0:
192,192,124771,1,2,0:0:0:0:
448,192,124850,128,0,125162:0:0:0:0:
320,192,124850,1,2,0:0:0:0:
64,192,124850,1,4,0:0:0:0:
64,192,125006,1,0,0:0:0:0:
192,192,125162,1,0,0:0:0:0:
64,192,125162,1,8,0:0:0:0:
320,192,125162,128,0,125318:0:0:0:0:
192,192,125318,128,0,125631:0:0:0:0:
64,192,125396,1,0,0:0:0:0:
320,192,125475,1,0,0:0:0:0:
448,192,125631,1,2,0:0:0:0:
448,192,125787,1,0,0:0:0:0:
192,192,125787,1,0,0:0:0:0:
64,192,125787,1,8,0:0:0:0:
320,192,125943,1,0,0:0:0:0:
192,192,126021,1,0,0:0:0:0:
448,192,126100,1,0,0:0:0:0:
320,192,126256,1,2,0:0:0:0:
320,192,126412,1,0,0:0:0:0:
192,192,126412,128,0,126568:0:0:0:0:
64,192,126412,1,8,0:0:0:0:
448,192,126568,1,0,0:0:0:0:
64,192,126646,1,0,0:0:0:0:
448,192,126725,1,0,0:0:0:0:
320,192,126725,128,0,126881:0:0:0:0:
192,192,126803,1,0,0:0:0:0:
64,192,126881,1,2,0:0:0:0:
448,192,127037,128,0,127193:0:0:0:0:
320,192,127037,1,0,0:0:0:0:
64,192,127037,1,8,0:0:0:0:
192,192,127115,1,0,0:0:0:0:
320,192,127193,1,0,0:0:0:0:
192,192,127271,1,0,0:0:0:0:
448,192,127350,1,0,0:0:0:0:
64,192,127350,128,2,127584:0:0:0:0:
192,192,127506,1,0,0:0:0:0:
448,192,127662,1,0,0:0:0:0:
64,192,127662,128,0,127818:0:0:0:0:
320,192,127662,1,8,0:0:0:0:
192,192,127818,128,0,128131:0:0:0:0:
448,192,127896,1,0,0:0:0:0:
64,192,127975,1,0,0:0:0:0:
448,192,128053,1,0,0:0:0:0:
320,192,128131,128,2,128287:0:0:0:0:
192,192,128287,128,0,128600:0:0:0:0:
448,192,128443,1,0,0:0:0:0:
320,192,128443,1,0,0:0:0:0:
64,192,128443,1,8,0:0:0:0:
320,192,128600,1,0,0:0:0:0:
64,192,128678,1,0,0:0:0:0:
192,192,128756,1,2,0:0:0:0:
448,192,128834,1,0,0:0:0:0:
320,192,128912,1,0,0:0:0:0:
192,192,128912,1,0,0:0:0:0:
64,192,128912,1,8,0:0:0:0:
448,192,128990,1,0,0:0:0:0:
192,192,129068,1,0,0:0:0:0:
64,192,129146,1,0,0:0:0:0:
320,192,129225,1,0,0:0:0:0:
192,192,129303,1,0,0:0:0:0:
448,192,129381,1,2,0:0:0:0:
320,192,129459,1,0,0:0:0:0:
448,192,129537,1,0,0:0:0:0:
64,192,129537,1,8,0:0:0:0:
192,192,129537,128,0,129693:0:0:0:0:
320,192,129615,1,8,0:0:0:0:
448,192,129693,1,2,0:0:0:0:
64,192,129693,1,8,0:0:0:0:
192,192,129771,1,8,0:0:0:0:
448,192,129850,128,2,130084:0:0:0:0:
320,192,130006,1,0,0:0:0:0:
448,192,130162,1,0,0:0:0:0:
192,192,130162,128,0,130318:0:0:0:0:
64,192,130162,1,8,0:0:0:0:
448,192,130318,128,0,130787:0:0:0:0:
320,192,130318,1,0,0:0:0:0:
64,192,130396,1,0,0:0:0:0:
320,192,130475,1,0,0:0:0:0:
64,192,130553,1,0,0:0:0:0:
192,192,130631,1,2,0:0:0:0:
320,192,130787,1,0,0:0:0:0:
192,192,130787,128,0,130943:0:0:0:0:
64,192,130787,1,8,0:0:0:0:
448,192,130943,1,0,0:0:0:0:
64,192,131021,1,0,0:0:0:0:
320,192,131100,128,0,131412:0:0:0:0:
192,192,131100,1,0,0:0:0:0:
448,192,131256,1,2,0:0:0:0:
448,192,131412,1,0,0:0:0:0:
192,192,131412,1,0,0:0:0:0:
64,192,131412,1,8,0:0:0:0:
320,192,131568,1,0,0:0:0:0:
64,192,131646,1,0,0:0:0:0:
448,192,131725,128,0,132037:0:0:0:0:
320,192,131725,1,0,0:0:0:0:
192,192,131803,1,0,0:0:0:0:
64,192,131881,1,2,0:0:0:0:
320,192,132037,1,0,0:0:0:0:
192,192,132037,1,0,0:0:0:0:
64,192,132037,1,8,0:0:0:0:
448,192,132115,1,0,0:0:0:0:
320,192,132193,1,0,0:0:0:0:
192,192,132271,1,0,0:0:0:0:
448,192,132350,1,0,0:0:0:0:
64,192,132350,128,2,133287:0:0:0:0:
320,192,132506,1,0,0:0:0:0:
448,192,132662,1,0,0:0:0:0:
320,192,132662,1,0,0:0:0:0:
192,192,132662,1,8,0:0:0:0:
320,192,132818,1,0,0:0:0:0:
192,192,132896,1,0,0:0:0:0:
448,192,132975,1,0,0:0:0:0:
320,192,133053,1,0,0:0:0:0:
448,192,133131,1,0,0:0:0:0:
192,192,133131,1,2,0:0:0:0:
320,192,133287,1,0,0:0:0:0:
192,192,133287,128,0,133443:0:0:0:0:
448,192,133443,1,0,0:0:0:0:
320,192,133443,1,0,0:0:0:0:
64,192,133443,1,8,0:0:0:0:
192,192,133521,1,0,0:0:0:0:
64,192,133600,128,0,134381:0:0:0:0:
448,192,133678,1,0,0:0:0:0:
320,192,133756,1,2,0:0:0:0:
448,192,133912,1,0,0:0:0:0:
320,192,133912,1,0,0:0:0:0:
192,192,133912,1,8,0:0:0:0:
192,192,134068,1,0,0:0:0:0:
448,192,134146,1,0,0:0:0:0:
192,192,134225,1,0,0:0:0:0:
320,192,134303,1,0,0:0:0:0:
192,192,134381,1,2,0:0:0:0:
448,192,134459,1,0,0:0:0:0:
320,192,134537,1,0,0:0:0:0:
192,192,134537,1,0,0:0:0:0:
64,192,134537,1,8,0:0:0:0:
448,192,134615,1,8,0:0:0:0:
320,192,134693,1,10,0:0:0:0:
192,192,134771,1,8,0:0:0:0:
448,192,134850,1,4,1:0:0:0:
64,192,134850,1,6,0:0:0:0:
320,192,134889,1,0,0:0:0:0:
192,192,134928,1,0,0:0:0:0:
64,192,134967,1,0,0:0:0:0:
448,192,135006,1,0,0:0:0:0:
192,192,135162,1,0,0:0:0:0:
64,192,135475,1,0,0:0:0:0:
448,192,135787,1,0,0:0:0:0:
64,192,136100,1,0,0:0:0:0:
320,192,136139,1,0,0:0:0:0:
448,192,136178,1,0,0:0:0:0:
192,192,136256,1,0,0:0:0:0:
448,192,136412,1,0,0:0:0:0:
64,192,136725,1,0,0:0:0:0:
448,192,137037,1,0,0:0:0:0:
320,192,137350,1,0,0:0:0:0:
192,192,137389,1,0,0:0:0:0:
64,192,137428,1,0,0:0:0:0:
448,192,137506,1,0,0:0:0:0:
192,192,137662,1,8,0:0:0:0:
320,192,137818,1,0,0:0:0:0:
64,192,137975,1,0,0:0:0:0:
448,192,138131,1,2,0:0:0:0:
320,192,138287,1,0,0:0:0:0:
64,192,138443,1,8,0:0:0:0:
192,192,138521,1,0,0:0:0:0:
320,192,138600,1,0,0:0:0:0:
64,192,138756,1,2,0:0:0:0:
320,192,138912,1,8,0:0:0:0:
192,192,139068,1,0,0:0:0:0:
320,192,139146,1,0,0:0:0:0:
448,192,139225,128,0,139303:0:0:0:0:
64,192,139225,128,0,139303:0:0:0:0:
320,192,139303,1,0,0:0:0:0:
192,192,139381,1,2,0:0:0:0:
448,192,139537,1,8,0:0:0:0:
192,192,139693,1,2,0:0:0:0:
320,192,139850,1,0,0:0:0:0:
192,192,139850,1,2,0:0:0:0:
64,192,140006,1,0,0:0:0:0:
448,192,140162,1,0,0:0:0:0:
64,192,140162,1,8,0:0:0:0:
320,192,140318,1,0,0:0:0:0:
192,192,140396,1,0,0:0:0:0:
64,192,140475,1,0,0:0:0:0:
320,192,140631,1,0,0:0:0:0:
64,192,140631,1,2,0:0:0:0:
448,192,140787,1,0,0:0:0:0:
192,192,140787,1,8,0:0:0:0:
320,192,140943,1,0,0:0:0:0:
64,192,141100,1,0,0:0:0:0:
320,192,141256,1,0,0:0:0:0:
64,192,141256,1,2,0:0:0:0:
448,192,141412,1,0,0:0:0:0:
192,192,141412,1,8,0:0:0:0:
320,192,141568,1,0,0:0:0:0:
64,192,141725,1,0,0:0:0:0:
320,192,141881,1,0,0:0:0:0:
64,192,141881,1,2,0:0:0:0:
448,192,142037,1,0,0:0:0:0:
192,192,142037,1,8,0:0:0:0:
320,192,142193,1,0,0:0:0:0:
192,192,142350,1,0,0:0:0:0:
64,192,142350,1,2,0:0:0:0:
64,192,142506,1,0,0:0:0:0:
448,192,142662,1,0,0:0:0:0:
320,192,142662,1,8,0:0:0:0:
448,192,142818,1,0,0:0:0:0:
448,192,142975,1,0,0:0:0:0:
192,192,143131,1,0,0:0:0:0:
64,192,143131,1,2,0:0:0:0:
64,192,143287,1,0,0:0:0:0:
448,192,143443,1,0,0:0:0:0:
320,192,143443,1,8,0:0:0:0:
448,192,143600,1,0,0:0:0:0:
192,192,143756,1,0,0:0:0:0:
64,192,143756,1,2,0:0:0:0:
448,192,143912,1,0,0:0:0:0:
320,192,143912,1,8,0:0:0:0:
64,192,144068,1,0,0:0:0:0:
64,192,144225,128,4,144303:1:0:0:0:
448,192,144225,128,0,144303:0:0:0:0:
192,192,144381,1,2,0:0:0:0:
64,192,144381,1,0,0:0:0:0:
448,192,144537,1,0,0:0:0:0:
320,192,144537,1,8,0:0:0:0:
64,192,144693,1,2,0:0:0:0:
192,192,144693,1,0,0:0:0:0:
320,192,144850,1,0,0:0:0:0:
192,192,144850,1,4,0:0:0:0:
64,192,144850,128,2,145787:0:0:0:0:
320,192,145162,1,2,0:0:0:0:
192,192,145162,1,8,0:0:0:0:
320,192,145475,1,0,0:0:0:0:
192,192,145475,1,2,0:0:0:0:
448,192,145787,128,0,146100:0:0:0:0:
320,192,145787,1,2,0:0:0:0:
192,192,145787,1,8,0:0:0:0:
320,192,146100,1,0,0:0:0:0:
192,192,146100,1,0,0:0:0:0:
64,192,146100,128,2,146412:0:0:0:0:
320,192,146412,1,2,0:0:0:0:
192,192,146412,1,8,0:0:0:0:
64,192,146568,128,0,146881:0:0:0:0:
320,192,146725,1,0,0:0:0:0:
192,192,146725,1,2,0:0:0:0:
320,192,147037,1,0,0:0:0:0:
192,192,147037,1,2,0:0:0:0:
64,192,147037,128,8,147350:0:0:0:0:
448,192,147350,128,0,148287:0:0:0:0:
320,192,147350,1,0,0:0:0:0:
192,192,147350,1,2,0:0:0:0:
320,192,147662,1,2,0:0:0:0:
192,192,147662,1,8,0:0:0:0:
320,192,147975,1,0,0:0:0:0:
192,192,147975,1,2,0:0:0:0:
320,192,148287,1,0,0:0:0:0:
192,192,148287,1,2,0:0:0:0:
64,192,148287,128,8,148600:0:0:0:0:
448,192,148600,128,0,148912:0:0:0:0:
320,192,148600,1,0,0:0:0:0:
192,192,148600,1,2,0:0:0:0:
320,192,148912,1,2,0:0:0:0:
192,192,148912,1,8,0:0:0:0:
448,192,149068,128,0,149381:0:0:0:0:
320,192,149225,1,0,0:0:0:0:
192,192,149225,1,2,0:0:0:0:
64,192,149225,1,4,1:0:0:0:
192,192,149537,1,2,0:0:0:0:
64,192,149537,1,8,0:0:0:0:
448,192,149615,1,0,0:0:0:0:
320,192,149693,1,0,0:0:0:0:
448,192,149771,1,0,0:0:0:0:
192,192,149850,1,0,0:0:0:0:
64,192,149850,1,2,0:0:0:0:
320,192,149928,1,0,0:0:0:0:
192,192,150006,1,0,0:0:0:0:
64,192,150084,1,0,0:0:0:0:
448,192,150162,1,2,0:0:0:0:
320,192,150162,1,8,0:0:0:0:
192,192,150240,1,0,0:0:0:0:
64,192,150318,1,0,0:0:0:0:
448,192,150318,1,2,0:0:0:0:
320,192,150396,1,0,0:0:0:0:
192,192,150475,1,0,0:0:0:0:
64,192,150475,1,2,0:0:0:0:
448,192,150553,1,0,0:0:0:0:
320,192,150631,1,0,0:0:0:0:
192,192,150709,1,0,0:0:0:0:
448,192,150787,1,2,0:0:0:0:
320,192,150787,1,8,0:0:0:0:
64,192,150865,1,0,0:0:0:0:
192,192,150943,1,0,0:0:0:0:
448,192,151021,1,0,0:0:0:0:
320,192,151100,1,0,0:0:0:0:
192,192,151100,1,2,0:0:0:0:
64,192,151178,1,0,0:0:0:0:
320,192,151256,1,0,0:0:0:0:
192,192,151334,1,0,0:0:0:0:
448,192,151412,1,2,0:0:0:0:
320,192,151412,1,8,0:0:0:0:
192,192,151490,1,0,0:0:0:0:
448,192,151568,1,0,0:0:0:0:
64,192,151568,1,2,0:0:0:0:
320,192,151646,1,0,0:0:0:0:
192,192,151725,1,0,0:0:0:0:
64,192,151725,1,2,0:0:0:0:
448,192,151803,1,0,0:0:0:0:
320,192,151881,1,0,0:0:0:0:
64,192,151959,1,0,0:0:0:0:
448,192,152037,1,2,0:0:0:0:
320,192,152037,1,8,0:0:0:0:
192,192,152115,1,0,0:0:0:0:
320,192,152193,1,0,0:0:0:0:
448,192,152271,1,0,0:0:0:0:
192,192,152350,1,0,0:0:0:0:
64,192,152350,1,2,0:0:0:0:
192,192,152506,1,0,0:0:0:0:
64,192,152506,1,2,0:0:0:0:
448,192,152662,1,2,0:0:0:0:
64,192,152662,1,8,0:0:0:0:
448,192,152818,1,0,0:0:0:0:
64,192,152818,1,2,0:0:0:0:
448,192,152975,1,0,0:0:0:0:
320,192,152975,1,2,0:0:0:0:
448,192,153131,1,0,0:0:0:0:
320,192,153131,1,2,0:0:0:0:
448,192,153287,1,2,0:0:0:0:
64,192,153287,1,8,0:0:0:0:
448,192,153443,1,0,0:0:0:0:
64,192,153443,1,2,0:0:0:0:
192,192,153600,1,0,0:0:0:0:
64,192,153600,1,2,0:0:0:0:
192,192,153756,1,0,0:0:0:0:
64,192,153756,1,2,0:0:0:0:
448,192,153912,1,2,0:0:0:0:
64,192,153912,1,8,0:0:0:0:
448,192,154068,1,0,0:0:0:0:
64,192,154068,1,2,0:0:0:0:
448,192,154225,1,4,1:0:0:0:
320,192,154225,1,2,0:0:0:0:
448,192,154381,1,0,0:0:0:0:
320,192,154381,1,2,0:0:0:0:
448,192,154537,1,2,0:0:0:0:
64,192,154537,1,8,0:0:0:0:
448,192,154693,1,0,0:0:0:0:
64,192,154693,1,2,0:0:0:0:
192,192,154850,1,0,0:0:0:0:
64,192,154850,1,2,0:0:0:0:
320,192,154928,1,2,0:0:0:0:
192,192,155006,1,0,0:0:0:0:
64,192,155006,1,2,0:0:0:0:
320,192,155084,1,2,0:0:0:0:
448,192,155162,1,2,0:0:0:0:
64,192,155162,1,8,0:0:0:0:
320,192,155240,1,2,0:0:0:0:
448,192,155318,1,0,0:0:0:0:
64,192,155318,1,2,0:0:0:0:
192,192,155396,1,2,0:0:0:0:
448,192,155475,1,0,0:0:0:0:
320,192,155475,1,2,0:0:0:0:
192,192,155553,1,2,0:0:0:0:
448,192,155631,1,0,0:0:0:0:
320,192,155631,1,2,0:0:0:0:
192,192,155709,1,2,0:0:0:0:
448,192,155787,1,2,0:0:0:0:
64,192,155787,1,8,0:0:0:0:
192,192,155865,1,2,0:0:0:0:
448,192,155943,1,0,0:0:0:0:
64,192,155943,1,2,0:0:0:0:
192,192,156021,1,2,0:0:0:0:
64,192,156100,128,2,157115:0:0:0:0:
448,192,156139,1,2,0:0:0:0:
320,192,156178,1,2,0:0:0:0:
448,192,157115,1,2,0:0:0:0:
320,192,157154,1,2,0:0:0:0:
192,192,157193,1,2,0:0:0:0:
64,192,157232,1,2,0:0:0:0:
448,192,157271,1,2,0:0:0:0:
320,192,157310,1,2,0:0:0:0:
192,192,157350,1,0,0:0:0:0:
64,192,157350,1,2,0:0:0:0:
448,192,157584,1,8,0:0:0:0:
448,192,157662,1,8,0:0:0:0:
192,192,157818,1,2,0:0:0:0:
64,192,157896,1,2,0:0:0:0:
320,192,157975,1,2,0:0:0:0:
192,192,158053,1,2,0:0:0:0:
448,192,158131,1,2,0:0:0:0:
320,192,158209,1,2,0:0:0:0:
192,192,158248,1,0,0:0:0:0:
64,192,158287,1,8,0:0:0:0:
448,192,158326,1,8,0:0:0:0:
320,192,158365,1,8,0:0:0:0:
192,192,158404,1,8,0:0:0:0:
64,192,158443,1,8,0:0:0:0:
320,192,158482,1,8,0:0:0:0:
192,192,158521,1,8,0:0:0:0:
448,192,158560,1,8,0:0:0:0:
320,192,158600,1,2,0:0:0:0:
64,192,158600,1,4,0:0:0:0:
192,192,158756,1,0,0:0:0:0:
448,192,158912,1,0,0:0:0:0:
320,192,158912,1,0,0:0:0:0:
192,192,158912,1,8,1:0:0:0:
64,192,159068,1,0,0:0:0:0:
448,192,159146,1,0,0:0:0:0:
320,192,159225,1,0,0:0:0:0:
192,192,159303,1,0,0:0:0:0:
448,192,159381,1,0,0:0:0:0:
64,192,159381,1,2,0:0:0:0:
320,192,159459,1,0,0:0:0:0:
448,192,159537,1,0,0:0:0:0:
192,192,159537,1,0,0:0:0:0:
64,192,159537,1,8,1:0:0:0:
320,192,159615,1,0,0:0:0:0:
64,192,159693,1,0,0:0:0:0:
192,192,159771,1,0,0:0:0:0:
320,192,159850,1,0,0:0:0:0:
448,192,159928,1,0,0:0:0:0:
192,192,160006,1,0,0:0:0:0:
64,192,160006,1,2,0:0:0:0:
320,192,160084,1,0,0:0:0:0:
448,192,160162,1,0,0:0:0:0:
192,192,160162,1,0,0:0:0:0:
64,192,160162,1,8,1:0:0:0:
320,192,160240,1,0,0:0:0:0:
64,192,160318,1,0,0:0:0:0:
448,192,160396,1,0,0:0:0:0:
320,192,160475,1,0,0:0:0:0:
192,192,160553,1,0,0:0:0:0:
448,192,160631,1,0,0:0:0:0:
64,192,160631,1,2,0:0:0:0:
192,192,160709,1,0,0:0:0:0:
448,192,160787,1,0,0:0:0:0:
320,192,160787,1,0,0:0:0:0:
64,192,160787,1,8,1:0:0:0:
192,192,160865,1,0,0:0:0:0:
448,192,160943,1,0,0:0:0:0:
64,192,160943,1,0,0:0:0:0:
320,192,161021,1,0,0:0:0:0:
192,192,161100,1,0,0:0:0:0:
64,192,161100,1,2,0:0:0:0:
448,192,161178,1,0,0:0:0:0:
320,192,161256,1,0,0:0:0:0:
192,192,161334,1,0,0:0:0:0:
448,192,161412,1,0,0:0:0:0:
320,192,161412,1,0,0:0:0:0:
64,192,161412,1,8,1:0:0:0:
192,192,161490,1,0,0:0:0:0:
448,192,161568,1,0,0:0:0:0:
320,192,161646,1,0,0:0:0:0:
192,192,161725,1,0,0:0:0:0:
320,192,161803,1,0,0:0:0:0:
448,192,161881,1,0,0:0:0:0:
64,192,161881,1,2,0:0:0:0:
192,192,161959,1,0,0:0:0:0:
320,192,162037,1,0,0:0:0:0:
192,192,162115,1,0,0:0:0:0:
448,192,162193,1,0,0:0:0:0:
320,192,162193,1,0,0:0:0:0:
64,192,162193,1,8,1:0:0:0:
192,192,162271,1,0,0:0:0:0:
448,192,162350,128,4,162428:1:0:0:0:
320,192,162428,128,0,162506:0:0:0:0:
192,192,162506,128,0,162584:0:0:0:0:
64,192,162506,1,2,0:0:0:0:
320,192,162584,128,0,162662:0:0:0:0:
448,192,162662,1,0,0:0:0:0:
64,192,162662,128,8,162740:1:0:0:0:
192,192,162740,128,0,162818:0:0:0:0:
320,192,162818,128,0,162896:0:0:0:0:
192,192,162896,128,0,162975:0:0:0:0:
64,192,162975,128,4,163131:1:0:0:0:
448,192,163053,128,0,163131:0:0:0:0:
320,192,163131,1,0,0:0:0:0:
192,192,163131,128,2,163287:0:0:0:0:
64,192,163209,128,0,163287:0:0:0:0:
448,192,163287,1,0,0:0:0:0:
320,192,163287,128,8,163443:1:0:0:0:
192,192,163365,128,2,163443:0:0:0:0:
448,192,163443,128,0,163600:0:0:0:0:
64,192,163443,1,2,0:0:0:0:
320,192,163521,128,2,163600:0:0:0:0:
192,192,163600,1,2,0:0:0:0:
64,192,163600,1,4,1:0:0:0:
448,192,163678,1,0,0:0:0:0:
320,192,163756,1,0,0:0:0:0:
192,192,163834,1,0,0:0:0:0:
448,192,163912,1,0,0:0:0:0:
320,192,163912,1,0,0:0:0:0:
64,192,163912,1,8,1:0:0:0:
192,192,163990,1,0,0:0:0:0:
320,192,164068,1,0,0:0:0:0:
448,192,164146,1,0,0:0:0:0:
192,192,164225,1,0,0:0:0:0:
320,192,164303,1,0,0:0:0:0:
448,192,164381,1,0,0:0:0:0:
64,192,164381,1,2,0:0:0:0:
320,192,164459,1,0,0:0:0:0:
448,192,164537,1,0,0:0:0:0:
192,192,164537,1,0,0:0:0:0:
64,192,164537,1,8,1:0:0:0:
320,192,164615,1,0,0:0:0:0:
192,192,164693,1,0,0:0:0:0:
64,192,164771,1,0,0:0:0:0:
320,192,164850,1,0,0:0:0:0:
448,192,164928,1,0,0:0:0:0:
192,192,165006,1,0,0:0:0:0:
64,192,165006,1,2,0:0:0:0:
320,192,165084,1,0,0:0:0:0:
448,192,165162,1,0,0:0:0:0:
192,192,165162,1,0,0:0:0:0:
64,192,165162,1,8,1:0:0:0:
320,192,165240,1,0,0:0:0:0:
192,192,165318,1,0,0:0:0:0:
448,192,165396,1,0,0:0:0:0:
320,192,165475,1,0,0:0:0:0:
64,192,165553,1,0,0:0:0:0:
448,192,165631,1,0,0:0:0:0:
192,192,165631,1,2,0:0:0:0:
320,192,165709,1,0,0:0:0:0:
448,192,165787,1,0,0:0:0:0:
192,192,165787,1,0,0:0:0:0:
64,192,165787,1,8,1:0:0:0:
320,192,165865,1,0,0:0:0:0:
64,192,165943,1,0,0:0:0:0:
448,192,165943,1,0,0:0:0:0:
192,192,166021,1,0,0:0:0:0:
448,192,166100,1,0,0:0:0:0:
320,192,166100,1,2,0:0:0:0:
192,192,166178,1,0,0:0:0:0:
64,192,166256,1,0,0:0:0:0:
320,192,166334,1,0,0:0:0:0:
448,192,166412,1,0,0:0:0:0:
192,192,166412,1,0,0:0:0:0:
64,192,166412,1,8,1:0:0:0:
320,192,166490,1,0,0:0:0:0:
192,192,166568,1,0,0:0:0:0:
64,192,166646,1,0,0:0:0:0:
192,192,166725,1,0,0:0:0:0:
320,192,166803,1,0,0:0:0:0:
448,192,166881,1,0,0:0:0:0:
192,192,166881,1,2,0:0:0:0:
64,192,166959,1,0,0:0:0:0:
320,192,167037,1,4,1:0:0:0:
64,192,167115,1,0,0:0:0:0:
448,192,167193,1,0,0:0:0:0:
320,192,167193,1,0,0:0:0:0:
192,192,167193,1,8,1:0:0:0:
64,192,167271,1,0,0:0:0:0:
448,192,167350,128,4,167428:1:0:0:0:
192,192,167428,128,0,167506:0:0:0:0:
448,192,167506,1,2,0:0:0:0:
64,192,167506,128,0,167584:0:0:0:0:
320,192,167584,128,0,167662:0:0:0:0:
192,192,167662,1,0,0:0:0:0:
448,192,167662,1,8,1:0:0:0:
64,192,167662,128,0,167740:0:0:0:0:
320,192,167740,128,0,167818:0:0:0:0:
192,192,167818,128,0,167896:0:0:0:0:
448,192,167896,128,0,167975:0:0:0:0:
64,192,167975,128,4,168053:1:0:0:0:
320,192,168053,128,0,168131:0:0:0:0:
64,192,168131,128,2,168209:0:0:0:0:
192,192,168131,1,0,0:0:0:0:
320,192,168209,128,0,168287:0:0:0:0:
192,192,168287,128,0,168365:0:0:0:0:
448,192,168287,1,0,0:0:0:0:
64,192,168287,128,8,168365:1:0:0:0:
320,192,168365,128,2,168443:0:0:0:0:
64,192,168443,128,2,168521:0:0:0:0:
192,192,168443,128,0,168521:0:0:0:0:
320,192,168521,128,2,168600:0:0:0:0:
192,192,168600,1,0,0:0:0:0:
64,192,168600,1,2,0:0:0:0:
448,192,168756,1,0,0:0:0:0:
320,192,168912,1,0,0:0:0:0:
192,192,168912,1,0,0:0:0:0:
64,192,168912,1,8,1:0:0:0:
448,192,169068,1,0,0:0:0:0:
64,192,169146,1,0,0:0:0:0:
192,192,169225,1,0,0:0:0:0:
320,192,169303,1,0,0:0:0:0:
448,192,169381,1,0,0:0:0:0:
64,192,169381,1,2,0:0:0:0:
192,192,169459,1,0,0:0:0:0:
448,192,169537,1,0,0:0:0:0:
320,192,169537,1,0,0:0:0:0:
64,192,169537,1,8,1:0:0:0:
192,192,169615,1,0,0:0:0:0:
448,192,169693,1,0,0:0:0:0:
320,192,169771,1,0,0:0:0:0:
192,192,169850,1,0,0:0:0:0:
64,192,169928,1,0,0:0:0:0:
448,192,170006,1,0,0:0:0:0:
320,192,170006,1,2,0:0:0:0:
192,192,170084,1,0,0:0:0:0:
448,192,170162,1,0,0:0:0:0:
320,192,170162,1,0,0:0:0:0:
64,192,170162,1,8,1:0:0:0:
192,192,170240,1,0,0:0:0:0:
448,192,170318,1,0,0:0:0:0:
64,192,170396,1,0,0:0:0:0:
192,192,170475,1,0,0:0:0:0:
320,192,170553,1,0,0:0:0:0:
448,192,170631,1,0,0:0:0:0:
64,192,170631,1,2,0:0:0:0:
320,192,170709,1,0,0:0:0:0:
448,192,170787,1,0,0:0:0:0:
192,192,170787,1,0,0:0:0:0:
64,192,170787,1,8,1:0:0:0:
320,192,170865,1,0,0:0:0:0:
64,192,170943,1,0,0:0:0:0:
448,192,170943,1,0,0:0:0:0:
192,192,171021,1,0,0:0:0:0:
448,192,171100,1,0,0:0:0:0:
320,192,171100,1,2,0:0:0:0:
64,192,171178,1,0,0:0:0:0:
192,192,171256,1,0,0:0:0:0:
320,192,171334,1,0,0:0:0:0:
448,192,171412,1,0,0:0:0:0:
192,192,171412,1,0,0:0:0:0:
64,192,171412,1,8,1:0:0:0:
320,192,171490,1,0,0:0:0:0:
64,192,171568,1,0,0:0:0:0:
192,192,171646,1,0,0:0:0:0:
320,192,171725,1,0,0:0:0:0:
192,192,171803,1,0,0:0:0:0:
448,192,171881,1,0,0:0:0:0:
64,192,171881,1,2,0:0:0:0:
320,192,171959,1,0,0:0:0:0:
192,192,172037,1,4,1:0:0:0:
320,192,172115,1,0,0:0:0:0:
448,192,172193,1,0,0:0:0:0:
192,192,172193,1,0,0:0:0:0:
64,192,172193,1,8,1:0:0:0:
320,192,172271,1,0,0:0:0:0:
64,192,172350,128,4,172428:1:0:0:0:
192,192,172428,128,0,172506:0:0:0:0:
448,192,172506,1,0,0:0:0:0:
320,192,172506,128,2,172584:0:0:0:0:
192,192,172584,128,0,172662:0:0:0:0:
448,192,172662,128,0,172740:0:0:0:0:
64,192,172662,1,8,1:0:0:0:
320,192,172740,128,0,172818:0:0:0:0:
192,192,172818,128,0,172896:0:0:0:0:
320,192,172896,128,0,172975:0:0:0:0:
448,192,172975,128,4,173131:1:0:0:0:
64,192,173053,128,0,173131:0:0:0:0:
320,192,173131,128,0,173287:0:0:0:0:
192,192,173131,1,2,0:0:0:0:
448,192,173209,128,0,173287:0:0:0:0:
192,192,173287,128,0,173443:0:0:0:0:
64,192,173287,1,8,1:0:0:0:
320,192,173365,128,2,173443:0:0:0:0:
448,192,173443,1,0,0:0:0:0:
64,192,173443,128,2,173600:0:0:0:0:
192,192,173521,128,2,173600:0:0:0:0:
448,192,173600,1,2,0:0:0:0:
320,192,173600,1,4,1:0:0:0:
64,192,173678,1,0,0:0:0:0:
192,192,173756,1,0,0:0:0:0:
320,192,173834,1,0,0:0:0:0:
448,192,173912,1,0,0:0:0:0:
192,192,173912,1,0,0:0:0:0:
64,192,173912,1,8,1:0:0:0:
320,192,173990,1,0,0:0:0:0:
192,192,174068,1,0,0:0:0:0:
64,192,174146,1,0,0:0:0:0:
320,192,174225,1,0,0:0:0:0:
192,192,174303,1,0,0:0:0:0:
448,192,174381,1,0,0:0:0:0:
64,192,174381,1,2,0:0:0:0:
192,192,174459,1,0,0:0:0:0:
448,192,174537,1,0,0:0:0:0:
320,192,174537,1,0,0:0:0:0:
64,192,174537,1,8,1:0:0:0:
192,192,174615,1,0,0:0:0:0:
320,192,174693,1,0,0:0:0:0:
448,192,174771,1,0,0:0:0:0:
192,192,174850,1,0,0:0:0:0:
64,192,174928,1,0,0:0:0:0:
448,192,175006,1,0,0:0:0:0:
320,192,175006,1,2,0:0:0:0:
192,192,175084,1,0,0:0:0:0:
448,192,175162,1,0,0:0:0:0:
320,192,175162,1,0,0:0:0:0:
64,192,175162,1,8,1:0:0:0:
192,192,175240,1,0,0:0:0:0:
320,192,175318,1,0,0:0:0:0:
64,192,175396,1,0,0:0:0:0:
192,192,175475,1,0,0:0:0:0:
448,192,175553,1,0,0:0:0:0:
320,192,175631,1,0,0:0:0:0:
64,192,175631,1,2,0:0:0:0:
192,192,175709,1,0,0:0:0:0:
448,192,175787,1,0,0:0:0:0:
320,192,175787,1,0,0:0:0:0:
64,192,175787,1,8,1:0:0:0:
192,192,175865,1,0,0:0:0:0:
448,192,175943,1,2,0:0:0:0:
64,192,175943,1,0,0:0:0:0:
320,192,176021,1,0,0:0:0:0:
192,192,176100,1,0,0:0:0:0:
64,192,176100,1,2,0:0:0:0:
448,192,176256,1,0,0:0:0:0:
192,192,176334,1,0,0:0:0:0:
448,192,176412,1,0,0:0:0:0:
320,192,176412,1,0,0:0:0:0:
64,192,176412,1,8,1:0:0:0:
320,192,176568,1,0,0:0:0:0:
448,192,176646,1,0,0:0:0:0:
192,192,176725,1,0,0:0:0:0:
320,192,176803,1,0,0:0:0:0:
192,192,176881,1,0,0:0:0:0:
64,192,176881,1,2,0:0:0:0:
320,192,177037,1,0,0:0:0:0:
192,192,177115,1,0,0:0:0:0:
448,192,177193,1,0,0:0:0:0:
320,192,177193,1,0,0:0:0:0:
64,192,177193,1,8,1:0:0:0:
192,192,177350,1,0,0:0:0:0:
64,192,177506,1,2,0:0:0:0:
64,192,177584,1,2,0:0:0:0:
448,192,177662,1,0,0:0:0:0:
320,192,177662,1,0,0:0:0:0:
192,192,177662,1,8,1:0:0:0:
192,192,177818,1,2,0:0:0:0:
64,192,177857,1,2,0:0:0:0:
448,192,177896,1,2,0:0:0:0:
320,192,177935,1,2,0:0:0:0:
192,192,177975,1,0,0:0:0:0:
64,192,177975,1,8,1:0:0:0:
448,192,178053,1,0,0:0:0:0:
192,192,178131,1,0,0:0:0:0:
64,192,178131,1,2,0:0:0:0:
448,192,178209,1,0,0:0:0:0:
320,192,178209,1,8,1:0:0:0:
64,192,178287,1,0,0:0:0:0:
448,192,178365,1,0,0:0:0:0:
320,192,178365,1,2,0:0:0:0:
192,192,178443,1,0,0:0:0:0:
64,192,178443,1,8,1:0:0:0:
448,192,178521,1,2,0:0:0:0:
320,192,178600,1,0,0:0:0:70:B_F#5B.wav
192,192,178600,1,2,0:0:0:0:
64,192,178600,128,4,179850:0:0:0:0:
320,192,178756,1,0,0:0:0:0:
448,192,178912,1,0,0:0:0:0:
448,192,179068,1,0,0:0:0:0:
192,192,179225,1,0,0:0:0:0:
192,192,179381,1,0,0:0:0:0:
320,192,179537,1,0,0:0:0:0:
320,192,179693,1,0,0:0:0:0:
448,192,179850,128,0,180475:0:0:0:70:B_G5B.wav
192,192,180006,1,0,0:0:0:0:
192,192,180162,1,0,0:0:0:0:
64,192,180162,1,8,1:0:0:0:
320,192,180318,1,0,0:0:0:0:
192,192,180396,1,0,0:0:0:0:
320,192,180475,128,0,181100:0:0:0:70:B_F#5B.wav
448,192,180553,1,0,0:0:0:0:
64,192,180631,1,0,0:0:0:0:
448,192,180787,1,0,0:0:0:0:
192,192,180865,1,0,0:0:0:0:
64,192,180943,1,0,0:0:0:0:
448,192,181021,1,0,0:0:0:0:
192,192,181100,128,0,182350:0:0:0:70:B_E5B.wav
64,192,181256,1,0,0:0:0:0:
448,192,181412,1,0,0:0:0:0:
320,192,181568,1,0,0:0:0:0:
448,192,181646,1,0,0:0:0:0:
64,192,181725,1,0,0:0:0:0:
320,192,181803,1,0,0:0:0:0:
448,192,181881,1,0,0:0:0:0:
64,192,182037,1,0,0:0:0:0:
320,192,182193,1,0,0:0:0:0:
64,192,182271,1,0,0:0:0:0:
448,192,182350,128,0,183600:0:0:0:70:B_B5B.wav
64,192,182506,1,8,0:0:0:0:
192,192,182584,1,8,0:0:0:0:
64,192,182662,1,8,0:0:0:0:
192,192,182740,1,8,0:0:0:0:
320,192,182818,1,8,0:0:0:0:
192,192,182975,1,0,0:0:0:0:
64,192,182975,1,8,0:0:0:0:
320,192,183053,1,8,0:0:0:0:
64,192,183131,1,8,0:0:0:0:
320,192,183209,1,8,0:0:0:0:
192,192,183287,1,8,0:0:0:0:
320,192,183365,1,8,0:0:0:0:
192,192,183443,1,8,0:0:0:0:
320,192,183521,1,8,0:0:0:0:
64,192,183600,1,8,0:0:0:0:
192,192,183678,1,0,0:0:0:0:
448,192,183756,1,0,0:0:0:0:
192,192,183834,1,0,0:0:0:0:
64,192,183912,1,0,0:0:0:0:
320,192,183990,1,0,0:0:0:0:
448,192,184068,1,0,0:0:0:0:
192,192,184146,1,0,0:0:0:0:
64,192,184225,128,0,184850:0:0:0:70:B_A5B.wav
320,192,184303,1,0,0:0:0:0:
192,192,184381,1,0,0:0:0:0:
320,192,184537,1,0,0:0:0:0:
192,192,184693,1,0,0:0:0:0:
448,192,184771,1,0,0:0:0:0:
320,192,184850,128,0,185475:0:0:0:70:B_D6B.wav
64,192,185006,1,0,0:0:0:0:
64,192,185162,1,0,0:0:0:0:
448,192,185318,1,0,0:0:0:0:
64,192,185396,1,0,0:0:0:0:
192,192,185475,128,0,186100:0:0:0:70:B_G5B.wav
448,192,185553,1,0,0:0:0:0:
320,192,185631,1,0,0:0:0:0:
64,192,185787,1,0,0:0:0:0:
320,192,185865,1,0,0:0:0:0:
448,192,185943,1,0,0:0:0:0:
64,192,186021,1,0,0:0:0:0:
320,192,186100,128,0,187193:0:0:0:70:B_F#5B.wav
192,192,186256,1,0,0:0:0:0:
448,192,186412,1,0,0:0:0:0:
64,192,186568,1,0,0:0:0:0:
448,192,186646,1,0,0:0:0:0:
64,192,186725,1,8,0:0:0:0:
448,192,186803,1,8,0:0:0:0:
192,192,186881,1,8,0:0:0:0:
64,192,186959,1,8,0:0:0:0:
192,192,187037,1,8,0:0:0:0:
448,192,187115,1,8,0:0:0:0:
192,192,187193,128,0,187271:0:0:0:70:B_G5B.wav
64,192,187193,1,8,0:0:0:0:
448,192,187271,128,0,187350:0:0:0:70:B_F#5B.wav
320,192,187271,1,8,0:0:0:0:
192,192,187350,1,0,0:0:0:70:B_E5B.wav
64,192,187350,128,8,187896:0:0:0:0:
448,192,187506,128,8,187662:0:0:0:0:
192,192,187584,1,8,0:0:0:0:
320,192,187662,128,8,187818:0:0:0:0:
448,192,187740,1,8,0:0:0:0:
192,192,187818,128,8,187975:0:0:0:0:
320,192,187896,1,8,0:0:0:0:
448,192,187975,128,0,188053:0:0:0:50:B_A4.wav
64,192,187975,1,8,0:0:0:0:
192,192,188053,128,8,188131:0:0:0:0:
448,192,188131,128,8,188209:0:0:0:0:
192,192,188209,128,8,188287:0:0:0:0:
448,192,188287,128,8,188365:0:0:0:0:
192,192,188365,128,8,188443:0:0:0:0:
448,192,188443,128,8,188521:0:0:0:0:
192,192,188521,128,8,188600:0:0:0:0:
448,192,188600,1,0,0:0:0:40:B_F#5B.wav
320,192,188600,1,2,0:0:0:0:
64,192,188756,1,0,0:0:0:0:
320,192,188834,1,0,0:0:0:0:
192,192,188912,1,0,0:0:0:0:
64,192,188912,1,8,1:0:0:0:
320,192,189068,1,0,0:0:0:0:
192,192,189146,1,0,0:0:0:0:
320,192,189225,1,0,0:0:0:0:
192,192,189303,1,0,0:0:0:0:
448,192,189381,1,0,0:0:0:0:
64,192,189381,1,2,0:0:0:0:
192,192,189459,1,0,0:0:0:0:
448,192,189537,1,0,0:0:0:0:
320,192,189537,1,8,1:0:0:0:
192,192,189693,1,0,0:0:0:0:
320,192,189771,1,0,0:0:0:0:
192,192,189850,1,0,0:0:0:50:B_G5B.wav
448,192,190006,1,0,0:0:0:0:
64,192,190006,1,2,0:0:0:0:
192,192,190162,1,0,0:0:0:0:
64,192,190162,1,8,0:0:0:0:
448,192,190188,1,0,0:0:0:0:
320,192,190188,1,8,1:0:0:0:
192,192,190318,1,0,0:0:0:0:
320,192,190396,1,0,0:0:0:0:
192,192,190475,1,0,0:0:0:50:B_F#5B.wav
320,192,190553,1,0,0:0:0:0:
448,192,190631,1,0,0:0:0:0:
64,192,190631,1,2,0:0:0:0:
448,192,190787,1,8,0:0:0:0:
320,192,190787,1,8,1:0:0:0:
64,192,190865,1,0,0:0:0:0:
320,192,190943,1,0,0:0:0:50:B_G5B.wav
192,192,191021,1,0,0:0:0:50:B_F#5B.wav
448,192,191100,1,0,0:0:0:50:B_E5B.wav
64,192,191100,1,2,0:0:0:0:
192,192,191256,1,0,0:0:0:0:
320,192,191334,1,0,0:0:0:0:
192,192,191412,1,8,1:0:0:0:
64,192,191412,1,8,0:0:0:0:
320,192,191568,1,0,0:0:0:0:
192,192,191646,1,0,0:0:0:0:
320,192,191725,1,0,0:0:0:0:
192,192,191803,1,0,0:0:0:0:
448,192,191881,1,0,0:0:0:0:
64,192,191881,1,2,0:0:0:0:
192,192,191959,1,0,0:0:0:0:
64,192,192037,1,0,0:0:0:0:
448,192,192193,1,8,0:0:0:0:
320,192,192193,1,8,1:0:0:0:
192,192,192271,1,0,0:0:0:0:
320,192,192350,1,0,0:0:0:50:B_B5B.wav
448,192,192506,1,8,0:0:0:0:
192,192,192506,1,2,0:0:0:0:
320,192,192584,1,8,2:0:0:0:
448,192,192662,1,8,0:0:0:0:
64,192,192662,1,8,1:0:0:0:
320,192,192740,1,8,2:0:0:0:
64,192,192818,1,8,0:0:0:0:
448,192,192975,1,0,0:0:0:0:
320,192,192975,1,8,0:0:0:0:
64,192,192975,1,4,1:0:0:0:
192,192,193053,1,8,2:0:0:0:
448,192,193131,1,8,0:0:0:0:
320,192,193131,1,2,0:0:0:0:
64,192,193209,1,8,2:0:0:0:
448,192,193287,1,8,0:0:0:0:
192,192,193287,1,8,1:0:0:0:
320,192,193365,1,8,2:0:0:0:
448,192,193443,1,8,0:0:0:0:
64,192,193443,1,2,0:0:0:0:
192,192,193521,1,8,2:0:0:0:
320,192,193600,1,0,0:0:0:0:
64,192,193600,1,2,0:0:0:0:
192,192,193678,1,0,0:0:0:0:
448,192,193756,1,0,0:0:0:0:
320,192,193834,1,0,0:0:0:0:
448,192,193912,1,0,0:0:0:0:
192,192,193912,1,8,0:0:0:0:
64,192,193912,1,8,1:0:0:0:
320,192,194068,1,0,0:0:0:0:
64,192,194146,1,0,0:0:0:0:
320,192,194225,1,0,0:0:0:50:B_E5B.wav
192,192,194303,1,0,0:0:0:0:
320,192,194381,1,0,0:0:0:0:
64,192,194381,1,2,0:0:0:0:
192,192,194459,1,0,0:0:0:0:
448,192,194537,1,0,0:0:0:0:
320,192,194537,1,8,1:0:0:0:
64,192,194537,1,8,0:0:0:0:
192,192,194693,1,0,0:0:0:0:
320,192,194771,1,0,0:0:0:0:
448,192,194850,1,0,0:0:0:50:B_G5B.wav
320,192,195006,1,0,0:0:0:0:
192,192,195006,1,2,0:0:0:0:
448,192,195162,1,0,0:0:0:0:
192,192,195162,1,8,1:0:0:0:
64,192,195162,1,8,0:0:0:0:
320,192,195318,1,0,0:0:0:0:
64,192,195396,1,0,0:0:0:0:
320,192,195475,1,0,0:0:0:50:B_A5B.wav
192,192,195553,1,0,0:0:0:0:
320,192,195631,1,0,0:0:0:0:
64,192,195631,1,2,0:0:0:0:
448,192,195787,1,0,0:0:0:0:
320,192,195787,1,8,0:0:0:0:
64,192,195787,1,8,1:0:0:0:
192,192,195865,1,0,0:0:0:0:
448,192,195943,1,0,0:0:0:0:
192,192,196021,1,0,0:0:0:0:
320,192,196100,1,0,0:0:0:70:B_G5B.wav
64,192,196100,1,2,0:0:0:0:
320,192,196256,1,0,0:0:0:0:
192,192,196334,1,0,0:0:0:0:
448,192,196412,1,0,0:0:0:0:
320,192,196412,1,8,1:0:0:0:
64,192,196412,1,8,0:0:0:0:
448,192,196568,1,0,0:0:0:0:
192,192,196646,1,0,0:0:0:0:
448,192,196725,1,0,0:0:0:0:
192,192,196803,1,0,0:0:0:0:
448,192,196881,1,0,0:0:0:0:
320,192,196881,1,2,0:0:0:0:
64,192,196959,1,0,0:0:0:0:
320,192,197037,1,0,0:0:0:0:
192,192,197115,1,0,0:0:0:0:
448,192,197193,1,0,0:0:0:0:
320,192,197193,1,8,1:0:0:0:
64,192,197193,1,8,0:0:0:0:
192,192,197271,1,0,0:0:0:0:
448,192,197350,128,0,197428:0:0:0:50:B_D6B.wav
64,192,197428,128,0,197506:0:0:0:0:
320,192,197506,128,2,197584:0:0:0:0:
64,192,197584,128,0,197662:0:0:0:0:
448,192,197662,1,0,0:0:0:0:
320,192,197662,1,8,0:0:0:0:
192,192,197662,128,8,197740:1:0:0:0:
64,192,197740,128,0,197818:0:0:0:0:
320,192,197818,128,0,197896:0:0:0:0:
448,192,197896,128,0,197975:0:0:0:0:
192,192,197975,128,0,198053:0:0:0:0:
64,192,197975,1,4,1:0:0:0:
320,192,198053,128,0,198131:0:0:0:0:
448,192,198131,128,0,198209:0:0:0:0:
64,192,198131,1,2,0:0:0:0:
320,192,198209,128,0,198287:0:0:0:0:
192,192,198287,128,0,198365:0:0:0:0:
64,192,198287,1,8,1:0:0:0:
320,192,198365,128,2,198443:0:0:0:0:
64,192,198443,128,2,198521:0:0:0:0:
448,192,198443,1,0,0:0:0:0:
192,192,198521,128,2,198600:0:0:0:0:
448,192,198600,1,0,0:0:0:0:
320,192,198600,1,4,0:0:0:0:
64,192,198600,1,2,0:0:0:0:
192,192,198678,1,0,0:0:0:0:
320,192,198756,1,0,0:0:0:0:
192,192,198912,1,0,0:0:0:0:
320,192,199225,1,0,0:0:0:0:
448,192,199537,1,0,0:0:0:0:
64,192,199537,1,0,0:0:0:0:
320,192,199850,1,0,0:0:0:0:
320,192,200162,1,0,0:0:0:0:
64,192,200162,1,0,0:0:0:0:
192,192,200318,1,0,0:0:0:0:
448,192,200475,1,0,0:0:0:0:
64,192,200475,1,0,0:0:0:0:
448,192,200787,1,0,0:0:0:0:
192,192,200787,1,0,0:0:0:0:
448,192,200943,1,0,0:0:0:0:
320,192,201100,1,0,0:0:0:0:
64,192,201100,1,0,0:0:0:0:
448,192,201412,1,0,0:0:0:0:
192,192,201412,1,0,0:0:0:0:
64,192,201568,1,0,0:0:0:0:
320,192,201725,1,0,0:0:0:0:
64,192,201725,1,0,0:0:0:0:
192,192,201881,1,0,0:0:0:0:
448,192,202037,1,0,0:0:0:0:
320,192,202037,1,0,0:0:0:0:
192,192,202193,1,0,0:0:0:0:
64,192,202350,1,0,0:0:0:0:
192,192,202428,1,0,0:0:0:0:
320,192,202506,1,0,0:0:0:0:
64,192,202584,1,0,0:0:0:0:
448,192,202662,1,0,0:0:0:0:
320,192,202740,1,0,0:0:0:0:
192,192,202818,1,0,0:0:0:0:
64,192,202896,1,0,0:0:0:0:
448,192,202975,1,0,0:0:0:0:
320,192,203287,1,0,0:0:0:50:Tom1.wav
448,192,203287,1,4,1:0:0:0:
192,192,203443,1,0,0:0:0:50:Tom2.wav
320,192,203443,1,0,0:0:0:0:
64,192,203600,1,0,0:0:0:50:Tom3.wav
192,192,203600,1,0,0:0:0:0:
320,192,203912,1,0,0:0:0:0:
64,192,203912,1,0,0:0:0:0:
448,192,204068,1,0,0:0:0:0:
192,192,204225,1,0,0:0:0:0:
448,192,204537,1,0,0:0:0:0:
64,192,204537,1,0,0:0:0:0:
192,192,204850,1,0,0:0:0:0:
320,192,204928,1,0,0:0:0:0:
448,192,205006,1,0,0:0:0:0:
64,192,205084,1,0,0:0:0:0:
448,192,205162,1,0,0:0:0:0:
320,192,205240,1,0,0:0:0:0:
192,192,205318,1,0,0:0:0:0:
64,192,205396,1,0,0:0:0:0:
320,192,205475,1,0,0:0:0:0:
192,192,205475,1,0,0:0:0:0:
320,192,205787,1,0,0:0:0:0:
64,192,205787,1,0,0:0:0:0:
320,192,205943,1,0,0:0:0:0:
448,192,205943,1,0,0:0:0:0:
192,192,206100,1,0,0:0:0:0:
320,192,206412,1,0,0:0:0:0:
64,192,206412,1,0,0:0:0:0:
64,192,206568,1,0,0:0:0:0:
448,192,206725,1,0,0:0:0:0:
192,192,206725,1,0,0:0:0:0:
448,192,206881,1,0,0:0:0:0:
192,192,207037,1,0,0:0:0:0:
64,192,207037,1,0,0:0:0:0:
448,192,207350,1,0,0:0:0:0:
192,192,207506,1,0,0:0:0:0:
320,192,207662,1,0,0:0:0:0:
64,192,207662,1,0,0:0:0:0:
448,192,207818,1,0,0:0:0:0:
192,192,207975,1,0,0:0:0:0:
320,192,208287,1,4,1:0:0:0:
448,192,208287,1,0,0:0:0:50:Tom1.wav
192,192,208443,1,0,0:0:0:50:Tom2.wav
320,192,208443,1,0,0:0:0:0:
192,192,208600,1,0,0:0:0:50:Tom3.wav
448,192,208600,1,0,0:0:0:0:
64,192,208912,1,0,0:0:0:0:
320,192,208912,1,0,0:0:0:0:
64,192,209068,1,0,0:0:0:0:
448,192,209225,1,0,0:0:0:0:
320,192,209537,1,0,0:0:0:0:
192,192,209537,1,0,0:0:0:0:
448,192,209850,1,0,0:0:0:0:
320,192,210162,1,0,0:0:0:0:
64,192,210475,1,0,0:0:0:0:
192,192,210475,1,0,0:0:0:0:
320,192,210787,1,4,1:0:0:0:
448,192,210787,1,0,0:0:0:50:Tom1.wav
64,192,210943,1,0,0:0:0:50:Tom2.wav
320,192,210943,1,0,0:0:0:0:
64,192,211100,1,0,0:0:0:0:
192,192,211100,1,0,0:0:0:50:Tom3.wav
64,192,211412,1,0,0:0:0:0:
192,192,211725,1,0,0:0:0:0:
320,192,212037,1,0,0:0:0:0:
64,192,212350,1,0,0:0:0:0:
192,192,212662,1,0,0:0:0:0:
448,192,212975,1,0,0:0:0:0:
448,192,213287,1,0,0:0:0:50:Tom1.wav
320,192,213287,1,4,1:0:0:0:
64,192,213443,1,0,0:0:0:50:Tom2.wav
320,192,213443,1,0,0:0:0:0:
64,192,213600,1,0,0:0:0:0:
192,192,213600,1,0,0:0:0:50:Tom3.wav
320,192,213912,1,0,0:0:0:0:
448,192,213912,1,0,0:0:0:0:
192,192,214225,1,0,0:0:0:0:
320,192,214537,1,0,0:0:0:0:
64,192,214537,1,0,0:0:0:0:
192,192,214850,1,0,0:0:0:0:
64,192,214850,1,0,0:0:0:0:
320,192,215162,1,0,0:0:0:0:
448,192,215475,1,0,0:0:0:0:
64,192,215475,1,4,1:0:0:0:
320,192,215787,1,0,0:0:0:0:
192,192,215787,1,0,0:0:0:0:
192,192,216100,1,0,0:0:0:0:
64,192,216100,128,0,223990:0:0:0:0:
448,192,218600,128,0,223990:0:0:0:0:
448,192,224850,128,0,225787:0:0:0:70:E6S.wav
192,192,225162,128,0,225475:0:0:0:40:D6S.wav
320,192,225318,128,0,225631:0:0:0:30:E6S.wav
64,192,225475,128,0,225631:0:0:0:10:E6S.wav
192,192,225631,128,0,225787:0:0:0:40:F#6S_Gb6S.wav
320,192,225787,128,0,225943:0:0:0:40:G6S.wav
448,192,225943,1,0,0:0:0:20:D6S.wav
64,192,225943,1,0,0:0:0:60:D6S.wav
320,192,226100,128,0,226881:0:0:0:20:F#6S_Gb6S.wav
192,192,226412,128,0,226725:0:0:0:20:E6S.wav
448,192,226568,128,0,227037:0:0:0:20:F#6S_Gb6S.wav
64,192,226725,128,0,226881:0:0:0:10:F#6S_Gb6S.wav
192,192,226881,128,0,227037:0:0:0:30:F#6S_Gb6S.wav
320,192,227037,128,0,227193:0:0:0:30:G6S.wav
448,192,227193,128,0,227350:0:0:0:20:B6S_s.wav
320,192,227350,1,0,0:0:0:20:F#6S_Gb6S.wav
64,192,227350,1,0,0:0:0:70:F#6S_Gb6S.wav
192,192,227506,1,0,0:0:0:60:B5S.wav
448,192,227818,1,0,0:0:0:70:G6S.wav
64,192,227975,128,0,228131:0:0:0:20:G6S.wav
320,192,228287,1,0,0:0:0:50:B5S.wav
448,192,228600,128,0,228912:0:0:0:8:B_A5B.wav
64,192,228600,128,0,229068:0:0:0:70:A6S.wav
192,192,228756,128,0,229068:0:0:0:30:B5S.wav
320,192,228912,128,0,229068:0:0:0:30:F#6S_Gb6S.wav
448,192,229068,1,0,0:0:0:20:G6S.wav
320,192,229225,128,0,229693:0:0:0:8:B_F#5B.wav
64,192,229225,128,0,229537:0:0:0:70:F#6S_Gb6S.wav
448,192,229381,128,0,229693:0:0:0:15:G6S.wav
192,192,229537,128,0,229693:0:0:0:15:F#6S_Gb6S.wav
64,192,229693,1,0,0:0:0:60:D6S.wav
448,192,229850,128,0,230318:0:0:0:70:E6S.wav
192,192,229850,1,0,0:0:0:8:B_E5B.wav
64,192,230006,128,0,230162:0:0:0:40:B5S.wav
320,192,230162,128,0,230787:0:0:0:20:D6S.wav
192,192,230318,128,0,230943:0:0:0:20:E6S.wav
448,192,230475,128,0,230631:0:0:0:8:E6S.wav
64,192,230631,128,0,231100:0:0:0:30:F#6S_Gb6S.wav
448,192,230787,128,0,230943:0:0:0:30:G6S.wav
320,192,230943,1,0,0:0:0:70:D6S.wav
448,192,231100,128,0,231568:0:0:0:8:B_F#5B.wav
192,192,231100,1,0,0:0:0:70:F#6S_Gb6S.wav
320,192,231256,128,0,231725:0:0:0:30:B5S.wav
64,192,231412,128,0,232037:0:0:0:30:D6S.wav
192,192,231568,128,0,231881:0:0:0:25:F#6S_Gb6S.wav
448,192,231725,1,0,0:0:0:15:B5S.wav
320,192,231881,1,0,0:0:0:15:F#6S_Gb6S.wav
192,192,232037,1,0,0:0:0:15:G6S.wav
64,192,232193,1,0,0:0:0:15:B5S.wav
448,192,232350,128,0,232818:0:0:0:70:F#6S_Gb6S.wav
192,192,232350,1,0,0:0:0:8:B_F#5B.wav
320,192,232506,128,0,232662:0:0:0:15:A5S.wav
192,192,232662,128,0,232818:0:0:0:20:B5S.wav
320,192,232818,1,0,0:0:0:70:E6S.wav
64,192,232818,128,0,233287:0:0:0:20:C#6S_Db6S.wav
192,192,232975,128,0,233131:0:0:0:20:A5S.wav
320,192,233131,128,0,233287:0:0:0:20:C#6S_Db6S.wav
448,192,233287,128,0,233600:0:0:0:70:D6S.wav
192,192,233287,1,0,0:0:0:8:B_D6B.wav
320,192,233443,128,0,233600:0:0:0:15:A5S.wav
192,192,233600,1,0,0:0:0:70:C#6S_Db6S.wav
64,192,233600,128,0,234068:0:0:0:8:C#6S_Db6S.wav
448,192,233756,128,0,233912:0:0:0:15:D6S.wav
320,192,233912,128,0,234381:0:0:0:15:C#6S_Db6S.wav
448,192,234068,128,0,234693:0:0:0:8:B_B5B.wav
192,192,234068,128,0,234225:0:0:0:70:B5S.wav
64,192,234225,128,0,234537:0:0:0:20:C#6S_Db6S.wav
192,192,234381,128,0,234693:0:0:0:20:D6S.wav
320,192,234537,128,0,234693:0:0:0:20:C#6S_Db6S.wav
64,192,234693,1,0,0:0:0:20:G5S.wav
320,192,234850,1,0,0:0:0:8:B_E5B.wav
192,192,234850,128,0,235318:0:0:0:70:E6S.wav
64,192,235162,128,0,235475:0:0:0:40:D6S.wav
320,192,235318,128,0,235787:0:0:0:30:E6S.wav
192,192,235475,128,0,235631:0:0:0:10:E6S.wav
64,192,235631,128,0,235787:0:0:0:40:F#6S_Gb6S.wav
192,192,235787,128,0,235943:0:0:0:40:G6S.wav
320,192,235943,1,0,0:0:0:60:D6S.wav
448,192,236100,128,0,236568:0:0:0:8:B_F#5B.wav
192,192,236100,128,0,236412:0:0:0:70:F#6S_Gb6S.wav
320,192,236412,128,0,237193:0:0:0:20:E6S.wav
192,192,236568,128,0,236725:0:0:0:20:F#6S_Gb6S.wav
448,192,236725,128,0,237037:0:0:0:10:F#6S_Gb6S.wav
192,192,236881,128,0,237193:0:0:0:30:F#6S_Gb6S.wav
64,192,237037,128,0,237193:0:0:0:30:G6S.wav
448,192,237193,1,0,0:0:0:20:B6S_s.wav
192,192,237350,128,0,237506:0:0:0:8:B_F#5B.wav
64,192,237350,128,0,237975:0:0:0:70:F#6S_Gb6S.wav
320,192,237506,128,0,237662:0:0:0:60:B5S.wav
192,192,237662,128,0,237818:0:0:0:8:B5S.wav
448,192,237818,128,0,238443:0:0:0:8:B_G5B.wav
320,192,237818,128,0,238287:0:0:0:70:G6S.wav
192,192,237975,128,0,238131:0:0:0:20:G6S.wav
64,192,238131,1,0,0:0:0:8:B5S.wav
192,192,238287,1,0,0:0:0:70:B5S.wav
320,192,238443,1,0,0:0:0:8:B5S.wav
448,192,238600,128,0,238756:0:0:0:8:B_A5B.wav
64,192,238600,128,0,238756:0:0:0:70:A6S.wav
192,192,238756,128,0,238912:0:0:0:30:B5S.wav
448,192,238912,128,0,239693:0:0:0:30:F#6S_Gb6S.wav
192,192,239068,128,0,239225:0:0:0:20:G6S.wav
320,192,239225,128,0,239381:0:0:0:8:B_F#5B.wav
64,192,239225,128,0,239381:0:0:0:70:F#6S_Gb6S.wav
192,192,239381,128,0,239693:0:0:0:15:G6S.wav
64,192,239537,128,0,239693:0:0:0:15:F#6S_Gb6S.wav
320,192,239693,1,0,0:0:0:60:D6S.wav
448,192,239850,1,0,0:0:0:70:E6S.wav
192,192,239850,128,0,240162:0:0:0:8:B_E5B.wav
64,192,240006,128,0,240318:0:0:0:15:G5S.wav
320,192,240162,128,0,240787:0:0:0:20:D6S.wav
192,192,240318,128,0,240475:0:0:0:20:E6S.wav
64,192,240475,128,0,240787:0:0:0:8:E6S.wav
192,192,240631,128,0,240943:0:0:0:30:F#6S_Gb6S.wav
448,192,240787,128,0,240943:0:0:0:30:G6S.wav
320,192,240943,1,0,0:0:0:8:B_D5B.wav
64,192,240943,1,0,0:0:0:70:D6S.wav
448,192,241100,128,0,241725:0:0:0:8:B_F#5B.wav
192,192,241100,128,0,241256:0:0:0:70:F#6S_Gb6S.wav
64,192,241256,128,0,241412:0:0:0:15:A5S.wav
320,192,241412,128,0,242037:0:0:0:30:D6S.wav
192,192,241568,128,0,241881:0:0:0:25:F#6S_Gb6S.wav
64,192,241725,128,0,242193:0:0:0:15:B5S.wav
448,192,241881,128,0,242193:0:0:0:15:G6S.wav
192,192,242037,128,0,242193:0:0:0:15:F#6S_Gb6S.wav
320,192,242193,1,0,0:0:0:20:D6S.wav
64,192,242350,1,0,0:0:0:8:B_F#5B.wav
448,192,242350,128,0,243600:0:0:0:70:E6S.wav
320,192,242506,1,0,0:0:0:30:G5S.wav
192,192,242662,1,0,0:0:0:20:D6S.wav
320,192,242818,1,0,0:0:0:20:E6S.wav
64,192,243600,128,0,244146:0:0:0:0:
192,192,244068,128,0,244225:0:0:0:0:
320,192,244146,128,0,244303:0:0:0:0:
448,192,244225,128,0,244381:0:0:0:0:
192,192,244303,128,0,244459:0:0:0:0:
320,192,244381,128,0,244537:0:0:0:0:
64,192,244459,128,0,244615:0:0:0:0:
192,192,244537,128,0,244693:0:0:0:0:
448,192,244615,128,0,244693:0:0:0:0:
320,192,244693,128,0,244771:0:0:0:0:
192,192,244771,128,0,244850:0:0:0:0:
320,192,244850,1,0,0:0:0:0:
448,192,244850,1,0,0:0:0:70:E6S.wav
64,192,244850,1,6,2:0:0:0:
448,192,245475,1,0,0:0:0:0:
192,192,245475,128,0,246100:0:0:0:60:G6S.wav
448,192,245787,1,0,0:0:0:0:
448,192,246100,1,0,0:0:0:0:
320,192,246100,1,0,0:0:0:60:F#6S_Gb6S.wav
64,192,246100,128,4,246725:1:0:0:0:
320,192,246412,1,0,0:0:0:0:
448,192,246725,128,0,247350:0:0:0:0:
192,192,246725,1,0,0:0:0:60:D6S.wav
192,192,247037,1,0,0:0:0:0:
192,192,247350,1,0,0:0:0:0:
320,192,247350,1,0,0:0:0:60:B5S.wav
64,192,247350,128,4,248521:1:0:0:0:
320,192,247662,1,0,0:0:0:0:
320,192,247975,1,0,0:0:0:0:
192,192,248053,1,0,0:0:0:0:
320,192,248131,1,0,0:0:0:0:
448,192,248209,1,0,0:0:0:0:
192,192,248287,1,0,0:0:0:0:
448,192,248365,1,0,0:0:0:0:
320,192,248443,1,0,0:0:0:0:
192,192,248521,1,0,0:0:0:0:
448,192,248600,1,0,0:0:0:0:
320,192,248600,1,0,0:0:0:60:B_G5B.wav
64,192,248600,1,4,1:0:0:0:
192,192,248678,1,0,0:0:0:0:
320,192,248756,1,0,0:0:0:0:
192,192,248834,1,0,0:0:0:0:
448,192,248912,1,0,0:0:0:0:
64,192,248990,1,0,0:0:0:0:
320,192,249068,1,0,0:0:0:0:
64,192,249146,1,0,0:0:0:0:
448,192,249225,1,0,0:0:0:0:
320,192,249225,1,0,0:0:0:60:B_F#5B.wav
192,192,249225,1,4,1:0:0:0:
64,192,249303,1,0,0:0:0:0:
448,192,249381,1,0,0:0:0:0:
320,192,249459,1,0,0:0:0:0:
192,192,249537,1,0,0:0:0:0:
320,192,249615,1,0,0:0:0:0:
64,192,249693,1,0,0:0:0:0:
448,192,249771,1,0,0:0:0:0:
320,192,249850,1,0,0:0:0:0:
192,192,249850,1,0,0:0:0:60:B_E5B.wav
64,192,249850,1,4,1:0:0:0:
448,192,249928,1,0,0:0:0:0:
192,192,250006,1,0,0:0:0:0:
320,192,250084,1,0,0:0:0:0:
64,192,250162,1,0,0:0:0:0:
320,192,250240,1,0,0:0:0:0:
448,192,250318,1,0,0:0:0:0:
64,192,250396,1,0,0:0:0:0:
448,192,250475,128,0,251021:0:0:0:60:G6S.wav
320,192,250553,1,0,0:0:0:0:
192,192,250631,1,0,0:0:0:0:
64,192,250709,1,0,0:0:0:0:
320,192,250787,1,0,0:0:0:0:
64,192,250865,1,0,0:0:0:0:
320,192,250943,1,0,0:0:0:0:
192,192,251021,1,0,0:0:0:0:
448,192,251100,1,0,0:0:0:0:
64,192,251100,1,4,1:0:0:0:
320,192,251100,128,0,251725:0:0:0:60:F#6S_Gb6S.wav
192,192,251178,1,0,0:0:0:0:
64,192,251256,1,0,0:0:0:0:
448,192,251334,1,0,0:0:0:0:
64,192,251412,1,0,0:0:0:0:
192,192,251490,1,0,0:0:0:0:
448,192,251568,1,0,0:0:0:0:
64,192,251646,1,0,0:0:0:0:
192,192,251725,128,0,252271:0:0:0:60:D6S.wav
448,192,251803,1,0,0:0:0:0:
64,192,251881,1,0,0:0:0:0:
448,192,251959,1,0,0:0:0:0:
320,192,252037,1,0,0:0:0:0:
64,192,252115,1,0,0:0:0:0:
448,192,252193,1,0,0:0:0:0:
320,192,252271,1,0,0:0:0:0:
448,192,252350,1,0,0:0:0:0:
192,192,252350,1,0,0:0:0:60:A5S.wav
64,192,252350,128,4,253209:1:0:0:0:
320,192,252428,1,0,0:0:0:0:
192,192,252506,1,0,0:0:0:0:
448,192,252584,1,0,0:0:0:0:
320,192,252662,1,0,0:0:0:0:
448,192,252740,1,0,0:0:0:0:
320,192,252818,1,0,0:0:0:0:
192,192,252896,1,0,0:0:0:0:
448,192,252975,1,0,0:0:0:0:
192,192,253053,1,0,0:0:0:0:
320,192,253131,1,0,0:0:0:0:
448,192,253209,1,0,0:0:0:0:
320,192,253287,1,0,0:0:0:0:
192,192,253287,1,0,0:0:0:60:D6S.wav
64,192,253287,1,4,1:0:0:0:
448,192,253365,1,0,0:0:0:0:
64,192,253443,1,0,0:0:0:0:
192,192,253521,1,0,0:0:0:0:
448,192,253600,1,0,0:0:0:0:
320,192,253600,1,0,0:0:0:60:C#6S_Db6S.wav
64,192,253600,1,4,1:0:0:0:
192,192,253678,1,0,0:0:0:0:
448,192,253756,1,0,0:0:0:0:
320,192,253834,1,0,0:0:0:0:
192,192,253912,1,0,0:0:0:0:
64,192,253990,1,0,0:0:0:0:
320,192,254068,1,0,0:0:0:15:G5S.wav
192,192,254146,1,0,0:0:0:0:
448,192,254225,128,0,254303:0:0:0:0:
64,192,254225,1,4,1:0:0:0:
320,192,254303,128,0,254381:0:0:0:0:
448,192,254381,128,0,254459:0:0:0:0:
192,192,254459,128,0,254537:0:0:0:0:
448,192,254537,128,0,254615:0:0:0:0:
64,192,254615,128,0,254693:0:0:0:0:
448,192,254693,128,0,254771:0:0:0:0:
320,192,254771,128,0,254850:0:0:0:0:
448,192,254850,1,0,0:0:0:0:
192,192,254850,1,2,0:0:0:0:
64,192,254850,1,4,1:0:0:0:
320,192,254928,1,0,0:0:0:0:
192,192,255006,1,0,0:0:0:0:
64,192,255084,1,0,0:0:0:0:
448,192,255162,1,0,0:0:0:0:
320,192,255162,1,2,0:0:0:0:
192,192,255240,1,0,0:0:0:0:
320,192,255318,1,0,0:0:0:0:
448,192,255396,1,0,0:0:0:0:
192,192,255475,1,0,0:0:0:0:
64,192,255475,1,2,0:0:0:0:
320,192,255553,1,0,0:0:0:0:
448,192,255631,1,0,0:0:0:0:
320,192,255709,1,0,0:0:0:0:
192,192,255787,1,0,0:0:0:0:
64,192,255787,1,2,0:0:0:0:
448,192,255865,1,0,0:0:0:0:
320,192,255943,1,0,0:0:0:0:
192,192,256021,1,0,0:0:0:0:
448,192,256100,1,0,0:0:0:0:
320,192,256100,1,4,1:0:0:0:
64,192,256100,1,2,0:0:0:0:
192,192,256178,1,0,0:0:0:0:
64,192,256256,1,0,0:0:0:0:
448,192,256334,1,0,0:0:0:0:
320,192,256412,1,0,0:0:0:0:
64,192,256412,1,2,0:0:0:0:
192,192,256490,1,0,0:0:0:0:
448,192,256568,1,2,0:0:0:0:
320,192,256568,1,0,0:0:0:0:
192,192,256646,1,0,0:0:0:0:
448,192,256725,1,0,0:0:0:0:
64,192,256725,1,2,0:0:0:0:
320,192,256803,1,0,0:0:0:0:
192,192,256881,1,0,0:0:0:0:
320,192,256959,1,0,0:0:0:0:
192,192,257037,1,0,0:0:0:0:
64,192,257037,1,2,0:0:0:0:
448,192,257115,1,0,0:0:0:0:
320,192,257193,1,0,0:0:0:0:
192,192,257271,1,0,0:0:0:0:
448,192,257350,1,0,0:0:0:0:
320,192,257350,1,2,0:0:0:0:
64,192,257350,1,4,1:0:0:0:
192,192,257428,1,0,0:0:0:0:
448,192,257506,1,0,0:0:0:0:
320,192,257584,1,0,0:0:0:0:
448,192,257662,1,2,0:0:0:0:
192,192,257662,1,8,0:0:0:0:
320,192,257740,1,0,0:0:0:0:
448,192,257818,1,0,0:0:0:0:
64,192,257818,1,2,0:0:0:0:
192,192,257896,1,0,0:0:0:0:
320,192,257975,1,0,0:0:0:0:
64,192,257975,1,2,0:0:0:0:
192,192,258053,1,0,0:0:0:0:
448,192,258131,1,0,0:0:0:0:
320,192,258209,1,0,0:0:0:0:
448,192,258287,1,2,0:0:0:0:
192,192,258287,1,8,0:0:0:0:
64,192,258365,1,0,0:0:0:0:
320,192,258443,1,0,0:0:0:0:
192,192,258521,1,0,0:0:0:0:
448,192,258600,1,0,0:0:0:0:
320,192,258600,1,4,1:0:0:0:
64,192,258600,1,2,0:0:0:0:
192,192,258678,1,0,0:0:0:0:
64,192,258756,1,0,0:0:0:0:
320,192,258834,1,0,0:0:0:0:
448,192,258912,1,2,0:0:0:0:
192,192,258912,1,8,0:0:0:0:
320,192,258990,1,0,0:0:0:0:
448,192,259068,1,0,0:0:0:0:
192,192,259068,1,2,0:0:0:0:
64,192,259146,1,0,0:0:0:0:
448,192,259225,1,0,0:0:0:0:
320,192,259225,1,4,1:0:0:0:
192,192,259225,1,2,0:0:0:0:
64,192,259303,1,0,0:0:0:0:
448,192,259381,1,0,0:0:0:0:
320,192,259459,1,0,0:0:0:0:
192,192,259537,1,2,0:0:0:0:
64,192,259537,1,8,0:0:0:0:
448,192,259615,1,0,0:0:0:0:
320,192,259693,1,0,0:0:0:0:
192,192,259771,1,0,0:0:0:0:
448,192,259850,1,0,0:0:0:0:
64,192,259850,1,2,0:0:0:0:
192,192,259928,1,0,0:0:0:0:
320,192,260006,1,2,0:0:0:0:
192,192,260084,1,0,0:0:0:0:
448,192,260162,1,0,0:0:0:0:
64,192,260162,1,2,0:0:0:0:
320,192,260162,1,8,0:0:0:0:
192,192,260240,1,0,0:0:0:0:
448,192,260318,1,2,0:0:0:0:
192,192,260396,1,0,0:0:0:0:
64,192,260475,1,2,0:0:0:0:
320,192,260553,1,0,0:0:0:0:
192,192,260631,1,2,0:0:0:0:
320,192,260709,1,0,0:0:0:0:
192,192,260787,1,0,0:0:0:0:
448,192,260787,1,2,0:0:0:0:
64,192,260787,1,8,0:0:0:0:
320,192,260865,1,0,0:0:0:0:
64,192,260943,1,2,0:0:0:0:
320,192,261021,1,0,0:0:0:0:
448,192,261100,1,0,0:0:0:0:
64,192,261100,1,2,0:0:0:0:
192,192,261178,1,0,0:0:0:0:
448,192,261256,1,2,0:0:0:0:
320,192,261334,1,0,0:0:0:0:
448,192,261412,1,0,0:0:0:0:
192,192,261412,1,2,0:0:0:0:
64,192,261412,1,8,0:0:0:0:
320,192,261490,1,0,0:0:0:0:
448,192,261568,1,2,0:0:0:0:
320,192,261646,1,0,0:0:0:0:
448,192,261725,1,0,0:0:0:0:
64,192,261725,1,2,0:0:0:0:
320,192,261803,1,0,0:0:0:0:
64,192,261881,1,2,0:0:0:0:
192,192,261959,1,0,0:0:0:0:
448,192,262037,1,0,0:0:0:0:
320,192,262037,1,2,0:0:0:0:
64,192,262037,1,8,0:0:0:0:
192,192,262115,1,0,0:0:0:0:
64,192,262193,1,2,0:0:0:0:
192,192,262271,1,0,0:0:0:0:
320,192,262350,1,0,0:0:0:0:
448,192,262350,1,2,0:0:0:0:
64,192,262428,1,2,0:0:0:0:
448,192,262506,1,2,0:0:0:0:
192,192,262506,1,0,0:0:0:0:
320,192,262584,1,2,0:0:0:0:
192,192,262662,1,2,0:0:0:0:
64,192,262662,1,8,0:0:0:0:
448,192,262740,1,2,0:0:0:0:
320,192,262818,1,2,0:0:0:0:
64,192,262818,1,0,0:0:0:0:
192,192,262896,1,2,0:0:0:0:
448,192,262975,1,0,0:0:0:0:
320,192,262975,1,2,0:0:0:0:
192,192,263053,1,0,0:0:0:0:
64,192,263053,1,2,0:0:0:0:
448,192,263131,1,0,0:0:0:0:
320,192,263131,1,2,0:0:0:0:
192,192,263209,1,0,0:0:0:0:
64,192,263209,1,2,0:0:0:0:
448,192,263287,1,2,0:0:0:0:
320,192,263287,1,8,0:0:0:0:
448,192,263365,1,2,0:0:0:0:
320,192,263365,1,8,0:0:0:0:
192,192,263443,1,2,0:0:0:0:
64,192,263443,1,8,0:0:0:0:
192,192,263521,1,8,0:0:0:0:
64,192,263521,1,2,0:0:0:0:
448,192,263600,1,0,0:0:0:0:
320,192,263600,1,2,0:0:0:0:
192,192,263639,1,0,0:0:0:0:
64,192,263678,1,0,0:0:0:0:
448,192,263834,1,0,0:0:0:0:
64,192,263834,1,8,0:0:0:0:
448,192,263912,1,0,0:0:0:0:
64,192,263912,1,8,0:0:0:0:
320,192,264068,1,0,0:0:0:0:
192,192,264146,1,0,0:0:0:0:
448,192,264225,1,0,0:0:0:0:
320,192,264225,128,0,264381:0:0:0:0:
64,192,264303,128,0,264459:0:0:0:0:
448,192,264381,128,0,264537:0:0:0:0:
192,192,264381,1,0,0:0:0:0:
320,192,264459,128,0,264537:0:0:0:0:
64,192,264537,1,8,0:0:0:0:
192,192,264576,1,8,0:0:0:0:
320,192,264615,1,8,0:0:0:0:
448,192,264654,1,8,0:0:0:0:
64,192,264693,1,8,0:0:0:0:
192,192,264732,1,8,0:0:0:0:
320,192,264771,1,8,0:0:0:0:
64,192,264810,1,8,0:0:0:0:
448,192,264850,1,0,0:0:0:0:
192,192,264850,1,2,0:0:0:0:
320,192,265162,1,8,1:0:0:0:
448,192,265162,1,0,0:0:0:0:
64,192,265162,1,4,0:0:0:0:
192,192,265162,1,2,0:0:0:0:
64,192,265318,1,0,0:0:0:0:
448,192,265396,1,0,0:0:0:0:
192,192,265475,1,0,0:0:0:0:
320,192,265553,1,0,0:0:0:0:
448,192,265631,1,0,0:0:0:0:
64,192,265631,1,2,0:0:0:0:
192,192,265709,1,0,0:0:0:0:
448,192,265787,1,0,0:0:0:0:
320,192,265787,1,0,0:0:0:0:
64,192,265787,128,8,265943:1:0:0:0:
192,192,265865,1,0,0:0:0:0:
448,192,265943,1,0,0:0:0:0:
320,192,266021,1,0,0:0:0:0:
64,192,266100,128,0,266256:0:0:0:0:
448,192,266178,1,0,0:0:0:0:
320,192,266256,1,0,0:0:0:0:
192,192,266256,1,2,0:0:0:0:
64,192,266334,1,0,0:0:0:0:
448,192,266412,1,0,0:0:0:0:
320,192,266412,1,0,0:0:0:0:
192,192,266412,1,8,1:0:0:0:
64,192,266490,1,0,0:0:0:0:
320,192,266568,1,0,0:0:0:0:
448,192,266646,1,0,0:0:0:0:
192,192,266725,128,0,266881:0:0:0:0:
64,192,266803,1,0,0:0:0:0:
448,192,266881,1,0,0:0:0:0:
320,192,266881,1,2,0:0:0:0:
192,192,266959,1,0,0:0:0:0:
448,192,267037,1,0,0:0:0:0:
320,192,267037,1,0,0:0:0:0:
64,192,267037,1,8,1:0:0:0:
192,192,267115,1,0,0:0:0:0:
448,192,267193,1,0,0:0:0:0:
320,192,267271,1,0,0:0:0:0:
192,192,267350,1,0,0:0:0:0:
64,192,267350,128,2,267818:0:0:0:0:
448,192,267428,1,0,0:0:0:0:
320,192,267506,1,0,0:0:0:0:
192,192,267584,1,0,0:0:0:0:
448,192,267662,1,0,0:0:0:0:
320,192,267662,1,8,1:0:0:0:
192,192,267740,1,0,0:0:0:0:
448,192,267818,128,0,267975:0:0:0:0:
320,192,267896,1,0,0:0:0:0:
64,192,267975,128,0,268600:0:0:0:0:
448,192,268053,1,0,0:0:0:0:
320,192,268131,1,0,0:0:0:0:
192,192,268131,1,2,0:0:0:0:
448,192,268209,1,0,0:0:0:0:
192,192,268287,1,0,0:0:0:0:
320,192,268365,1,0,0:0:0:0:
448,192,268443,1,0,0:0:0:0:
192,192,268443,1,8,1:0:0:0:
320,192,268521,1,0,0:0:0:0:
448,192,268600,128,4,268678:1:0:0:0:
320,192,268678,128,0,268756:0:0:0:0:
192,192,268756,128,0,268834:0:0:0:0:
64,192,268756,1,2,0:0:0:0:
320,192,268834,128,0,268912:0:0:0:0:
448,192,268912,1,0,0:0:0:0:
64,192,268912,128,8,268990:1:0:0:0:
192,192,268990,128,0,269068:0:0:0:0:
320,192,269068,128,0,269146:0:0:0:0:
192,192,269146,128,0,269225:0:0:0:0:
64,192,269225,128,4,269381:1:0:0:0:
448,192,269303,128,0,269459:0:0:0:0:
320,192,269381,128,0,269537:0:0:0:0:
192,192,269381,1,2,0:0:0:0:
64,192,269459,128,0,269615:0:0:0:0:
448,192,269537,1,0,0:0:0:0:
192,192,269537,128,8,269693:1:0:0:0:
320,192,269615,128,2,269771:0:0:0:0:
448,192,269693,128,0,269850:0:0:0:0:
64,192,269693,1,2,0:0:0:0:
192,192,269771,128,2,269928:0:0:0:0:
320,192,269850,1,4,1:0:0:0:
64,192,269850,128,2,270006:0:0:0:0:
448,192,269928,1,0,0:0:0:0:
192,192,270006,1,0,0:0:0:0:
320,192,270084,1,0,0:0:0:0:
448,192,270162,1,0,0:0:0:0:
192,192,270162,1,0,0:0:0:0:
64,192,270162,1,8,1:0:0:0:
320,192,270240,1,0,0:0:0:0:
192,192,270318,1,0,0:0:0:0:
448,192,270396,1,0,0:0:0:0:
320,192,270475,1,0,0:0:0:0:
192,192,270553,1,0,0:0:0:0:
448,192,270631,1,0,0:0:0:0:
64,192,270631,1,2,0:0:0:0:
192,192,270709,1,0,0:0:0:0:
448,192,270787,128,0,270943:0:0:0:0:
320,192,270787,1,0,0:0:0:0:
64,192,270787,1,8,1:0:0:0:
192,192,270865,1,0,0:0:0:0:
320,192,270943,1,0,0:0:0:0:
64,192,271021,1,0,0:0:0:0:
448,192,271100,128,0,271256:0:0:0:0:
192,192,271178,1,0,0:0:0:0:
320,192,271256,1,0,0:0:0:0:
64,192,271256,1,2,0:0:0:0:
192,192,271334,1,0,0:0:0:0:
448,192,271412,1,0,0:0:0:0:
320,192,271412,1,0,0:0:0:0:
64,192,271412,1,8,1:0:0:0:
192,192,271490,1,0,0:0:0:0:
448,192,271568,1,0,0:0:0:0:
320,192,271646,1,0,0:0:0:0:
64,192,271725,128,0,271881:0:0:0:0:
192,192,271803,1,0,0:0:0:0:
448,192,271881,1,0,0:0:0:0:
320,192,271881,1,2,0:0:0:0:
192,192,271959,1,0,0:0:0:0:
448,192,272037,1,0,0:0:0:0:
320,192,272037,1,0,0:0:0:0:
64,192,272037,1,8,1:0:0:0:
192,192,272115,1,0,0:0:0:0:
64,192,272193,1,0,0:0:0:0:
320,192,272271,1,0,0:0:0:0:
448,192,272350,128,0,272662:0:0:0:0:
64,192,272350,1,2,0:0:0:0:
320,192,272428,1,0,0:0:0:0:
192,192,272506,1,0,0:0:0:0:
64,192,272584,1,0,0:0:0:0:
320,192,272662,128,0,272818:0:0:0:0:
192,192,272662,1,8,1:0:0:0:
64,192,272740,1,0,0:0:0:0:
448,192,272818,128,0,272975:0:0:0:0:
320,192,272896,1,0,0:0:0:0:
192,192,272975,128,0,273600:0:0:0:0:
64,192,273053,1,0,0:0:0:0:
448,192,273131,1,0,0:0:0:0:
320,192,273131,1,2,0:0:0:0:
64,192,273209,1,0,0:0:0:0:
320,192,273287,1,4,1:0:0:0:
448,192,273365,1,0,0:0:0:0:
320,192,273443,1,0,0:0:0:0:
64,192,273443,1,8,1:0:0:0:
448,192,273521,1,0,0:0:0:0:
64,192,273600,128,4,273678:1:0:0:0:
192,192,273678,128,0,273756:0:0:0:0:
448,192,273756,1,0,0:0:0:0:
320,192,273756,128,2,273834:0:0:0:0:
192,192,273834,128,0,273912:0:0:0:0:
448,192,273912,1,0,0:0:0:0:
64,192,273912,1,8,1:0:0:0:
320,192,273912,128,0,273990:0:0:0:0:
192,192,273990,128,0,274068:0:0:0:0:
448,192,274068,128,0,274146:0:0:0:0:
320,192,274146,128,0,274225:0:0:0:0:
64,192,274225,128,4,274303:1:0:0:0:
320,192,274303,128,0,274381:0:0:0:0:
192,192,274381,128,0,274459:0:0:0:0:
64,192,274381,1,2,0:0:0:0:
320,192,274459,128,0,274537:0:0:0:0:
64,192,274537,128,8,274615:1:0:0:0:
448,192,274537,1,0,0:0:0:0:
192,192,274537,128,0,274615:0:0:0:0:
320,192,274615,128,2,274693:0:0:0:0:
192,192,274693,128,0,274771:0:0:0:0:
64,192,274693,128,2,274771:0:0:0:0:
320,192,274771,128,2,274850:0:0:0:0:
192,192,274850,1,0,0:0:0:0:
64,192,274850,128,2,275006:0:0:0:0:
448,192,275006,1,0,0:0:0:0:
320,192,275162,1,0,0:0:0:0:
192,192,275162,1,0,0:0:0:0:
64,192,275162,1,8,1:0:0:0:
448,192,275318,1,0,0:0:0:0:
64,192,275396,1,0,0:0:0:0:
320,192,275475,1,0,0:0:0:0:
192,192,275553,1,0,0:0:0:0:
448,192,275631,1,0,0:0:0:0:
64,192,275631,1,2,0:0:0:0:
320,192,275709,1,0,0:0:0:0:
448,192,275787,1,0,0:0:0:0:
192,192,275787,1,0,0:0:0:0:
64,192,275787,128,8,275943:1:0:0:0:
320,192,275865,1,0,0:0:0:0:
448,192,275943,1,0,0:0:0:0:
192,192,276021,1,0,0:0:0:0:
320,192,276100,128,0,276256:0:0:0:0:
64,192,276178,1,0,0:0:0:0:
448,192,276256,1,0,0:0:0:0:
192,192,276256,1,2,0:0:0:0:
320,192,276334,1,0,0:0:0:0:
448,192,276412,1,0,0:0:0:0:
192,192,276412,1,0,0:0:0:0:
64,192,276412,1,8,1:0:0:0:
320,192,276490,1,0,0:0:0:0:
448,192,276568,1,0,0:0:0:0:
64,192,276646,1,0,0:0:0:0:
320,192,276725,128,0,276881:0:0:0:0:
192,192,276803,1,0,0:0:0:0:
448,192,276881,1,0,0:0:0:0:
64,192,276881,1,2,0:0:0:0:
192,192,276959,1,0,0:0:0:0:
448,192,277037,1,0,0:0:0:0:
320,192,277037,1,0,0:0:0:0:
64,192,277037,1,8,1:0:0:0:
192,192,277115,1,0,0:0:0:0:
64,192,277193,1,0,0:0:0:0:
320,192,277271,1,0,0:0:0:0:
448,192,277350,128,0,277818:0:0:0:0:
192,192,277350,1,2,0:0:0:0:
64,192,277428,1,0,0:0:0:0:
320,192,277506,1,0,0:0:0:0:
192,192,277584,1,0,0:0:0:0:
320,192,277662,1,0,0:0:0:0:
64,192,277662,1,8,1:0:0:0:
192,192,277740,1,0,0:0:0:0:
64,192,277818,128,0,277975:0:0:0:0:
320,192,277896,1,0,0:0:0:0:
448,192,277975,128,0,278443:0:0:0:0:
320,192,278053,1,0,0:0:0:0:
192,192,278131,1,0,0:0:0:0:
64,192,278131,1,2,0:0:0:0:
320,192,278209,1,0,0:0:0:0:
192,192,278287,1,4,1:0:0:0:
64,192,278365,1,0,0:0:0:0:
320,192,278443,1,0,0:0:0:0:
192,192,278443,1,8,1:0:0:0:
64,192,278521,1,0,0:0:0:0:
448,192,278600,128,4,278678:1:0:0:0:
320,192,278678,128,0,278756:0:0:0:0:
192,192,278756,128,0,278834:0:0:0:0:
64,192,278756,1,2,0:0:0:0:
320,192,278834,128,0,278912:0:0:0:0:
448,192,278912,128,0,278990:0:0:0:0:
64,192,278912,1,8,1:0:0:0:
192,192,278990,128,0,279068:0:0:0:0:
320,192,279068,128,0,279146:0:0:0:0:
192,192,279146,128,0,279225:0:0:0:0:
448,192,279225,128,4,279381:1:0:0:0:
64,192,279303,128,0,279459:0:0:0:0:
320,192,279381,1,0,0:0:0:0:
192,192,279381,128,2,279537:0:0:0:0:
448,192,279459,128,0,279615:0:0:0:0:
320,192,279537,128,0,279693:0:0:0:0:
64,192,279537,1,8,1:0:0:0:
192,192,279615,128,2,279771:0:0:0:0:
448,192,279693,1,0,0:0:0:0:
64,192,279693,128,2,279850:0:0:0:0:
320,192,279771,128,2,279928:0:0:0:0:
192,192,279850,1,2,0:0:0:0:
448,192,279850,128,4,280006:1:0:0:0:
64,192,279928,1,0,0:0:0:0:
320,192,280006,1,0,0:0:0:0:
192,192,280084,1,0,0:0:0:0:
448,192,280162,1,0,0:0:0:0:
64,192,280162,1,8,1:0:0:0:
320,192,280162,128,0,280240:0:0:0:0:
192,192,280240,1,0,0:0:0:0:
320,192,280318,128,0,280475:0:0:0:0:
64,192,280396,1,0,0:0:0:0:
192,192,280475,1,0,0:0:0:0:
320,192,280553,1,0,0:0:0:0:
448,192,280631,1,0,0:0:0:0:
64,192,280631,1,2,0:0:0:0:
320,192,280709,1,0,0:0:0:0:
448,192,280787,1,0,0:0:0:0:
192,192,280787,1,0,0:0:0:0:
64,192,280787,128,8,281100:1:0:0:0:
320,192,280865,1,0,0:0:0:0:
192,192,280943,1,0,0:0:0:0:
448,192,281021,1,0,0:0:0:0:
320,192,281100,128,0,281256:0:0:0:0:
64,192,281178,1,0,0:0:0:0:
448,192,281256,1,0,0:0:0:0:
192,192,281256,1,2,0:0:0:0:
320,192,281334,1,0,0:0:0:0:
448,192,281412,1,0,0:0:0:0:
192,192,281412,1,0,0:0:0:0:
64,192,281412,1,8,1:0:0:0:
320,192,281490,1,0,0:0:0:0:
192,192,281568,1,0,0:0:0:0:
64,192,281646,1,0,0:0:0:0:
448,192,281725,128,0,281881:0:0:0:0:
320,192,281803,1,0,0:0:0:0:
192,192,281881,1,0,0:0:0:0:
64,192,281881,1,2,0:0:0:0:
320,192,281959,1,0,0:0:0:0:
448,192,282037,1,0,0:0:0:0:
192,192,282037,1,0,0:0:0:0:
64,192,282037,1,8,1:0:0:0:
320,192,282115,1,0,0:0:0:0:
64,192,282193,1,2,0:0:0:0:
192,192,282193,1,0,0:0:0:0:
448,192,282271,1,0,0:0:0:0:
320,192,282350,1,0,0:0:0:0:
64,192,282350,128,2,282818:0:0:0:0:
448,192,282506,1,0,0:0:0:0:
320,192,282584,1,0,0:0:0:0:
448,192,282662,1,0,0:0:0:0:
192,192,282662,1,8,1:0:0:0:
320,192,282818,128,0,282975:0:0:0:0:
448,192,282896,1,0,0:0:0:0:
192,192,282975,128,0,283600:0:0:0:0:
320,192,283053,1,0,0:0:0:0:
448,192,283131,1,0,0:0:0:0:
64,192,283131,1,2,0:0:0:0:
448,192,283287,1,0,0:0:0:0:
320,192,283365,1,0,0:0:0:0:
448,192,283443,1,0,0:0:0:0:
64,192,283443,1,8,1:0:0:0:
448,192,283756,1,2,0:0:0:0:
448,192,283834,1,2,0:0:0:0:
320,192,283912,1,0,0:0:0:0:
192,192,283912,1,0,0:0:0:0:
64,192,283912,1,8,1:0:0:0:
192,192,284068,1,2,0:0:0:0:
64,192,284107,1,2,0:0:0:0:
448,192,284146,1,2,0:0:0:0:
320,192,284185,1,2,0:0:0:0:
192,192,284225,1,0,0:0:0:0:
64,192,284225,1,8,1:0:0:0:
448,192,284303,1,0,0:0:0:0:
320,192,284381,1,0,0:0:0:0:
192,192,284381,1,2,0:0:0:0:
448,192,284459,1,0,0:0:0:0:
64,192,284459,1,8,1:0:0:0:
192,192,284537,1,0,0:0:0:0:
448,192,284615,1,0,0:0:0:0:
320,192,284615,1,2,0:0:0:0:
192,192,284693,1,0,0:0:0:0:
64,192,284693,1,8,1:0:0:0:
320,192,284850,1,2,0:0:0:0:
448,192,284850,1,0,0:0:0:0:
64,192,284850,1,4,0:0:0:0:
192,192,284850,1,4,0:0:0:0:
448,192,285006,1,0,0:0:0:0:
320,192,285006,1,0,0:0:0:0:
64,192,285084,1,0,0:0:0:0:
448,192,285162,1,0,0:0:0:0:
320,192,285162,1,0,0:0:0:0:
192,192,285162,1,8,1:0:0:0:
64,192,285240,1,0,0:0:0:0:
320,192,285318,1,0,0:0:0:0:
192,192,285318,1,0,0:0:0:0:
448,192,285396,1,0,0:0:0:0:
192,192,285475,1,0,0:0:0:0:
64,192,285475,1,0,0:0:0:0:
448,192,285553,1,0,0:0:0:0:
320,192,285631,1,0,0:0:0:0:
192,192,285631,1,2,0:0:0:0:
64,192,285709,1,0,0:0:0:0:
448,192,285787,1,0,0:0:0:0:
320,192,285787,1,0,0:0:0:0:
192,192,285787,1,8,1:0:0:0:
64,192,285865,1,0,0:0:0:0:
448,192,285943,1,0,0:0:0:0:
320,192,285943,1,0,0:0:0:0:
192,192,286021,1,0,0:0:0:0:
320,192,286100,1,0,0:0:0:0:
64,192,286100,1,0,0:0:0:0:
448,192,286178,1,0,0:0:0:0:
192,192,286256,1,0,0:0:0:0:
64,192,286256,1,2,0:0:0:0:
320,192,286334,1,0,0:0:0:0:
448,192,286412,1,0,0:0:0:0:
192,192,286412,1,0,0:0:0:0:
64,192,286412,1,8,1:0:0:0:
320,192,286490,1,0,0:0:0:0:
448,192,286568,1,0,0:0:0:0:
64,192,286568,1,0,0:0:0:0:
192,192,286646,1,0,0:0:0:0:
448,192,286725,1,0,0:0:0:0:
320,192,286725,1,0,0:0:0:0:
192,192,286803,1,0,0:0:0:0:
448,192,286881,1,0,0:0:0:0:
64,192,286881,1,2,0:0:0:0:
320,192,286959,1,0,0:0:0:0:
448,192,287037,1,0,0:0:0:0:
192,192,287037,1,0,0:0:0:0:
64,192,287037,1,8,1:0:0:0:
320,192,287115,1,0,0:0:0:0:
192,192,287193,1,0,0:0:0:0:
64,192,287193,1,0,0:0:0:0:
320,192,287271,1,0,0:0:0:0:
448,192,287271,1,0,0:0:0:0:
192,192,287350,1,0,0:0:0:0:
64,192,287350,1,2,0:0:0:0:
448,192,287428,1,0,0:0:0:0:
192,192,287506,1,0,0:0:0:0:
320,192,287506,1,0,0:0:0:0:
64,192,287584,1,0,0:0:0:0:
448,192,287662,1,0,0:0:0:0:
320,192,287662,1,0,0:0:0:0:
192,192,287662,1,8,1:0:0:0:
64,192,287740,1,0,0:0:0:0:
448,192,287818,1,0,0:0:0:0:
192,192,287818,1,0,0:0:0:0:
320,192,287896,1,0,0:0:0:0:
448,192,287975,1,0,0:0:0:0:
64,192,287975,1,0,0:0:0:0:
192,192,288053,1,0,0:0:0:0:
448,192,288131,1,0,0:0:0:0:
320,192,288131,1,2,0:0:0:0:
64,192,288209,1,0,0:0:0:0:
320,192,288287,1,0,0:0:0:0:
192,192,288287,1,0,0:0:0:0:
448,192,288365,1,0,0:0:0:0:
192,192,288443,1,0,0:0:0:0:
64,192,288443,1,8,1:0:0:0:
320,192,288443,128,0,288521:0:0:0:0:
448,192,288521,128,0,288600:0:0:0:0:
64,192,288600,1,4,1:0:0:0:
320,192,288600,128,0,288678:0:0:0:0:
192,192,288678,1,0,0:0:0:0:
448,192,288756,1,0,0:0:0:0:
64,192,288756,1,2,0:0:0:0:
320,192,288834,1,0,0:0:0:0:
448,192,288912,1,0,0:0:0:0:
64,192,288912,1,8,1:0:0:0:
192,192,288912,1,0,0:0:0:0:
320,192,288990,1,0,0:0:0:0:
64,192,289068,1,0,0:0:0:0:
192,192,289068,128,0,289146:0:0:0:0:
320,192,289146,128,0,289225:0:0:0:0:
448,192,289225,128,0,289303:0:0:0:0:
192,192,289225,1,4,1:0:0:0:
64,192,289303,128,0,289381:0:0:0:0:
448,192,289381,1,2,0:0:0:0:
320,192,289381,128,0,289459:0:0:0:0:
192,192,289459,128,0,289537:0:0:0:0:
320,192,289537,1,0,0:0:0:0:
448,192,289537,128,8,289615:1:0:0:0:
192,192,289615,1,0,0:0:0:0:
64,192,289615,128,2,289693:0:0:0:0:
448,192,289693,1,0,0:0:0:0:
320,192,289693,128,2,289771:0:0:0:0:
64,192,289771,1,0,0:0:0:0:
192,192,289771,128,2,289850:0:0:0:0:
448,192,289850,1,2,0:0:0:0:
320,192,289850,1,4,1:0:0:0:
192,192,289928,1,0,0:0:0:0:
320,192,290006,1,0,0:0:0:0:
64,192,290006,1,0,0:0:0:0:
448,192,290084,1,0,0:0:0:0:
320,192,290162,1,0,0:0:0:0:
192,192,290162,1,0,0:0:0:0:
64,192,290162,1,8,1:0:0:0:
448,192,290240,1,0,0:0:0:0:
192,192,290318,1,0,0:0:0:0:
64,192,290318,1,0,0:0:0:0:
320,192,290396,1,0,0:0:0:0:
448,192,290475,1,0,0:0:0:0:
64,192,290475,1,0,0:0:0:0:
320,192,290553,1,0,0:0:0:0:
192,192,290631,1,0,0:0:0:0:
64,192,290631,1,2,0:0:0:0:
448,192,290709,1,0,0:0:0:0:
320,192,290787,1,0,0:0:0:0:
192,192,290787,1,0,0:0:0:0:
64,192,290787,1,8,1:0:0:0:
448,192,290865,1,0,0:0:0:0:
320,192,290943,1,0,0:0:0:0:
192,192,290943,1,0,0:0:0:0:
64,192,291021,1,0,0:0:0:0:
448,192,291100,1,0,0:0:0:0:
320,192,291100,1,0,0:0:0:0:
64,192,291178,1,0,0:0:0:0:
320,192,291256,1,0,0:0:0:0:
192,192,291256,1,2,0:0:0:0:
448,192,291334,1,0,0:0:0:0:
320,192,291412,1,0,0:0:0:0:
192,192,291412,1,0,0:0:0:0:
64,192,291412,1,8,1:0:0:0:
448,192,291490,1,0,0:0:0:0:
192,192,291568,1,0,0:0:0:0:
64,192,291568,1,0,0:0:0:0:
320,192,291646,1,0,0:0:0:0:
448,192,291725,1,0,0:0:0:0:
64,192,291725,1,0,0:0:0:0:
192,192,291803,1,0,0:0:0:0:
320,192,291881,1,0,0:0:0:0:
448,192,291881,1,2,0:0:0:0:
192,192,291959,1,0,0:0:0:0:
64,192,292037,1,0,0:0:0:0:
320,192,292037,1,0,0:0:0:0:
448,192,292037,1,8,1:0:0:0:
192,192,292115,1,0,0:0:0:0:
320,192,292193,1,0,0:0:0:0:
448,192,292193,1,0,0:0:0:0:
64,192,292271,1,0,0:0:0:0:
192,192,292271,1,0,0:0:0:0:
448,192,292350,1,0,0:0:0:0:
320,192,292350,1,2,0:0:0:0:
64,192,292428,1,0,0:0:0:0:
192,192,292506,1,0,0:0:0:0:
320,192,292506,1,0,0:0:0:0:
64,192,292584,1,0,0:0:0:0:
448,192,292662,1,0,0:0:0:0:
320,192,292662,1,0,0:0:0:0:
192,192,292662,1,8,1:0:0:0:
64,192,292740,1,0,0:0:0:0:
448,192,292818,1,0,0:0:0:0:
320,192,292818,1,0,0:0:0:0:
64,192,292896,1,0,0:0:0:0:
448,192,292975,1,0,0:0:0:0:
192,192,292975,1,0,0:0:0:0:
320,192,293053,1,0,0:0:0:0:
192,192,293131,1,0,0:0:0:0:
64,192,293131,1,2,0:0:0:0:
448,192,293209,1,0,0:0:0:0:
320,192,293287,1,0,0:0:0:0:
192,192,293287,1,4,1:0:0:0:
64,192,293365,1,0,0:0:0:0:
448,192,293443,1,0,0:0:0:0:
320,192,293443,1,0,0:0:0:0:
192,192,293443,1,8,1:0:0:0:
64,192,293521,1,0,0:0:0:0:
448,192,293600,1,0,0:0:0:0:
320,192,293600,1,4,1:0:0:0:
192,192,293678,1,0,0:0:0:0:
448,192,293756,1,0,0:0:0:0:
64,192,293756,128,2,293834:0:0:0:0:
320,192,293834,1,0,0:0:0:0:
448,192,293912,1,0,0:0:0:0:
192,192,293912,1,0,0:0:0:0:
64,192,293912,1,8,1:0:0:0:
320,192,293990,1,0,0:0:0:0:
64,192,294068,1,0,0:0:0:0:
192,192,294068,128,0,294146:0:0:0:0:
448,192,294146,1,0,0:0:0:0:
320,192,294225,1,0,0:0:0:0:
192,192,294225,1,4,1:0:0:0:
64,192,294303,1,0,0:0:0:0:
448,192,294381,1,0,0:0:0:0:
320,192,294381,128,2,294459:0:0:0:0:
192,192,294459,1,0,0:0:0:0:
448,192,294537,1,0,0:0:0:0:
320,192,294537,128,8,294615:1:0:0:0:
192,192,294615,1,0,0:0:0:0:
64,192,294615,128,2,294693:0:0:0:0:
320,192,294693,1,2,0:0:0:0:
448,192,294693,128,0,294771:0:0:0:0:
64,192,294771,1,2,0:0:0:0:
192,192,294771,128,0,294850:0:0:0:0:
448,192,294850,1,0,0:0:0:0:
320,192,294850,1,2,0:0:0:0:
64,192,294928,1,0,0:0:0:0:
320,192,295006,1,0,0:0:0:0:
192,192,295006,1,0,0:0:0:0:
448,192,295084,1,0,0:0:0:0:
320,192,295162,1,0,0:0:0:0:
192,192,295162,1,0,0:0:0:0:
64,192,295162,1,8,1:0:0:0:
448,192,295240,1,0,0:0:0:0:
192,192,295318,1,0,0:0:0:0:
64,192,295318,1,0,0:0:0:0:
320,192,295396,1,0,0:0:0:0:
448,192,295475,1,0,0:0:0:0:
64,192,295475,1,0,0:0:0:0:
320,192,295553,1,0,0:0:0:0:
192,192,295631,1,0,0:0:0:0:
64,192,295631,1,2,0:0:0:0:
448,192,295709,1,0,0:0:0:0:
320,192,295787,1,0,0:0:0:0:
192,192,295787,1,0,0:0:0:0:
64,192,295787,1,8,1:0:0:0:
448,192,295865,1,0,0:0:0:0:
320,192,295943,1,0,0:0:0:0:
192,192,295943,1,0,0:0:0:0:
64,192,296021,1,0,0:0:0:0:
448,192,296100,1,0,0:0:0:0:
192,192,296100,1,0,0:0:0:0:
320,192,296178,1,0,0:0:0:0:
448,192,296256,1,0,0:0:0:0:
64,192,296256,1,2,0:0:0:0:
192,192,296334,1,0,0:0:0:0:
448,192,296412,1,0,0:0:0:0:
320,192,296412,1,0,0:0:0:0:
64,192,296412,1,8,1:0:0:0:
192,192,296490,1,0,0:0:0:0:
448,192,296568,1,0,0:0:0:0:
320,192,296568,1,0,0:0:0:0:
64,192,296646,1,0,0:0:0:0:
320,192,296725,1,0,0:0:0:0:
192,192,296725,1,0,0:0:0:0:
64,192,296803,1,0,0:0:0:0:
448,192,296881,1,0,0:0:0:0:
320,192,296881,1,2,0:0:0:0:
192,192,296959,1,0,0:0:0:0:
448,192,297037,1,0,0:0:0:0:
320,192,297037,1,0,0:0:0:0:
64,192,297037,1,8,1:0:0:0:
192,192,297115,1,0,0:0:0:0:
448,192,297193,1,0,0:0:0:0:
64,192,297193,1,0,0:0:0:0:
320,192,297271,1,0,0:0:0:0:
192,192,297271,1,0,0:0:0:0:
64,192,297350,1,2,0:0:0:0:
448,192,297350,1,0,0:0:0:0:
320,192,297428,1,0,0:0:0:0:
64,192,297506,1,0,0:0:0:0:
192,192,297506,1,0,0:0:0:0:
320,192,297584,1,0,0:0:0:0:
448,192,297662,1,0,0:0:0:0:
192,192,297662,1,0,0:0:0:0:
64,192,297662,1,8,1:0:0:0:
320,192,297740,1,0,0:0:0:0:
448,192,297818,1,0,0:0:0:0:
64,192,297818,1,0,0:0:0:0:
192,192,297896,1,0,0:0:0:0:
320,192,297975,1,0,0:0:0:0:
64,192,297975,1,0,0:0:0:0:
192,192,298053,1,0,0:0:0:0:
448,192,298131,1,0,0:0:0:0:
320,192,298131,1,2,0:0:0:0:
64,192,298209,1,0,0:0:0:0:
320,192,298287,1,0,0:0:0:0:
192,192,298287,1,4,1:0:0:0:
448,192,298365,1,0,0:0:0:0:
320,192,298443,1,0,0:0:0:0:
192,192,298443,1,0,0:0:0:0:
64,192,298443,128,8,298521:1:0:0:0:
448,192,298521,128,0,298600:0:0:0:0:
192,192,298600,1,0,0:0:0:0:
64,192,298600,128,4,298678:1:0:0:0:
320,192,298678,1,0,0:0:0:0:
448,192,298756,1,0,0:0:0:0:
192,192,298756,1,2,0:0:0:0:
64,192,298834,1,0,0:0:0:0:
448,192,298912,1,0,0:0:0:0:
320,192,298912,1,0,0:0:0:0:
192,192,298912,1,8,1:0:0:0:
64,192,298990,1,0,0:0:0:0:
448,192,299068,1,0,0:0:0:0:
320,192,299068,128,0,299146:0:0:0:0:
192,192,299146,128,0,299225:0:0:0:0:
64,192,299225,1,4,1:0:0:0:
448,192,299225,128,0,299303:0:0:0:0:
320,192,299303,128,0,299381:0:0:0:0:
448,192,299381,1,0,0:0:0:0:
192,192,299381,128,2,299459:0:0:0:0:
64,192,299459,128,0,299537:0:0:0:0:
448,192,299537,1,0,0:0:0:0:
320,192,299537,128,8,299615:1:0:0:0:
64,192,299615,1,0,0:0:0:0:
192,192,299615,128,2,299693:0:0:0:0:
448,192,299693,1,2,0:0:0:0:
320,192,299693,128,0,299771:0:0:0:0:
64,192,299771,1,0,0:0:0:0:
192,192,299771,128,2,299850:0:0:0:0:
320,192,299850,1,2,0:0:0:0:
448,192,299850,1,4,1:0:0:0:
192,192,300006,1,0,0:0:0:0:
64,192,300006,128,0,300084:0:0:0:0:
320,192,300084,1,0,0:0:0:0:
448,192,300162,1,0,0:0:0:0:
192,192,300162,1,0,0:0:0:0:
64,192,300162,128,8,300240:1:0:0:0:
320,192,300240,1,0,0:0:0:0:
448,192,300318,1,0,0:0:0:0:
64,192,300318,128,0,300396:0:0:0:0:
192,192,300396,128,0,300475:0:0:0:0:
448,192,300475,1,0,0:0:0:0:
320,192,300475,128,0,300553:0:0:0:0:
192,192,300553,128,0,300631:0:0:0:0:
448,192,300631,1,0,0:0:0:0:
64,192,300631,128,2,300709:0:0:0:0:
320,192,300709,128,0,300787:0:0:0:0:
448,192,300787,128,0,300865:0:0:0:0:
192,192,300787,1,0,0:0:0:0:
64,192,300787,1,8,1:0:0:0:
320,192,300865,128,0,300943:0:0:0:0:
192,192,300943,128,0,301021:0:0:0:0:
64,192,300943,1,2,0:0:0:0:
448,192,301021,1,0,0:0:0:0:
192,192,301100,1,0,0:0:0:0:
320,192,301100,1,0,0:0:0:0:
64,192,301178,1,0,0:0:0:0:
448,192,301256,1,0,0:0:0:0:
320,192,301256,128,2,301334:0:0:0:0:
192,192,301334,1,0,0:0:0:0:
448,192,301412,1,0,0:0:0:0:
320,192,301412,128,0,301490:0:0:0:0:
64,192,301412,1,8,1:0:0:0:
192,192,301490,1,0,0:0:0:0:
64,192,301568,128,0,301646:0:0:0:0:
448,192,301568,1,0,0:0:0:0:
320,192,301646,1,0,0:0:0:0:
448,192,301725,128,0,301803:0:0:0:0:
64,192,301725,1,0,0:0:0:0:
320,192,301803,128,0,301881:0:0:0:0:
192,192,301881,128,0,301959:0:0:0:0:
64,192,301881,1,2,0:0:0:0:
320,192,301959,128,0,302037:0:0:0:0:
448,192,302037,1,0,0:0:0:0:
192,192,302037,128,0,302115:0:0:0:0:
64,192,302037,1,8,1:0:0:0:
320,192,302115,128,0,302193:0:0:0:0:
448,192,302193,1,0,0:0:0:0:
192,192,302193,128,2,302271:0:0:0:0:
64,192,302271,128,0,302350:0:0:0:0:
320,192,302350,1,2,0:0:0:0:
448,192,302350,1,0,0:0:0:0:
192,192,302428,1,0,0:0:0:0:
448,192,302506,1,0,0:0:0:0:
64,192,302506,128,0,302584:0:0:0:0:
320,192,302584,1,0,0:0:0:0:
448,192,302662,1,0,0:0:0:0:
192,192,302662,1,0,0:0:0:0:
64,192,302662,128,8,302740:1:0:0:0:
320,192,302740,1,0,0:0:0:0:
64,192,302818,128,0,302896:0:0:0:0:
192,192,302818,1,0,0:0:0:0:
320,192,302896,1,0,0:0:0:0:
448,192,302975,1,0,0:0:0:0:
64,192,302975,128,0,303053:0:0:0:0:
192,192,303053,128,0,303131:0:0:0:0:
448,192,303131,1,0,0:0:0:0:
320,192,303131,128,2,303209:0:0:0:0:
192,192,303209,128,0,303287:0:0:0:0:
448,192,303287,1,0,0:0:0:0:
64,192,303287,128,0,303365:0:0:0:0:
320,192,303365,128,0,303443:0:0:0:0:
448,192,303443,128,0,303521:0:0:0:0:
192,192,303443,1,0,0:0:0:0:
64,192,303443,1,8,1:0:0:0:
320,192,303521,128,0,303600:0:0:0:0:
192,192,303600,128,0,303678:0:0:0:0:
64,192,303600,1,0,0:0:0:0:
448,192,303678,128,0,303756:0:0:0:0:
192,192,303756,1,0,0:0:0:0:
64,192,303756,128,2,303834:0:0:0:0:
448,192,303834,1,0,0:0:0:0:
320,192,303834,128,2,303912:0:0:0:0:
64,192,303912,1,8,1:0:0:0:
192,192,303912,1,0,0:0:0:0:
320,192,303990,1,0,0:0:0:0:
448,192,304068,128,2,304146:0:0:0:0:
64,192,304107,1,2,0:0:0:0:
192,192,304146,1,2,0:0:0:0:
320,192,304185,1,2,0:0:0:0:
448,192,304225,128,0,304381:0:0:0:0:
192,192,304225,1,0,0:0:0:0:
64,192,304225,1,8,1:0:0:0:
320,192,304303,128,0,304381:0:0:0:0:
192,192,304381,128,2,304459:0:0:0:0:
448,192,304459,1,0,0:0:0:0:
320,192,304459,1,0,0:0:0:0:
64,192,304459,128,8,304615:1:0:0:0:
192,192,304537,128,0,304615:0:0:0:0:
320,192,304615,128,2,304693:0:0:0:0:
448,192,304693,128,0,304771:0:0:0:0:
192,192,304693,1,0,0:0:0:0:
64,192,304693,1,8,1:0:0:0:
320,192,304771,128,2,304850:0:0:0:0:
448,192,304850,1,0,0:0:0:70:B_F#5B.wav
192,192,304850,128,6,306100:0:0:0:0:
64,192,304850,128,4,307350:1:0:0:0:
448,192,306100,128,0,306725:0:0:0:70:B_G5B.wav
320,192,306725,128,0,308600:0:0:0:70:B_F#5B.wav
192,192,307350,128,0,309850:0:0:0:70:B_E5B.wav
448,192,308600,128,0,309850:0:0:0:70:B_B5B.wav
320,192,308756,1,0,0:0:0:0:
64,192,308912,1,0,0:0:0:0:
320,192,309068,1,0,0:0:0:0:
64,192,309225,1,0,0:0:0:0:
320,192,309537,1,0,0:0:0:0:
64,192,309693,1,0,0:0:0:0:
192,192,310475,128,0,311725:0:0:0:70:B_A5B.wav
448,192,311100,128,0,312350:0:0:0:70:B_D6B.wav
64,192,311725,128,0,313521:0:0:0:70:B_G5B.wav
192,192,312350,128,0,313443:0:0:0:70:B_F#5B.wav
448,192,312506,1,0,0:0:0:0:
320,192,312662,1,0,0:0:0:0:
448,192,312818,1,0,0:0:0:0:
320,192,313131,1,0,0:0:0:0:
448,192,313443,128,0,313600:0:0:0:70:B_G5B.wav
320,192,313521,128,0,314225:0:0:0:70:B_F#5B.wav
192,192,313600,128,0,314615:0:0:0:70:B_E5B.wav
448,192,313756,1,0,0:0:0:0:
64,192,313912,1,0,0:0:0:0:
448,192,314068,1,0,0:0:0:0:
64,192,314225,128,0,314537:0:0:0:70:B_A4.wav
448,192,314381,1,0,0:0:0:0:
320,192,314537,128,0,314693:0:0:0:70:B_A4.wav
448,192,314615,128,0,314771:0:0:0:70:B_B4B.wav
64,192,314693,128,0,314850:0:0:0:70:B_D5B.wav
192,192,314771,128,0,316725:0:0:0:70:B_E5B.wav
320,192,314850,128,0,316100:0:0:0:70:B_F#5B.wav
448,192,316100,128,0,317271:0:0:0:70:B_G5B.wav
64,192,316725,128,0,317193:0:0:0:70:B_F#5B.wav
320,192,317193,128,0,317350:0:0:0:70:B_G5B.wav
192,192,317271,128,0,318600:0:0:0:70:B_F#5B.wav
64,192,317350,128,0,319850:0:0:0:70:B_E5B.wav
448,192,317506,1,0,0:0:0:0:
320,192,317662,1,0,0:0:0:0:
448,192,317818,1,0,0:0:0:0:
320,192,318131,1,0,0:0:0:0:
448,192,318287,1,0,0:0:0:0:
320,192,318443,1,0,0:0:0:0:
448,192,318600,128,0,319850:0:0:0:70:B_B5B.wav
320,192,318756,1,0,0:0:0:0:
192,192,318912,1,0,0:0:0:0:
192,192,319068,1,0,0:0:0:0:
320,192,319225,1,0,0:0:0:0:
320,192,319537,1,0,0:0:0:0:
192,192,319693,1,0,0:0:0:0:
192,192,320475,1,0,0:0:0:0:
64,192,320475,128,0,321725:0:0:0:70:B_E5B.wav
320,192,321100,128,0,322350:0:0:0:0:
192,192,321100,1,0,0:0:0:70:B_G5B.wav
448,192,321725,128,0,322350:0:0:0:0:
192,192,321725,1,0,0:0:0:70:B_A5B.wav
192,192,322350,128,0,323756:0:0:0:0:
64,192,322350,128,0,324381:0:0:0:70:B_G5B.wav
448,192,322506,1,0,0:0:0:0:
320,192,322662,1,0,0:0:0:0:
448,192,322818,1,0,0:0:0:0:
320,192,323131,1,0,0:0:0:0:
448,192,323287,1,0,0:0:0:0:
320,192,323443,1,0,0:0:0:0:
448,192,323600,128,0,324146:0:0:0:0:
320,192,323600,128,0,324068:0:0:0:70:B_D6B.wav
192,192,323834,128,0,323990:0:0:0:0:
192,192,324068,128,0,324303:0:0:0:0:
320,192,324146,128,0,324225:0:0:0:0:
448,192,324225,128,0,324459:0:0:0:0:
320,192,324303,128,0,324537:0:0:0:0:
192,192,324381,128,0,324615:0:0:0:0:
64,192,324459,128,0,324693:0:0:0:0:
448,192,324537,128,0,324771:0:0:0:0:
320,192,324615,128,0,326725:0:0:0:0:
192,192,324693,128,0,326100:0:0:0:0:
64,192,324771,128,0,325475:0:0:0:0:
448,192,324850,128,4,327350:1:0:0:0:
