osu file format v14

[General]
AudioFilename: audio.mp3
AudioLeadIn: 0
PreviewTime: 223191
Countdown: 0
SampleSet: Soft
StackLeniency: 0.7
Mode: 2
LetterboxInBreaks: 0
WidescreenStoryboard: 0

[Editor]
DistanceSpacing: 0.5
BeatDivisor: 8
GridSize: 4
TimelineZoom: 3.599999

[Metadata]
Title:Petals
TitleUnicode:Petals
Artist:Nanahira
ArtistUnicode:ななひら
Creator:-Hex-
Version:Hanabira
Source:
Tags:secretale confetto cametek camellia かめりあ japanese electronic toybot vikala
BeatmapID:2430028
BeatmapSetID:1165090

[Difficulty]
HPDrainRate:5
CircleSize:4
OverallDifficulty:9.5
ApproachRate:9.5
SliderMultiplier:1.9
SliderTickRate:2

[Events]
//Background and Video events
0,0,"bg.jpg",0,0
//Break Periods
2,182855,187130
2,220355,222755
//Storyboard Layer 0 (Background)
//Storyboard Layer 1 (Fail)
//Storyboard Layer 2 (Pass)
//Storyboard Layer 3 (Foreground)
//Storyboard Layer 4 (Overlay)
//Storyboard Sound Samples

[TimingPoints]
155,312.5,4,2,1,40,1,0
155,-100,4,2,1,40,0,0
10155,-125,4,2,1,50,0,0
10233,-125,4,2,1,40,0,0
13905,-125,4,2,1,40,0,0
15155,-125,4,2,1,20,0,0
15780,-125,4,2,1,40,0,0
16326,-125,4,2,1,5,0,0
16405,-125,4,2,1,40,0,0
16951,-125,4,2,1,5,0,0
17030,-125,4,2,1,40,0,0
17576,-125,4,2,1,5,0,0
17655,-125,4,2,1,40,0,0
18905,-125,4,2,1,40,0,0
19530,-125,4,2,1,30,0,0
19920,-125,4,2,1,40,0,0
20155,-125,4,2,1,40,0,0
21405,-125,4,2,1,40,0,0
22030,-125,4,2,1,40,0,0
23905,-125,4,2,1,40,0,0
26326,-125,4,2,1,5,0,0
26405,-125,4,2,1,40,0,0
26951,-125,4,2,1,5,0,0
27030,-125,4,2,1,40,0,0
27576,-125,4,2,1,5,0,0
27655,-125,4,2,1,40,0,0
28905,-125,4,2,1,40,0,0
29842,-125,4,2,1,50,0,0
30076,-125,4,2,1,5,0,0
30155,-111.111111111111,4,2,1,35,0,0
38905,-111.111111111111,4,2,1,40,0,0
40155,-111.111111111111,4,2,1,35,0,0
49530,-111.111111111111,4,2,1,40,0,0
49842,-111.111111111111,4,2,1,40,0,0
50155,-111.111111111111,4,2,5,40,0,0
50233,-111.111111111111,4,2,1,40,0,0
54530,-111.111111111111,4,2,5,40,0,0
54608,-111.111111111111,4,2,1,40,0,0
58436,-111.111111111111,4,2,1,5,0,0
58592,-111.111111111111,4,2,1,40,0,0
58905,-111.111111111111,4,2,1,40,0,0
59530,-111.111111111111,4,2,5,40,0,0
59608,-111.111111111111,4,2,1,40,0,0
64530,-111.111111111111,4,2,5,40,0,0
64608,-111.111111111111,4,2,1,40,0,0
68123,-111.111111111111,4,2,1,40,0,0
69530,-111.111111111111,4,2,5,40,0,0
69608,-111.111111111111,4,2,1,40,0,0
70936,-111.111111111111,4,2,1,40,0,0
71405,-111.111111111111,4,2,1,50,0,0
73592,-111.111111111111,4,2,1,50,0,0
73905,-100,4,2,1,60,0,0
75155,-100,4,2,5,60,0,0
75233,-100,4,2,1,60,0,0
75780,-100,4,2,5,60,0,0
75858,-100,4,2,1,60,0,0
77655,-100,4,2,5,60,0,0
77733,-100,4,2,1,60,0,0
80155,-100,4,2,5,60,0,0
80233,-100,4,2,1,60,0,0
80780,-100,4,2,5,60,0,0
80858,-100,4,2,1,60,0,0
82342,-100,4,2,5,60,0,0
82733,-100,4,2,1,60,0,0
83280,-100,4,2,5,60,0,0
83358,-100,4,2,1,60,0,0
83905,-100,4,2,1,60,0,0
84530,-100,4,2,1,60,0,0
85155,-100,4,2,1,60,0,0
85780,-100,4,2,1,60,0,0
86405,-100,4,2,1,60,0,0
88905,-100,4,2,1,60,0,0
91405,-100,4,2,1,65,0,0
92655,-100,4,2,1,65,0,0
92967,-100,4,2,1,60,0,0
93280,-100,4,2,1,60,0,0
93592,-100,4,2,1,60,0,0
93905,-90.9090909090909,4,2,1,70,0,1
97655,-90.9090909090909,4,2,5,70,0,1
97733,-90.9090909090909,4,2,1,70,0,1
98280,-90.9090909090909,4,2,5,70,0,1
98358,-90.9090909090909,4,2,1,70,0,1
102342,-90.9090909090909,4,2,5,70,0,1
102420,-90.9090909090909,4,2,1,70,0,1
102655,-90.9090909090909,4,2,5,70,0,1
102733,-90.9090909090909,4,2,1,70,0,1
103280,-90.9090909090909,4,2,5,70,0,1
103358,-90.9090909090909,4,2,1,70,0,1
107655,-90.9090909090909,4,2,5,70,0,1
107733,-90.9090909090909,4,2,1,70,0,1
108280,-90.9090909090909,4,2,5,70,0,1
108358,-90.9090909090909,4,2,1,70,0,1
113280,-76.9230769230769,4,2,1,70,0,1
113905,-100,4,2,2,60,0,0
117498,-100,4,2,2,60,0,0
118905,-100,4,2,2,60,0,0
127498,-100,4,2,2,60,0,0
128592,-100,4,2,2,60,0,0
133905,-111.111111111111,4,2,5,60,0,0
133983,-111.111111111111,4,2,2,60,0,0
138280,-111.111111111111,4,2,5,60,0,0
138358,-111.111111111111,4,2,2,60,0,0
143280,-111.111111111111,4,2,5,60,0,0
143358,-100,4,2,2,60,0,0
148280,-100,4,2,5,60,0,0
148358,-100,4,2,2,60,0,0
155155,-100,4,2,5,60,0,0
155233,-100,4,2,2,60,0,0
157186,-100,4,2,2,60,0,0
157342,-100,4,2,1,60,0,0
157655,-90.9090909090909,4,2,1,70,0,1
158905,-90.9090909090909,4,2,5,70,0,1
158983,-90.9090909090909,4,2,1,70,0,1
159530,-90.9090909090909,4,2,5,70,0,1
159608,-90.9090909090909,4,2,1,70,0,1
161405,-90.9090909090909,4,2,5,70,0,1
161483,-90.9090909090909,4,2,1,70,0,1
162030,-90.9090909090909,4,2,5,70,0,1
162108,-90.9090909090909,4,2,1,70,0,1
163905,-90.9090909090909,4,2,5,70,0,1
163983,-90.9090909090909,4,2,1,70,0,1
164530,-90.9090909090909,4,2,5,70,0,1
164608,-90.9090909090909,4,2,1,70,0,1
166092,-90.9090909090909,4,2,5,70,0,1
166170,-90.9090909090909,4,2,1,70,0,1
166405,-90.9090909090909,4,2,5,70,0,1
166483,-90.9090909090909,4,2,1,70,0,1
167030,-90.9090909090909,4,2,5,70,0,1
167108,-90.9090909090909,4,2,1,70,0,1
168905,-90.9090909090909,4,2,5,70,0,1
168983,-90.9090909090909,4,2,1,70,0,1
169530,-90.9090909090909,4,2,5,70,0,1
169608,-90.9090909090909,4,2,1,70,0,1
172030,-90.9090909090909,4,2,5,70,0,1
172108,-90.9090909090909,4,2,1,70,0,1
173905,-90.9090909090909,4,2,5,70,0,1
173983,-90.9090909090909,4,2,1,70,0,1
174530,-90.9090909090909,4,2,5,70,0,1
174608,-90.9090909090909,4,2,1,70,0,1
177030,-90.9090909090909,4,2,1,70,0,1
177655,-100,4,2,1,70,0,0
182655,-100,4,2,1,5,0,0
187655,-100,4,2,2,40,0,0
189217,-100,4,2,2,50,0,0
189295,-100,4,2,2,50,0,0
189842,-100,4,2,2,50,0,0
190155,-100,4,2,2,50,0,0
194842,-100,4,2,2,50,0,0
195936,-100,4,2,2,50,0,0
196405,-100,4,2,2,60,0,0
197342,-100,4,2,2,65,0,0
197655,-100,4,2,1,50,0,0
200780,-100,4,2,1,50,0,0
202342,-100,4,2,2,50,0,0
202967,-100,4,2,1,50,0,0
207030,-100,4,2,1,50,0,0
207342,-100,4,2,2,50,0,0
207967,-100,4,2,1,50,0,0
212342,-100,4,2,2,50,0,0
212967,-100,4,2,1,50,0,0
215155,-200,4,2,1,50,0,0
216873,-100,4,2,1,5,0,0
217030,-100,4,2,1,50,0,0
217498,-100,4,2,1,5,0,0
217655,-100,4,2,1,50,0,0
220155,-100,4,2,1,30,0,0
223280,-125,4,2,1,30,0,0
242655,-100,4,2,1,40,0,0
243905,-100,4,2,1,50,0,0
247655,-100,4,2,5,50,0,0
248905,-100,4,2,1,50,0,0
251405,-100,4,2,1,50,0,0
253280,-100,4,2,5,50,0,0
253358,-100,4,2,1,50,0,0
262655,-100,4,2,1,50,0,0
263123,-100,4,2,1,50,0,0
263358,-100,4,2,1,50,0,0
263905,-90.9090909090909,4,2,1,50,0,0
264217,-90.9090909090909,4,2,1,70,0,1
265155,-90.9090909090909,4,2,5,70,0,1
265233,-90.9090909090909,4,2,1,70,0,1
265780,-90.9090909090909,4,2,5,70,0,1
265858,-90.9090909090909,4,2,1,70,0,1
268280,-90.9090909090909,4,2,5,70,0,1
268358,-90.9090909090909,4,2,1,70,0,1
270155,-90.9090909090909,4,2,5,70,0,1
270233,-90.9090909090909,4,2,1,70,0,1
270780,-100,4,2,5,70,0,1
270858,-90.9090909090909,4,2,1,70,0,1
272342,-90.9090909090909,4,2,5,70,0,1
272420,-90.9090909090909,4,2,1,70,0,1
272655,-90.9090909090909,4,2,5,70,0,1
272733,-90.9090909090909,4,2,1,70,0,1
273280,-90.9090909090909,4,2,5,70,0,1
273358,-90.9090909090909,4,2,1,70,0,1
275155,-90.9090909090909,4,2,5,70,0,1
275233,-90.9090909090909,4,2,1,70,0,1
275780,-90.9090909090909,4,2,5,70,0,1
275858,-90.9090909090909,4,2,1,70,0,1
278280,-90.9090909090909,4,2,5,70,0,1
278358,-90.9090909090909,4,2,1,70,0,1
280155,-90.9090909090909,4,2,5,70,0,1
280233,-90.9090909090909,4,2,1,70,0,1
280780,-90.9090909090909,4,2,5,70,0,1
280858,-90.9090909090909,4,2,1,70,0,1
283436,-100,4,2,1,70,0,0
283905,-83.3333333333333,4,2,1,70,0,1
302655,-83.3333333333333,4,2,1,70,0,1
303905,-100,4,2,1,70,0,0
305155,-100,4,2,1,50,0,0
306405,-100,4,2,1,40,0,0
310076,-100,4,2,1,5,0,0
310155,-111.111111111111,4,2,1,40,0,0
310701,-111.111111111111,4,2,1,5,0,0
310780,-111.111111111111,4,2,1,40,0,0
311326,-111.111111111111,4,2,1,5,0,0
311405,-111.111111111111,4,2,1,40,0,0
313905,-111.111111111111,4,2,1,40,0,0
317655,-111.111111111111,4,2,1,40,0,0
320076,-111.111111111111,4,2,1,5,0,0
320155,-111.111111111111,4,2,1,43,0,0
320701,-111.111111111111,4,2,1,5,0,0
320780,-111.111111111111,4,2,1,45,0,0
321326,-111.111111111111,4,2,1,5,0,0
321405,-111.111111111111,4,2,1,40,0,0
322655,-111.111111111111,4,2,1,40,0,0
323592,-111.111111111111,4,2,1,40,0,0
323905,-111.111111111111,4,2,1,5,0,0

[Colours]
Combo1 : 7,36,66
Combo2 : 133,166,145
Combo3 : 190,162,187
Combo4 : 114,167,209

[HitObjects]
340,372,10155,6,0,B|426:370|426:370|425:1|425:1|323:0,1,532,4|0,0:3|0:0,0:0:0:0:
279,37,11405,2,0,P|192:91|296:218,2,304,0|0|0,0:0|0:0|0:0,0:0:0:0:
13,335,13905,2,0,P|236:191|20:49,1,608,0|0,0:0|0:0,0:0:0:0:
197,39,15780,6,0,P|280:94|195:208,1,266,2|0,0:0|0:0,0:0:0:0:
131,211,16405,2,0,L|407:201,1,266,2|0,0:0|0:0,0:0:0:0:
324,285,17030,2,0,P|242:205|343:108,1,266,0|0,0:0|0:0,0:0:0:0:
398,84,17655,6,0,P|456:252|176:367,1,532,2|0,0:0|0:0,0:0:0:0:
266,315,18826,1,0,0:0:0:0:
345,302,18905,1,2,0:0:0:0:
136,47,19530,2,0,P|128:106|209:152,1,152,0|0,0:0|0:0,0:0:0:0:
274,195,19920,1,0,0:0:0:0:
196,225,19998,1,0,0:0:0:0:
118,242,20076,1,0,0:0:0:0:
40,234,20155,6,0,P|43:333|321:240,1,532,4|0,0:3|0:0,0:0:0:0:
252,213,21405,2,0,P|177:195|264:62,2,304,0|0|0,0:0|0:0|0:0,0:0:0:0:
478,343,23905,2,0,P|284:162|497:-27,1,608,0|0,0:0|0:0,0:0:0:0:
335,338,25780,6,0,L|332:70,1,266,2|0,0:0|0:0,0:0:0:0:
406,39,26405,2,0,L|146:149,1,266,2|0,0:0|0:0,0:0:0:0:
234,191,27030,2,0,P|310:218|225:335,1,266,2|0,0:0|0:0,0:0:0:0:
163,346,27655,6,0,P|65:311|253:98,1,532,2|0,0:0|0:0,0:0:0:0:
411,77,28905,2,0,P|491:123|408:188,1,228,0|0,0:0|0:0,0:0:0:0:
334,194,29451,1,0,0:0:0:0:
253,218,29530,2,0,L|243:282,2,38,0|0|0,0:0|0:0|0:0,0:0:0:0:
334,194,29764,1,0,0:0:0:0:
414,200,29842,2,0,P|462:182|497:105,1,114,0|0,0:0|0:0,0:0:0:0:
263,122,30155,6,0,P|204:93|282:43,1,170.999994781494,4|0,0:1|0:0,0:0:0:0:
350,96,30623,2,0,P|393:235|174:259,1,427.499986953736,0|0,0:0|0:0,0:0:0:0:
347,341,31717,1,0,0:0:0:0:
209,210,32030,1,0,0:0:0:0:
380,57,32342,1,0,0:0:0:0:
104,44,32655,6,0,P|80:115|114:214,1,170.999994781494,2|0,0:0|0:0,0:0:0:0:
189,203,33123,2,0,P|210:273|176:368,1,170.999994781494,0|0,0:0|0:0,0:0:0:0:
96,357,33592,1,0,0:0:0:0:
374,168,33905,2,0,B|303:110|303:110|241:160|241:160|182:106|182:106|94:179,1,341.999989562989,2|0,0:0|0:0,0:0:0:0:
394,294,34842,2,0,L|499:291,1,85.4999973907472,0|0,0:0|0:0,0:0:0:0:
314,225,35155,6,0,P|269:196|349:129,1,170.999994781494,2|0,0:0|0:0,0:0:0:0:
399,117,35623,2,0,B|490:121|490:121|491:302,1,256.499992172241,0|0,0:0|0:0,0:0:0:0:
353,343,36405,2,0,P|308:285|455:100,1,341.999989562989,2|2,0:0|0:0,0:0:0:0:
33,9,37655,2,0,B|8:257|408:64|310:357,1,512.999984344483,2|0,0:0|0:0,0:0:0:0:
40,352,38905,2,0,P|193:340|262:177,1,341.999989562989,2|0,0:0|0:0,0:0:0:0:
118,105,39842,1,0,0:0:0:0:
400,13,40155,6,0,L|226:13,1,170.999994781494,2|0,0:0|0:0,0:0:0:0:
323,69,40623,2,0,B|280:242|72:239|21:56,1,427.499986953736,0|0,0:0|0:0,0:0:0:0:
160,230,41717,1,0,0:0:0:0:
299,232,42030,1,0,0:0:0:0:
127,334,42342,1,0,0:0:0:0:
400,163,42655,6,0,P|448:133|482:28,1,170.999994781494,2|0,0:0|0:0,0:0:0:0:
397,22,43123,2,0,L|217:23,1,170.999994781494,0|0,0:0|0:0,0:0:0:0:
321,94,43592,1,0,0:0:0:0:
64,193,43905,2,0,B|63:302|63:302|301:302,1,341.999989562989,2|0,0:0|0:0,0:0:0:0:
22,38,44842,2,0,L|15:146,1,85.4999973907472,0|0,0:0|0:0,0:0:0:0:
197,141,45155,6,0,P|258:189|189:239,1,170.999994781494,2|0,0:0|0:0,0:0:0:0:
122,225,45623,2,0,P|116:320|259:355,1,256.499992172241,0|0,0:0|0:0,0:0:0:0:
26,249,46405,2,0,B|30:61|30:61|34:242|34:242,1,341.999989562989,2|2,0:0|0:0,0:0:0:0:
479,19,47655,6,0,P|301:157|496:297,1,512.999984344483,2|0,0:0|0:0,0:0:0:0:
203,308,48905,2,0,P|199:239|353:160,1,256.499992172241,2|0,0:0|0:0,0:0:0:0:
189,83,49530,5,0,0:0:0:0:
293,78,49686,1,0,0:0:0:0:
189,83,49842,1,0,0:0:0:0:
464,80,50155,5,2,0:3:0:0:
335,88,50780,2,0,P|314:213|494:301,1,341.999989562989,0|0,0:0|0:0,0:0:0:0:
362,350,51717,1,0,0:0:0:0:
225,230,52030,1,0,0:0:0:0:
387,77,52342,1,0,0:0:0:0:
80,14,52655,6,0,P|15:109|94:322,1,341.999989562989,2|0,0:0|0:0,0:0:0:0:
198,311,53592,1,0,0:0:0:0:
472,348,53905,2,0,B|473:115|473:115|472:250|472:250,1,341.999989562989,0|2,0:0|0:3,0:0:0:0:
21,24,55155,5,2,0:0:0:0:
173,124,55780,2,0,P|208:237|14:318,1,341.999989562989,0|0,0:0|0:0,0:0:0:0:
177,336,56717,1,0,0:0:0:0:
297,219,57030,1,0,0:0:0:0:
143,51,57342,1,0,0:0:0:0:
416,135,57655,6,0,L|104:308,1,341.999989562989,2|0,0:0|0:0,0:0:0:0:
228,336,58592,1,0,0:0:0:0:
487,338,58905,2,0,P|376:238|497:137,1,341.999989562989,0|2,0:0|0:3,0:0:0:0:
357,14,59842,1,0,0:0:0:0:
100,44,60155,6,0,P|62:148|233:256,1,341.999989562989,2|0,0:0|0:0,0:0:0:0:
90,330,61092,1,0,0:0:0:0:
345,163,61405,2,0,L|111:272,1,256.499992172241,2|0,0:0|0:0,0:0:0:0:
319,84,62342,1,0,0:0:0:0:
63,38,62655,6,0,L|357:220,1,341.999989562989,2|0,0:0|0:0,0:0:0:0:
473,210,63592,1,0,0:0:0:0:
216,339,63905,2,0,P|138:297|243:198,1,256.499992172241,2|0,0:0|0:0,0:0:0:0:
23,94,64842,1,0,0:0:0:0:
108,93,64998,1,0,0:0:0:0:
271,313,65155,6,0,P|321:248|262:209,1,170.999994781494,2|0,0:0|0:0,0:0:0:0:
175,268,65623,2,0,P|316:-2|440:298,1,769.499976516724
178,153,67342,2,0,L|62:149,1,85.4999973907472
264,51,67655,6,0,L|443:47,1,170.999994781494,2|0,0:0|0:0,0:0:0:0:
264,82,68123,2,0,P|91:175|372:331,1,683.999979125977
68,353,69530,6,0,L|62:56,1,256.499992172241,2|0,0:3|0:0,0:0:0:0:
342,55,70155,2,0,P|423:110|317:206,1,256.499992172241,2|0,0:0|0:0,0:0:0:0:
258,207,70780,1,0,0:0:0:0:
433,203,70936,2,0,B|433:340|433:340|432:297|432:297,1,170.999994781494,2|0,0:0|0:0,0:0:0:0:
338,342,71326,1,0,0:0:0:0:
242,343,71405,6,0,P|333:281|238:234,1,256.499992172241,2|0,0:0|0:0,0:0:0:0:
162,148,72030,1,0,0:0:0:0:
200,57,72186,1,2,0:0:0:0:
291,15,72342,1,0,0:0:0:0:
471,9,72498,5,2,0:0:0:0:
256,192,72655,12,0,73748,0:0:0:0:
280,49,73905,6,0,P|375:120|263:220,1,285,4|0,0:1|0:0,0:0:0:0:
197,233,74530,2,0,L|205:352,1,95,0|0,0:0|0:0,0:0:0:0:
291,324,74842,2,0,L|398:315,1,95,0|0,0:0|0:0,0:0:0:0:
214,144,75155,2,0,L|17:113,1,190,2|0,0:0|0:0,0:0:0:0:
113,44,75623,1,0,0:0:0:0:
203,83,75780,2,0,L|210:205,1,95,2|0,0:3|0:0,0:0:0:0:
295,187,76092,2,0,L|304:309,1,95,0|0,0:0|0:0,0:0:0:0:
130,358,76405,6,0,P|67:310|152:247,1,190,4|0,0:3|0:0,0:0:0:0:
212,234,76873,1,0,0:0:0:0:
301,229,77030,2,0,L|305:121,1,95,2|0,0:0|0:0,0:0:0:0:
218,89,77342,2,0,L|110:81,1,95,0|0,0:0|0:0,0:0:0:0:
294,25,77655,1,2,0:0:0:0:
337,57,77733,1,0,0:0:0:0:
356,108,77811,1,0,0:0:0:0:
344,161,77889,1,0,0:0:0:0:
305,199,77967,1,0,0:0:0:0:
218,202,78123,1,0,0:0:0:0:
361,346,78280,2,0,L|476:349,1,95,2|0,0:0|0:0,0:0:0:0:
312,269,78592,2,0,L|205:264,1,95,0|0,0:0|0:0,0:0:0:0:
472,27,78905,6,0,P|469:124|374:142,1,190,4|0,0:3|0:0,0:0:0:0:
307,150,79373,2,0,P|293:210|404:282,1,190,0|0,0:0|0:0,0:0:0:0:
464,287,79842,2,0,L|469:401,1,95,0|0,0:0|0:0,0:0:0:0:
295,353,80155,2,0,L|92:334,1,190,2|0,0:0|0:0,0:0:0:0:
200,268,80623,1,0,0:0:0:0:
105,269,80780,2,0,P|44:215|117:162,1,190,2|0,0:3|0:0,0:0:0:0:
405,28,81405,6,0,L|175:9,1,190,4|0,0:3|0:0,0:0:0:0:
301,89,81873,1,0,0:0:0:0:
388,110,82030,2,0,L|399:221,1,95,0|0,0:0|0:0,0:0:0:0:
236,245,82342,2,0,L|227:357,1,95,2|0,0:0|0:0,0:0:0:0:
56,345,82655,2,0,L|257:357,1,190,2|0,0:0|0:0,0:0:0:0:
340,357,83123,1,0,0:0:0:0:
179,265,83280,2,0,L|162:138,1,95,2|0,0:3|0:0,0:0:0:0:
328,159,83592,2,0,L|339:34,1,95,0|0,0:0|0:0,0:0:0:0:
66,50,83905,6,0,L|51:162,1,95,8|0,0:1|0:0,0:0:0:0:
200,309,84217,2,0,L|92:302,1,95,8|0,0:1|0:0,0:0:0:0:
253,56,84530,2,0,L|257:193,1,95,8|0,0:1|0:0,0:0:0:0:
106,194,84842,2,0,L|96:305,1,95,8|0,0:1|0:0,0:0:0:0:
361,290,85155,6,0,L|480:289,1,95,8|0,0:1|0:0,0:0:0:0:
309,183,85467,2,0,L|207:171,1,95,8|0,0:1|0:0,0:0:0:0:
376,13,85780,2,0,L|388:136,1,95,8|0,0:1|0:0,0:0:0:0:
238,248,86092,2,0,L|372:251,1,95,8|0,0:1|0:0,0:0:0:0:
57,34,86405,6,0,L|167:38,1,95,8|0,0:1|0:0,0:0:0:0:
299,71,86717,2,0,L|293:181,1,95,8|0,0:1|0:0,0:0:0:0:
145,214,87030,2,0,L|138:327,1,95,8|0,0:1|0:0,0:0:0:0:
287,320,87342,2,0,L|415:321,1,95,8|0,0:1|0:0,0:0:0:0:
112,274,87655,5,8,0:1:0:0:
70,251,87733,1,0,0:0:0:0:
43,213,87811,1,0,0:0:0:0:
36,166,87889,1,0,0:0:0:0:
51,121,87967,1,8,0:1:0:0:
84,88,88045,1,0,0:0:0:0:
129,73,88123,1,0,0:0:0:0:
282,64,88280,2,0,L|285:175,1,95,8|0,0:1|0:0,0:0:0:0:
134,313,88592,2,0,L|22:300,1,95,8|0,0:1|0:0,0:0:0:0:
327,25,88905,5,8,0:1:0:0:
470,108,89061,1,8,0:1:0:0:
327,186,89217,1,8,0:1:0:0:
57,127,89373,1,8,0:1:0:0:
198,211,89529,1,8,0:1:0:0:
57,288,89685,1,8,0:1:0:0:
320,312,89842,1,8,0:1:0:0:
461,343,89998,1,8,0:1:0:0:
191,137,90155,5,8,0:1:0:0:
53,120,90311,1,8,0:1:0:0:
200,40,90467,1,8,0:1:0:0:
60,26,90623,1,8,0:1:0:0:
310,339,90780,1,8,0:1:0:0:
172,320,90936,1,8,0:1:0:0:
319,242,91092,1,8,0:1:0:0:
180,229,91248,1,8,0:1:0:0:
452,183,91405,6,0,L|469:114,1,47.5,8|8,0:1|0:1,0:0:0:0:
384,96,91561,2,0,L|332:66,1,47.5,8|8,0:1|0:1,0:0:0:0:
263,38,91717,2,0,L|183:38,1,47.5,8|8,0:1|0:1,0:0:0:0:
382,331,91873,1,8,0:1:0:0:
441,327,91951,1,8,0:1:0:0:
206,236,92030,6,0,L|146:237,1,47.5,8|8,0:1|0:1,0:0:0:0:
225,171,92186,2,0,L|276:174,1,47.5,8|8,0:1|0:1,0:0:0:0:
420,27,92342,1,8,0:1:0:0:
482,30,92420,1,8,0:1:0:0:
276,104,92498,1,8,0:1:0:0:
214,100,92576,1,8,0:1:0:0:
19,154,92655,6,0,L|18:284,1,95,2|0,0:0|0:0,0:0:0:0:
89,252,92889,1,2,0:0:0:0:
163,254,92967,2,0,L|162:332,1,47.5,0|0,0:0|0:0,0:0:0:0:
89,350,93123,2,0,L|90:298,1,47.5,2|0,0:0|0:0,0:0:0:0:
157,192,93280,1,0,0:0:0:0:
24,82,93436,1,8,0:1:0:0:
337,83,93592,6,0,L|357:48,7,23.75,8|0|0|0|0|0|0|0,0:0|0:0|0:0|0:0|0:0|0:0|0:0|0:0,0:0:0:0:
98,116,93905,6,0,P|47:153|73:253,1,156.750004783631,12|0,0:1|0:0,0:0:0:0:
269,327,94217,2,0,P|315:276|325:208,1,104.500003189087,8|0,0:0|0:0,0:0:0:0:
256,224,94451,1,0,0:0:0:0:
186,221,94530,1,2,0:0:0:0:
256,224,94608,1,0,0:0:0:0:
414,232,94686,2,0,L|336:226,1,52.2500015945435,8|0,0:1|0:0,0:0:0:0:
139,74,94842,2,0,L|-2:66,1,104.500003189087,8|0,0:0|0:0,0:0:0:0:
101,152,95076,1,0,0:0:0:0:
303,81,95155,5,2,0:0:0:0:
439,78,95311,1,8,0:1:0:0:
186,206,95467,2,0,L|311:219,1,104.500003189087,8|0,0:0|0:0,0:0:0:0:
342,197,95701,1,0,0:0:0:0:
366,135,95779,1,2,0:0:0:0:
343,74,95857,1,0,0:0:0:0:
176,66,95936,2,0,L|235:72,1,52.2500015945435,8|0,0:1|0:0,0:0:0:0:
434,329,96092,2,0,P|473:280|493:211,1,104.500003189087,8|0,0:0|0:0,0:0:0:0:
414,219,96326,1,0,0:0:0:0:
237,235,96405,5,8,0:1:0:0:
229,295,96483,1,0,0:0:0:0:
263,345,96561,1,0,0:0:0:0:
322,360,96639,1,0,0:0:0:0:
143,37,96717,2,0,L|154:163,1,104.500003189087,8|0,0:0|0:0,0:0:0:0:
229,141,96951,1,0,0:0:0:0:
307,77,97030,1,0,0:0:0:0:
244,74,97108,1,0,0:0:0:0:
37,311,97186,2,0,L|140:330,1,104.500003189087,8|0,0:1|0:0,0:0:0:0:
429,230,97498,6,0,L|284:210,1,104.500003189087,8|2,0:0|0:3,0:0:0:0:
261,209,97733,1,0,0:0:0:0:
427,102,97811,2,0,L|357:96,1,52.2500015945435,8|0,0:1|0:0,0:0:0:0:
132,49,97967,2,0,L|122:112,1,52.2500015945435,8|0,0:0|0:0,0:0:0:0:
187,136,98123,2,0,L|246:159,1,52.2500015945435,0|0,0:0|0:0,0:0:0:0:
299,204,98280,2,0,L|303:280,1,52.2500015945435,2|0,0:0|0:0,0:0:0:0:
118,339,98436,1,8,0:1:0:0:
379,129,98592,1,8,0:0:0:0:
239,122,98748,1,8,0:0:0:0:
477,20,98905,6,0,L|312:54,1,156.750004783631,12|0,0:1|0:0,0:0:0:0:
82,195,99217,2,0,L|96:265,1,52.2500015945435,8|0,0:0|0:0,0:0:0:0:
171,245,99373,2,0,L|179:308,1,52.2500015945435,0|0,0:0|0:0,0:0:0:0:
98,338,99530,2,0,L|26:342,1,52.2500015945435,2|0,0:0|0:0,0:0:0:0:
218,128,99686,2,0,L|296:120,1,52.2500015945435,8|0,0:1|0:0,0:0:0:0:
37,22,99842,2,0,L|38:162,1,104.500003189087,8|0,0:0|0:0,0:0:0:0:
113,129,100076,1,0,0:0:0:0:
329,121,100155,6,0,L|458:88,1,104.500003189087,2|0,0:0|0:0,0:0:0:0:
356,48,100389,1,0,0:0:0:0:
94,352,100467,2,0,L|219:341,1,104.500003189087,8|0,0:0|0:0,0:0:0:0:
130,272,100701,1,0,0:0:0:0:
65,264,100780,1,2,0:0:0:0:
130,272,100858,1,0,0:0:0:0:
310,130,100936,2,0,L|239:125,1,52.2500015945435,8|0,0:1|0:0,0:0:0:0:
52,24,101092,2,0,L|57:138,1,104.500003189087,8|0,0:0|0:0,0:0:0:0:
125,133,101326,1,0,0:0:0:0:
380,131,101405,6,0,L|199:115,1,156.750004783631,8|0,0:1|0:0,0:0:0:0:
392,41,101717,1,8,0:0:0:0:
439,61,101795,1,0,0:0:0:0:
467,104,101873,1,2,0:0:0:0:
470,155,101951,1,0,0:0:0:0:
445,200,102029,1,0,0:0:0:0:
400,225,102107,1,0,0:0:0:0:
195,339,102186,2,0,L|124:331,1,52.2500015945435,8|2,0:1|0:0,0:0:0:0:
337,218,102342,2,0,L|346:148,1,52.2500015945435,2|2,0:0|0:0,0:0:0:0:
138,31,102498,2,0,L|70:31,1,52.2500015945435,8|0,0:0|0:0,0:0:0:0:
17,82,102655,5,2,0:0:0:0:
15,150,102733,1,0,0:0:0:0:
191,224,102811,2,0,L|262:225,1,52.2500015945435,8|0,0:1|0:0,0:0:0:0:
421,351,102967,2,0,P|464:309|467:248,1,104.500003189087,8|0,0:0|0:0,0:0:0:0:
396,237,103201,1,0,0:0:0:0:
201,206,103280,2,0,P|186:151|209:86,1,104.500003189087,2|8,0:3|0:1,0:0:0:0:
465,50,103592,2,0,L|389:41,1,52.2500015945435,8|0,0:0|0:0,0:0:0:0:
203,38,103748,2,0,L|269:30,1,52.2500015945435,8|0,0:0|0:0,0:0:0:0:
480,321,103905,6,0,P|458:272|333:216,1,156.750004783631,12|0,0:1|0:0,0:0:0:0:
152,215,104217,2,0,L|30:203,1,104.500003189087,8|0,0:0|0:0,0:0:0:0:
121,145,104451,2,0,L|137:84,1,52.2500015945435,0|2,0:0|0:0,0:0:0:0:
60,60,104608,1,0,0:0:0:0:
255,26,104686,1,8,0:1:0:0:
323,27,104764,1,0,0:0:0:0:
65,139,104842,2,0,L|36:259,1,104.500003189087,8|0,0:0|0:0,0:0:0:0:
113,244,105076,1,0,0:0:0:0:
316,234,105155,5,2,0:0:0:0:
176,331,105311,1,8,0:1:0:0:
462,346,105467,2,0,L|326:327,1,104.500003189087,8|0,0:0|0:0,0:0:0:0:
427,269,105701,2,0,L|498:279,2,52.2500015945435,0|2|0,0:0|0:0|0:0,0:0:0:0:
256,136,105936,2,0,L|178:133,1,52.2500015945435,0|0,0:0|0:0,0:0:0:0:
454,21,106092,2,0,L|465:77,1,52.2500015945435,8|0,0:0|0:0,0:0:0:0:
395,99,106248,2,0,L|378:156,1,52.2500015945435,0|0,0:0|0:0,0:0:0:0:
177,342,106405,6,0,L|331:348,1,104.500003189087,8|0,0:1|0:0,0:0:0:0:
339,347,106639,1,0,0:0:0:0:
114,265,106717,2,0,L|101:205,1,52.2500015945435,8|0,0:0|0:0,0:0:0:0:
176,167,106873,2,0,L|248:157,1,52.2500015945435,0|0,0:0|0:0,0:0:0:0:
154,107,107030,2,0,L|142:41,1,52.2500015945435,0|0,0:0|0:0,0:0:0:0:
342,29,107186,2,0,L|459:18,1,104.500003189087,8|0,0:1|0:0,0:0:0:0:
182,317,107498,6,0,L|60:304,1,104.500003189087,8|2,0:0|0:3,0:0:0:0:
149,232,107733,1,0,0:0:0:0:
320,134,107811,2,0,L|384:127,1,52.2500015945435,8|0,0:1|0:0,0:0:0:0:
114,24,107967,2,0,P|77:85|81:135,1,104.500003189087,8|0,0:0|0:0,0:0:0:0:
144,121,108201,1,0,0:0:0:0:
327,247,108280,1,2,0:0:0:0:
384,243,108358,1,0,0:0:0:0:
327,173,108436,1,8,0:1:0:0:
384,173,108514,1,0,0:0:0:0:
166,262,108592,2,0,L|108:257,1,52.2500015945435,8|0,0:0|0:0,0:0:0:0:
295,144,108748,2,0,L|218:135,1,52.2500015945435,8|0,0:0|0:0,0:0:0:0:
25,351,108905,6,0,L|164:324,1,104.500003189087,12|0,0:1|0:0,0:0:0:0:
179,316,109139,1,0,0:0:0:0:
381,230,109217,2,0,L|394:166,1,52.2500015945435,8|0,0:0|0:0,0:0:0:0:
319,162,109373,2,0,L|312:102,1,52.2500015945435,0|0,0:0|0:0,0:0:0:0:
387,64,109530,2,0,L|449:50,1,52.2500015945435,2|0,0:0|0:0,0:0:0:0:
247,60,109686,2,0,L|160:51,1,52.2500015945435,8|0,0:1|0:0,0:0:0:0:
419,332,109842,2,0,L|442:212,1,104.500003189087,8|0,0:0|0:0,0:0:0:0:
368,205,110076,1,0,0:0:0:0:
176,195,110155,5,2,0:0:0:0:
41,197,110311,1,8,0:1:0:0:
343,361,110467,2,0,L|455:345,1,104.500003189087,8|0,0:0|0:0,0:0:0:0:
275,263,110701,2,0,L|261:201,1,52.2500015945435,0|2,0:0|0:0,0:0:0:0:
408,112,110858,2,0,L|470:103,2,52.2500015945435,0|8|0,0:0|0:1|0:0,0:0:0:0:
215,181,111092,2,0,L|341:209,1,104.500003189087,8|0,0:0|0:0,0:0:0:0:
258,260,111326,1,0,0:0:0:0:
52,347,111405,6,0,P|13:298|25:251,1,104.500003189087,8|0,0:1|0:0,0:0:0:0:
88,237,111639,1,0,0:0:0:0:
254,237,111717,1,8,0:0:0:0:
300,205,111795,1,0,0:0:0:0:
319,157,111873,1,0,0:0:0:0:
311,106,111951,1,0,0:0:0:0:
277,67,112029,1,0,0:0:0:0:
222,53,112107,1,0,0:0:0:0:
437,43,112186,2,0,L|423:155,1,104.500003189087,8|0,0:1|0:0,0:0:0:0:
100,291,112498,6,0,L|243:299,1,104.500003189087,8|2,0:0|0:0,0:0:0:0:
68,146,112811,1,8,0:1:0:0:
246,148,112889,1,8,0:1:0:0:
423,153,112967,1,8,0:0:0:0:
307,214,113123,6,0,L|307:256,3,26.1250007972718,8|0|8|0,0:1|0:0|0:1|0:0,0:0:0:0:
472,237,113280,6,0,L|472:152,1,61.7499971733095,8|0,0:0|0:0,0:0:0:0:
407,152,113436,1,8,0:1:0:0:
216,240,113514,2,0,L|216:160,1,61.7499971733095,8|0,0:0|0:0,0:0:0:0:
281,148,113670,1,8,0:1:0:0:
34,48,113748,2,0,L|98:49,1,61.7499971733095,8|0,0:0|0:0,0:0:0:0:
377,69,113905,6,0,P|437:107|374:198,1,190,12|8,0:1|0:0,0:0:0:0:
249,282,114373,2,0,L|460:298,1,190,2|8,0:0|0:1,0:0:0:0:
293,199,114842,2,0,P|277:145|362:91,1,142.5,8|0,0:0|0:0,0:0:0:0:
400,53,115155,6,0,L|262:40,1,95,0|8,0:0|0:1,0:0:0:0:
154,114,115467,2,0,L|35:125,1,95,10|0,0:0|0:0,0:0:0:0:
24,153,115701,1,0,0:0:0:0:
13,198,115779,1,2,0:0:0:0:
30,242,115857,1,0,0:0:0:0:
70,267,115935,1,0,0:0:0:0:
223,255,116092,2,0,L|339:240,1,95,10|0,0:0|0:0,0:0:0:0:
88,35,116405,6,0,P|47:76|96:144,1,142.5,8|0,0:1|0:0,0:0:0:0:
237,138,116717,1,8,0:0:0:0:
132,252,116873,1,2,0:0:0:0:
128,313,116951,1,0,0:0:0:0:
124,372,117030,1,0,0:0:0:0:
267,362,117186,2,0,L|154:354,1,95,8|2,0:1|0:0,0:0:0:0:
453,40,117498,6,0,L|461:140,1,95,8|0,0:0|0:0,0:0:0:0:
353,175,117811,1,8,0:1:0:0:
112,184,117967,2,0,L|14:241,1,95,8|0,0:0|0:0,0:0:0:0:
75,234,118201,1,0,0:0:0:0:
100,273,118279,1,0,0:0:0:0:
84,316,118357,1,0,0:0:0:0:
41,329,118435,1,8,0:1:0:0:
267,157,118592,2,0,L|373:149,1,95,10|8,0:0|0:1,0:0:0:0:
305,83,118826,1,0,0:0:0:0:
89,34,118905,6,0,P|44:98|112:178,1,190,8|8,0:1|0:0,0:0:0:0:
264,265,119373,2,0,L|61:302,1,190,2|8,0:0|0:1,0:0:0:0:
330,350,119842,2,0,P|378:300|307:192,1,190,10|0,0:0|0:0,0:0:0:0:
180,202,120311,2,0,L|191:90,1,95,8|8,0:1|0:0,0:0:0:0:
340,38,120623,1,0,0:0:0:0:
277,35,120701,1,0,0:0:0:0:
213,34,120780,2,0,L|192:138,1,95,0|8,0:0|0:1,0:0:0:0:
44,221,121092,2,0,L|56:332,1,95,8|0,0:0|0:0,0:0:0:0:
315,355,121405,6,0,L|478:340,1,142.5,8|0,0:1|0:0,0:0:0:0:
285,236,121717,1,8,0:0:0:0:
390,236,121873,1,0,0:0:0:0:
393,188,121951,1,0,0:0:0:0:
396,141,122029,1,0,0:0:0:0:
253,100,122186,2,0,L|138:90,1,95,8|0,0:1|0:0,0:0:0:0:
429,18,122498,6,0,L|417:130,1,95,8|0,0:0|0:0,0:0:0:0:
314,137,122811,1,8,0:1:0:0:
86,316,122967,2,0,L|203:327,1,95,8|0,0:0|0:0,0:0:0:0:
127,248,123201,1,0,0:0:0:0:
71,237,123280,1,0,0:0:0:0:
195,125,123436,1,8,0:1:0:0:
52,33,123592,1,10,0:0:0:0:
315,23,123748,1,0,0:0:0:0:
33,159,123905,6,0,L|264:194,1,190,12|8,0:1|0:0,0:0:0:0:
373,197,124373,2,0,P|420:155|372:56,1,190,2|8,0:0|0:1,0:0:0:0:
220,92,124842,2,0,L|201:290,1,190,8|0,0:0|0:0,0:0:0:0:
355,287,125311,5,8,0:1:0:0:
201,357,125467,2,0,L|320:348,1,95,10|0,0:0|0:0,0:0:0:0:
334,324,125701,1,0,0:0:0:0:
348,280,125779,1,0,0:0:0:0:
329,238,125857,1,0,0:0:0:0:
286,218,125935,1,0,0:0:0:0:
134,148,126092,2,0,L|249:134,1,95,10|0,0:0|0:0,0:0:0:0:
478,51,126405,6,0,L|294:38,1,142.5,8|0,0:1|0:0,0:0:0:0:
173,122,126717,1,8,0:0:0:0:
271,264,126873,2,0,L|342:262,2,47.5,2|0|0,0:0|0:0|0:0,0:0:0:0:
128,275,127186,2,0,L|120:168,1,95,8|2,0:1|0:0,0:0:0:0:
371,76,127498,6,0,L|254:71,1,95,8|0,0:0|0:0,0:0:0:0:
180,73,127811,1,8,0:1:0:0:
411,174,127967,2,0,L|424:298,1,95,8|0,0:0|0:0,0:0:0:0:
348,314,128201,1,0,0:0:0:0:
420,346,128280,2,0,L|485:357,2,47.5,0|0|8,0:0|0:0|0:1,0:0:0:0:
178,339,128592,2,0,L|66:327,1,95,10|8,0:0|0:1,0:0:0:0:
336,194,128905,6,0,L|447:183,2,95,8|0|8,0:1|0:0|0:0,0:0:0:0:
183,79,129373,2,0,L|402:64,1,190,2|8,0:0|0:1,0:0:0:0:
219,170,129842,2,0,L|208:267,1,95,10|0,0:0|0:0,0:0:0:0:
457,350,130155,6,0,L|264:332,1,190,8|8,0:1|0:0,0:0:0:0:
358,253,130623,1,0,0:0:0:0:
204,249,130780,2,0,L|188:141,1,95,2|8,0:0|0:1,0:0:0:0:
342,116,131092,2,0,L|352:13,1,95,8|0,0:0|0:0,0:0:0:0:
102,313,131405,6,0,L|312:325,1,190,8|8,0:1|0:0,0:0:0:0:
139,182,131873,2,0,L|355:183,1,190,0|8,0:0|0:1,0:0:0:0:
175,26,132342,2,0,L|166:131,1,95,2|8,0:0|0:0,0:0:0:0:
390,340,132655,5,2,0:0:0:0:
256,338,132811,1,8,0:1:0:0:
483,24,132967,2,0,L|474:142,1,95,8|0,0:0|0:0,0:0:0:0:
231,262,133280,2,0,L|157:253,1,47.5,0|0,0:0|0:0,0:0:0:0:
265,184,133436,2,0,L|327:174,1,47.5,8|0,0:1|0:0,0:0:0:0:
231,108,133592,1,8,0:0:0:0:
165,86,133670,1,0,0:0:0:0:
163,41,133748,1,0,0:0:0:0:
229,26,133826,1,0,0:0:0:0:
473,42,133905,6,0,P|372:90|491:233,2,341.999989562989,2|2|0,0:3|0:0|0:0,0:0:0:0:
323,327,135467,1,0,0:0:0:0:
185,182,135780,1,2,0:0:0:0:
340,32,136092,1,0,0:0:0:0:
50,113,136405,6,0,P|47:186|189:97,1,341.999989562989,0|2,0:0|0:0,0:0:0:0:
117,106,137186,1,8,0:1:0:0:
203,122,137342,2,0,L|207:226,1,85.4999973907472,8|0,0:0|0:0,0:0:0:0:
352,346,137655,6,0,L|172:341,1,170.999994781494,0|8,0:0|0:0,0:0:0:0:
267,266,138123,1,0,0:0:0:0:
352,267,138280,1,2,0:3:0:0:
206,162,138436,2,0,L|102:155,2,85.4999973907472,8|8|8,0:1|0:1|0:1,0:0:0:0:
475,162,138905,6,0,L|282:150,1,170.999994781494,8|8,0:1|0:0,0:0:0:0:
381,86,139373,1,0,0:0:0:0:
232,312,139530,2,0,L|131:301,2,85.4999973907472,0|8|8,0:0|0:1|0:0,0:0:0:0:
314,317,139998,1,0,0:0:0:0:
164,235,140155,6,0,L|157:127,1,85.4999973907472,0|8,0:0|0:1,0:0:0:0:
236,140,140467,2,0,L|232:39,1,85.4999973907472,8|0,0:0|0:0,0:0:0:0:
381,17,140780,2,0,L|377:110,1,85.4999973907472,0|8,0:0|0:1,0:0:0:0:
228,220,141092,2,0,L|229:323,1,85.4999973907472,8|0,0:0|0:0,0:0:0:0:
478,330,141405,6,0,P|447:225|230:116,1,341.999989562989,8|0,0:1|0:0,0:0:0:0:
169,118,142186,1,8,0:1:0:0:
251,43,142342,2,0,L|360:31,1,85.4999973907472,8|0,0:0|0:0,0:0:0:0:
186,264,142655,6,0,L|86:249,1,85.4999973907472,0|8,0:0|0:1,0:0:0:0:
189,176,142967,2,0,L|390:165,1,170.999994781494,8|2,0:0|0:3,0:0:0:0:
455,161,143436,1,8,0:1:0:0:
322,70,143592,1,8,0:0:0:0:
474,23,143748,1,0,0:0:0:0:
115,331,143905,6,0,L|337:318,1,190,2|8,0:0|0:1,0:0:0:0:
209,244,144373,1,0,0:0:0:0:
363,244,144530,2,0,L|373:131,1,95,0|0,0:0|0:0,0:0:0:0:
220,82,144842,2,0,L|85:73,1,95,8|0,0:1|0:0,0:0:0:0:
414,137,145155,6,0,P|478:193|401:251,1,190,2|8,0:0|0:1,0:0:0:0:
257,347,145623,1,2,0:0:0:0:
165,350,145780,2,0,L|152:231,1,95,0|0,0:0|0:0,0:0:0:0:
314,148,146092,2,0,L|432:143,1,95,8|0,0:1|0:0,0:0:0:0:
130,44,146405,6,0,P|69:104|133:172,1,190,2|8,0:0|0:1,0:0:0:0:
222,177,146873,1,0,0:0:0:0:
58,226,147030,2,0,L|56:338,1,95,0|0,0:0|0:0,0:0:0:0:
217,349,147342,2,0,L|117:349,1,95,8|0,0:1|0:0,0:0:0:0:
411,232,147655,6,0,P|467:179|403:112,1,190,2|0,0:0|0:0,0:0:0:0:
242,113,148123,1,2,0:0:0:0:
336,112,148280,2,0,L|448:108,1,95,2|0,0:3|0:0,0:0:0:0:
265,30,148592,2,0,L|144:31,1,95,0|0,0:0|0:0,0:0:0:0:
454,104,148905,6,0,P|459:182|349:228,1,190,8|8,0:1|0:1,0:0:0:0:
211,248,149373,1,0,0:0:0:0:
206,295,149451,1,0,0:0:0:0:
201,342,149529,1,8,0:1:0:0:
296,349,149686,1,0,0:0:0:0:
139,354,149842,2,0,L|128:254,1,95,8|0,0:1|0:0,0:0:0:0:
392,213,150155,6,0,L|483:208,2,47.5,8|0|0,0:1|0:0|0:0,0:0:0:0:
240,113,150467,1,8,0:1:0:0:
145,42,150623,1,0,0:0:0:0:
202,41,150701,1,0,0:0:0:0:
258,41,150779,1,8,0:1:0:0:
162,226,150936,1,0,0:0:0:0:
327,227,151092,2,0,L|433:225,1,95,8|0,0:1|0:0,0:0:0:0:
164,344,151405,5,8,0:1:0:0:
30,345,151561,1,8,0:1:0:0:
275,154,151717,1,8,0:1:0:0:
417,146,151873,1,8,0:1:0:0:
269,59,152030,1,8,0:1:0:0:
412,37,152186,1,8,0:1:0:0:
169,234,152342,1,8,0:1:0:0:
313,236,152498,1,8,0:1:0:0:
53,115,152655,5,8,0:1:0:0:
186,120,152811,1,8,0:1:0:0:
320,122,152967,1,8,0:1:0:0:
187,208,153123,1,8,0:1:0:0:
446,352,153280,1,8,0:1:0:0:
304,346,153436,1,8,0:1:0:0:
450,257,153592,1,8,0:1:0:0:
310,241,153748,1,8,0:1:0:0:
56,110,153905,6,0,L|51:175,1,47.5,8|8,0:1|0:1,0:0:0:0:
136,176,154061,2,0,L|130:242,1,47.5,8|8,0:1|0:1,0:0:0:0:
48,237,154217,2,0,L|42:303,1,47.5,8|8,0:1|0:1,0:0:0:0:
227,300,154373,1,8,0:1:0:0:
295,303,154451,1,8,0:1:0:0:
480,237,154530,6,0,L|486:163,1,47.5,8|8,0:1|0:1,0:0:0:0:
398,159,154686,2,0,L|396:104,1,47.5,8|8,0:1|0:1,0:0:0:0:
195,62,154842,1,0,0:0:0:0:
142,65,154920,1,0,0:0:0:0:
195,62,154998,1,0,0:0:0:0:
142,65,155076,1,0,0:0:0:0:
431,50,155155,5,2,0:3:0:0:
256,192,155311,12,0,156092,0:0:0:0:
154,305,156405,6,0,L|277:297,1,95,8|0,0:1|0:0,0:0:0:0:
334,297,156639,1,0,0:0:0:0:
419,294,156717,2,0,L|414:245,1,47.5,8|0,0:0|0:0,0:0:0:0:
329,215,156873,2,0,L|319:137,1,47.5,8|0,0:1|0:0,0:0:0:0:
234,119,157030,1,0,0:0:0:0:
376,39,157186,1,8,0:0:0:0:
64,217,157342,6,0,L|48:189,7,23.75,8|0|0|0|0|0|0|0,0:0|0:0|0:0|0:0|0:0|0:0|0:0|0:0,0:0:0:0:
295,212,157655,6,0,L|467:209,1,156.750004783631,12|0,0:1|0:0,0:0:0:0:
254,349,157967,2,0,L|119:336,1,104.500003189087,8|0,0:0|0:0,0:0:0:0:
223,275,158201,2,0,L|228:206,1,52.2500015945435,0|0,0:0|0:0,0:0:0:0:
152,189,158358,1,0,0:0:0:0:
333,47,158436,2,0,L|268:40,1,52.2500015945435,8|0,0:1|0:0,0:0:0:0:
48,118,158592,2,0,L|53:236,1,104.500003189087,10|0,0:0|0:0,0:0:0:0:
129,226,158826,1,0,0:0:0:0:
325,326,158905,5,2,0:3:0:0:
471,317,159061,1,8,0:1:0:0:
180,111,159217,2,0,L|311:102,1,104.500003189087,8|0,0:0|0:0,0:0:0:0:
209,42,159451,2,0,L|151:38,2,52.2500015945435,0|2|0,0:0|0:0|0:0,0:0:0:0:
391,148,159686,2,0,L|396:224,1,52.2500015945435,8|0,0:1|0:0,0:0:0:0:
170,330,159842,1,8,0:0:0:0:
105,316,159920,1,0,0:0:0:0:
102,267,159998,1,0,0:0:0:0:
165,246,160076,1,0,0:0:0:0:
400,234,160155,6,0,L|524:196,1,104.500003189087,8|0,0:1|0:0,0:0:0:0:
424,138,160389,1,0,0:0:0:0:
214,25,160467,2,0,L|204:85,1,52.2500015945435,8|0,0:0|0:0,0:0:0:0:
292,90,160623,2,0,L|282:157,1,52.2500015945435,2|0,0:0|0:0,0:0:0:0:
197,197,160780,2,0,L|130:197,1,52.2500015945435,2|0,0:0|0:0,0:0:0:0:
342,341,160936,2,0,L|475:326,1,104.500003189087,8|0,0:1|0:0,0:0:0:0:
111,278,161248,6,0,L|110:167,1,104.500003189087,8|2,0:0|0:0,0:0:0:0:
190,142,161483,1,0,0:0:0:0:
374,277,161561,2,0,L|293:274,1,52.2500015945435,8|0,0:1|0:0,0:0:0:0:
85,34,161717,2,0,L|68:94,1,52.2500015945435,8|0,0:0|0:0,0:0:0:0:
144,114,161873,2,0,L|127:174,1,52.2500015945435,0|0,0:0|0:0,0:0:0:0:
203,216,162030,2,0,L|186:276,1,52.2500015945435,2|0,0:3|0:0,0:0:0:0:
27,335,162186,1,8,0:1:0:0:
277,133,162342,1,10,0:0:0:0:
125,133,162498,1,8,0:0:0:0:
412,287,162655,6,0,P|472:236|475:154,1,156.750004783631,12|0,0:1|0:0,0:0:0:0:
220,237,162967,2,0,L|292:225,1,52.2500015945435,8|0,0:0|0:0,0:0:0:0:
346,162,163123,2,0,L|288:152,1,52.2500015945435,0|0,0:0|0:0,0:0:0:0:
210,150,163280,2,0,L|202:62,1,52.2500015945435,0|0,0:0|0:0,0:0:0:0:
403,22,163436,2,0,L|325:25,1,52.2500015945435,8|0,0:1|0:0,0:0:0:0:
132,343,163592,2,0,L|262:333,1,104.500003189087,10|0,0:0|0:0,0:0:0:0:
311,327,163826,1,0,0:0:0:0:
139,212,163905,6,0,L|21:206,1,104.500003189087,2|0,0:3|0:0,0:0:0:0:
320,65,164217,1,8,0:0:0:0:
171,147,164373,1,0,0:0:0:0:
165,199,164451,1,0,0:0:0:0:
160,251,164529,1,2,0:0:0:0:
422,259,164686,1,8,0:1:0:0:
148,353,164842,2,0,L|3:346,1,104.500003189087,8|0,0:0|0:0,0:0:0:0:
117,274,165076,1,0,0:0:0:0:
347,46,165155,5,8,0:1:0:0:
493,40,165311,1,0,0:0:0:0:
209,285,165467,2,0,L|138:280,1,52.2500015945435,8|0,0:0|0:0,0:0:0:0:
236,213,165623,2,0,L|244:148,1,52.2500015945435,0|0,0:0|0:0,0:0:0:0:
163,133,165780,2,0,L|161:64,1,52.2500015945435,0|0,0:0|0:0,0:0:0:0:
366,30,165936,2,0,L|484:23,1,104.500003189087,8|2,0:1|0:0,0:0:0:0:
121,343,166248,6,0,L|273:334,1,104.500003189087,8|2,0:0|0:0,0:0:0:0:
294,328,166483,1,0,0:0:0:0:
118,232,166561,2,0,L|27:225,1,52.2500015945435,8|0,0:1|0:0,0:0:0:0:
259,231,166717,1,8,0:0:0:0:
268,149,166795,1,0,0:0:0:0:
231,80,166873,1,0,0:0:0:0:
163,57,166951,1,0,0:0:0:0:
370,47,167030,2,0,L|488:45,1,104.500003189087,2|8,0:3|0:1,0:0:0:0:
213,293,167342,1,8,0:0:0:0:
72,294,167498,1,8,0:0:0:0:
394,115,167655,6,0,P|444:146|458:202,1,104.500003189087,12|0,0:1|0:0,0:0:0:0:
385,206,167889,1,0,0:0:0:0:
200,201,167967,1,8,0:0:0:0:
193,150,168045,1,0,0:0:0:0:
224,109,168123,1,0,0:0:0:0:
274,101,168201,1,0,0:0:0:0:
330,40,168280,2,0,L|262:39,1,52.2500015945435
50,44,168436,2,0,L|54:136,1,52.2500015945435,8|0,0:1|0:0,0:0:0:0:
314,350,168592,2,0,L|462:329,1,104.500003189087,10|0,0:0|0:0,0:0:0:0:
346,267,168826,1,0,0:0:0:0:
151,283,168905,6,0,P|125:230|166:205,1,104.500003189087,2|0,0:3|0:0,0:0:0:0:
225,195,169139,1,0,0:0:0:0:
445,199,169217,2,0,L|461:139,1,52.2500015945435,8|0,0:0|0:0,0:0:0:0:
378,116,169373,2,0,L|335:88,1,52.2500015945435,0|0,0:0|0:0,0:0:0:0:
256,50,169530,2,0,L|179:50,1,52.2500015945435,2|0,0:0|0:0,0:0:0:0:
387,35,169686,2,0,L|451:32,1,52.2500015945435,8|0,0:1|0:0,0:0:0:0:
247,334,169842,2,0,L|128:321,1,104.500003189087,8|0,0:0|0:0,0:0:0:0:
140,254,170076,1,0,0:0:0:0:
399,189,170155,6,0,L|289:192,1,104.500003189087,8|0,0:1|0:0,0:0:0:0:
226,191,170389,1,0,0:0:0:0:
407,54,170467,2,0,L|474:55,1,52.2500015945435,8|0,0:0|0:0,0:0:0:0:
397,127,170623,1,0,0:0:0:0:
331,161,170701,1,0,0:0:0:0:
331,211,170779,1,0,0:0:0:0:
396,245,170857,1,0,0:0:0:0:
187,358,170936,2,0,L|61:339,1,104.500003189087,8|0,0:1|0:0,0:0:0:0:
438,307,171248,6,0,L|452:191,1,104.500003189087,8|0,0:0|0:0,0:0:0:0:
369,173,171483,1,0,0:0:0:0:
186,177,171561,2,0,L|245:175,1,52.2500015945435,8|0,0:1|0:0,0:0:0:0:
443,118,171717,2,0,L|452:55,1,52.2500015945435,8|0,0:0|0:0,0:0:0:0:
379,48,171873,2,0,L|311:40,1,52.2500015945435
176,44,172030,1,2,0:3:0:0:
35,51,172186,1,8,0:1:0:0:
310,347,172342,2,0,L|380:349,1,52.2500015945435,8|0,0:0|0:0,0:0:0:0:
192,260,172498,2,0,L|131:259,1,52.2500015945435,8|0,0:0|0:0,0:0:0:0:
391,249,172655,6,0,P|431:209|376:125,1,156.750004783631,12|0,0:1|0:0,0:0:0:0:
214,88,172967,2,0,L|279:90,1,52.2500015945435,8|0,0:0|0:0,0:0:0:0:
478,24,173123,2,0,P|480:87|380:103,1,156.750004783631,0|0,0:0|0:0,0:0:0:0:
252,287,173436,2,0,L|199:286,1,52.2500015945435,8|0,0:1|0:0,0:0:0:0:
42,257,173592,2,0,L|32:135,1,104.500003189087,10|0,0:0|0:0,0:0:0:0:
106,132,173826,1,0,0:0:0:0:
276,130,173905,5,2,0:3:0:0:
38,37,174061,1,8,0:1:0:0:
319,42,174217,1,8,0:0:0:0:
181,119,174373,1,0,0:0:0:0:
182,171,174451,1,0,0:0:0:0:
183,223,174529,1,2,0:0:0:0:
442,306,174686,1,0,0:0:0:0:
152,349,174842,2,0,L|275:350,1,104.500003189087,8|0,0:0|0:0,0:0:0:0:
324,346,175076,1,0,0:0:0:0:
95,239,175155,6,0,P|53:200|113:134,1,156.750004783631,8|0,0:1|0:0,0:0:0:0:
277,64,175467,1,8,0:0:0:0:
142,154,175623,2,0,L|129:218,1,52.2500015945435,0|0,0:0|0:0,0:0:0:0:
228,224,175780,2,0,L|214:291,1,52.2500015945435,0|0,0:0|0:0,0:0:0:0:
30,334,175936,2,0,L|136:334,1,104.500003189087,8|0,0:1|0:0,0:0:0:0:
421,27,176248,6,0,L|302:27,1,104.500003189087,8|2,0:0|0:0,0:0:0:0:
473,159,176561,1,8,0:1:0:0:
295,164,176639,1,0,0:0:0:0:
117,161,176717,1,8,0:0:0:0:
200,266,176873,6,0,L|198:312,3,26.1250007972718
42,199,177030,6,0,L|39:135,1,52.2500015945435,8|0,0:0|0:0,0:0:0:0:
97,99,177186,1,8,0:1:0:0:
316,29,177264,1,8,0:0:0:0:
254,28,177342,1,0,0:0:0:0:
191,30,177420,1,8,0:1:0:0:
419,320,177498,2,0,L|495:316,1,52.2500015945435,8|0,0:0|0:0,0:0:0:0:
207,149,177655,5,12,0:1:0:0:
256,192,177811,12,0,182655,0:0:0:0:
361,278,187655,5,8,0:1:0:0:
134,290,187967,2,0,L|170:93,1,190,8|0,0:0|0:0,0:0:0:0:
92,92,188436,1,8,0:1:0:0:
253,287,188592,2,0,L|215:96,1,190,8|0,0:0|0:0,0:0:0:0:
140,99,189061,1,8,0:1:0:0:
390,329,189217,6,0,L|361:125,1,190,8|0,0:3|0:0,0:0:0:0:
449,101,189686,1,8,0:1:0:0:
280,319,189842,2,0,L|390:320,1,95,8|0,0:0|0:0,0:0:0:0:
83,136,190155,6,0,L|299:136,1,190,8|8,0:1|0:0,0:0:0:0:
34,213,190936,2,0,L|32:328,1,95,8|0,0:1|0:0,0:0:0:0:
205,339,191248,2,0,L|210:218,1,95,8|0,0:0|0:0,0:0:0:0:
126,220,191561,1,8,0:1:0:0:
296,222,191717,2,0,L|496:221,1,190,8|2,0:0|0:0,0:0:0:0:
400,143,192186,1,8,0:1:0:0:
276,66,192342,1,8,0:0:0:0:
437,23,192498,1,8,0:1:0:0:
151,146,192655,5,8,0:1:0:0:
302,330,192967,2,0,L|282:131,1,190,8|0,0:0|0:0,0:0:0:0:
369,108,193436,1,8,0:1:0:0:
208,274,193592,2,0,L|324:104,1,190,8|0,0:0|0:0,0:0:0:0:
239,81,194061,1,8,0:1:0:0:
398,289,194217,6,0,L|288:113,1,190,8|0,0:0|0:0,0:0:0:0:
375,92,194686,1,8,0:1:0:0:
214,95,194842,2,0,L|116:88,1,95,8|0,0:0|0:0,0:0:0:0:
391,283,195155,6,0,L|189:272,1,190,8|8,0:1|0:0,0:0:0:0:
487,30,195936,2,0,L|492:141,1,95,8|0,0:1|0:0,0:0:0:0:
330,316,196248,2,0,L|326:209,1,95,8|0,0:0|0:0,0:0:0:0:
413,186,196561,1,8,0:1:0:0:
242,177,196717,2,0,L|130:174,1,95,8|0,0:0|0:0,0:0:0:0:
405,346,197030,5,0,0:0:0:0:
456,311,197108,1,0,0:0:0:0:
454,264,197186,1,8,0:1:0:0:
400,235,197264,1,0,0:0:0:0:
214,233,197342,1,8,0:0:0:0:
160,226,197420,1,8,0:0:0:0:
104,223,197498,1,8,0:0:0:0:
48,223,197576,1,8,0:0:0:0:
229,37,197655,5,4,0:1:0:0:
380,116,197967,1,0,0:0:0:0:
248,230,198280,1,2,0:0:0:0:
418,345,198592,1,0,0:0:0:0:
171,356,198905,2,0,L|208:155,1,190
453,248,199530,2,0,L|424:44,1,190,2|0,0:0|0:0,0:0:0:0:
178,278,200155,6,0,P|155:206|330:127,1,285
142,72,200780,2,0,P|40:131|179:307,1,380,2|0,0:0|0:0,0:0:0:0:
390,158,202030,2,0,L|194:158,1,190,2|4,0:0|0:3,0:0:0:0:
317,76,202498,1,4,0:3:0:0:
28,64,202655,5,4,0:3:0:0:
158,116,202967,2,0,L|161:332,1,190,0|2,0:0|0:0,0:0:0:0:
294,344,203592,2,0,L|303:141,1,190
56,159,204217,1,0,0:0:0:0:
188,156,204530,1,2,0:0:0:0:
54,272,204842,1,0,0:0:0:0:
302,341,205155,6,0,P|390:307|375:130,1,285
233,147,205780,2,0,P|338:127|197:26,1,380,2|0,0:0|0:0,0:0:0:0:
360,62,206717,1,0,0:0:0:0:
112,258,207030,2,0,L|317:258,1,190,2|4,0:0|0:3,0:0:0:0:
179,109,207498,1,4,0:3:0:0:
452,111,207655,5,4,0:3:0:0:
338,301,207967,2,0,L|434:116,1,190,0|2,0:0|0:0,0:0:0:0:
294,221,208592,2,0,L|235:33,1,190
104,323,209217,2,0,L|301:323,1,190,0|2,0:0|0:0,0:0:0:0:
123,154,209842,1,0,0:0:0:0:
409,99,210155,6,0,P|371:232|266:86,1,380,0|2,0:0|0:0,0:0:0:0:
362,344,211092,1,0,0:0:0:0:
95,329,211405,2,0,P|220:207|81:122,1,380,0|2,0:0|0:0,0:0:0:0:
221,64,212342,1,4,0:3:0:0:
105,66,212498,1,4,0:3:0:0:
396,63,212655,6,0,P|452:106|384:179,1,190,4|0,0:3|0:0,0:0:0:0:
285,187,213123,1,0,0:0:0:0:
182,188,213280,2,0,L|15:294,2,190,2|0|0,0:0|0:0|0:0,0:0:0:0:
448,257,214217,1,0,0:0:0:0:
200,129,214530,1,2,0:0:0:0:
485,20,214842,1,8,0:1:0:0:
8,0,215155,6,0,P|162:79|3:349,1,570,2|0,0:0|0:0,0:0:0:0:
405,193,217655,1,4,0:1:0:0:
256,192,217811,12,0,220155,0:0:0:0:
207,238,223280,5,0,0:0:0:0:
330,239,223592,1,0,0:0:0:0:
85,318,223905,6,0,P|53:239|215:127,1,304,2|0,0:0|0:0,0:0:0:0:
95,38,224842,1,0,0:0:0:0:
350,210,225155,2,0,L|39:300,2,304,2|0|2,0:0|0:0|0:0,0:0:0:0:
164,105,226873,1,2,0:0:0:0:
348,253,227030,2,0,P|428:206|321:76,1,304,0|2,0:0|0:0,0:0:0:0:
85,228,228280,1,2,0:0:0:0:
206,225,228592,1,0,0:0:0:0:
435,227,228905,6,0,P|475:150|315:43,1,304,2|0,0:0|0:0,0:0:0:0:
451,29,229842,1,0,0:0:0:0:
191,269,230155,2,0,L|498:146,2,304,2|0|2,0:0|0:0|0:0,0:0:0:0:
312,78,231717,2,0,L|402:72,1,76,0|2,0:0|0:0,0:0:0:0:
231,254,232030,2,0,P|181:237|272:92,1,304
466,263,233280,1,2,0:0:0:0:
344,268,233592,1,0,0:0:0:0:
101,283,233905,6,0,P|194:252|86:138,1,304,2|0,0:0|0:0,0:0:0:0:
219,41,234842,1,0,0:0:0:0:
463,300,235155,2,0,L|155:369,2,304,2|0|2,0:0|0:0|0:0,0:0:0:0:
280,145,236873,1,2,0:0:0:0:
111,153,237030,2,0,P|78:192|232:331,1,304,0|2,0:0|0:0,0:0:0:0:
65,56,238280,1,2,0:0:0:0:
170,52,238592,1,0,0:0:0:0:
413,159,238905,6,0,L|177:124,2,228,2|0|0,0:0|0:0|0:0,0:0:0:0:
327,62,239998,1,0,0:0:0:0:
423,62,240155,1,2,0:0:0:0:
310,307,240467,2,0,L|155:286,1,152,0|2,0:0|0:0,0:0:0:0:
313,149,241092,1,0,0:0:0:0:
54,33,241405,6,0,P|51:102|304:10,1,532,2|0,0:0|0:0,0:0:0:0:
122,40,242655,2,0,P|71:100|170:283,1,285,2|0,0:0|0:0,0:0:0:0:
189,286,243201,1,0,0:0:0:0:
236,288,243279,1,2,0:0:0:0:
283,281,243357,1,0,0:0:0:0:
327,264,243435,1,0,0:0:0:0:
367,239,243513,1,0,0:0:0:0:
401,206,243591,1,2,0:0:0:0:
427,166,243669,1,0,0:0:0:0:
445,122,243747,1,0,0:0:0:0:
453,75,243826,1,0,0:0:0:0:
129,32,243905,6,0,P|53:70|163:195,1,285,4|0,0:3|0:0,0:0:0:0:
293,301,244530,2,0,B|81:296|81:296|82:215,1,285,0|2,0:0|0:1,0:0:0:0:
239,142,245155,2,0,B|451:137|451:137|450:56,1,285,4|2,0:3|0:1,0:0:0:0:
298,24,245780,2,0,P|243:61|328:218,1,285,2|0,0:1|0:0,0:0:0:0:
54,351,246405,6,0,L|360:324,1,285,4|2,0:3|0:1,0:0:0:0:
409,266,247029,1,0,0:0:0:0:
426,174,247185,1,0,0:0:0:0:
380,93,247341,1,0,0:0:0:0:
294,59,247498,1,0,0:0:0:0:
131,61,247655,5,2,0:0:0:0:
38,151,247811,1,0,0:0:0:0:
85,151,247889,1,0,0:0:0:0:
132,151,247967,1,0,0:0:0:0:
282,267,248123,1,0,0:0:0:0:
234,266,248201,1,0,0:0:0:0:
187,265,248279,1,2,0:3:0:0:
347,168,248436,2,0,L|357:106,1,47.5,0|0,0:0|0:0,0:0:0:0:
423,122,248592,2,0,L|433:67,1,47.5,0|0,0:0|0:0,0:0:0:0:
362,49,248748,2,0,L|308:44,1,47.5,0|0,0:0|0:0,0:0:0:0:
73,47,248905,5,4,0:3:0:0:
367,274,249530,2,0,P|445:224|336:111,1,285,0|2,0:1|0:1,0:0:0:0:
182,80,250155,2,0,L|481:76,1,285,4|2,0:3|0:1,0:0:0:0:
299,261,250780,2,0,P|364:254|454:70,1,285,0|2,0:1|0:1,0:0:0:0:
141,27,251405,6,0,L|142:316,1,285,4|2,0:3|0:1,0:0:0:0:
285,321,252030,1,0,0:0:0:0:
16,353,252342,1,2,0:0:0:0:
480,348,252655,2,0,P|471:281|299:166,1,285,4|0,0:3|0:0,0:0:0:0:
450,174,253280,2,0,P|485:111|493:-8,1,190,2|0,0:3|0:0,0:0:0:0:
38,10,253905,6,0,L|147:11,1,95,8|0,0:1|0:0,0:0:0:0:
288,79,254217,2,0,L|288:189,1,95,8|0,0:1|0:0,0:0:0:0:
128,172,254530,2,0,L|112:309,1,95,8|0,0:1|0:0,0:0:0:0:
273,305,254842,2,0,L|382:303,1,95,8|0,0:1|0:0,0:0:0:0:
310,237,255076,1,0,0:0:0:0:
80,237,255155,6,0,L|71:133,1,95,8|0,0:1|0:0,0:0:0:0:
228,60,255467,2,0,L|128:57,1,95,8|0,0:1|0:0,0:0:0:0:
288,54,255780,2,0,L|405:54,1,95,8|0,0:1|0:0,0:0:0:0:
224,213,256092,2,0,L|117:209,1,95,8|0,0:1|0:0,0:0:0:0:
184,150,256326,1,0,0:0:0:0:
408,57,256405,6,0,L|408:162,1,95,8|0,0:1|0:0,0:0:0:0:
251,291,256717,2,0,L|358:292,1,95,8|0,0:1|0:0,0:0:0:0:
501,170,257030,2,0,L|402:170,1,95,8|0,0:1|0:0,0:0:0:0:
250,164,257342,2,0,L|149:165,1,95,8|0,0:1|0:0,0:0:0:0:
211,95,257576,1,0,0:0:0:0:
401,23,257655,5,8,0:1:0:0:
447,29,257733,1,0,0:0:0:0:
483,59,257811,1,0,0:0:0:0:
499,103,257889,1,0,0:0:0:0:
490,149,257967,1,8,0:1:0:0:
458,184,258045,1,0,0:0:0:0:
413,197,258123,1,0,0:0:0:0:
250,291,258280,2,0,L|121:290,1,95,8|0,0:1|0:0,0:0:0:0:
327,128,258592,2,0,L|440:124,1,95,8|0,0:1|0:0,0:0:0:0:
48,203,258905,5,8,0:1:0:0:
190,195,259061,1,8,0:1:0:0:
44,91,259217,1,8,0:1:0:0:
187,86,259373,1,8,0:1:0:0:
407,294,259530,1,8,0:1:0:0:
260,297,259686,1,8,0:1:0:0:
495,89,259842,1,8,0:1:0:0:
177,92,259998,1,8,0:1:0:0:
484,216,260155,5,8,0:1:0:0:
341,215,260311,1,8,0:1:0:0:
488,140,260467,1,8,0:1:0:0:
346,130,260623,1,8,0:1:0:0:
88,342,260780,1,8,0:1:0:0:
225,336,260936,1,8,0:1:0:0:
8,106,261092,1,8,0:1:0:0:
336,106,261248,1,8,0:1:0:0:
23,179,261405,6,0,L|26:253,1,47.5,8|8,0:1|0:1,0:0:0:0:
97,230,261561,2,0,L|168:229,1,47.5,8|8,0:1|0:1,0:0:0:0:
70,286,261717,2,0,L|71:351,1,47.5,8|8,0:1|0:1,0:0:0:0:
218,175,261873,1,8,0:1:0:0:
279,175,261951,1,8,0:1:0:0:
426,306,262030,5,8,0:1:0:0:
478,303,262108,1,8,0:1:0:0:
426,306,262186,1,8,0:1:0:0:
478,303,262264,1,8,0:1:0:0:
271,89,262342,1,8,0:1:0:0:
214,88,262420,1,8,0:1:0:0:
423,31,262498,1,8,0:1:0:0:
480,30,262576,1,8,0:1:0:0:
217,262,262655,6,0,L|95:262,1,95,2|0,0:1|0:0,0:0:0:0:
58,262,262889,1,2,0:1:0:0:
125,195,262967,2,0,L|124:130,1,47.5,8|0,0:0|0:0,0:0:0:0:
53,124,263123,2,0,L|53:71,1,47.5,2|8,0:1|0:0,0:0:0:0:
138,31,263280,1,0,0:0:0:0:
18,36,263436,1,8,0:0:0:0:
325,284,263592,5,2,0:1:0:0:
348,283,263631,1,0,0:0:0:0:
371,277,263670,1,0,0:0:0:0:
391,264,263709,1,0,0:0:0:0:
407,247,263748,1,0,0:0:0:0:
418,226,263787,1,0,0:0:0:0:
423,203,263826,1,0,0:0:0:0:
422,179,263865,1,0,0:0:0:0:
261,86,263905,6,0,L|429:85,1,156.750004783631,8|0,0:1|0:0,0:0:0:0:
140,248,264217,6,0,P|97:210|99:140,1,104.500003189087,12|0,0:1|0:0,0:0:0:0:
156,138,264451,1,0,0:0:0:0:
226,135,264530,2,0,L|240:56,1,52.2500015945435,0|0,0:0|0:0,0:0:0:0:
44,33,264686,2,0,L|117:28,1,52.2500015945435,8|0,0:1|0:0,0:0:0:0:
317,33,264842,2,0,L|197:31,1,104.500003189087,10|0,0:0|0:0,0:0:0:0:
149,29,265076,1,0,0:0:0:0:
352,113,265155,5,2,0:3:0:0:
485,113,265311,2,0,L|417:113,1,52.2500015945435,8|0,0:1|0:0,0:0:0:0:
237,141,265467,2,0,P|210:201|252:263,1,104.500003189087,8|0,0:0|0:0,0:0:0:0:
292,247,265701,1,0,0:0:0:0:
217,303,265780,2,0,L|150:304,1,52.2500015945435,2|0,0:0|0:0,0:0:0:0:
359,152,265936,2,0,L|427:149,1,52.2500015945435,0|0,0:0|0:0,0:0:0:0:
172,71,266092,2,0,L|46:66,1,104.500003189087,8|0,0:0|0:0,0:0:0:0:
130,139,266326,1,0,0:0:0:0:
407,129,266405,6,0,P|456:158|473:274,1,156.750004783631,8|0,0:1|0:0,0:0:0:0:
234,342,266717,2,0,L|314:344,1,52.2500015945435,8|0,0:0|0:0,0:0:0:0:
371,285,266873,2,0,L|300:285,1,52.2500015945435,2|0,0:0|0:0,0:0:0:0:
235,275,267030,2,0,L|229:208,1,52.2500015945435,2|0,0:0|0:0,0:0:0:0:
377,96,267186,2,0,L|503:88,1,104.500003189087,8|0,0:1|0:0,0:0:0:0:
145,56,267498,6,0,L|40:52,1,104.500003189087,8|0,0:0|0:0,0:0:0:0:
103,123,267733,1,0,0:0:0:0:
277,214,267811,2,0,L|203:220,1,52.2500015945435,8|0,0:1|0:0,0:0:0:0:
52,252,267967,2,0,L|39:311,1,52.2500015945435,8|0,0:0|0:0,0:0:0:0:
121,310,268123,2,0,L|105:369,1,52.2500015945435,0|0,0:0|0:0,0:0:0:0:
25,367,268280,2,0,L|95:371,1,52.2500015945435,2|0,0:0|0:0,0:0:0:0:
269,361,268436,1,0,0:0:0:0:
28,119,268592,1,10,0:0:0:0:
180,115,268748,1,8,0:0:0:0:
480,116,268905,6,0,P|460:167|349:212,1,156.750004783631,12|0,0:1|0:0,0:0:0:0:
177,344,269217,2,0,L|189:276,1,52.2500015945435,8|0,0:0|0:0,0:0:0:0:
262,276,269373,2,0,L|273:213,1,52.2500015945435,0|0,0:0|0:0,0:0:0:0:
194,175,269530,2,0,L|137:175,1,52.2500015945435,0|0,0:0|0:0,0:0:0:0:
317,51,269686,2,0,L|257:49,1,52.2500015945435,8|0,0:1|0:0,0:0:0:0:
39,34,269842,2,0,L|150:57,1,104.500003189087,10|0,0:0|0:0,0:0:0:0:
211,68,270076,1,0,0:0:0:0:
385,193,270155,5,2,0:3:0:0:
236,203,270311,1,8,0:1:0:0:
459,340,270467,2,0,L|336:329,1,104.500003189087,8|0,0:0|0:0,0:0:0:0:
278,321,270701,2,0,L|270:257,1,52.2500015945435,0|2,0:0|0:0,0:0:0:0:
348,232,270858,1,0,0:0:0:0:
165,98,270936,2,0,L|230:97,1,52.2500015945435,8|0,0:1|0:0,0:0:0:0:
423,101,271092,2,0,P|472:40|472:-2,1,104.500003189087,8|0,0:0|0:0,0:0:0:0:
404,7,271326,1,0,0:0:0:0:
139,24,271405,6,0,P|88:52|61:154,1,156.750004783631,8|0,0:1|0:0,0:0:0:0:
256,285,271717,2,0,L|110:276,1,104.500003189087,8|0,0:0|0:0,0:0:0:0:
81,261,271951,2,0,L|18:252,2,52.2500015945435,0|0|0,0:0|0:0|0:0,0:0:0:0:
287,149,272186,2,0,L|417:140,1,104.500003189087,8|2,0:1|0:0,0:0:0:0:
73,25,272498,6,0,L|217:15,1,104.500003189087,8|2,0:0|0:0,0:0:0:0:
247,16,272733,1,0,0:0:0:0:
109,98,272811,1,8,0:1:0:0:
62,120,272889,1,0,0:0:0:0:
37,165,272967,1,8,0:0:0:0:
42,216,273045,1,0,0:0:0:0:
75,255,273123,1,0,0:0:0:0:
124,269,273201,1,0,0:0:0:0:
304,269,273280,6,0,L|366:264,1,52.2500015945435,2|0,0:3|0:0,0:0:0:0:
157,132,273436,1,8,0:1:0:0:
311,131,273592,2,0,L|253:132,1,52.2500015945435,10|0,0:0|0:0,0:0:0:0:
96,43,273748,2,0,L|166:42,1,52.2500015945435,8|0,0:0|0:0,0:0:0:0:
376,38,273905,6,0,P|442:62|450:170,1,156.750004783631,12|0,0:1|0:0,0:0:0:0:
269,301,274217,2,0,L|176:303,1,52.2500015945435,8|0,0:0|0:0,0:0:0:0:
139,289,274373,2,0,L|129:232,1,52.2500015945435,0|0,0:0|0:0,0:0:0:0:
210,191,274530,2,0,L|215:135,1,52.2500015945435,0|0,0:0|0:0,0:0:0:0:
54,48,274686,2,0,L|112:50,1,52.2500015945435,8|0,0:1|0:0,0:0:0:0:
300,240,274842,2,0,L|170:244,1,104.500003189087,10|0,0:0|0:0,0:0:0:0:
133,239,275076,1,0,0:0:0:0:
355,97,275155,5,2,0:3:0:0:
492,93,275311,1,8,0:1:0:0:
213,275,275467,1,8,0:0:0:0:
359,264,275623,2,0,L|418:263,2,52.2500015945435,0|0|2,0:0|0:0|0:0,0:0:0:0:
80,103,275936,1,8,0:1:0:0:
333,180,276092,2,0,L|454:180,1,104.500003189087,8|0,0:0|0:0,0:0:0:0:
372,110,276326,1,0,0:0:0:0:
130,119,276405,6,0,P|79:163|145:225,1,156.750004783631,8|0,0:1|0:0,0:0:0:0:
327,313,276717,2,0,L|337:259,1,52.2500015945435,8|0,0:0|0:0,0:0:0:0:
256,228,276873,2,0,L|266:173,1,52.2500015945435,2|0,0:0|0:0,0:0:0:0:
350,122,277030,2,0,L|296:111,1,52.2500015945435,2|0,0:0|0:0,0:0:0:0:
100,35,277186,2,0,L|212:26,1,104.500003189087,8|0,0:1|0:0,0:0:0:0:
482,171,277498,6,0,L|349:174,1,104.500003189087,8|0,0:0|0:0,0:0:0:0:
431,107,277733,1,0,0:0:0:0:
247,290,277811,2,0,L|156:279,1,52.2500015945435,8|0,0:1|0:0,0:0:0:0:
385,211,277967,1,8,0:0:0:0:
443,205,278045,1,0,0:0:0:0:
385,139,278123,1,0,0:0:0:0:
442,134,278201,1,0,0:0:0:0:
201,213,278280,6,0,L|215:146,1,52.2500015945435,2|0,0:3|0:0,0:0:0:0:
284,117,278436,2,0,L|349:99,1,52.2500015945435,8|0,0:1|0:0,0:0:0:0:
74,280,278592,2,0,L|150:283,1,52.2500015945435,10|0,0:0|0:0,0:0:0:0:
296,285,278748,2,0,L|367:290,1,52.2500015945435,8|0,0:0|0:0,0:0:0:0:
99,176,278905,6,0,P|50:146|111:86,1,156.750004783631,12|0,0:1|0:0,0:0:0:0:
300,71,279217,2,0,L|240:69,1,52.2500015945435,8|0,0:0|0:0,0:0:0:0:
28,13,279373,2,0,P|30:79|125:99,1,156.750004783631,2|0,0:0|0:0,0:0:0:0:
266,164,279686,2,0,L|343:166,1,52.2500015945435,8|0,0:1|0:0,0:0:0:0:
495,55,279842,2,0,L|485:198,1,104.500003189087,10|0,0:0|0:0,0:0:0:0:
419,162,280076,1,0,0:0:0:0:
245,248,280155,5,2,0:3:0:0:
480,253,280311,1,8,0:1:0:0:
151,43,280467,1,8,0:0:0:0:
287,135,280623,1,0,0:0:0:0:
228,134,280701,1,0,0:0:0:0:
170,133,280779,1,2,0:0:0:0:
419,257,280936,1,0,0:0:0:0:
169,349,281092,2,0,L|45:346,1,104.500003189087,8|0,0:0|0:0,0:0:0:0:
128,278,281326,1,0,0:0:0:0:
374,146,281405,6,0,L|177:146,1,156.750004783631,8|0,0:1|0:0,0:0:0:0:
386,53,281717,1,8,0:0:0:0:
250,229,281873,2,0,L|319:232,1,52.2500015945435,0|0,0:0|0:0,0:0:0:0:
372,164,282030,2,0,L|294:164,1,52.2500015945435,2|0,0:0|0:0,0:0:0:0:
155,61,282186,2,0,L|29:61,1,104.500003189087,8|0,0:1|0:0,0:0:0:0:
438,237,282498,6,0,L|300:236,1,104.500003189087,8|0,0:0|0:0,0:0:0:0:
449,84,282811,1,8,0:1:0:0:
247,85,282889,1,0,0:0:0:0:
44,76,282967,1,8,0:0:0:0:
171,147,283123,5,8,0:1:0:0:
154,196,283201,1,2,0:0:0:0:
116,231,283279,1,2,0:0:0:0:
66,243,283357,1,0,0:0:0:0:
240,278,283436,1,8,0:1:0:0:
299,274,283514,1,2,0:0:0:0:
466,111,283592,1,8,0:0:0:0:
406,107,283670,1,2,0:0:0:0:
199,54,283748,1,8,0:1:0:0:
139,49,283826,1,2,0:0:0:0:
463,296,283905,5,4,0:3:0:0:
475,231,283983,1,0,0:0:0:0:
441,176,284061,1,0,0:0:0:0:
378,159,284139,1,0,0:0:0:0:
188,142,284217,2,0,L|257:142,1,56.9999982604981,8|0,0:0|0:0,0:0:0:0:
39,40,284373,2,0,L|43:99,1,56.9999982604981
265,89,284530,6,0,L|412:82,1,113.999996520996,2|0,0:0|0:0,0:0:0:0:
438,78,284764,1,0,0:0:0:0:
261,152,284842,1,8,0:0:0:0:
191,177,284920,1,0,0:0:0:0:
187,231,284998,1,0,0:0:0:0:
253,261,285076,1,0,0:0:0:0:
449,329,285155,5,2,0:0:0:0:
325,328,285311,1,0,0:0:0:0:
56,324,285467,2,0,L|212:317,1,113.999996520996,8|0,0:0|0:0,0:0:0:0:
103,253,285701,2,0,L|46:251,2,56.9999982604981,0|2|0,0:0|0:0|0:0,0:0:0:0:
313,198,285936,2,0,L|229:189,1,56.9999982604981,0|0,0:0|0:0,0:0:0:0:
46,189,286092,2,0,L|37:76,1,113.999996520996,8|0,0:0|0:0,0:0:0:0:
105,51,286326,1,0,0:0:0:0:
389,43,286405,5,8,0:1:0:0:
240,119,286561,2,0,L|230:178,1,56.9999982604981,0|0,0:0|0:0,0:0:0:0:
309,188,286717,1,8,0:0:0:0:
468,255,286873,2,0,L|463:324,1,56.9999982604981,0|0,0:0|0:0,0:0:0:0:
383,328,287030,1,0,0:0:0:0:
220,215,287186,1,8,0:1:0:0:
276,210,287264,1,0,0:0:0:0:
333,205,287342,1,0,0:0:0:0:
390,200,287420,1,0,0:0:0:0:
180,88,287498,2,0,L|82:87,1,56.9999982604981,8|0,0:0|0:0,0:0:0:0:
407,278,287655,5,2,0:0:0:0:
458,242,287733,1,2,0:0:0:0:
473,181,287811,1,8,0:1:0:0:
445,126,287889,1,2,0:0:0:0:
246,80,287967,2,0,L|312:81,1,56.9999982604981,8|0,0:0|0:0,0:0:0:0:
91,199,288123,2,0,L|26:197,1,56.9999982604981,0|0,0:0|0:0,0:0:0:0:
204,214,288280,2,0,L|207:277,1,56.9999982604981,2|2,0:0|0:0,0:0:0:0:
281,267,288436,2,0,L|287:331,1,56.9999982604981,8|2,0:1|0:0,0:0:0:0:
88,354,288592,2,0,L|31:354,1,56.9999982604981,8|0,0:0|0:0,0:0:0:0:
229,136,288748,2,0,L|293:137,1,56.9999982604981,8|0,0:0|0:0,0:0:0:0:
25,26,288905,6,0,L|237:47,1,170.999994781494,12|0,0:1|0:0,0:0:0:0:
384,125,289217,2,0,L|392:201,1,56.9999982604981,8|0,0:0|0:0,0:0:0:0:
308,197,289373,2,0,L|303:268,1,56.9999982604981,0|0,0:0|0:0,0:0:0:0:
390,280,289530,2,0,L|449:293,1,56.9999982604981,2|0,0:0|0:0,0:0:0:0:
255,348,289686,2,0,L|176:345,1,56.9999982604981,8|0,0:1|0:0,0:0:0:0:
406,187,289842,2,0,P|468:142|479:80,1,113.999996520996,8|0,0:0|0:0,0:0:0:0:
413,81,290076,1,0,0:0:0:0:
216,21,290155,6,0,P|172:85|188:137,1,113.999996520996,2|0,0:0|0:0,0:0:0:0:
474,241,290467,2,0,L|342:245,1,113.999996520996,8|0,0:0|0:0,0:0:0:0:
418,175,290701,1,0,0:0:0:0:
187,104,290780,1,2,0:0:0:0:
177,160,290858,1,0,0:0:0:0:
168,216,290936,1,8,0:1:0:0:
235,219,291014,1,0,0:0:0:0:
385,347,291092,2,0,L|402:276,1,56.9999982604981,8|0,0:0|0:0,0:0:0:0:
484,281,291248,2,0,L|500:215,1,56.9999982604981,0|0,0:0|0:0,0:0:0:0:
212,106,291405,6,0,L|346:92,1,113.999996520996,8|0,0:1|0:0,0:0:0:0:
387,81,291639,1,0,0:0:0:0:
181,284,291717,2,0,L|172:218,1,56.9999982604981,8|0,0:0|0:0,0:0:0:0:
28,169,291873,2,0,L|18:87,1,56.9999982604981,0|0,0:0|0:0,0:0:0:0:
233,60,292030,2,0,L|317:60,1,56.9999982604981,0|0,0:0|0:0,0:0:0:0:
96,132,292186,2,0,L|86:256,1,113.999996520996,8|0,0:1|0:0,0:0:0:0:
378,302,292498,6,0,L|512:303,1,113.999996520996,8|2,0:0|0:0,0:0:0:0:
420,238,292733,1,2,0:0:0:0:
207,232,292811,1,8,0:1:0:0:
156,209,292889,1,0,0:0:0:0:
139,156,292967,1,8,0:0:0:0:
166,109,293045,1,0,0:0:0:0:
220,97,293123,1,0,0:0:0:0:
300,95,293201,1,0,0:0:0:0:
381,94,293280,1,0,0:0:0:0:
297,19,293358,1,0,0:0:0:0:
212,18,293436,1,8,0:1:0:0:
126,14,293514,1,2,0:0:0:0:
303,333,293592,2,0,L|335:252,1,56.9999982604981,8|2,0:0|0:0,0:0:0:0:
135,218,293748,2,0,L|125:155,1,56.9999982604981,2|2,0:0|0:0,0:0:0:0:
401,168,293905,6,0,L|511:121,1,113.999996520996,4|0,0:3|0:0,0:0:0:0:
440,69,294139,1,0,0:0:0:0:
260,273,294217,2,0,L|180:271,1,56.9999982604981,8|0,0:0|0:0,0:0:0:0:
386,104,294373,2,0,L|324:102,1,56.9999982604981,0|0,0:0|0:0,0:0:0:0:
97,137,294530,2,0,L|33:129,1,56.9999982604981,2|0,0:0|0:0,0:0:0:0:
102,43,294686,2,0,L|31:35,1,56.9999982604981,8|0,0:1|0:0,0:0:0:0:
278,209,294842,2,0,L|404:200,1,113.999996520996,8|0,0:0|0:0,0:0:0:0:
461,190,295076,1,0,0:0:0:0:
207,120,295155,5,2,0:0:0:0:
59,110,295311,1,8,0:1:0:0:
331,331,295467,2,0,L|194:315,1,113.999996520996,8|0,0:0|0:0,0:0:0:0:
138,305,295701,2,0,L|132:236,1,56.9999982604981,0|2,0:0|0:0,0:0:0:0:
218,212,295858,1,0,0:0:0:0:
395,126,295936,2,0,L|312:122,1,56.9999982604981,8|0,0:1|0:0,0:0:0:0:
159,166,296092,2,0,L|226:185,1,56.9999982604981,8|0,0:0|0:0,0:0:0:0:
395,290,296248,2,0,L|469:303,1,56.9999982604981,0|0,0:0|0:0,0:0:0:0:
158,241,296405,6,0,P|95:168|150:103,1,170.999994781494,8|0,0:1|0:0,0:0:0:0:
329,101,296717,2,0,L|192:93,1,113.999996520996,8|0,0:0|0:0,0:0:0:0:
289,31,296951,2,0,L|356:28,1,56.9999982604981,0|0,0:0|0:0,0:0:0:0:
32,129,297186,2,0,L|47:274,1,113.999996520996,8|0,0:1|0:0,0:0:0:0:
368,349,297498,2,0,L|440:345,1,56.9999982604981,8|0,0:0|0:0,0:0:0:0:
116,250,297655,6,0,L|39:248,2,56.9999982604981,2|2|8,0:0|0:0|0:1,0:0:0:0:
185,249,297889,1,0,0:0:0:0:
369,165,297967,2,0,L|437:162,1,56.9999982604981,8|0,0:0|0:0,0:0:0:0:
364,76,298123,2,0,L|439:73,1,56.9999982604981,2|2,0:0|0:0,0:0:0:0:
227,337,298280,2,0,L|310:336,1,56.9999982604981,2|2,0:0|0:0,0:0:0:0:
447,245,298436,2,0,L|360:244,1,56.9999982604981,0|0,0:0|0:0,0:0:0:0:
161,98,298592,1,8,0:0:0:0:
299,99,298748,1,10,0:0:0:0:
20,30,298905,6,0,P|74:48|134:112,1,113.999996520996,12|0,0:1|0:0,0:0:0:0:
60,122,299139,1,0,0:0:0:0:
266,286,299217,2,0,L|258:226,1,56.9999982604981,8|0,0:0|0:0,0:0:0:0:
193,198,299373,2,0,L|118:187,1,56.9999982604981
358,165,299530,2,0,L|350:105,1,56.9999982604981,2|0,0:0|0:0,0:0:0:0:
285,80,299686,2,0,L|210:69,1,56.9999982604981,8|0,0:1|0:0,0:0:0:0:
429,270,299842,2,0,L|493:264,1,56.9999982604981,8|2,0:0|0:0,0:0:0:0:
424,191,299998,2,0,L|489:184,1,56.9999982604981,2|2,0:0|0:0,0:0:0:0:
183,122,300155,6,0,L|334:114,1,113.999996520996,2|0,0:0|0:0,0:0:0:0:
362,111,300389,1,0,0:0:0:0:
212,307,300467,2,0,L|199:190,1,113.999996520996,8|0,0:0|0:0,0:0:0:0:
269,168,300701,1,0,0:0:0:0:
45,47,300780,2,0,L|143:43,1,56.9999982604981,2|0,0:0|0:0,0:0:0:0:
345,37,300936,2,0,L|419:35,1,56.9999982604981,8|0,0:1|0:0,0:0:0:0:
116,170,301092,2,0,L|192:164,1,56.9999982604981,8|0,0:0|0:0,0:0:0:0:
243,160,301248,2,0,L|325:155,1,56.9999982604981,0|0,0:0|0:0,0:0:0:0:
36,275,301405,6,0,L|233:300,1,170.999994781494,8|0,0:1|0:0,0:0:0:0:
377,305,301717,1,8,0:0:0:0:
243,96,301873,2,0,L|320:97,1,56.9999982604981,0|0,0:0|0:0,0:0:0:0:
374,45,302030,2,0,L|312:44,1,56.9999982604981,2|2,0:0|0:0,0:0:0:0:
102,228,302186,2,0,L|27:227,1,56.9999982604981,8|2,0:1|0:0,0:0:0:0:
302,325,302342,2,0,L|213:323,1,56.9999982604981,0|0,0:0|0:0,0:0:0:0:
316,247,302498,2,0,L|379:247,1,56.9999982604981,8|0,0:0|0:0,0:0:0:0:
138,81,302655,5,0,0:0:0:0:
36,170,302811,1,8,0:1:0:0:
247,166,302889,1,8,0:1:0:0:
459,177,302967,1,8,0:0:0:0:
247,166,303045,1,2,0:0:0:0:
200,167,303123,6,0,L|200:215,3,28.4999991302491
332,261,303280,5,8,0:0:0:0:
395,261,303358,1,0,0:0:0:0:
458,260,303436,1,8,0:1:0:0:
205,101,303514,1,8,0:0:0:0:
268,101,303592,1,0,0:0:0:0:
331,100,303670,1,8,0:1:0:0:
81,58,303748,2,0,L|10:59,1,56.9999982604981,8|0,0:0|0:0,0:0:0:0:
362,55,303905,5,4,0:3:0:0:
256,192,304061,12,0,308905,0:0:0:0:
189,359,309530,6,0,L|172:16,1,332.5
246,56,310155,2,0,P|346:156|239:252,1,299.249990867615,2|0,0:0|0:0,0:0:0:0:
333,353,310780,2,0,L|25:346,1,299.249990867615,0|0,0:0|0:0,0:0:0:0:
89,280,311405,6,0,P|300:227|90:73,1,598.49998173523,2|0,0:0|0:0,0:0:0:0:
182,58,312576,1,0,0:0:0:0:
268,59,312655,1,2,0:0:0:0:
462,166,313280,2,0,P|374:194|305:255,1,170.999994781494,0|0,0:0|0:0,0:0:0:0:
393,275,313670,1,0,0:0:0:0:
471,277,313748,1,0,0:0:0:0:
393,275,313826,1,0,0:0:0:0:
310,272,313905,6,0,P|255:188|414:279,1,598.49998173523,4|0,0:3|0:0,0:0:0:0:
332,339,315155,2,0,P|262:328|347:161,2,341.999989562989,0|0|0,0:0|0:0|0:0,0:0:0:0:
32,348,317655,2,0,P|238:273|14:5,1,683.999979125977,0|0,0:0|0:0,0:0:0:0:
309,31,319530,6,0,L|310:346,1,299.249990867615,0|0,0:0|0:0,0:0:0:0:
241,331,320155,2,0,P|205:296|268:75,1,299.249990867615,2|0,0:0|0:0,0:0:0:0:
323,334,320780,2,0,L|322:24,1,299.249990867615,0|0,0:0|0:0,0:0:0:0:
252,33,321405,2,0,P|130:60|265:313,1,512.999984344483,2|0,0:0|0:0,0:0:0:0:
479,81,322655,6,0,L|156:80,1,299.249990867615,2|0,0:1|0:0,0:0:0:0:
436,324,323280,2,0,L|499:324,2,42.7499986953736,0|0|0,0:0|0:0|0:0,0:0:0:0:
367,323,323514,1,0,0:0:0:0:
175,301,323592,6,0,P|118:257|190:221,1,170.999994781494,0|2,0:0|0:1,0:0:0:0:
