osu file format v14

[General]
AudioFilename: audio.mp3
AudioLeadIn: 0
PreviewTime: 74218
Countdown: 0
SampleSet: Normal
StackLeniency: 0.7
Mode: 3
LetterboxInBreaks: 0
SpecialStyle: 0
WidescreenStoryboard: 0

[Editor]
DistanceSpacing: 1.2
BeatDivisor: 4
GridSize: 4
TimelineZoom: 2.1

[Metadata]
Title:Petals
TitleUnicode:Petals
Artist:Nanahira
ArtistUnicode:ななひら
Creator:-GluenShurtlyn-
Version:Wither and Blossom
Source:
Tags:C91 Secretale
BeatmapID:1916373
BeatmapSetID:917696

[Difficulty]
HPDrainRate:7.5
CircleSize:4
OverallDifficulty:7.5
ApproachRate:5
SliderMultiplier:1.4
SliderTickRate:1

[Events]
//Background and Video events
0,0,"petals.jpg",0,0
//Break Periods
//Storyboard Layer 0 (Background)
//Storyboard Layer 1 (Fail)
//Storyboard Layer 2 (Pass)
//Storyboard Layer 3 (Foreground)
//Storyboard Sound Samples

[TimingPoints]
1093,312.5,4,2,0,5,1,0
1093,-117.647058823529,4,2,0,5,0,0
10468,-111.111111111111,4,2,0,5,0,0
10780,-105.263157894737,4,2,0,5,0,0
11093,-100,4,2,0,5,0,0
31093,-166.666666666667,4,2,0,5,0,0
41093,-142.857142857143,4,2,0,5,0,0
48593,-125,4,2,0,5,0,0
49843,-111.111111111111,4,2,0,5,0,0
50468,-105.263157894737,4,2,0,5,0,0
50624,-103.896103896104,4,2,0,5,0,0
50780,-102.564102564103,4,2,0,5,0,0
50936,-101.26582278481,4,2,0,5,0,0
51093,-100,4,2,0,5,0,0
73280,-133.333333333333,4,2,0,5,0,0
74218,-120.481927710843,4,2,0,5,0,0
74530,-108.695652173913,4,2,0,5,0,0
74843,-100,4,2,0,5,0,0
94843,-12.5,4,2,0,5,0,1
94882,-800,4,2,0,5,0,1
95155,-100,4,2,0,5,0,1
114843,-100,4,2,0,5,0,0
134843,-111.111111111111,4,2,0,5,0,0
137343,-109.58904109589,4,2,0,5,0,0
137968,-108.108108108108,4,2,0,5,0,0
138593,-106.666666666667,4,2,0,5,0,0
139218,-105.263157894737,4,2,0,5,0,0
139843,-103.896103896104,4,2,0,5,0,0
140468,-102.564102564103,4,2,0,5,0,0
141093,-101.26582278481,4,2,0,5,0,0
141718,-100,4,2,0,5,0,0
158593,-12.5,4,2,0,5,0,1
158632,-800,4,2,0,5,0,1
158905,-100,4,2,0,5,0,1
178593,-111.111111111111,4,2,0,5,0,0
187343,-105.263157894737,4,2,0,5,0,0
187968,-102.564102564103,4,2,0,5,0,0
188280,-101.26582278481,4,2,0,5,0,0
188593,-100,4,2,0,5,0,0
198593,-117.647058823529,4,2,0,5,0,0
203593,-125,4,2,0,5,0,0
208593,-133.333333333333,4,2,0,5,0,0
213593,-142.857142857143,4,2,0,5,0,0
216093,-153.846153846154,4,2,0,5,0,0
217968,-166.666666666667,4,2,0,5,0,0
218593,-181.818181818182,4,2,0,5,0,0
218905,-200,4,2,0,5,0,0
221093,-111.111111111111,4,2,0,5,0,0
242343,-108.108108108108,4,2,0,5,0,0
242655,-105.263157894737,4,2,0,5,0,0
242968,-102.564102564103,4,2,0,5,0,0
243280,-100,4,2,0,5,0,0
264843,-10,4,2,0,5,0,1
264921,-1000,4,2,0,5,0,1
265155,-100,4,2,0,5,0,1
285155,-100,4,2,0,5,0,0
332186,333.333333333333,4,1,0,5,1,0
332519,357.142857142857,4,1,0,5,1,0
332876,375,4,1,0,5,1,0
334001,468.75,4,1,0,5,1,0
334235,535.714285714286,4,1,0,5,1,0
334502,625,4,1,0,5,1,0
334814,714.285714285714,4,1,0,5,1,0
335171,833.333333333333,4,1,0,5,1,0

[HitObjects]
64,192,1093,5,0,0:0:0:0:
192,192,1249,1,0,0:0:0:0:
320,192,1405,1,0,0:0:0:0:
192,192,1561,1,0,0:0:0:0:
448,192,1874,1,0,0:0:0:0:
320,192,2186,1,0,0:0:0:0:
64,192,2186,128,0,2499:0:0:0:0:
192,192,2499,1,0,0:0:0:0:
320,192,2655,1,0,0:0:0:0:
448,192,2811,1,0,0:0:0:0:
192,192,3124,128,0,3436:0:0:0:0:
448,192,3436,128,0,3749:0:0:0:0:
320,192,3749,1,0,0:0:0:0:
192,192,3905,1,0,0:0:0:0:
64,192,4061,128,0,4530:0:0:0:0:
448,192,4530,1,0,0:0:0:0:
448,192,4999,1,0,0:0:0:0:
64,192,5155,1,0,0:0:0:0:
192,192,5311,1,0,0:0:0:0:
320,192,5468,1,0,0:0:0:0:
448,192,5624,1,0,0:0:0:0:
64,192,5780,1,0,0:0:0:0:
448,192,5936,1,0,0:0:0:0:
448,192,6093,1,0,0:0:0:0:
320,192,6249,1,0,0:0:0:0:
192,192,6405,1,0,0:0:0:0:
320,192,6561,1,0,0:0:0:0:
64,192,6874,1,0,0:0:0:0:
192,192,7186,1,0,0:0:0:0:
448,192,7186,128,0,7499:0:0:0:0:
320,192,7499,1,0,0:0:0:0:
192,192,7655,1,0,0:0:0:0:
64,192,7811,1,0,0:0:0:0:
320,192,8124,128,0,8436:0:0:0:0:
448,192,8436,128,0,9843:0:0:0:0:
64,192,8436,128,0,8749:0:0:0:0:
320,192,8749,1,0,0:0:0:0:
192,192,8905,1,0,0:0:0:0:
64,192,9061,1,0,0:0:0:0:
192,192,9530,1,0,0:0:0:0:
64,192,9999,1,0,0:0:0:0:
448,192,10155,1,0,0:0:0:0:
320,192,10311,1,0,0:0:0:0:
192,192,10468,1,0,0:0:0:0:
320,192,10624,1,0,0:0:0:0:
64,192,10780,1,0,0:0:0:0:
320,192,10936,1,0,0:0:0:0:
192,192,11093,1,0,0:0:0:100:drum.wav
448,192,11093,1,0,0:0:0:100:drum.wav
64,192,11093,128,0,12343:0:0:0:0:
320,192,11249,1,0,0:0:0:0:
192,192,11405,1,0,0:0:0:0:
320,192,11874,1,0,0:0:0:0:
448,192,12030,1,0,0:0:0:0:
448,192,12343,128,0,12968:0:0:0:0:
320,192,12499,1,0,0:0:0:0:
64,192,12655,1,0,0:0:0:0:
192,192,12811,1,0,0:0:0:0:
320,192,12968,128,0,13593:0:0:0:0:
448,192,13124,1,0,0:0:0:0:
64,192,13436,1,0,0:0:0:0:
192,192,13593,128,0,14843:0:0:0:0:
448,192,13593,1,0,0:0:0:0:
320,192,13749,1,0,0:0:0:0:
64,192,13905,1,0,0:0:0:0:
448,192,14061,1,0,0:0:0:0:
448,192,14530,1,0,0:0:0:0:
64,192,14686,1,0,0:0:0:0:
320,192,14843,1,0,0:0:0:0:
448,192,14843,128,0,16093:0:0:0:0:
192,192,14999,1,0,0:0:0:0:
64,192,15155,1,0,0:0:0:0:
192,192,15311,1,0,0:0:0:0:
64,192,15468,1,0,0:0:0:0:
192,192,15624,1,0,0:0:0:0:
320,192,15780,1,0,0:0:0:0:
192,192,15936,1,0,0:0:0:0:
64,192,16093,1,0,0:0:0:0:
448,192,16561,1,0,0:0:0:0:
64,192,16718,128,0,17343:0:0:0:0:
448,192,16874,1,0,0:0:0:0:
192,192,17030,1,0,0:0:0:0:
320,192,17186,1,0,0:0:0:0:
448,192,17343,128,0,17968:0:0:0:0:
192,192,17343,1,0,0:0:0:0:
320,192,17499,1,0,0:0:0:0:
192,192,17655,1,0,0:0:0:0:
64,192,17811,1,0,0:0:0:0:
320,192,17968,128,0,18593:0:0:0:0:
192,192,17968,1,0,0:0:0:0:
448,192,18124,1,0,0:0:0:0:
64,192,18280,1,0,0:0:0:0:
448,192,18436,1,0,0:0:0:0:
192,192,18593,128,0,19218:0:0:0:0:
64,192,18593,1,0,0:0:0:0:
448,192,18749,1,0,0:0:0:0:
320,192,18905,1,0,0:0:0:0:
64,192,19061,1,0,0:0:0:0:
448,192,19374,1,0,0:0:0:0:
320,192,19530,1,0,0:0:0:0:
64,192,19686,1,0,0:0:0:0:
192,192,19764,1,0,0:0:0:0:
320,192,19843,1,0,0:0:0:0:
448,192,19843,128,0,20468:0:0:0:0:
64,192,19999,1,0,0:0:0:0:
192,192,20155,1,0,0:0:0:0:
320,192,20311,1,0,0:0:0:0:
64,192,20468,1,0,0:0:0:0:
320,192,20624,1,0,0:0:0:0:
448,192,20780,1,0,0:0:0:0:
320,192,20858,1,0,0:0:0:0:
192,192,20936,1,0,0:0:0:0:
64,192,21014,1,0,0:0:0:0:
448,192,21093,128,0,22343:0:0:0:0:
320,192,21093,1,0,0:0:0:0:
192,192,21249,1,0,0:0:0:0:
320,192,21405,1,0,0:0:0:0:
64,192,21561,1,0,0:0:0:0:
192,192,21718,1,0,0:0:0:0:
320,192,21874,1,0,0:0:0:0:
320,192,22343,1,0,0:0:0:0:
64,192,22343,128,0,22968:0:0:0:0:
192,192,22499,1,0,0:0:0:0:
448,192,22655,1,0,0:0:0:0:
320,192,22811,1,0,0:0:0:0:
192,192,22968,128,0,23593:0:0:0:0:
448,192,22968,1,0,0:0:0:0:
64,192,23124,1,0,0:0:0:0:
320,192,23280,1,0,0:0:0:0:
448,192,23436,1,0,0:0:0:0:
64,192,23593,1,0,0:0:0:0:
320,192,23593,128,0,24843:0:0:0:0:
192,192,23749,1,0,0:0:0:0:
448,192,23905,1,0,0:0:0:0:
64,192,24061,1,0,0:0:0:0:
64,192,24530,1,0,0:0:0:0:
192,192,24686,1,0,0:0:0:0:
64,192,24843,128,0,26093:0:0:0:0:
448,192,24843,1,0,0:0:0:0:
320,192,24999,1,0,0:0:0:0:
192,192,25155,1,0,0:0:0:0:
320,192,25311,1,0,0:0:0:0:
192,192,25468,1,0,0:0:0:0:
320,192,25624,1,0,0:0:0:0:
448,192,25780,1,0,0:0:0:0:
320,192,25936,1,0,0:0:0:0:
448,192,26093,1,0,0:0:0:0:
320,192,26249,1,0,0:0:0:0:
192,192,26405,1,0,0:0:0:0:
64,192,26561,1,0,0:0:0:0:
448,192,26718,128,0,27343:0:0:0:0:
320,192,26718,1,0,0:0:0:0:
64,192,26874,1,0,0:0:0:0:
320,192,27030,1,0,0:0:0:0:
192,192,27186,1,0,0:0:0:0:
320,192,27343,1,0,0:0:0:0:
64,192,27343,128,0,27968:0:0:0:0:
192,192,27499,1,0,0:0:0:0:
320,192,27655,1,0,0:0:0:0:
448,192,27811,1,0,0:0:0:0:
320,192,27968,1,0,0:0:0:0:
192,192,27968,128,0,28593:0:0:0:0:
64,192,28124,1,0,0:0:0:0:
448,192,28280,1,0,0:0:0:0:
64,192,28436,1,0,0:0:0:0:
448,192,28593,1,0,0:0:0:0:
320,192,28593,128,0,29218:0:0:0:0:
64,192,28749,1,0,0:0:0:0:
192,192,28905,1,0,0:0:0:0:
448,192,29061,1,0,0:0:0:0:
64,192,29218,1,0,0:0:0:0:
320,192,29374,1,0,0:0:0:0:
192,192,29530,1,0,0:0:0:0:
448,192,29686,1,0,0:0:0:0:
320,192,29764,1,0,0:0:0:0:
64,192,29843,128,0,30468:0:0:0:0:
192,192,29843,1,0,0:0:0:0:
448,192,29999,1,0,0:0:0:0:
320,192,30155,1,0,0:0:0:0:
192,192,30311,1,0,0:0:0:0:
320,192,30389,1,0,0:0:0:0:
448,192,30468,1,0,0:0:0:0:
320,192,30546,1,0,0:0:0:0:
64,192,30624,1,0,0:0:0:0:
192,192,30702,1,0,0:0:0:0:
448,192,30780,1,0,0:0:0:0:
320,192,30858,1,0,0:0:0:0:
192,192,30936,1,0,0:0:0:0:
448,192,31093,1,0,0:0:0:0:
320,192,31132,1,0,0:0:0:0:
192,192,31171,1,0,0:0:0:0:
192,192,33593,1,0,0:0:0:0:
320,192,33612,1,0,0:0:0:0:
448,192,33632,1,0,0:0:0:0:
64,192,33651,1,0,0:0:0:0:
320,192,34843,1,0,0:0:0:0:
320,192,36093,1,0,0:0:0:0:
192,192,36171,1,0,0:0:0:0:
64,192,36249,1,0,0:0:0:0:
192,192,37343,1,0,0:0:0:0:
448,192,37968,1,0,0:0:0:0:
320,192,38593,1,0,0:0:0:0:
192,192,38632,1,0,0:0:0:0:
64,192,38671,1,0,0:0:0:0:
192,192,39843,1,0,0:0:0:0:
448,192,39921,1,0,0:0:0:0:
320,192,41093,1,0,0:0:0:0:
192,192,41132,1,0,0:0:0:0:
64,192,41171,1,0,0:0:0:0:
192,192,43593,1,0,0:0:0:0:
320,192,43612,1,0,0:0:0:0:
448,192,43632,1,0,0:0:0:0:
192,192,44843,1,0,0:0:0:0:
64,192,44843,1,0,0:0:0:0:
448,192,46093,1,0,0:0:0:0:
320,192,46112,1,0,0:0:0:0:
192,192,46132,1,0,0:0:0:0:
64,192,46151,1,0,0:0:0:0:
64,192,47343,1,0,0:0:0:0:
448,192,47343,1,0,0:0:0:0:
320,192,47968,1,0,0:0:0:0:
448,192,48593,1,0,0:0:0:0:
192,192,48593,1,0,0:0:0:0:
64,192,48593,128,0,49530:0:0:0:0:
192,192,49530,128,0,49764:0:0:0:0:
192,192,49843,128,0,51014:0:0:0:0:
448,192,49843,1,0,0:0:0:0:
320,192,49843,1,0,0:0:0:0:
320,192,50468,1,0,0:0:0:0:
448,192,50624,1,0,0:0:0:0:
320,192,50780,1,0,0:0:0:0:
64,192,50936,1,0,0:0:0:0:
192,192,51093,1,0,0:0:0:0:
320,192,51132,1,0,0:0:0:0:
448,192,51171,1,0,0:0:0:0:
192,192,51249,1,0,0:0:0:0:
448,192,51327,1,0,0:0:0:0:
64,192,51405,1,0,0:0:0:0:
448,192,51483,1,0,0:0:0:0:
192,192,51561,1,0,0:0:0:0:
448,192,51639,1,0,0:0:0:0:
320,192,51718,1,0,0:0:0:0:
64,192,51796,1,0,0:0:0:0:
192,192,51874,1,0,0:0:0:0:
64,192,51952,1,0,0:0:0:0:
320,192,52030,1,0,0:0:0:0:
64,192,52108,1,0,0:0:0:0:
448,192,52186,1,0,0:0:0:0:
64,192,52264,1,0,0:0:0:0:
192,192,52343,1,0,0:0:0:0:
320,192,52382,1,0,0:0:0:0:
448,192,52421,1,0,0:0:0:0:
320,192,52499,1,0,0:0:0:0:
192,192,52577,1,0,0:0:0:0:
320,192,52655,1,0,0:0:0:0:
448,192,52733,1,0,0:0:0:0:
64,192,52811,1,0,0:0:0:0:
192,192,52889,1,0,0:0:0:0:
320,192,52968,1,0,0:0:0:0:
192,192,53046,1,0,0:0:0:0:
64,192,53124,1,0,0:0:0:0:
448,192,53202,1,0,0:0:0:0:
320,192,53280,1,0,0:0:0:0:
192,192,53358,1,0,0:0:0:0:
320,192,53436,1,0,0:0:0:0:
448,192,53514,1,0,0:0:0:0:
64,192,53593,1,0,0:0:0:0:
192,192,53632,1,0,0:0:0:0:
320,192,53671,1,0,0:0:0:0:
192,192,53749,1,0,0:0:0:0:
64,192,53827,1,0,0:0:0:0:
192,192,53905,1,0,0:0:0:0:
320,192,53983,1,0,0:0:0:0:
192,192,54061,1,0,0:0:0:0:
320,192,54139,1,0,0:0:0:0:
448,192,54218,1,0,0:0:0:0:
320,192,54296,1,0,0:0:0:0:
192,192,54374,1,0,0:0:0:0:
320,192,54452,1,0,0:0:0:0:
192,192,54530,1,0,0:0:0:0:
64,192,54608,1,0,0:0:0:0:
192,192,54686,1,0,0:0:0:0:
320,192,54764,1,0,0:0:0:0:
448,192,54843,1,0,0:0:0:0:
64,192,54921,1,0,0:0:0:0:
448,192,54999,1,0,0:0:0:0:
64,192,55077,1,0,0:0:0:0:
320,192,55155,1,0,0:0:0:0:
192,192,55233,1,0,0:0:0:0:
320,192,55311,1,0,0:0:0:0:
64,192,55389,1,0,0:0:0:0:
192,192,55468,1,0,0:0:0:0:
448,192,55546,1,0,0:0:0:0:
192,192,55624,1,0,0:0:0:0:
320,192,55702,1,0,0:0:0:0:
64,192,55780,1,0,0:0:0:0:
448,192,55858,1,0,0:0:0:0:
64,192,55936,1,0,0:0:0:0:
448,192,56014,1,0,0:0:0:0:
320,192,56093,1,0,0:0:0:0:
192,192,56132,1,0,0:0:0:0:
64,192,56171,1,0,0:0:0:0:
448,192,56249,1,0,0:0:0:0:
320,192,56327,1,0,0:0:0:0:
192,192,56405,1,0,0:0:0:0:
448,192,56483,1,0,0:0:0:0:
192,192,56561,1,0,0:0:0:0:
320,192,56639,1,0,0:0:0:0:
64,192,56718,1,0,0:0:0:0:
64,192,56874,1,0,0:0:0:0:
320,192,57030,1,0,0:0:0:0:
320,192,57186,1,0,0:0:0:0:
448,192,57343,1,0,0:0:0:0:
192,192,57421,1,0,0:0:0:0:
448,192,57499,1,0,0:0:0:0:
64,192,57577,1,0,0:0:0:0:
192,192,57655,1,0,0:0:0:0:
448,192,57733,1,0,0:0:0:0:
192,192,57811,1,0,0:0:0:0:
64,192,57889,1,0,0:0:0:0:
320,192,57968,1,0,0:0:0:0:
192,192,58046,1,0,0:0:0:0:
320,192,58124,1,0,0:0:0:0:
448,192,58202,1,0,0:0:0:0:
64,192,58280,1,0,0:0:0:0:
320,192,58358,1,0,0:0:0:0:
64,192,58436,1,0,0:0:0:0:
448,192,58514,1,0,0:0:0:0:
192,192,58593,1,0,0:0:0:0:
320,192,58632,1,0,0:0:0:0:
448,192,58671,1,0,0:0:0:0:
64,192,58749,1,0,0:0:0:0:
320,192,58827,1,0,0:0:0:0:
64,192,58905,1,0,0:0:0:0:
448,192,58983,1,0,0:0:0:0:
64,192,59061,1,0,0:0:0:0:
192,192,59139,1,0,0:0:0:0:
64,192,59218,1,0,0:0:0:0:
448,192,59296,1,0,0:0:0:0:
192,192,59374,1,0,0:0:0:0:
448,192,59452,1,0,0:0:0:0:
320,192,59530,1,0,0:0:0:0:
448,192,59608,1,0,0:0:0:0:
64,192,59686,1,0,0:0:0:0:
448,192,59764,1,0,0:0:0:0:
192,192,59843,1,0,0:0:0:0:
320,192,59843,1,0,0:0:0:0:
64,192,59921,1,0,0:0:0:0:
448,192,59999,1,0,0:0:0:0:
64,192,60077,1,0,0:0:0:0:
320,192,60155,1,0,0:0:0:0:
192,192,60233,1,0,0:0:0:0:
448,192,60311,1,0,0:0:0:0:
192,192,60389,1,0,0:0:0:0:
64,192,60468,1,0,0:0:0:0:
448,192,60468,1,0,0:0:0:0:
320,192,60624,1,0,0:0:0:0:
192,192,60780,1,0,0:0:0:0:
320,192,60858,1,0,0:0:0:0:
192,192,60936,1,0,0:0:0:0:
320,192,61014,1,0,0:0:0:0:
448,192,61093,1,0,0:0:0:0:
192,192,61171,1,0,0:0:0:0:
64,192,61249,1,0,0:0:0:0:
192,192,61327,1,0,0:0:0:0:
320,192,61405,1,0,0:0:0:0:
192,192,61483,1,0,0:0:0:0:
448,192,61561,1,0,0:0:0:0:
320,192,61639,1,0,0:0:0:0:
64,192,61718,1,0,0:0:0:0:
320,192,61796,1,0,0:0:0:0:
448,192,61874,1,0,0:0:0:0:
192,192,61952,1,0,0:0:0:0:
320,192,62030,1,0,0:0:0:0:
64,192,62108,1,0,0:0:0:0:
448,192,62186,1,0,0:0:0:0:
320,192,62264,1,0,0:0:0:0:
64,192,62343,1,0,0:0:0:0:
192,192,62421,1,0,0:0:0:0:
64,192,62499,1,0,0:0:0:0:
320,192,62577,1,0,0:0:0:0:
64,192,62655,1,0,0:0:0:0:
448,192,62733,1,0,0:0:0:0:
64,192,62811,1,0,0:0:0:0:
320,192,62889,1,0,0:0:0:0:
192,192,62968,1,0,0:0:0:0:
448,192,63046,1,0,0:0:0:0:
192,192,63124,1,0,0:0:0:0:
320,192,63202,1,0,0:0:0:0:
192,192,63280,1,0,0:0:0:0:
64,192,63358,1,0,0:0:0:0:
320,192,63436,1,0,0:0:0:0:
448,192,63593,1,0,0:0:0:0:
320,192,63612,1,0,0:0:0:0:
192,192,63632,1,0,0:0:0:0:
64,192,63671,1,0,0:0:0:0:
320,192,63749,1,0,0:0:0:0:
192,192,63827,1,0,0:0:0:0:
320,192,63905,1,0,0:0:0:0:
448,192,63983,1,0,0:0:0:0:
320,192,64061,1,0,0:0:0:0:
64,192,64139,1,0,0:0:0:0:
320,192,64218,1,0,0:0:0:0:
192,192,64296,1,0,0:0:0:0:
448,192,64374,1,0,0:0:0:0:
64,192,64452,1,0,0:0:0:0:
192,192,64530,1,0,0:0:0:0:
448,192,64608,1,0,0:0:0:0:
192,192,64686,1,0,0:0:0:0:
320,192,64764,1,0,0:0:0:0:
64,192,64843,1,0,0:0:0:0:
192,192,64921,1,0,0:0:0:0:
448,192,64999,1,0,0:0:0:0:
320,192,65077,1,0,0:0:0:0:
448,192,65155,1,0,0:0:0:0:
64,192,65233,1,0,0:0:0:0:
448,192,65311,1,0,0:0:0:0:
192,192,65389,1,0,0:0:0:0:
320,192,65468,1,0,0:0:0:0:
448,192,65468,1,0,0:0:0:0:
64,192,65546,1,0,0:0:0:0:
320,192,65624,1,0,0:0:0:0:
192,192,65702,1,0,0:0:0:0:
448,192,65780,128,0,65858:0:0:0:0:
64,192,65780,1,0,0:0:0:0:
448,192,65936,128,0,66014:0:0:0:0:
64,192,65936,1,0,0:0:0:0:
448,192,66093,128,0,66249:0:0:0:0:
192,192,66093,1,0,0:0:0:0:
320,192,66249,1,0,0:0:0:0:
64,192,66405,128,0,66483:0:0:0:0:
448,192,66405,1,0,0:0:0:0:
64,192,66561,128,0,67030:0:0:0:0:
448,192,66561,1,0,0:0:0:0:
192,192,66718,1,0,0:0:0:0:
448,192,66874,1,0,0:0:0:0:
192,192,67030,1,0,0:0:0:0:
320,192,67186,1,0,0:0:0:0:
64,192,67343,1,0,0:0:0:0:
448,192,67343,1,0,0:0:0:0:
320,192,67499,1,0,0:0:0:0:
192,192,67655,1,0,0:0:0:0:
64,192,67655,1,0,0:0:0:0:
320,192,67811,1,0,0:0:0:0:
448,192,67968,1,0,0:0:0:0:
192,192,67968,1,0,0:0:0:0:
64,192,68124,1,0,0:0:0:0:
448,192,68280,1,0,0:0:0:0:
320,192,68280,128,0,68358:0:0:0:0:
320,192,68436,128,0,68514:0:0:0:0:
192,192,68436,1,0,0:0:0:0:
320,192,68593,128,0,68749:0:0:0:0:
64,192,68593,1,0,0:0:0:0:
192,192,68749,1,0,0:0:0:0:
448,192,68905,128,0,68983:0:0:0:0:
64,192,68905,1,0,0:0:0:0:
448,192,69061,128,0,69530:0:0:0:0:
64,192,69061,1,0,0:0:0:0:
192,192,69218,1,0,0:0:0:0:
320,192,69374,1,0,0:0:0:0:
64,192,69530,1,0,0:0:0:0:
320,192,69686,1,0,0:0:0:0:
448,192,69843,1,0,0:0:0:0:
192,192,69999,1,0,0:0:0:0:
320,192,70155,1,0,0:0:0:0:
448,192,70311,1,0,0:0:0:0:
320,192,70468,1,0,0:0:0:0:
64,192,70468,128,0,71093:0:0:0:0:
192,192,71093,1,0,0:0:0:0:
448,192,71093,128,0,71327:0:0:0:0:
448,192,71405,128,0,72264:0:0:0:0:
320,192,71561,1,0,0:0:0:0:
64,192,71874,128,0,73905:0:0:0:0:
192,192,72030,1,0,0:0:0:0:
192,192,72186,1,0,0:0:0:0:
320,192,72264,1,0,0:0:0:0:
448,192,72343,1,0,0:0:0:0:
192,192,72343,128,0,73905:0:0:0:0:
320,192,72811,128,0,73905:0:0:0:0:
448,192,73280,128,0,73905:0:0:0:0:
64,192,74218,128,0,74530:0:0:0:0:
192,192,74530,128,0,74843:0:0:0:0:
448,192,74843,128,0,75155:0:0:0:0:
320,192,74843,1,0,0:0:0:100:drum.wav
64,192,74999,1,0,0:0:0:0:
320,192,75155,1,0,0:0:0:0:
448,192,75311,1,0,0:0:0:0:
64,192,75468,1,0,0:0:0:0:
448,192,75624,1,0,0:0:0:0:
192,192,75780,1,0,0:0:0:0:
320,192,75780,128,0,76093:0:0:0:0:
64,192,75936,1,0,0:0:0:0:
192,192,76093,128,0,76405:0:0:0:0:
448,192,76093,1,0,0:0:0:0:
320,192,76249,1,0,0:0:0:0:
64,192,76405,1,0,0:0:0:0:
320,192,76561,1,0,0:0:0:0:
448,192,76718,128,0,77030:0:0:0:0:
64,192,76718,1,0,0:0:0:0:
192,192,76874,1,0,0:0:0:0:
320,192,77030,1,0,0:0:0:0:
192,192,77186,1,0,0:0:0:0:
64,192,77343,128,0,77655:0:0:0:0:
448,192,77343,1,0,0:0:0:0:
320,192,77499,1,0,0:0:0:0:
192,192,77655,1,0,0:0:0:0:
320,192,77811,1,0,0:0:0:0:
192,192,77968,128,0,78593:0:0:0:0:
64,192,77968,1,0,0:0:0:0:
448,192,78124,1,0,0:0:0:0:
64,192,78280,1,0,0:0:0:0:
320,192,78436,1,0,0:0:0:0:
448,192,78593,1,0,0:0:0:0:
320,192,78671,1,0,0:0:0:0:
192,192,78749,1,0,0:0:0:0:
64,192,78827,1,0,0:0:0:0:
64,192,78905,1,0,0:0:0:0:
192,192,78983,1,0,0:0:0:0:
320,192,79061,1,0,0:0:0:0:
448,192,79139,1,0,0:0:0:0:
448,192,79218,1,0,0:0:0:0:
64,192,79218,128,0,79530:0:0:0:0:
320,192,79296,1,0,0:0:0:0:
192,192,79374,1,0,0:0:0:0:
320,192,79452,1,0,0:0:0:0:
192,192,79530,128,0,79843:0:0:0:0:
448,192,79530,1,0,0:0:0:0:
320,192,79686,1,0,0:0:0:0:
448,192,79843,128,0,80155:0:0:0:0:
64,192,79843,1,0,0:0:0:0:
192,192,79921,1,0,0:0:0:0:
320,192,79999,1,0,0:0:0:0:
320,192,80077,1,0,0:0:0:0:
192,192,80155,1,0,0:0:0:0:
64,192,80233,1,0,0:0:0:0:
192,192,80311,1,0,0:0:0:0:
320,192,80389,1,0,0:0:0:0:
448,192,80468,1,0,0:0:0:0:
192,192,80546,1,0,0:0:0:0:
64,192,80624,1,0,0:0:0:0:
320,192,80702,1,0,0:0:0:0:
192,192,80780,128,0,81093:0:0:0:0:
448,192,80780,1,0,0:0:0:0:
320,192,80936,1,0,0:0:0:0:
448,192,81093,1,0,0:0:0:0:
64,192,81093,128,0,81405:0:0:0:0:
320,192,81171,1,0,0:0:0:0:
192,192,81249,1,0,0:0:0:0:
320,192,81327,1,0,0:0:0:0:
448,192,81405,1,0,0:0:0:0:
64,192,81483,1,0,0:0:0:0:
192,192,81561,1,0,0:0:0:0:
320,192,81639,1,0,0:0:0:0:
448,192,81718,128,0,82030:0:0:0:0:
192,192,81718,1,0,0:0:0:0:
64,192,81796,1,0,0:0:0:0:
320,192,81874,1,0,0:0:0:0:
64,192,81952,1,0,0:0:0:0:
192,192,82030,1,0,0:0:0:0:
320,192,82108,1,0,0:0:0:0:
448,192,82186,1,0,0:0:0:0:
192,192,82343,128,0,82655:0:0:0:0:
64,192,82343,1,0,0:0:0:0:
320,192,82421,1,0,0:0:0:0:
448,192,82499,1,0,0:0:0:0:
320,192,82577,1,0,0:0:0:0:
64,192,82655,1,0,0:0:0:0:
448,192,82733,1,0,0:0:0:0:
64,192,82811,128,0,82889:0:0:0:0:
320,192,82811,1,0,0:0:0:0:
192,192,82889,1,0,0:0:0:0:
64,192,82968,128,0,83593:0:0:0:0:
320,192,82968,1,0,0:0:0:0:
448,192,83046,1,0,0:0:0:0:
192,192,83124,1,0,0:0:0:0:
448,192,83202,1,0,0:0:0:0:
320,192,83280,1,0,0:0:0:0:
192,192,83358,1,0,0:0:0:0:
448,192,83436,1,0,0:0:0:0:
448,192,83593,1,0,0:0:0:0:
320,192,83671,1,0,0:0:0:0:
192,192,83749,1,0,0:0:0:0:
448,192,83905,1,0,0:0:0:0:
64,192,84061,1,0,0:0:0:0:
448,192,84218,128,0,84530:0:0:0:0:
64,192,84218,1,0,0:0:0:0:
192,192,84374,1,0,0:0:0:0:
320,192,84530,128,0,84843:0:0:0:0:
64,192,84530,1,0,0:0:0:0:
192,192,84686,1,0,0:0:0:0:
64,192,84843,1,0,0:0:0:100:drum.wav
448,192,84843,1,0,0:0:0:100:drum.wav
192,192,84843,1,0,0:0:0:100:drum.wav
192,192,84999,1,0,0:0:0:0:
64,192,85155,1,0,0:0:0:100:c5 kick.wav
320,192,85155,1,0,0:0:0:100:c5 kick.wav
448,192,85155,1,0,0:0:0:100:c5 kick.wav
448,192,85311,1,0,0:0:0:0:
320,192,85468,1,0,0:0:0:100:drum.wav
64,192,85468,1,0,0:0:0:100:drum.wav
192,192,85468,1,0,0:0:0:100:drum.wav
64,192,85624,1,0,0:0:0:0:
192,192,85780,1,0,0:0:0:100:c5 kick.wav
320,192,85780,1,0,0:0:0:100:c5 kick.wav
448,192,85780,1,0,0:0:0:100:c5 kick.wav
320,192,85936,1,0,0:0:0:0:
192,192,86093,1,0,0:0:0:100:drum.wav
64,192,86093,1,0,0:0:0:100:drum.wav
448,192,86093,1,0,0:0:0:100:drum.wav
64,192,86249,1,0,0:0:0:0:
320,192,86405,1,0,0:0:0:100:c5 kick.wav
192,192,86405,1,0,0:0:0:100:c5 kick.wav
448,192,86405,1,0,0:0:0:100:c5 kick.wav
320,192,86561,1,0,0:0:0:0:
64,192,86718,1,0,0:0:0:0:
448,192,86718,1,0,0:0:0:0:
192,192,86718,1,0,0:0:0:0:
192,192,86874,1,0,0:0:0:0:
320,192,87030,1,0,0:0:0:100:c5 kick.wav
448,192,87030,1,0,0:0:0:100:c5 kick.wav
64,192,87030,1,0,0:0:0:100:c5 kick.wav
448,192,87186,1,0,0:0:0:0:
320,192,87343,1,0,0:0:0:100:drum.wav
192,192,87343,1,0,0:0:0:100:drum.wav
64,192,87343,1,0,0:0:0:100:drum.wav
448,192,87421,1,0,0:0:0:0:
192,192,87499,1,0,0:0:0:0:
64,192,87577,1,0,0:0:0:0:
320,192,87655,1,0,0:0:0:100:c5 kick.wav
448,192,87655,1,0,0:0:0:100:c5 kick.wav
192,192,87733,1,0,0:0:0:0:
64,192,87811,1,0,0:0:0:0:
320,192,87889,1,0,0:0:0:0:
192,192,87968,1,0,0:0:0:100:drum.wav
64,192,87968,1,0,0:0:0:100:drum.wav
448,192,87968,1,0,0:0:0:100:drum.wav
320,192,88046,1,0,0:0:0:0:
64,192,88124,1,0,0:0:0:0:
448,192,88202,1,0,0:0:0:0:
320,192,88280,1,0,0:0:0:100:c5 kick.wav
192,192,88280,1,0,0:0:0:100:c5 kick.wav
64,192,88358,1,0,0:0:0:0:
192,192,88436,1,0,0:0:0:0:
320,192,88514,1,0,0:0:0:0:
448,192,88593,1,0,0:0:0:100:drum.wav
192,192,88593,1,0,0:0:0:100:drum.wav
64,192,88593,1,0,0:0:0:100:drum.wav
320,192,88671,1,0,0:0:0:0:
64,192,88749,1,0,0:0:0:0:
448,192,88827,1,0,0:0:0:0:
320,192,88905,1,0,0:0:0:100:c5 kick.wav
192,192,88905,1,0,0:0:0:100:c5 kick.wav
64,192,88983,1,0,0:0:0:0:
448,192,89061,1,0,0:0:0:0:
192,192,89139,1,0,0:0:0:0:
320,192,89218,1,0,0:0:0:100:drum.wav
448,192,89218,1,0,0:0:0:100:drum.wav
64,192,89218,1,0,0:0:0:100:drum.wav
192,192,89296,1,0,0:0:0:0:
320,192,89374,1,0,0:0:0:0:
448,192,89452,1,0,0:0:0:0:
192,192,89530,1,0,0:0:0:100:c5 kick.wav
64,192,89530,1,0,0:0:0:100:c5 kick.wav
320,192,89686,1,0,0:0:0:0:
64,192,89843,1,0,0:0:0:100:c5 kick.wav
448,192,89843,1,0,0:0:0:100:c5 kick.wav
192,192,89999,1,0,0:0:0:100:drum.wav
320,192,89999,1,0,0:0:0:100:drum.wav
192,192,90155,1,0,0:0:0:100:snare.wav
448,192,90155,1,0,0:0:0:100:snare.wav
64,192,90155,1,0,0:0:0:100:drum.wav
320,192,90311,1,0,0:0:0:100:drum.wav
192,192,90311,1,0,0:0:0:100:drum.wav
320,192,90468,1,0,0:0:0:100:c5 kick.wav
448,192,90468,1,0,0:0:0:100:c5 kick.wav
192,192,90624,1,0,0:0:0:100:drum.wav
64,192,90624,1,0,0:0:0:100:drum.wav
192,192,90780,1,0,0:0:0:100:snare.wav
448,192,90780,1,0,0:0:0:100:drum.wav
320,192,90780,1,0,0:0:0:100:snare.wav
448,192,90936,1,0,0:0:0:100:drum.wav
64,192,90936,1,0,0:0:0:100:drum.wav
64,192,91093,1,0,0:0:0:100:c5 kick.wav
192,192,91093,1,0,0:0:0:100:c5 kick.wav
320,192,91249,1,0,0:0:0:100:drum.wav
192,192,91249,1,0,0:0:0:100:drum.wav
320,192,91405,1,0,0:0:0:100:snare.wav
448,192,91405,1,0,0:0:0:100:drum.wav
64,192,91405,1,0,0:0:0:100:snare.wav
448,192,91561,1,0,0:0:0:100:drum.wav
192,192,91561,1,0,0:0:0:100:drum.wav
192,192,91718,1,0,0:0:0:100:c5 kick.wav
320,192,91718,1,0,0:0:0:100:c5 kick.wav
192,192,91874,1,0,0:0:0:100:drum.wav
64,192,91874,1,0,0:0:0:100:drum.wav
448,192,92030,1,0,0:0:0:100:snare.wav
320,192,92030,1,0,0:0:0:100:snare.wav
64,192,92030,1,0,0:0:0:100:drum.wav
320,192,92186,1,0,0:0:0:100:drum.wav
192,192,92186,1,0,0:0:0:100:drum.wav
64,192,92343,1,0,0:0:0:0:
192,192,92343,1,0,0:0:0:100:drum.wav
320,192,92421,1,0,0:0:0:100:drum.wav
192,192,92499,1,0,0:0:0:100:drum.wav
64,192,92499,1,0,0:0:0:0:
448,192,92577,1,0,0:0:0:100:drum.wav
320,192,92655,1,0,0:0:0:0:
192,192,92655,1,0,0:0:0:100:drum.wav
64,192,92733,1,0,0:0:0:100:drum.wav
320,192,92811,1,0,0:0:0:0:
192,192,92811,1,0,0:0:0:100:drum.wav
64,192,92889,1,0,0:0:0:0:
320,192,92968,1,0,0:0:0:100:drum.wav
448,192,92968,1,0,0:0:0:0:
192,192,93046,1,0,0:0:0:100:drum.wav
320,192,93124,1,0,0:0:0:100:drum.wav
448,192,93124,1,0,0:0:0:0:
64,192,93202,1,0,0:0:0:0:
192,192,93280,1,0,0:0:0:0:
320,192,93280,1,0,0:0:0:100:drum.wav
448,192,93280,1,0,0:0:0:0:
64,192,93358,1,0,0:0:0:100:drum.wav
192,192,93436,1,0,0:0:0:0:
320,192,93436,1,0,0:0:0:100:drum.wav
448,192,93436,1,0,0:0:0:0:
64,192,93593,1,0,0:0:0:100:c5 kick.wav
192,192,93593,1,0,0:0:0:0:
320,192,93593,1,0,0:0:0:0:
448,192,93593,1,0,0:0:0:100:c5 kick.wav
64,192,93749,1,0,0:0:0:0:
192,192,93749,1,0,0:0:0:0:
64,192,93827,1,0,0:0:0:0:
320,192,93827,1,0,0:0:0:0:
64,192,93905,1,0,0:0:0:0:
448,192,93905,1,0,0:0:0:0:
320,192,94061,1,0,0:0:0:100:drum.wav
192,192,94139,1,0,0:0:0:100:drum.wav
448,192,94218,1,0,0:0:0:100:drum.wav
320,192,94257,1,0,0:0:0:100:drum.wav
192,192,94296,1,0,0:0:0:100:drum.wav
64,192,94335,1,0,0:0:0:100:drum.wav
448,192,94374,1,0,0:0:0:100:drum.wav
320,192,94413,1,0,0:0:0:100:drum.wav
192,192,94452,1,0,0:0:0:100:drum.wav
64,192,94491,1,0,0:0:0:100:drum.wav
448,192,94530,1,0,0:0:0:100:drum.wav
320,192,94569,1,0,0:0:0:100:drum.wav
192,192,94608,1,0,0:0:0:100:drum.wav
64,192,94647,1,0,0:0:0:100:drum.wav
448,192,94686,1,0,0:0:0:100:drum.wav
320,192,94725,1,0,0:0:0:100:drum.wav
192,192,94764,1,0,0:0:0:100:drum.wav
64,192,94803,1,0,0:0:0:100:drum.wav
448,192,94843,1,0,0:0:0:100:c5 kick.wav
320,192,94843,1,0,0:0:0:100:c5 kick.wav
192,192,95155,1,0,0:0:0:100:snare.wav
64,192,95155,1,0,0:0:0:100:snare.wav
448,192,95155,1,0,0:0:0:100:snare.wav
320,192,95311,1,0,0:0:0:0:
64,192,95389,1,0,0:0:0:0:
192,192,95468,1,0,0:0:0:0:
448,192,95546,1,0,0:0:0:0:
192,192,95624,1,0,0:0:0:100:c5 kick.wav
320,192,95624,1,0,0:0:0:100:c5 kick.wav
320,192,95780,1,0,0:0:0:100:snare.wav
448,192,95780,1,0,0:0:0:100:snare.wav
64,192,95780,1,0,0:0:0:100:snare.wav
192,192,95936,1,0,0:0:0:0:
320,192,96014,1,0,0:0:0:0:
448,192,96093,1,0,0:0:0:0:
64,192,96171,1,0,0:0:0:0:
320,192,96249,1,0,0:0:0:100:c5 kick.wav
192,192,96249,1,0,0:0:0:100:c5 kick.wav
64,192,96405,1,0,0:0:0:100:snare.wav
192,192,96405,1,0,0:0:0:100:snare.wav
448,192,96405,1,0,0:0:0:100:snare.wav
192,192,96561,1,0,0:0:0:0:
448,192,96639,1,0,0:0:0:0:
320,192,96718,1,0,0:0:0:0:
64,192,96796,1,0,0:0:0:0:
192,192,96874,1,0,0:0:0:100:c5 kick.wav
448,192,96874,1,0,0:0:0:100:c5 kick.wav
320,192,97030,1,0,0:0:0:100:snare.wav
448,192,97030,1,0,0:0:0:100:snare.wav
64,192,97030,1,0,0:0:0:100:snare.wav
448,192,97186,1,0,0:0:0:0:
320,192,97264,1,0,0:0:0:0:
192,192,97343,1,0,0:0:0:100:c5 kick.wav
64,192,97343,1,0,0:0:0:100:c5 kick.wav
320,192,97499,1,0,0:0:0:0:
192,192,97577,1,0,0:0:0:0:
320,192,97655,1,0,0:0:0:100:snare.wav
448,192,97655,1,0,0:0:0:100:snare.wav
64,192,97655,1,0,0:0:0:100:snare.wav
448,192,97811,1,0,0:0:0:0:
64,192,97889,1,0,0:0:0:0:
320,192,97968,1,0,0:0:0:0:
192,192,98046,1,0,0:0:0:0:
448,192,98124,1,0,0:0:0:100:c5 kick.wav
64,192,98124,1,0,0:0:0:100:c5 kick.wav
192,192,98280,1,0,0:0:0:0:
320,192,98436,1,0,0:0:0:100:snare.wav
448,192,98436,1,0,0:0:0:100:snare.wav
64,192,98436,1,0,0:0:0:100:snare.wav
192,192,98514,1,0,0:0:0:0:
320,192,98593,1,0,0:0:0:0:
448,192,98671,1,0,0:0:0:0:
192,192,98749,1,0,0:0:0:100:c5 kick.wav
64,192,98749,1,0,0:0:0:100:c5 kick.wav
320,192,98905,1,0,0:0:0:100:snare.wav
448,192,98905,1,0,0:0:0:100:snare.wav
64,192,98905,1,0,0:0:0:100:snare.wav
192,192,98983,1,0,0:0:0:0:
448,192,99061,1,0,0:0:0:0:
320,192,99139,1,0,0:0:0:0:
192,192,99218,1,0,0:0:0:100:drum.wav
64,192,99218,1,0,0:0:0:100:drum.wav
320,192,99296,1,0,0:0:0:100:drum.wav
448,192,99296,1,0,0:0:0:100:drum.wav
192,192,99374,1,0,0:0:0:100:c5 kick.wav
64,192,99374,1,0,0:0:0:100:c5 kick.wav
320,192,99452,1,0,0:0:0:100:drum.wav
192,192,99530,1,0,0:0:0:100:snare.wav
64,192,99530,1,0,0:0:0:100:snare.wav
448,192,99530,1,0,0:0:0:100:snare.wav
320,192,99608,1,0,0:0:0:100:drum.wav
192,192,99686,1,0,0:0:0:100:drum.wav
64,192,99686,1,0,0:0:0:100:drum.wav
320,192,99764,1,0,0:0:0:100:drum.wav
448,192,99764,1,0,0:0:0:100:drum.wav
192,192,99843,1,0,0:0:0:100:c5 kick.wav
64,192,99843,1,0,0:0:0:100:c5 kick.wav
448,192,99999,1,0,0:0:0:0:
192,192,100155,1,0,0:0:0:100:snare.wav
64,192,100155,1,0,0:0:0:100:snare.wav
320,192,100155,1,0,0:0:0:100:snare.wav
448,192,100311,1,0,0:0:0:0:
192,192,100389,1,0,0:0:0:0:
64,192,100468,1,0,0:0:0:0:
320,192,100546,1,0,0:0:0:0:
192,192,100624,1,0,0:0:0:100:c5 kick.wav
448,192,100624,1,0,0:0:0:100:c5 kick.wav
320,192,100780,1,0,0:0:0:100:snare.wav
448,192,100780,1,0,0:0:0:100:snare.wav
64,192,100780,1,0,0:0:0:100:snare.wav
448,192,100936,1,0,0:0:0:0:
192,192,101014,1,0,0:0:0:0:
64,192,101093,1,0,0:0:0:0:
320,192,101171,1,0,0:0:0:0:
448,192,101249,1,0,0:0:0:100:c5 kick.wav
192,192,101249,1,0,0:0:0:100:c5 kick.wav
320,192,101405,1,0,0:0:0:100:snare.wav
192,192,101405,1,0,0:0:0:100:snare.wav
64,192,101405,1,0,0:0:0:100:snare.wav
448,192,101561,1,0,0:0:0:0:
320,192,101639,1,0,0:0:0:0:
64,192,101718,1,0,0:0:0:0:
192,192,101796,1,0,0:0:0:0:
320,192,101874,1,0,0:0:0:100:c5 kick.wav
448,192,101874,1,0,0:0:0:100:c5 kick.wav
64,192,102030,1,0,0:0:0:100:snare.wav
192,192,102030,1,0,0:0:0:100:snare.wav
448,192,102030,1,0,0:0:0:100:snare.wav
64,192,102186,1,0,0:0:0:0:
192,192,102264,1,0,0:0:0:0:
448,192,102343,1,0,0:0:0:100:c5 kick.wav
320,192,102343,1,0,0:0:0:100:c5 kick.wav
192,192,102499,1,0,0:0:0:0:
320,192,102577,1,0,0:0:0:0:
192,192,102655,1,0,0:0:0:100:snare.wav
64,192,102655,1,0,0:0:0:100:snare.wav
448,192,102655,1,0,0:0:0:100:snare.wav
320,192,102733,1,0,0:0:0:0:
64,192,102811,1,0,0:0:0:0:
192,192,102889,1,0,0:0:0:0:
448,192,102968,1,0,0:0:0:0:
64,192,103046,1,0,0:0:0:0:
320,192,103124,1,0,0:0:0:100:c5 kick.wav
192,192,103124,1,0,0:0:0:100:c5 kick.wav
448,192,103280,1,0,0:0:0:0:
192,192,103358,1,0,0:0:0:0:
320,192,103436,1,0,0:0:0:100:snare.wav
448,192,103436,1,0,0:0:0:100:snare.wav
64,192,103436,1,0,0:0:0:100:snare.wav
192,192,103514,1,0,0:0:0:0:
320,192,103593,1,0,0:0:0:0:
448,192,103671,1,0,0:0:0:0:
192,192,103749,1,0,0:0:0:100:c5 kick.wav
64,192,103749,1,0,0:0:0:100:c5 kick.wav
192,192,103905,1,0,0:0:0:100:snare.wav
320,192,103905,1,0,0:0:0:100:snare.wav
448,192,103905,1,0,0:0:0:100:snare.wav
64,192,103983,1,0,0:0:0:0:
192,192,104061,1,0,0:0:0:0:
320,192,104139,1,0,0:0:0:0:
448,192,104218,1,0,0:0:0:100:drum.wav
192,192,104218,1,0,0:0:0:100:drum.wav
64,192,104296,1,0,0:0:0:100:drum.wav
320,192,104296,1,0,0:0:0:100:drum.wav
448,192,104374,1,0,0:0:0:100:c5 kick.wav
192,192,104374,1,0,0:0:0:100:c5 kick.wav
320,192,104452,1,0,0:0:0:100:drum.wav
64,192,104530,1,0,0:0:0:100:snare.wav
192,192,104530,1,0,0:0:0:100:snare.wav
448,192,104530,1,0,0:0:0:100:snare.wav
320,192,104608,1,0,0:0:0:100:drum.wav
192,192,104686,1,0,0:0:0:100:drum.wav
448,192,104686,1,0,0:0:0:100:drum.wav
320,192,104764,1,0,0:0:0:100:drum.wav
64,192,104764,1,0,0:0:0:100:drum.wav
192,192,104843,1,0,0:0:0:100:c5 kick.wav
448,192,104843,1,0,0:0:0:100:c5 kick.wav
320,192,104999,1,0,0:0:0:0:
192,192,105155,1,0,0:0:0:100:snare.wav
448,192,105155,1,0,0:0:0:100:snare.wav
64,192,105155,1,0,0:0:0:100:snare.wav
320,192,105311,1,0,0:0:0:0:
448,192,105389,1,0,0:0:0:0:
192,192,105468,1,0,0:0:0:0:
320,192,105546,1,0,0:0:0:0:
448,192,105624,1,0,0:0:0:100:c5 kick.wav
64,192,105624,1,0,0:0:0:100:c5 kick.wav
192,192,105780,1,0,0:0:0:100:snare.wav
448,192,105780,1,0,0:0:0:100:snare.wav
320,192,105780,1,0,0:0:0:100:snare.wav
320,192,105936,1,0,0:0:0:0:
192,192,106014,1,0,0:0:0:0:
64,192,106093,1,0,0:0:0:0:
448,192,106171,1,0,0:0:0:0:
320,192,106249,1,0,0:0:0:100:c5 kick.wav
192,192,106249,1,0,0:0:0:100:c5 kick.wav
320,192,106405,1,0,0:0:0:100:snare.wav
448,192,106405,1,0,0:0:0:100:snare.wav
64,192,106405,1,0,0:0:0:100:snare.wav
192,192,106561,1,0,0:0:0:0:
448,192,106639,1,0,0:0:0:0:
320,192,106718,1,0,0:0:0:0:
64,192,106796,1,0,0:0:0:0:
192,192,106874,1,0,0:0:0:100:c5 kick.wav
448,192,106874,1,0,0:0:0:100:c5 kick.wav
448,192,107030,1,0,0:0:0:100:snare.wav
320,192,107030,1,0,0:0:0:100:snare.wav
64,192,107030,1,0,0:0:0:100:snare.wav
192,192,107186,1,0,0:0:0:0:
320,192,107264,1,0,0:0:0:0:
320,192,107343,1,0,0:0:0:100:c5 kick.wav
192,192,107343,1,0,0:0:0:100:c5 kick.wav
448,192,107499,1,0,0:0:0:0:
192,192,107577,1,0,0:0:0:0:
320,192,107655,1,0,0:0:0:100:snare.wav
448,192,107655,1,0,0:0:0:100:snare.wav
64,192,107655,1,0,0:0:0:100:snare.wav
64,192,107811,1,0,0:0:0:0:
192,192,107889,1,0,0:0:0:0:
320,192,107968,1,0,0:0:0:0:
448,192,108046,1,0,0:0:0:0:
192,192,108124,1,0,0:0:0:100:c5 kick.wav
320,192,108124,1,0,0:0:0:100:c5 kick.wav
64,192,108280,1,0,0:0:0:0:
192,192,108358,1,0,0:0:0:0:
448,192,108436,1,0,0:0:0:100:snare.wav
64,192,108436,1,0,0:0:0:100:snare.wav
320,192,108436,1,0,0:0:0:100:snare.wav
192,192,108514,1,0,0:0:0:0:
64,192,108593,1,0,0:0:0:0:
448,192,108671,1,0,0:0:0:0:
320,192,108749,1,0,0:0:0:100:c5 kick.wav
192,192,108749,1,0,0:0:0:100:c5 kick.wav
448,192,108905,1,0,0:0:0:100:snare.wav
192,192,108905,1,0,0:0:0:100:snare.wav
64,192,108905,1,0,0:0:0:100:snare.wav
320,192,108983,1,0,0:0:0:0:
448,192,109061,1,0,0:0:0:0:
192,192,109139,1,0,0:0:0:0:
320,192,109218,1,0,0:0:0:100:drum.wav
448,192,109218,1,0,0:0:0:100:drum.wav
64,192,109296,1,0,0:0:0:100:drum.wav
192,192,109296,1,0,0:0:0:100:drum.wav
320,192,109374,1,0,0:0:0:100:c5 kick.wav
448,192,109374,1,0,0:0:0:100:c5 kick.wav
192,192,109452,1,0,0:0:0:100:drum.wav
64,192,109530,1,0,0:0:0:100:snare.wav
320,192,109530,1,0,0:0:0:100:snare.wav
448,192,109530,1,0,0:0:0:100:snare.wav
192,192,109608,1,0,0:0:0:100:drum.wav
320,192,109686,1,0,0:0:0:100:drum.wav
448,192,109686,1,0,0:0:0:100:drum.wav
192,192,109764,1,0,0:0:0:100:drum.wav
64,192,109764,1,0,0:0:0:100:drum.wav
320,192,109843,1,0,0:0:0:100:c5 kick.wav
448,192,109843,1,0,0:0:0:100:c5 kick.wav
192,192,109999,1,0,0:0:0:0:
320,192,110077,1,0,0:0:0:0:
448,192,110155,1,0,0:0:0:100:snare.wav
64,192,110155,1,0,0:0:0:100:snare.wav
192,192,110155,1,0,0:0:0:100:snare.wav
320,192,110311,1,0,0:0:0:0:
192,192,110389,1,0,0:0:0:0:
448,192,110468,1,0,0:0:0:0:
192,192,110546,1,0,0:0:0:0:
320,192,110624,1,0,0:0:0:100:c5 kick.wav
64,192,110624,1,0,0:0:0:100:c5 kick.wav
320,192,110780,1,0,0:0:0:100:snare.wav
448,192,110780,1,0,0:0:0:100:snare.wav
192,192,110780,1,0,0:0:0:100:snare.wav
64,192,110936,1,0,0:0:0:0:
192,192,111014,1,0,0:0:0:0:
448,192,111093,1,0,0:0:0:0:
64,192,111171,1,0,0:0:0:0:
320,192,111249,1,0,0:0:0:100:c5 kick.wav
192,192,111249,1,0,0:0:0:100:c5 kick.wav
448,192,111405,1,0,0:0:0:100:snare.wav
64,192,111405,1,0,0:0:0:100:snare.wav
192,192,111405,1,0,0:0:0:100:snare.wav
192,192,111561,1,0,0:0:0:0:
448,192,111639,1,0,0:0:0:0:
64,192,111718,1,0,0:0:0:0:
320,192,111796,1,0,0:0:0:0:
448,192,111874,1,0,0:0:0:100:c5 kick.wav
192,192,111874,1,0,0:0:0:100:c5 kick.wav
320,192,112030,1,0,0:0:0:100:snare.wav
448,192,112030,1,0,0:0:0:100:snare.wav
64,192,112030,1,0,0:0:0:100:snare.wav
192,192,112108,1,0,0:0:0:0:
448,192,112186,1,0,0:0:0:0:
64,192,112264,1,0,0:0:0:0:
64,192,112343,1,0,0:0:0:100:c5 kick.wav
448,192,112343,1,0,0:0:0:100:c5 kick.wav
192,192,112499,1,0,0:0:0:0:
320,192,112577,1,0,0:0:0:0:
448,192,112655,1,0,0:0:0:100:snare.wav
192,192,112655,1,0,0:0:0:100:snare.wav
64,192,112655,1,0,0:0:0:100:snare.wav
192,192,112811,1,0,0:0:0:0:
320,192,112889,1,0,0:0:0:0:
448,192,112968,1,0,0:0:0:0:
320,192,113046,1,0,0:0:0:0:
64,192,113124,1,0,0:0:0:100:c5 kick.wav
192,192,113124,1,0,0:0:0:100:c5 kick.wav
448,192,113202,1,0,0:0:0:0:
192,192,113280,1,0,0:0:0:0:
320,192,113436,1,0,0:0:0:100:snare.wav
64,192,113436,1,0,0:0:0:100:snare.wav
448,192,113436,1,0,0:0:0:100:snare.wav
192,192,113514,1,0,0:0:0:0:
448,192,113593,1,0,0:0:0:0:
320,192,113671,1,0,0:0:0:0:
64,192,113749,1,0,0:0:0:100:drum.wav
192,192,113749,1,0,0:0:0:100:drum.wav
320,192,113827,1,0,0:0:0:100:drum.wav
448,192,113827,1,0,0:0:0:100:drum.wav
192,192,113905,1,0,0:0:0:100:snare.wav
64,192,113905,1,0,0:0:0:100:snare.wav
448,192,114061,1,0,0:0:0:100:drum.wav
320,192,114081,1,0,0:0:0:100:drum.wav
192,192,114100,1,0,0:0:0:100:drum.wav
64,192,114120,1,0,0:0:0:100:drum.wav
448,192,114139,1,0,0:0:0:100:drum.wav
192,192,114218,1,0,0:0:0:100:snare.wav
64,192,114218,1,0,0:0:0:100:snare.wav
320,192,114218,1,0,0:0:0:100:snare.wav
448,192,114296,1,0,0:0:0:100:drum.wav
192,192,114374,1,0,0:0:0:100:drum.wav
64,192,114374,1,0,0:0:0:100:drum.wav
448,192,114452,1,0,0:0:0:100:drum.wav
320,192,114452,1,0,0:0:0:100:drum.wav
64,192,114530,1,0,0:0:0:100:drum.wav
192,192,114530,1,0,0:0:0:100:drum.wav
448,192,114530,128,0,114764:0:0:0:0:
64,192,114608,1,0,0:0:0:100:drum.wav
192,192,114686,1,0,0:0:0:100:drum.wav
320,192,114686,1,0,0:0:0:100:drum.wav
192,192,114764,1,0,0:0:0:100:drum.wav
320,192,114843,1,0,0:0:0:100:c5 kick.wav
64,192,114843,1,0,0:0:0:100:c5 kick.wav
448,192,114843,128,0,115077:0:0:0:0:
192,192,114999,1,0,0:0:0:0:
192,192,115155,128,0,115311:0:0:0:0:
320,192,115155,1,0,0:0:0:100:snare.wav
64,192,115155,1,0,0:0:0:100:snare.wav
448,192,115155,1,0,0:0:0:100:snare.wav
64,192,115311,128,0,115780:0:0:0:0:
448,192,115311,1,0,0:0:0:0:
320,192,115389,1,0,0:0:0:0:
192,192,115468,1,0,0:0:0:0:
448,192,115546,1,0,0:0:0:0:
320,192,115624,1,0,0:0:0:100:c5 kick.wav
192,192,115624,1,0,0:0:0:100:c5 kick.wav
448,192,115702,1,0,0:0:0:0:
448,192,115780,1,0,0:0:0:100:snare.wav
320,192,115780,1,0,0:0:0:100:snare.wav
192,192,115780,1,0,0:0:0:100:snare.wav
320,192,115936,1,0,0:0:0:0:
64,192,116014,1,0,0:0:0:0:
192,192,116093,1,0,0:0:0:0:
320,192,116171,1,0,0:0:0:0:
192,192,116249,1,0,0:0:0:100:c5 kick.wav
448,192,116249,1,0,0:0:0:100:c5 kick.wav
448,192,116405,128,0,117343:0:0:0:0:
192,192,116405,1,0,0:0:0:100:snare.wav
64,192,116405,1,0,0:0:0:100:snare.wav
320,192,116405,1,0,0:0:0:100:snare.wav
64,192,116561,1,0,0:0:0:0:
320,192,116639,1,0,0:0:0:0:
192,192,116718,1,0,0:0:0:0:
64,192,116796,1,0,0:0:0:0:
192,192,116874,1,0,0:0:0:100:c5 kick.wav
320,192,116874,1,0,0:0:0:100:c5 kick.wav
64,192,116952,1,0,0:0:0:0:
192,192,117030,1,0,0:0:0:100:snare.wav
64,192,117030,1,0,0:0:0:100:snare.wav
320,192,117030,1,0,0:0:0:100:snare.wav
192,192,117186,1,0,0:0:0:0:
192,192,117343,128,0,118280:0:0:0:0:
64,192,117343,1,0,0:0:0:100:c5 kick.wav
320,192,117343,1,0,0:0:0:100:c5 kick.wav
448,192,117499,1,0,0:0:0:0:
320,192,117655,1,0,0:0:0:100:snare.wav
448,192,117655,1,0,0:0:0:100:snare.wav
64,192,117655,1,0,0:0:0:100:snare.wav
320,192,117811,1,0,0:0:0:0:
448,192,117889,1,0,0:0:0:0:
64,192,117968,1,0,0:0:0:0:
320,192,118046,1,0,0:0:0:0:
448,192,118124,1,0,0:0:0:100:c5 kick.wav
64,192,118124,1,0,0:0:0:100:c5 kick.wav
320,192,118280,1,0,0:0:0:0:
64,192,118280,128,0,118593:0:0:0:0:
320,192,118436,1,0,0:0:0:100:snare.wav
192,192,118436,1,0,0:0:0:100:snare.wav
448,192,118436,1,0,0:0:0:100:snare.wav
448,192,118593,1,0,0:0:0:0:
192,192,118671,1,0,0:0:0:0:
320,192,118749,1,0,0:0:0:100:c5 kick.wav
64,192,118749,1,0,0:0:0:100:c5 kick.wav
192,192,118827,1,0,0:0:0:0:
320,192,118905,1,0,0:0:0:100:snare.wav
448,192,118905,1,0,0:0:0:100:snare.wav
64,192,118905,1,0,0:0:0:100:snare.wav
192,192,118983,1,0,0:0:0:0:
320,192,119061,1,0,0:0:0:0:
448,192,119139,1,0,0:0:0:0:
192,192,119218,1,0,0:0:0:100:drum.wav
64,192,119218,1,0,0:0:0:100:drum.wav
320,192,119296,1,0,0:0:0:100:drum.wav
448,192,119296,1,0,0:0:0:100:drum.wav
192,192,119374,1,0,0:0:0:100:c5 kick.wav
64,192,119374,1,0,0:0:0:100:c5 kick.wav
320,192,119452,1,0,0:0:0:100:drum.wav
448,192,119530,1,0,0:0:0:100:snare.wav
64,192,119530,1,0,0:0:0:100:snare.wav
192,192,119530,1,0,0:0:0:100:snare.wav
320,192,119608,1,0,0:0:0:100:drum.wav
64,192,119686,1,0,0:0:0:100:drum.wav
192,192,119686,1,0,0:0:0:100:drum.wav
320,192,119764,1,0,0:0:0:100:drum.wav
448,192,119764,1,0,0:0:0:100:drum.wav
320,192,119843,128,0,120702:0:0:0:0:
64,192,119843,1,0,0:0:0:100:c5 kick.wav
192,192,119843,1,0,0:0:0:100:c5 kick.wav
448,192,119999,1,0,0:0:0:0:
448,192,120155,1,0,0:0:0:100:snare.wav
192,192,120155,1,0,0:0:0:100:snare.wav
64,192,120155,1,0,0:0:0:100:snare.wav
64,192,120311,1,0,0:0:0:0:
448,192,120389,1,0,0:0:0:0:
192,192,120468,1,0,0:0:0:0:
448,192,120546,1,0,0:0:0:0:
64,192,120624,1,0,0:0:0:100:c5 kick.wav
192,192,120624,1,0,0:0:0:100:c5 kick.wav
448,192,120780,128,0,122030:0:0:0:0:
192,192,120780,1,0,0:0:0:100:snare.wav
64,192,120780,1,0,0:0:0:100:snare.wav
320,192,120780,1,0,0:0:0:100:snare.wav
320,192,120936,1,0,0:0:0:0:
192,192,121014,1,0,0:0:0:0:
64,192,121093,1,0,0:0:0:0:
192,192,121249,1,0,0:0:0:100:c5 kick.wav
320,192,121249,1,0,0:0:0:100:c5 kick.wav
320,192,121405,1,0,0:0:0:100:snare.wav
192,192,121405,1,0,0:0:0:100:snare.wav
64,192,121405,1,0,0:0:0:100:snare.wav
64,192,121561,1,0,0:0:0:0:
192,192,121639,1,0,0:0:0:0:
320,192,121718,1,0,0:0:0:0:
192,192,121796,1,0,0:0:0:0:
64,192,121874,1,0,0:0:0:100:c5 kick.wav
320,192,121874,1,0,0:0:0:100:c5 kick.wav
192,192,122030,1,0,0:0:0:100:snare.wav
64,192,122030,1,0,0:0:0:100:snare.wav
320,192,122030,1,0,0:0:0:100:snare.wav
448,192,122186,1,0,0:0:0:0:
192,192,122186,1,0,0:0:0:0:
64,192,122264,1,0,0:0:0:0:
320,192,122264,1,0,0:0:0:0:
448,192,122343,1,0,0:0:0:100:c5 kick.wav
192,192,122343,1,0,0:0:0:100:c5 kick.wav
320,192,122499,1,0,0:0:0:0:
448,192,122655,1,0,0:0:0:100:snare.wav
64,192,122655,1,0,0:0:0:100:snare.wav
192,192,122655,1,0,0:0:0:100:snare.wav
320,192,122811,1,0,0:0:0:100:drum.wav
448,192,122811,1,0,0:0:0:100:drum.wav
192,192,122889,1,0,0:0:0:100:drum.wav
64,192,122889,1,0,0:0:0:100:drum.wav
320,192,122968,1,0,0:0:0:100:drum.wav
448,192,122968,1,0,0:0:0:100:drum.wav
192,192,123046,1,0,0:0:0:100:drum.wav
64,192,123046,1,0,0:0:0:100:drum.wav
320,192,123124,1,0,0:0:0:100:c5 kick.wav
448,192,123124,1,0,0:0:0:100:c5 kick.wav
192,192,123280,1,0,0:0:0:0:
64,192,123436,1,0,0:0:0:100:snare.wav
320,192,123436,1,0,0:0:0:100:snare.wav
448,192,123436,1,0,0:0:0:100:snare.wav
64,192,123593,1,0,0:0:0:0:
192,192,123671,1,0,0:0:0:0:
320,192,123749,1,0,0:0:0:100:c5 kick.wav
448,192,123749,1,0,0:0:0:100:c5 kick.wav
192,192,123905,1,0,0:0:0:100:snare.wav
64,192,123905,1,0,0:0:0:100:snare.wav
448,192,123905,1,0,0:0:0:100:snare.wav
320,192,124061,1,0,0:0:0:0:
448,192,124061,1,0,0:0:0:0:
192,192,124139,1,0,0:0:0:0:
64,192,124218,1,0,0:0:0:0:
320,192,124218,1,0,0:0:0:0:
448,192,124218,1,0,0:0:0:0:
192,192,124374,1,0,0:0:0:100:c5 kick.wav
64,192,124374,1,0,0:0:0:100:c5 kick.wav
320,192,124530,1,0,0:0:0:100:snare.wav
448,192,124530,1,0,0:0:0:100:snare.wav
64,192,124530,1,0,0:0:0:100:snare.wav
192,192,124608,1,0,0:0:0:100:drum.wav
320,192,124686,1,0,0:0:0:100:drum.wav
448,192,124686,1,0,0:0:0:100:drum.wav
192,192,124764,1,0,0:0:0:100:drum.wav
64,192,124843,1,0,0:0:0:100:c5 kick.wav
448,192,124843,128,0,125780:0:0:0:0:
320,192,124843,1,0,0:0:0:100:c5 kick.wav
192,192,124999,1,0,0:0:0:0:
64,192,125155,1,0,0:0:0:100:snare.wav
192,192,125155,1,0,0:0:0:100:snare.wav
320,192,125155,1,0,0:0:0:100:snare.wav
64,192,125311,1,0,0:0:0:0:
320,192,125389,1,0,0:0:0:0:
192,192,125468,1,0,0:0:0:0:
64,192,125546,1,0,0:0:0:0:
192,192,125624,1,0,0:0:0:100:c5 kick.wav
320,192,125624,1,0,0:0:0:100:c5 kick.wav
320,192,125780,1,0,0:0:0:100:snare.wav
192,192,125780,1,0,0:0:0:100:snare.wav
64,192,125780,1,0,0:0:0:100:snare.wav
64,192,125936,1,0,0:0:0:0:
448,192,126014,1,0,0:0:0:0:
320,192,126093,1,0,0:0:0:0:
448,192,126249,1,0,0:0:0:100:c5 kick.wav
192,192,126249,1,0,0:0:0:100:c5 kick.wav
64,192,126405,1,0,0:0:0:100:snare.wav
448,192,126405,1,0,0:0:0:100:snare.wav
320,192,126405,1,0,0:0:0:100:snare.wav
192,192,126405,128,0,127343:0:0:0:0:
320,192,126561,1,0,0:0:0:0:
448,192,126639,1,0,0:0:0:0:
64,192,126718,1,0,0:0:0:0:
448,192,126796,1,0,0:0:0:0:
320,192,126874,1,0,0:0:0:100:c5 kick.wav
64,192,126874,1,0,0:0:0:100:c5 kick.wav
64,192,127030,1,0,0:0:0:100:snare.wav
448,192,127030,1,0,0:0:0:100:snare.wav
320,192,127030,1,0,0:0:0:100:snare.wav
448,192,127186,1,0,0:0:0:0:
320,192,127264,1,0,0:0:0:0:
320,192,127343,128,0,128280:0:0:0:0:
448,192,127343,1,0,0:0:0:100:c5 kick.wav
64,192,127343,1,0,0:0:0:100:c5 kick.wav
192,192,127499,1,0,0:0:0:0:
64,192,127655,1,0,0:0:0:100:snare.wav
192,192,127655,1,0,0:0:0:100:snare.wav
448,192,127655,1,0,0:0:0:100:snare.wav
192,192,127811,1,0,0:0:0:0:
448,192,127889,1,0,0:0:0:0:
64,192,127968,1,0,0:0:0:0:
448,192,128046,1,0,0:0:0:0:
192,192,128124,1,0,0:0:0:100:c5 kick.wav
64,192,128124,1,0,0:0:0:100:c5 kick.wav
64,192,128280,128,0,128905:0:0:0:0:
448,192,128280,1,0,0:0:0:0:
192,192,128436,1,0,0:0:0:100:snare.wav
320,192,128436,1,0,0:0:0:100:snare.wav
448,192,128436,1,0,0:0:0:100:snare.wav
192,192,128593,1,0,0:0:0:0:
448,192,128671,1,0,0:0:0:0:
320,192,128749,1,0,0:0:0:100:c5 kick.wav
192,192,128749,1,0,0:0:0:100:c5 kick.wav
448,192,128827,1,0,0:0:0:0:
192,192,128905,1,0,0:0:0:100:snare.wav
320,192,128905,1,0,0:0:0:100:snare.wav
448,192,128905,1,0,0:0:0:100:snare.wav
64,192,128983,1,0,0:0:0:0:
192,192,129061,1,0,0:0:0:0:
320,192,129139,1,0,0:0:0:0:
448,192,129218,1,0,0:0:0:100:drum.wav
64,192,129218,1,0,0:0:0:100:drum.wav
192,192,129296,1,0,0:0:0:100:drum.wav
320,192,129296,1,0,0:0:0:100:drum.wav
64,192,129374,1,0,0:0:0:100:c5 kick.wav
448,192,129374,1,0,0:0:0:100:c5 kick.wav
192,192,129452,1,0,0:0:0:100:drum.wav
320,192,129530,1,0,0:0:0:100:snare.wav
64,192,129530,1,0,0:0:0:100:snare.wav
448,192,129530,1,0,0:0:0:100:snare.wav
192,192,129608,1,0,0:0:0:100:drum.wav
64,192,129686,1,0,0:0:0:100:drum.wav
448,192,129686,1,0,0:0:0:100:drum.wav
320,192,129764,1,0,0:0:0:100:drum.wav
192,192,129764,1,0,0:0:0:100:drum.wav
64,192,129843,1,0,0:0:0:100:c5 kick.wav
448,192,129843,1,0,0:0:0:100:c5 kick.wav
192,192,129843,128,0,130468:0:0:0:0:
320,192,129999,1,0,0:0:0:0:
448,192,130155,1,0,0:0:0:100:snare.wav
320,192,130155,1,0,0:0:0:100:snare.wav
64,192,130155,1,0,0:0:0:100:snare.wav
448,192,130311,1,0,0:0:0:0:
64,192,130389,1,0,0:0:0:0:
448,192,130468,1,0,0:0:0:0:
320,192,130546,1,0,0:0:0:0:
192,192,130624,1,0,0:0:0:100:c5 kick.wav
64,192,130624,1,0,0:0:0:100:c5 kick.wav
64,192,130780,128,0,131093:0:0:0:0:
320,192,130780,1,0,0:0:0:100:snare.wav
192,192,130780,1,0,0:0:0:100:snare.wav
448,192,130780,1,0,0:0:0:100:snare.wav
320,192,130936,1,0,0:0:0:0:
448,192,131093,128,0,131718:0:0:0:0:
192,192,131093,1,0,0:0:0:0:
64,192,131249,1,0,0:0:0:100:c5 kick.wav
320,192,131249,1,0,0:0:0:100:c5 kick.wav
320,192,131405,1,0,0:0:0:100:snare.wav
192,192,131405,1,0,0:0:0:100:snare.wav
64,192,131405,1,0,0:0:0:100:snare.wav
320,192,131561,1,0,0:0:0:0:
192,192,131639,1,0,0:0:0:0:
320,192,131718,128,0,132343:0:0:0:0:
64,192,131718,1,0,0:0:0:0:
192,192,131796,1,0,0:0:0:0:
64,192,131874,1,0,0:0:0:100:c5 kick.wav
448,192,131874,1,0,0:0:0:100:c5 kick.wav
192,192,132030,1,0,0:0:0:100:snare.wav
64,192,132030,1,0,0:0:0:100:snare.wav
448,192,132030,1,0,0:0:0:100:snare.wav
192,192,132186,1,0,0:0:0:0:
64,192,132264,1,0,0:0:0:0:
448,192,132343,128,0,132968:0:0:0:0:
192,192,132343,1,0,0:0:0:100:c5 kick.wav
64,192,132343,1,0,0:0:0:100:c5 kick.wav
320,192,132499,1,0,0:0:0:0:
320,192,132655,1,0,0:0:0:100:snare.wav
192,192,132655,1,0,0:0:0:100:snare.wav
64,192,132655,1,0,0:0:0:100:snare.wav
64,192,132811,1,0,0:0:0:0:
192,192,132889,1,0,0:0:0:0:
320,192,132968,1,0,0:0:0:0:
448,192,133046,1,0,0:0:0:0:
192,192,133124,1,0,0:0:0:100:c5 kick.wav
64,192,133124,1,0,0:0:0:100:c5 kick.wav
64,192,133280,128,0,133514:0:0:0:0:
448,192,133280,1,0,0:0:0:0:
320,192,133436,1,0,0:0:0:100:snare.wav
192,192,133436,1,0,0:0:0:100:snare.wav
448,192,133436,1,0,0:0:0:100:snare.wav
64,192,133593,128,0,134218:0:0:0:0:
192,192,133593,1,0,0:0:0:0:
448,192,133671,1,0,0:0:0:0:
320,192,133749,1,0,0:0:0:100:c5 kick.wav
192,192,133749,1,0,0:0:0:100:c5 kick.wav
192,192,133905,1,0,0:0:0:100:snare.wav
320,192,133905,1,0,0:0:0:100:snare.wav
448,192,133905,1,0,0:0:0:100:snare.wav
448,192,134061,1,0,0:0:0:0:
320,192,134139,1,0,0:0:0:0:
192,192,134218,1,0,0:0:0:100:drum.wav
448,192,134218,1,0,0:0:0:100:drum.wav
64,192,134296,1,0,0:0:0:100:drum.wav
320,192,134296,1,0,0:0:0:100:drum.wav
192,192,134374,1,0,0:0:0:100:c5 kick.wav
448,192,134374,1,0,0:0:0:100:c5 kick.wav
320,192,134530,1,0,0:0:0:100:snare.wav
448,192,134530,1,0,0:0:0:100:snare.wav
64,192,134530,1,0,0:0:0:100:snare.wav
192,192,134608,1,0,0:0:0:100:drum.wav
320,192,134686,1,0,0:0:0:100:drum.wav
448,192,134686,1,0,0:0:0:100:drum.wav
192,192,134764,1,0,0:0:0:100:drum.wav
64,192,134764,1,0,0:0:0:100:drum.wav
64,192,134843,1,0,0:0:0:100:drum.wav
448,192,134843,1,0,0:0:0:100:drum.wav
320,192,134843,1,0,0:0:0:100:drum.wav
320,192,134999,1,0,0:0:0:0:
64,192,135155,1,0,0:0:0:0:
448,192,135311,1,0,0:0:0:0:
192,192,135468,1,0,0:0:0:0:
320,192,135624,1,0,0:0:0:0:
64,192,135780,1,0,0:0:0:0:
448,192,135936,1,0,0:0:0:0:
192,192,136093,1,0,0:0:0:0:
448,192,136249,1,0,0:0:0:0:
64,192,136405,1,0,0:0:0:0:
320,192,136561,1,0,0:0:0:0:
192,192,136718,1,0,0:0:0:0:
448,192,136874,1,0,0:0:0:0:
64,192,137030,1,0,0:0:0:0:
320,192,137186,1,0,0:0:0:0:
192,192,137343,1,0,0:0:0:0:
448,192,137499,1,0,0:0:0:0:
192,192,137655,1,0,0:0:0:0:
64,192,137655,1,0,0:0:0:40:snare.wav
320,192,137811,1,0,0:0:0:0:
64,192,137968,1,0,0:0:0:0:
448,192,138124,1,0,0:0:0:0:
192,192,138280,1,0,0:0:0:0:
320,192,138436,1,0,0:0:0:0:
448,192,138436,1,0,0:0:0:55:snare.wav
64,192,138593,1,0,0:0:0:0:
320,192,138749,1,0,0:0:0:70:c5 kick.wav
192,192,138749,1,0,0:0:0:0:
64,192,138905,1,0,0:0:0:0:
448,192,138905,1,0,0:0:0:70:snare.wav
320,192,139061,1,0,0:0:0:0:
64,192,139218,1,0,0:0:0:0:
448,192,139374,1,0,0:0:0:0:
320,192,139530,1,0,0:0:0:85:snare.wav
192,192,139530,1,0,0:0:0:85:snare.wav
64,192,139686,1,0,0:0:0:85:drum.wav
448,192,139686,1,0,0:0:0:85:drum.wav
320,192,139843,1,0,0:0:0:100:c5 kick.wav
192,192,139843,1,0,0:0:0:85:drum.wav
320,192,139999,1,0,0:0:0:0:
64,192,140155,1,0,0:0:0:100:snare.wav
448,192,140155,1,0,0:0:0:100:snare.wav
192,192,140311,1,0,0:0:0:0:
64,192,140468,1,0,0:0:0:0:
320,192,140624,1,0,0:0:0:70:c5 kick.wav
448,192,140624,1,0,0:0:0:0:
192,192,140780,1,0,0:0:0:70:snare.wav
64,192,140780,1,0,0:0:0:0:
320,192,140936,1,0,0:0:0:0:
448,192,141093,1,0,0:0:0:0:
192,192,141249,1,0,0:0:0:70:c5 kick.wav
64,192,141249,1,0,0:0:0:0:
320,192,141405,1,0,0:0:0:70:snare.wav
448,192,141405,1,0,0:0:0:0:
192,192,141561,1,0,0:0:0:0:
64,192,141718,1,0,0:0:0:0:
320,192,141874,1,0,0:0:0:70:c5 kick.wav
448,192,141874,1,0,0:0:0:0:
192,192,142030,1,0,0:0:0:70:snare.wav
64,192,142030,1,0,0:0:0:0:
320,192,142186,1,0,0:0:0:0:
64,192,142343,1,0,0:0:0:70:c5 kick.wav
448,192,142343,1,0,0:0:0:0:
192,192,142499,1,0,0:0:0:0:
320,192,142655,1,0,0:0:0:70:snare.wav
192,192,142655,1,0,0:0:0:0:
448,192,142811,1,0,0:0:0:0:
64,192,142968,1,0,0:0:0:0:
320,192,143124,1,0,0:0:0:0:
448,192,143124,1,0,0:0:0:70:c5 kick.wav
192,192,143280,1,0,0:0:0:0:
64,192,143436,1,0,0:0:0:70:snare.wav
448,192,143436,1,0,0:0:0:0:
320,192,143593,1,0,0:0:0:0:
320,192,143749,1,0,0:0:0:0:
192,192,143749,1,0,0:0:0:70:c5 kick.wav
64,192,143905,1,0,0:0:0:0:
448,192,143905,1,0,0:0:0:70:snare.wav
320,192,144061,1,0,0:0:0:0:
192,192,144218,1,0,0:0:0:0:
320,192,144374,1,0,0:0:0:70:c5 kick.wav
448,192,144374,1,0,0:0:0:0:
192,192,144530,1,0,0:0:0:70:snare.wav
64,192,144530,1,0,0:0:0:0:
448,192,144530,128,0,144843:0:0:0:0:
320,192,144686,1,0,0:0:0:0:
64,192,144843,128,0,145780:0:0:0:0:
192,192,144843,1,0,0:0:0:80:drum.wav
320,192,144999,1,0,0:0:0:0:
192,192,145155,1,0,0:0:0:80:drum.wav
448,192,145311,1,0,0:0:0:0:
192,192,145468,1,0,0:0:0:80:drum.wav
320,192,145624,1,0,0:0:0:0:
192,192,145780,128,0,146093:0:0:0:0:
448,192,145780,1,0,0:0:0:80:drum.wav
320,192,145936,1,0,0:0:0:0:
64,192,146093,128,0,146405:0:0:0:0:
448,192,146093,1,0,0:0:0:80:drum.wav
192,192,146249,1,0,0:0:0:0:
448,192,146405,128,0,146718:0:0:0:0:
320,192,146405,1,0,0:0:0:80:drum.wav
64,192,146561,1,0,0:0:0:0:
320,192,146718,1,0,0:0:0:80:drum.wav
192,192,146874,1,0,0:0:0:0:
64,192,147030,1,0,0:0:0:80:drum.wav
448,192,147030,128,0,147343:0:0:0:0:
320,192,147186,1,0,0:0:0:0:
192,192,147343,128,0,148280:0:0:0:0:
64,192,147343,1,0,0:0:0:80:drum.wav
448,192,147499,1,0,0:0:0:0:
64,192,147655,1,0,0:0:0:80:drum.wav
320,192,147811,1,0,0:0:0:0:
64,192,147968,1,0,0:0:0:80:drum.wav
448,192,148124,1,0,0:0:0:0:
448,192,148280,128,0,148593:0:0:0:0:
64,192,148280,1,0,0:0:0:80:drum.wav
320,192,148436,1,0,0:0:0:0:
320,192,148593,128,0,149061:0:0:0:0:
192,192,148593,1,0,0:0:0:80:drum.wav
448,192,148749,1,0,0:0:0:0:
192,192,148905,1,0,0:0:0:80:drum.wav
448,192,149061,128,0,149218:0:0:0:0:
64,192,149061,1,0,0:0:0:0:
320,192,149218,1,0,0:0:0:80:drum.wav
192,192,149374,1,0,0:0:0:0:
320,192,149530,1,0,0:0:0:80:drum.wav
448,192,149530,128,0,149764:0:0:0:0:
64,192,149686,1,0,0:0:0:0:
448,192,149843,128,0,150155:0:0:0:0:
192,192,149843,1,0,0:0:0:80:drum.wav
320,192,149999,1,0,0:0:0:0:
64,192,150155,128,0,150233:0:0:0:0:
192,192,150155,1,0,0:0:0:80:snare.wav
448,192,150311,1,0,0:0:0:0:
64,192,150311,128,0,151093:0:0:0:0:
320,192,150468,1,0,0:0:0:80:drum.wav
192,192,150624,1,0,0:0:0:0:
320,192,150780,1,0,0:0:0:80:snare.wav
448,192,150936,1,0,0:0:0:0:
192,192,151093,1,0,0:0:0:80:drum.wav
448,192,151171,1,0,0:0:0:0:
320,192,151249,1,0,0:0:0:0:
192,192,151327,1,0,0:0:0:0:
448,192,151405,1,0,0:0:0:80:snare.wav
64,192,151405,1,0,0:0:0:80:snare.wav
320,192,151405,1,0,0:0:0:0:
192,192,151483,1,0,0:0:0:0:
64,192,151561,1,0,0:0:0:0:
448,192,151639,1,0,0:0:0:0:
320,192,151718,1,0,0:0:0:80:drum.wav
192,192,151718,1,0,0:0:0:80:drum.wav
64,192,151796,1,0,0:0:0:0:
448,192,151874,1,0,0:0:0:0:
320,192,151952,1,0,0:0:0:0:
192,192,152030,1,0,0:0:0:0:
64,192,152030,1,0,0:0:0:80:snare.wav
448,192,152030,1,0,0:0:0:80:snare.wav
320,192,152108,1,0,0:0:0:0:
64,192,152186,1,0,0:0:0:0:
192,192,152264,1,0,0:0:0:0:
320,192,152343,1,0,0:0:0:100:c5 kick.wav
448,192,152343,1,0,0:0:0:100:c5 kick.wav
64,192,152499,1,0,0:0:0:100:drum.wav
192,192,152499,1,0,0:0:0:100:drum.wav
320,192,152655,1,0,0:0:0:100:snare.wav
448,192,152655,1,0,0:0:0:100:snare.wav
64,192,152655,1,0,0:0:0:100:snare.wav
192,192,152811,1,0,0:0:0:100:drum.wav
320,192,152811,1,0,0:0:0:100:drum.wav
448,192,152968,1,0,0:0:0:100:c5 kick.wav
64,192,152968,1,0,0:0:0:100:c5 kick.wav
448,192,153124,1,0,0:0:0:100:drum.wav
192,192,153124,1,0,0:0:0:100:drum.wav
320,192,153280,1,0,0:0:0:100:snare.wav
64,192,153280,1,0,0:0:0:100:snare.wav
192,192,153280,1,0,0:0:0:100:snare.wav
64,192,153436,1,0,0:0:0:100:drum.wav
448,192,153436,1,0,0:0:0:100:drum.wav
192,192,153593,1,0,0:0:0:100:c5 kick.wav
320,192,153593,1,0,0:0:0:100:c5 kick.wav
192,192,153749,1,0,0:0:0:100:drum.wav
448,192,153749,1,0,0:0:0:100:drum.wav
192,192,153905,1,0,0:0:0:100:snare.wav
64,192,153905,1,0,0:0:0:100:snare.wav
320,192,153905,1,0,0:0:0:100:snare.wav
192,192,154061,1,0,0:0:0:100:drum.wav
448,192,154061,1,0,0:0:0:100:drum.wav
320,192,154218,1,0,0:0:0:100:c5 kick.wav
64,192,154218,1,0,0:0:0:100:c5 kick.wav
320,192,154374,1,0,0:0:0:100:drum.wav
192,192,154374,1,0,0:0:0:100:drum.wav
320,192,154530,1,0,0:0:0:100:snare.wav
448,192,154530,1,0,0:0:0:100:snare.wav
64,192,154530,1,0,0:0:0:100:snare.wav
64,192,154686,1,0,0:0:0:100:drum.wav
320,192,154686,1,0,0:0:0:100:drum.wav
192,192,154843,1,0,0:0:0:100:c5 kick.wav
64,192,154843,1,0,0:0:0:100:c5 kick.wav
448,192,154921,1,0,0:0:0:100:drum.wav
320,192,154921,1,0,0:0:0:100:drum.wav
192,192,154999,1,0,0:0:0:100:drum.wav
64,192,154999,1,0,0:0:0:100:drum.wav
320,192,155077,1,0,0:0:0:100:drum.wav
448,192,155155,1,0,0:0:0:100:snare.wav
192,192,155155,1,0,0:0:0:100:snare.wav
64,192,155155,1,0,0:0:0:100:snare.wav
320,192,155233,1,0,0:0:0:100:drum.wav
192,192,155311,1,0,0:0:0:100:drum.wav
64,192,155311,1,0,0:0:0:100:drum.wav
320,192,155389,1,0,0:0:0:100:drum.wav
448,192,155389,1,0,0:0:0:100:drum.wav
192,192,155468,1,0,0:0:0:100:c5 kick.wav
64,192,155468,1,0,0:0:0:100:c5 kick.wav
320,192,155546,1,0,0:0:0:100:drum.wav
448,192,155546,1,0,0:0:0:100:drum.wav
192,192,155624,1,0,0:0:0:100:drum.wav
64,192,155624,1,0,0:0:0:100:drum.wav
448,192,155702,1,0,0:0:0:100:drum.wav
320,192,155780,1,0,0:0:0:100:snare.wav
192,192,155780,1,0,0:0:0:100:snare.wav
64,192,155780,1,0,0:0:0:100:snare.wav
448,192,155858,1,0,0:0:0:100:drum.wav
192,192,155936,1,0,0:0:0:100:drum.wav
320,192,155936,1,0,0:0:0:100:drum.wav
64,192,156014,1,0,0:0:0:100:drum.wav
448,192,156014,1,0,0:0:0:100:drum.wav
64,192,156093,1,0,0:0:0:100:drum.wav
192,192,156132,1,0,0:0:0:100:drum.wav
320,192,156171,1,0,0:0:0:100:drum.wav
448,192,156210,1,0,0:0:0:100:drum.wav
64,192,156249,1,0,0:0:0:100:drum.wav
192,192,156288,1,0,0:0:0:100:drum.wav
320,192,156327,1,0,0:0:0:100:drum.wav
448,192,156366,1,0,0:0:0:100:drum.wav
192,192,156405,1,0,0:0:0:100:drum.wav
64,192,156444,1,0,0:0:0:100:drum.wav
320,192,156483,1,0,0:0:0:100:drum.wav
448,192,156522,1,0,0:0:0:100:drum.wav
192,192,156561,1,0,0:0:0:100:drum.wav
64,192,156600,1,0,0:0:0:100:drum.wav
320,192,156639,1,0,0:0:0:100:drum.wav
448,192,156678,1,0,0:0:0:100:drum.wav
192,192,156718,1,0,0:0:0:100:drum.wav
64,192,156757,1,0,0:0:0:100:drum.wav
448,192,156796,1,0,0:0:0:100:drum.wav
320,192,156835,1,0,0:0:0:100:drum.wav
192,192,156874,1,0,0:0:0:100:drum.wav
64,192,156913,1,0,0:0:0:100:drum.wav
448,192,156952,1,0,0:0:0:100:drum.wav
320,192,156991,1,0,0:0:0:100:drum.wav
64,192,157030,1,0,0:0:0:100:drum.wav
192,192,157069,1,0,0:0:0:100:drum.wav
320,192,157108,1,0,0:0:0:100:drum.wav
448,192,157147,1,0,0:0:0:100:drum.wav
64,192,157186,1,0,0:0:0:100:drum.wav
320,192,157225,1,0,0:0:0:100:drum.wav
192,192,157264,1,0,0:0:0:100:drum.wav
448,192,157303,1,0,0:0:0:100:drum.wav
192,192,157343,1,0,0:0:0:0:
64,192,157343,1,0,0:0:0:0:
320,192,157499,1,0,0:0:0:0:
448,192,157499,1,0,0:0:0:0:
192,192,157577,1,0,0:0:0:0:
448,192,157577,1,0,0:0:0:0:
64,192,157655,1,0,0:0:0:0:
448,192,157655,1,0,0:0:0:0:
64,192,157811,1,0,0:0:0:0:
192,192,157811,1,0,0:0:0:100:drum.wav
320,192,157889,1,0,0:0:0:100:drum.wav
448,192,157889,1,0,0:0:0:0:
192,192,157968,1,0,0:0:0:100:drum.wav
64,192,157968,1,0,0:0:0:0:
320,192,158046,1,0,0:0:0:100:drum.wav
448,192,158046,1,0,0:0:0:0:
64,192,158124,1,0,0:0:0:100:drum.wav
320,192,158163,1,0,0:0:0:100:drum.wav
192,192,158202,1,0,0:0:0:100:drum.wav
448,192,158241,1,0,0:0:0:100:drum.wav
64,192,158280,1,0,0:0:0:100:drum.wav
320,192,158319,1,0,0:0:0:100:drum.wav
192,192,158358,1,0,0:0:0:100:drum.wav
448,192,158397,1,0,0:0:0:100:drum.wav
64,192,158436,1,0,0:0:0:100:drum.wav
192,192,158475,1,0,0:0:0:100:drum.wav
320,192,158514,1,0,0:0:0:100:drum.wav
448,192,158553,1,0,0:0:0:100:drum.wav
192,192,158593,1,0,0:0:0:100:c5 kick.wav
64,192,158593,1,0,0:0:0:100:c5 kick.wav
320,192,158905,1,0,0:0:0:100:snare.wav
448,192,158905,1,0,0:0:0:100:snare.wav
64,192,158905,1,0,0:0:0:100:snare.wav
320,192,159061,1,0,0:0:0:0:
64,192,159139,1,0,0:0:0:0:
192,192,159218,1,0,0:0:0:0:
448,192,159218,1,0,0:0:0:0:
64,192,159296,1,0,0:0:0:0:
320,192,159374,1,0,0:0:0:100:c5 kick.wav
448,192,159374,1,0,0:0:0:100:c5 kick.wav
192,192,159530,1,0,0:0:0:100:snare.wav
64,192,159530,1,0,0:0:0:100:snare.wav
448,192,159530,1,0,0:0:0:100:snare.wav
320,192,159686,1,0,0:0:0:0:
192,192,159764,1,0,0:0:0:0:
448,192,159843,1,0,0:0:0:0:
320,192,159921,1,0,0:0:0:0:
192,192,159999,1,0,0:0:0:100:c5 kick.wav
64,192,159999,1,0,0:0:0:100:c5 kick.wav
320,192,160155,1,0,0:0:0:100:snare.wav
448,192,160155,1,0,0:0:0:100:snare.wav
64,192,160155,1,0,0:0:0:100:snare.wav
192,192,160311,1,0,0:0:0:0:
320,192,160389,1,0,0:0:0:0:
448,192,160468,1,0,0:0:0:0:
64,192,160546,1,0,0:0:0:0:
320,192,160624,1,0,0:0:0:100:c5 kick.wav
192,192,160624,1,0,0:0:0:100:c5 kick.wav
320,192,160780,1,0,0:0:0:100:snare.wav
448,192,160780,1,0,0:0:0:100:snare.wav
64,192,160780,1,0,0:0:0:100:snare.wav
192,192,160858,1,0,0:0:0:0:
64,192,160936,1,0,0:0:0:0:
448,192,160936,1,0,0:0:0:0:
192,192,161014,1,0,0:0:0:0:
320,192,161014,1,0,0:0:0:0:
64,192,161093,1,0,0:0:0:100:c5 kick.wav
448,192,161093,1,0,0:0:0:100:c5 kick.wav
320,192,161249,1,0,0:0:0:0:
192,192,161405,1,0,0:0:0:100:snare.wav
320,192,161405,1,0,0:0:0:100:snare.wav
448,192,161405,1,0,0:0:0:100:snare.wav
64,192,161483,1,0,0:0:0:0:
192,192,161561,1,0,0:0:0:0:
320,192,161639,1,0,0:0:0:0:
448,192,161718,1,0,0:0:0:0:
320,192,161796,1,0,0:0:0:0:
192,192,161874,1,0,0:0:0:100:c5 kick.wav
64,192,161874,1,0,0:0:0:100:c5 kick.wav
320,192,161952,1,0,0:0:0:0:
448,192,162030,1,0,0:0:0:0:
320,192,162108,1,0,0:0:0:0:
192,192,162186,1,0,0:0:0:100:snare.wav
448,192,162186,1,0,0:0:0:100:snare.wav
64,192,162186,1,0,0:0:0:100:snare.wav
320,192,162264,1,0,0:0:0:0:
64,192,162343,1,0,0:0:0:0:
192,192,162421,1,0,0:0:0:0:
320,192,162499,1,0,0:0:0:100:c5 kick.wav
448,192,162499,1,0,0:0:0:100:c5 kick.wav
192,192,162577,1,0,0:0:0:0:
64,192,162655,1,0,0:0:0:100:snare.wav
320,192,162655,1,0,0:0:0:100:snare.wav
448,192,162655,1,0,0:0:0:100:snare.wav
192,192,162733,1,0,0:0:0:0:
320,192,162811,1,0,0:0:0:0:
192,192,162889,1,0,0:0:0:0:
64,192,162968,1,0,0:0:0:100:drum.wav
448,192,162968,1,0,0:0:0:100:drum.wav
192,192,163046,1,0,0:0:0:100:drum.wav
320,192,163046,1,0,0:0:0:100:drum.wav
448,192,163124,1,0,0:0:0:100:drum.wav
64,192,163124,1,0,0:0:0:100:drum.wav
320,192,163202,1,0,0:0:0:100:drum.wav
192,192,163280,1,0,0:0:0:100:snare.wav
64,192,163280,1,0,0:0:0:100:snare.wav
448,192,163280,1,0,0:0:0:100:drum.wav
320,192,163358,1,0,0:0:0:100:drum.wav
192,192,163436,1,0,0:0:0:100:drum.wav
64,192,163436,1,0,0:0:0:100:drum.wav
320,192,163514,1,0,0:0:0:100:drum.wav
448,192,163514,1,0,0:0:0:100:drum.wav
192,192,163593,1,0,0:0:0:100:c5 kick.wav
64,192,163593,1,0,0:0:0:100:c5 kick.wav
448,192,163671,1,0,0:0:0:0:
320,192,163749,1,0,0:0:0:0:
192,192,163827,1,0,0:0:0:0:
320,192,163905,1,0,0:0:0:100:snare.wav
448,192,163905,1,0,0:0:0:100:snare.wav
64,192,163905,1,0,0:0:0:100:snare.wav
192,192,163983,1,0,0:0:0:0:
320,192,164061,1,0,0:0:0:0:
64,192,164139,1,0,0:0:0:0:
320,192,164218,1,0,0:0:0:0:
192,192,164296,1,0,0:0:0:0:
64,192,164374,1,0,0:0:0:100:c5 kick.wav
448,192,164374,1,0,0:0:0:100:c5 kick.wav
320,192,164452,1,0,0:0:0:0:
192,192,164530,1,0,0:0:0:100:snare.wav
64,192,164530,1,0,0:0:0:100:snare.wav
448,192,164530,1,0,0:0:0:100:snare.wav
320,192,164608,1,0,0:0:0:0:
192,192,164686,1,0,0:0:0:0:
64,192,164764,1,0,0:0:0:0:
320,192,164843,1,0,0:0:0:0:
448,192,164921,1,0,0:0:0:0:
320,192,164999,1,0,0:0:0:100:c5 kick.wav
192,192,164999,1,0,0:0:0:100:c5 kick.wav
64,192,165077,1,0,0:0:0:0:
320,192,165155,1,0,0:0:0:100:snare.wav
448,192,165155,1,0,0:0:0:100:snare.wav
192,192,165155,1,0,0:0:0:100:snare.wav
64,192,165311,1,0,0:0:0:0:
192,192,165389,1,0,0:0:0:0:
448,192,165468,1,0,0:0:0:0:
64,192,165546,1,0,0:0:0:0:
192,192,165624,1,0,0:0:0:100:c5 kick.wav
320,192,165624,1,0,0:0:0:100:c5 kick.wav
320,192,165780,1,0,0:0:0:100:snare.wav
448,192,165780,1,0,0:0:0:100:snare.wav
64,192,165780,1,0,0:0:0:100:snare.wav
192,192,165936,1,0,0:0:0:0:
320,192,166014,1,0,0:0:0:0:
192,192,166093,1,0,0:0:0:100:c5 kick.wav
64,192,166093,1,0,0:0:0:100:c5 kick.wav
448,192,166171,1,0,0:0:0:0:
320,192,166249,1,0,0:0:0:0:
192,192,166327,1,0,0:0:0:0:
320,192,166405,1,0,0:0:0:100:snare.wav
64,192,166405,1,0,0:0:0:100:snare.wav
448,192,166405,1,0,0:0:0:100:snare.wav
192,192,166483,1,0,0:0:0:0:
320,192,166561,1,0,0:0:0:0:
448,192,166639,1,0,0:0:0:0:
320,192,166718,1,0,0:0:0:0:
192,192,166796,1,0,0:0:0:0:
448,192,166874,1,0,0:0:0:100:c5 kick.wav
320,192,166874,1,0,0:0:0:100:c5 kick.wav
64,192,166952,1,0,0:0:0:0:
192,192,167030,1,0,0:0:0:0:
448,192,167030,1,0,0:0:0:0:
320,192,167108,1,0,0:0:0:0:
192,192,167186,1,0,0:0:0:100:snare.wav
64,192,167186,1,0,0:0:0:100:snare.wav
448,192,167186,1,0,0:0:0:100:snare.wav
320,192,167264,1,0,0:0:0:0:
192,192,167343,1,0,0:0:0:0:
64,192,167421,1,0,0:0:0:0:
320,192,167499,1,0,0:0:0:100:c5 kick.wav
448,192,167499,1,0,0:0:0:100:c5 kick.wav
192,192,167577,1,0,0:0:0:0:
64,192,167655,1,0,0:0:0:100:snare.wav
448,192,167655,1,0,0:0:0:100:snare.wav
320,192,167655,1,0,0:0:0:100:snare.wav
192,192,167811,1,0,0:0:0:0:
448,192,167889,1,0,0:0:0:0:
64,192,167968,1,0,0:0:0:100:drum.wav
320,192,167968,1,0,0:0:0:100:drum.wav
192,192,168046,1,0,0:0:0:100:drum.wav
448,192,168046,1,0,0:0:0:100:drum.wav
320,192,168124,1,0,0:0:0:100:drum.wav
64,192,168124,1,0,0:0:0:100:drum.wav
192,192,168202,1,0,0:0:0:100:drum.wav
64,192,168280,1,0,0:0:0:100:snare.wav
320,192,168280,1,0,0:0:0:100:snare.wav
448,192,168280,1,0,0:0:0:100:snare.wav
192,192,168358,1,0,0:0:0:100:drum.wav
320,192,168436,1,0,0:0:0:100:drum.wav
448,192,168436,1,0,0:0:0:100:drum.wav
192,192,168514,1,0,0:0:0:100:drum.wav
64,192,168514,1,0,0:0:0:100:drum.wav
320,192,168593,1,0,0:0:0:100:c5 kick.wav
448,192,168593,1,0,0:0:0:100:c5 kick.wav
320,192,168749,1,0,0:0:0:0:
192,192,168749,1,0,0:0:0:0:
192,192,168905,1,0,0:0:0:100:snare.wav
64,192,168905,1,0,0:0:0:100:snare.wav
448,192,168905,1,0,0:0:0:100:snare.wav
320,192,169061,1,0,0:0:0:0:
192,192,169139,1,0,0:0:0:0:
64,192,169218,1,0,0:0:0:0:
448,192,169296,1,0,0:0:0:0:
320,192,169374,1,0,0:0:0:100:c5 kick.wav
192,192,169374,1,0,0:0:0:100:c5 kick.wav
64,192,169530,1,0,0:0:0:100:snare.wav
192,192,169530,1,0,0:0:0:100:snare.wav
448,192,169530,1,0,0:0:0:100:snare.wav
320,192,169686,1,0,0:0:0:0:
192,192,169764,1,0,0:0:0:0:
64,192,169843,1,0,0:0:0:0:
448,192,169999,1,0,0:0:0:100:c5 kick.wav
192,192,169999,1,0,0:0:0:100:c5 kick.wav
320,192,170155,1,0,0:0:0:100:snare.wav
192,192,170155,1,0,0:0:0:100:snare.wav
64,192,170155,1,0,0:0:0:100:snare.wav
448,192,170311,1,0,0:0:0:0:
192,192,170389,1,0,0:0:0:0:
320,192,170468,1,0,0:0:0:0:
64,192,170546,1,0,0:0:0:0:
320,192,170624,1,0,0:0:0:100:c5 kick.wav
192,192,170624,1,0,0:0:0:100:c5 kick.wav
192,192,170780,1,0,0:0:0:100:snare.wav
64,192,170780,1,0,0:0:0:100:snare.wav
448,192,170780,1,0,0:0:0:100:snare.wav
320,192,170936,1,0,0:0:0:0:
192,192,171014,1,0,0:0:0:0:
448,192,171093,1,0,0:0:0:100:c5 kick.wav
64,192,171093,1,0,0:0:0:100:c5 kick.wav
192,192,171249,1,0,0:0:0:0:
320,192,171405,1,0,0:0:0:100:snare.wav
448,192,171405,1,0,0:0:0:100:snare.wav
64,192,171405,1,0,0:0:0:100:snare.wav
192,192,171561,1,0,0:0:0:0:
64,192,171718,1,0,0:0:0:0:
448,192,171796,1,0,0:0:0:0:
320,192,171874,1,0,0:0:0:100:c5 kick.wav
192,192,171874,1,0,0:0:0:100:c5 kick.wav
192,192,172030,1,0,0:0:0:0:
64,192,172186,1,0,0:0:0:100:snare.wav
320,192,172186,1,0,0:0:0:100:snare.wav
448,192,172186,1,0,0:0:0:100:snare.wav
192,192,172343,1,0,0:0:0:0:
320,192,172421,1,0,0:0:0:0:
448,192,172499,1,0,0:0:0:100:c5 kick.wav
64,192,172499,1,0,0:0:0:100:c5 kick.wav
320,192,172577,1,0,0:0:0:0:
64,192,172655,1,0,0:0:0:100:snare.wav
192,192,172655,1,0,0:0:0:100:snare.wav
448,192,172655,1,0,0:0:0:100:snare.wav
320,192,172733,1,0,0:0:0:0:
192,192,172811,1,0,0:0:0:0:
64,192,172889,1,0,0:0:0:0:
320,192,172968,1,0,0:0:0:100:drum.wav
448,192,172968,1,0,0:0:0:100:drum.wav
192,192,173046,1,0,0:0:0:100:drum.wav
64,192,173046,1,0,0:0:0:100:drum.wav
320,192,173124,1,0,0:0:0:100:c5 kick.wav
448,192,173124,1,0,0:0:0:100:c5 kick.wav
192,192,173202,1,0,0:0:0:100:drum.wav
64,192,173280,1,0,0:0:0:100:snare.wav
320,192,173280,1,0,0:0:0:100:snare.wav
448,192,173280,1,0,0:0:0:100:snare.wav
192,192,173358,1,0,0:0:0:100:drum.wav
320,192,173436,1,0,0:0:0:100:drum.wav
448,192,173436,1,0,0:0:0:100:drum.wav
192,192,173514,1,0,0:0:0:100:drum.wav
64,192,173514,1,0,0:0:0:100:drum.wav
320,192,173593,1,0,0:0:0:100:c5 kick.wav
448,192,173593,1,0,0:0:0:100:c5 kick.wav
64,192,173593,128,0,174843:0:0:0:0:
192,192,173749,1,0,0:0:0:0:
192,192,173905,1,0,0:0:0:100:snare.wav
320,192,173905,1,0,0:0:0:100:snare.wav
448,192,173905,1,0,0:0:0:100:snare.wav
320,192,174061,1,0,0:0:0:0:
192,192,174139,1,0,0:0:0:0:
448,192,174218,1,0,0:0:0:0:
192,192,174296,1,0,0:0:0:0:
320,192,174374,1,0,0:0:0:100:c5 kick.wav
448,192,174374,1,0,0:0:0:100:c5 kick.wav
448,192,174530,1,0,0:0:0:100:snare.wav
192,192,174530,1,0,0:0:0:100:snare.wav
320,192,174530,1,0,0:0:0:100:snare.wav
192,192,174686,1,0,0:0:0:0:
448,192,174843,128,0,176093:0:0:0:0:
320,192,174843,1,0,0:0:0:0:
192,192,174999,1,0,0:0:0:100:c5 kick.wav
64,192,174999,1,0,0:0:0:100:c5 kick.wav
320,192,175155,1,0,0:0:0:100:snare.wav
192,192,175155,1,0,0:0:0:100:snare.wav
64,192,175155,1,0,0:0:0:100:snare.wav
320,192,175311,1,0,0:0:0:0:
192,192,175389,1,0,0:0:0:0:
64,192,175468,1,0,0:0:0:0:
192,192,175546,1,0,0:0:0:0:
320,192,175624,1,0,0:0:0:100:c5 kick.wav
64,192,175624,1,0,0:0:0:100:c5 kick.wav
64,192,175780,1,0,0:0:0:100:snare.wav
192,192,175780,1,0,0:0:0:100:snare.wav
320,192,175780,1,0,0:0:0:100:snare.wav
64,192,175936,1,0,0:0:0:0:
64,192,176093,128,0,178514:0:0:0:0:
320,192,176093,1,0,0:0:0:100:c5 kick.wav
192,192,176093,1,0,0:0:0:100:c5 kick.wav
448,192,176249,1,0,0:0:0:0:
320,192,176405,1,0,0:0:0:100:snare.wav
192,192,176405,1,0,0:0:0:100:snare.wav
448,192,176405,1,0,0:0:0:100:snare.wav
192,192,176561,1,0,0:0:0:0:
448,192,176639,1,0,0:0:0:0:
320,192,176718,1,0,0:0:0:0:
192,192,176796,1,0,0:0:0:0:
448,192,176874,1,0,0:0:0:100:c5 kick.wav
320,192,176874,1,0,0:0:0:100:c5 kick.wav
192,192,177030,1,0,0:0:0:0:
192,192,177186,1,0,0:0:0:100:snare.wav
320,192,177186,1,0,0:0:0:100:snare.wav
448,192,177186,1,0,0:0:0:100:snare.wav
192,192,177343,1,0,0:0:0:0:
320,192,177499,1,0,0:0:0:100:drum.wav
448,192,177499,1,0,0:0:0:100:c5 kick.wav
192,192,177577,1,0,0:0:0:100:drum.wav
448,192,177655,1,0,0:0:0:100:drum.wav
320,192,177655,1,0,0:0:0:100:drum.wav
192,192,177655,1,0,0:0:0:100:snare.wav
448,192,177811,1,0,0:0:0:100:drum.wav
320,192,177850,1,0,0:0:0:100:drum.wav
448,192,177889,1,0,0:0:0:100:drum.wav
320,192,177928,1,0,0:0:0:100:drum.wav
448,192,177968,1,0,0:0:0:100:drum.wav
192,192,177968,1,0,0:0:0:100:drum.wav
192,192,178202,1,0,0:0:0:100:drum.wav
320,192,178202,1,0,0:0:0:100:drum.wav
448,192,178202,1,0,0:0:0:100:snare.wav
448,192,178436,1,0,0:0:0:100:snare.wav
320,192,178436,1,0,0:0:0:100:drum.wav
192,192,178436,1,0,0:0:0:100:drum.wav
64,192,178593,1,0,0:0:0:100:drum.wav
320,192,178593,1,0,0:0:0:100:drum.wav
192,192,178593,1,0,0:0:0:100:drum.wav
448,192,178593,1,0,0:0:0:100:snare.wav
64,192,178749,1,0,0:0:0:0:
448,192,178905,1,0,0:0:0:0:
192,192,179061,1,0,0:0:0:0:
448,192,179218,1,0,0:0:0:0:
320,192,179374,1,0,0:0:0:0:
64,192,179530,1,0,0:0:0:0:
192,192,179686,1,0,0:0:0:0:
320,192,179843,1,0,0:0:0:0:
448,192,179999,1,0,0:0:0:0:
192,192,180155,1,0,0:0:0:0:
320,192,180155,1,0,0:0:0:0:
64,192,180311,1,0,0:0:0:0:
448,192,180468,1,0,0:0:0:0:
64,192,180624,1,0,0:0:0:0:
192,192,180780,1,0,0:0:0:0:
64,192,180936,1,0,0:0:0:0:
320,192,181014,1,0,0:0:0:0:
192,192,181093,1,0,0:0:0:0:
320,192,181249,1,0,0:0:0:0:
192,192,181405,1,0,0:0:0:0:
448,192,181561,1,0,0:0:0:0:
320,192,181718,1,0,0:0:0:0:
64,192,181874,1,0,0:0:0:0:
448,192,182030,1,0,0:0:0:0:
320,192,182186,1,0,0:0:0:0:
192,192,182343,1,0,0:0:0:0:
64,192,182499,1,0,0:0:0:0:
64,192,182577,1,0,0:0:0:0:
192,192,182655,1,0,0:0:0:0:
192,192,182733,1,0,0:0:0:0:
320,192,182811,1,0,0:0:0:0:
448,192,182968,1,0,0:0:0:0:
448,192,183046,1,0,0:0:0:0:
320,192,183124,1,0,0:0:0:0:
192,192,183280,1,0,0:0:0:0:
192,192,183358,1,0,0:0:0:0:
64,192,183436,1,0,0:0:0:0:
64,192,183514,1,0,0:0:0:0:
320,192,183593,1,0,0:0:0:0:
448,192,183593,1,0,0:0:0:0:
192,192,183749,1,0,0:0:0:0:
320,192,183905,1,0,0:0:0:0:
448,192,184061,1,0,0:0:0:0:
64,192,184218,1,0,0:0:0:0:
448,192,184374,1,0,0:0:0:0:
64,192,184530,1,0,0:0:0:0:
192,192,184686,1,0,0:0:0:0:
448,192,184843,1,0,0:0:0:0:
320,192,184999,1,0,0:0:0:0:
192,192,185155,1,0,0:0:0:0:
448,192,185311,1,0,0:0:0:0:
64,192,185468,1,0,0:0:0:0:
192,192,185624,1,0,0:0:0:0:
320,192,185780,1,0,0:0:0:0:
320,192,185858,1,0,0:0:0:0:
448,192,185936,1,0,0:0:0:0:
448,192,186014,1,0,0:0:0:0:
320,192,186093,1,0,0:0:0:0:
64,192,186249,1,0,0:0:0:0:
192,192,186405,1,0,0:0:0:0:
320,192,186561,1,0,0:0:0:0:
448,192,186718,1,0,0:0:0:0:
192,192,186874,1,0,0:0:0:0:
64,192,187030,1,0,0:0:0:0:
448,192,187186,1,0,0:0:0:0:
320,192,187264,1,0,0:0:0:0:
192,192,187343,1,0,0:0:0:0:
64,192,187343,128,0,188280:0:0:0:0:
448,192,187499,1,0,0:0:0:0:
320,192,187655,1,0,0:0:0:0:
192,192,187811,1,0,0:0:0:0:
448,192,187968,1,0,0:0:0:0:
320,192,188046,1,0,0:0:0:0:
192,192,188124,1,0,0:0:0:0:
320,192,188202,1,0,0:0:0:0:
448,192,188280,1,0,0:0:0:0:
64,192,188358,1,0,0:0:0:0:
192,192,188436,1,0,0:0:0:0:
320,192,188514,1,0,0:0:0:0:
448,192,188593,1,0,0:0:0:100:c5 kick.wav
192,192,188593,1,0,0:0:0:100:c5 kick.wav
320,192,188749,1,0,0:0:0:0:
192,192,188827,1,0,0:0:0:0:
64,192,188905,1,0,0:0:0:100:snare.wav
448,192,188905,1,0,0:0:0:100:snare.wav
192,192,189061,1,0,0:0:0:0:
320,192,189139,1,0,0:0:0:0:
448,192,189218,1,0,0:0:0:0:
192,192,189374,1,0,0:0:0:100:c5 kick.wav
64,192,189374,1,0,0:0:0:100:c5 kick.wav
320,192,189530,1,0,0:0:0:100:snare.wav
448,192,189530,1,0,0:0:0:100:snare.wav
64,192,189686,1,0,0:0:0:0:
192,192,189764,1,0,0:0:0:0:
448,192,189843,1,0,0:0:0:0:
320,192,189999,1,0,0:0:0:100:c5 kick.wav
192,192,189999,1,0,0:0:0:100:c5 kick.wav
64,192,190155,1,0,0:0:0:100:snare.wav
448,192,190155,1,0,0:0:0:100:snare.wav
320,192,190311,1,0,0:0:0:0:
192,192,190389,1,0,0:0:0:0:
64,192,190468,1,0,0:0:0:0:
320,192,190624,1,0,0:0:0:100:c5 kick.wav
448,192,190624,1,0,0:0:0:100:c5 kick.wav
192,192,190780,1,0,0:0:0:100:snare.wav
64,192,190780,1,0,0:0:0:100:snare.wav
320,192,190858,1,0,0:0:0:100:drum.wav
192,192,190936,1,0,0:0:0:100:drum.wav
64,192,190936,1,0,0:0:0:100:drum.wav
320,192,191014,1,0,0:0:0:100:drum.wav
448,192,191014,1,0,0:0:0:100:drum.wav
192,192,191093,1,0,0:0:0:100:c5 kick.wav
64,192,191093,1,0,0:0:0:100:c5 kick.wav
448,192,191249,1,0,0:0:0:0:
320,192,191405,1,0,0:0:0:100:snare.wav
64,192,191405,1,0,0:0:0:100:snare.wav
192,192,191561,1,0,0:0:0:0:
320,192,191639,1,0,0:0:0:0:
448,192,191718,1,0,0:0:0:0:
320,192,191874,1,0,0:0:0:100:c5 kick.wav
448,192,191874,1,0,0:0:0:100:c5 kick.wav
192,192,191952,1,0,0:0:0:0:
64,192,192030,1,0,0:0:0:0:
192,192,192186,1,0,0:0:0:100:snare.wav
64,192,192186,1,0,0:0:0:100:snare.wav
320,192,192264,1,0,0:0:0:0:
448,192,192343,1,0,0:0:0:0:
64,192,192421,1,0,0:0:0:0:
320,192,192499,1,0,0:0:0:100:c5 kick.wav
192,192,192499,1,0,0:0:0:100:c5 kick.wav
448,192,192577,1,0,0:0:0:0:
192,192,192655,1,0,0:0:0:100:snare.wav
64,192,192655,1,0,0:0:0:100:snare.wav
320,192,192733,1,0,0:0:0:0:
448,192,192811,1,0,0:0:0:0:
64,192,192889,1,0,0:0:0:0:
320,192,192968,1,0,0:0:0:100:drum.wav
192,192,193046,1,0,0:0:0:100:drum.wav
448,192,193124,1,0,0:0:0:100:c5 kick.wav
320,192,193124,1,0,0:0:0:100:c5 kick.wav
192,192,193202,1,0,0:0:0:100:drum.wav
64,192,193280,1,0,0:0:0:100:snare.wav
448,192,193280,1,0,0:0:0:100:snare.wav
320,192,193358,1,0,0:0:0:100:drum.wav
64,192,193436,1,0,0:0:0:100:drum.wav
192,192,193436,1,0,0:0:0:100:drum.wav
448,192,193514,1,0,0:0:0:100:drum.wav
192,192,193593,1,0,0:0:0:100:c5 kick.wav
64,192,193593,1,0,0:0:0:100:c5 kick.wav
320,192,193749,1,0,0:0:0:0:
448,192,193905,1,0,0:0:0:100:snare.wav
192,192,193905,1,0,0:0:0:100:snare.wav
64,192,194061,1,0,0:0:0:0:
192,192,194139,1,0,0:0:0:0:
320,192,194218,1,0,0:0:0:0:
320,192,194374,1,0,0:0:0:100:c5 kick.wav
448,192,194374,1,0,0:0:0:100:c5 kick.wav
192,192,194452,1,0,0:0:0:0:
64,192,194530,1,0,0:0:0:100:snare.wav
448,192,194530,1,0,0:0:0:100:snare.wav
192,192,194686,1,0,0:0:0:0:
320,192,194764,1,0,0:0:0:0:
192,192,194843,1,0,0:0:0:0:
448,192,194999,1,0,0:0:0:100:c5 kick.wav
64,192,194999,1,0,0:0:0:100:c5 kick.wav
320,192,195077,1,0,0:0:0:0:
192,192,195155,1,0,0:0:0:100:snare.wav
64,192,195155,1,0,0:0:0:100:snare.wav
448,192,195311,1,0,0:0:0:0:
320,192,195389,1,0,0:0:0:0:
64,192,195468,1,0,0:0:0:0:
192,192,195624,1,0,0:0:0:100:c5 kick.wav
448,192,195624,1,0,0:0:0:100:c5 kick.wav
448,192,195780,1,0,0:0:0:100:snare.wav
64,192,195780,1,0,0:0:0:100:snare.wav
192,192,195858,1,0,0:0:0:0:
320,192,195936,1,0,0:0:0:0:
448,192,196014,1,0,0:0:0:0:
64,192,196093,1,0,0:0:0:100:c5 kick.wav
192,192,196093,1,0,0:0:0:100:c5 kick.wav
320,192,196249,1,0,0:0:0:0:
64,192,196405,1,0,0:0:0:100:snare.wav
448,192,196405,1,0,0:0:0:100:snare.wav
192,192,196561,1,0,0:0:0:0:
320,192,196639,1,0,0:0:0:0:
192,192,196718,1,0,0:0:0:0:
448,192,196874,1,0,0:0:0:100:c5 kick.wav
320,192,196874,1,0,0:0:0:100:c5 kick.wav
192,192,197186,1,0,0:0:0:100:snare.wav
64,192,197186,1,0,0:0:0:100:snare.wav
192,192,197499,1,0,0:0:0:100:c5 kick.wav
64,192,197499,1,0,0:0:0:100:c5 kick.wav
320,192,197655,1,0,0:0:0:100:snare.wav
448,192,197655,128,0,198593:0:0:0:100:snare.wav
64,192,197968,1,0,0:0:0:0:
192,192,198046,1,0,0:0:0:0:
64,192,198124,1,0,0:0:0:0:
192,192,198202,1,0,0:0:0:0:
320,192,198280,1,0,0:0:0:0:
64,192,198358,1,0,0:0:0:0:
320,192,198436,1,0,0:0:0:0:
64,192,198514,1,0,0:0:0:0:
320,192,198593,1,0,0:0:0:100:drum.wav
192,192,198593,1,0,0:0:0:100:drum.wav
64,192,198593,1,0,0:0:0:100:drum.wav
64,192,198905,128,0,199061:0:0:0:0:
448,192,198905,1,0,0:0:0:0:
64,192,199218,128,0,199374:0:0:0:0:
320,192,199218,1,0,0:0:0:0:
192,192,199530,128,0,199686:0:0:0:0:
448,192,199530,1,0,0:0:0:100:drum.wav
192,192,199843,128,0,199999:0:0:0:0:
64,192,199843,1,0,0:0:0:0:
320,192,200155,128,0,200311:0:0:0:0:
448,192,200155,1,0,0:0:0:0:
448,192,200468,128,0,200624:0:0:0:0:
192,192,200468,1,0,0:0:0:100:drum.wav
320,192,200780,128,0,200936:0:0:0:0:
64,192,200780,1,0,0:0:0:100:drum.wav
192,192,200780,1,0,0:0:0:100:drum.wav
448,192,200936,1,0,0:0:0:100:drum.wav
64,192,200936,1,0,0:0:0:100:drum.wav
320,192,201093,128,0,201249:0:0:0:0:
192,192,201093,1,0,0:0:0:100:drum.wav
448,192,201093,1,0,0:0:0:100:drum.wav
64,192,201405,1,0,0:0:0:100:drum.wav
192,192,201561,128,0,201639:0:0:0:0:
192,192,201718,128,0,201874:0:0:0:0:
448,192,201718,1,0,0:0:0:100:drum.wav
448,192,201874,1,0,0:0:0:100:drum.wav
64,192,202030,1,0,0:0:0:100:clap.wav
320,192,202343,1,0,0:0:0:100:drum.wav
192,192,202343,1,0,0:0:0:100:drum.wav
448,192,202655,1,0,0:0:0:100:drum.wav
192,192,202655,1,0,0:0:0:100:drum.wav
320,192,202968,1,0,0:0:0:100:drum.wav
64,192,202968,1,0,0:0:0:100:drum.wav
192,192,203280,1,0,0:0:0:100:drum.wav
448,192,203280,1,0,0:0:0:100:drum.wav
320,192,203436,1,0,0:0:0:100:drum.wav
64,192,203436,1,0,0:0:0:100:drum.wav
192,192,203593,1,0,0:0:0:100:drum.wav
448,192,203593,1,0,0:0:0:100:drum.wav
192,192,203905,128,0,204061:0:0:0:0:
320,192,203905,1,0,0:0:0:100:drum.wav
192,192,204218,128,0,204374:0:0:0:0:
448,192,204218,1,0,0:0:0:100:drum.wav
320,192,204530,128,0,204686:0:0:0:0:
64,192,204530,1,0,0:0:0:100:clap.wav
320,192,204843,128,0,204999:0:0:0:0:
192,192,204843,1,0,0:0:0:100:drum.wav
448,192,205155,128,0,205311:0:0:0:0:
64,192,205155,1,0,0:0:0:100:drum.wav
320,192,205468,128,0,205624:0:0:0:0:
192,192,205468,1,0,0:0:0:100:drum.wav
448,192,205780,128,0,205936:0:0:0:0:
192,192,205780,1,0,0:0:0:100:drum.wav
320,192,206093,128,0,206249:0:0:0:0:
64,192,206093,1,0,0:0:0:100:drum.wav
192,192,206405,1,0,0:0:0:100:drum.wav
64,192,206405,1,0,0:0:0:100:drum.wav
64,192,206561,128,0,206639:0:0:0:0:
320,192,206561,1,0,0:0:0:100:drum.wav
448,192,206561,1,0,0:0:0:100:drum.wav
64,192,206718,128,0,206874:0:0:0:100:drum.wav
192,192,206718,1,0,0:0:0:100:drum.wav
320,192,207030,1,0,0:0:0:100:drum.wav
64,192,207030,1,0,0:0:0:100:drum.wav
448,192,207343,1,0,0:0:0:100:drum.wav
192,192,207343,1,0,0:0:0:100:drum.wav
192,192,207655,1,0,0:0:0:100:drum.wav
320,192,207655,1,0,0:0:0:100:drum.wav
320,192,207968,1,0,0:0:0:100:drum.wav
448,192,207968,1,0,0:0:0:100:drum.wav
192,192,208280,1,0,0:0:0:100:drum.wav
64,192,208280,1,0,0:0:0:100:drum.wav
192,192,208436,1,0,0:0:0:100:drum.wav
320,192,208436,1,0,0:0:0:100:drum.wav
320,192,208593,1,0,0:0:0:100:drum.wav
448,192,208593,1,0,0:0:0:100:drum.wav
320,192,208905,128,0,209061:0:0:0:0:
64,192,208905,1,0,0:0:0:100:drum.wav
320,192,209218,128,0,209374:0:0:0:0:
192,192,209218,1,0,0:0:0:100:drum.wav
448,192,209530,128,0,209686:0:0:0:0:
64,192,209530,1,0,0:0:0:100:clap.wav
448,192,209843,128,0,209999:0:0:0:0:
320,192,209843,1,0,0:0:0:100:drum.wav
320,192,210155,128,0,210311:0:0:0:0:
64,192,210155,1,0,0:0:0:100:drum.wav
192,192,210468,128,0,210624:0:0:0:0:
448,192,210468,1,0,0:0:0:100:drum.wav
64,192,210780,128,0,210936:0:0:0:0:
448,192,210780,1,0,0:0:0:100:drum.wav
320,192,210780,1,0,0:0:0:100:drum.wav
448,192,210936,1,0,0:0:0:100:drum.wav
192,192,210936,1,0,0:0:0:100:drum.wav
192,192,211093,128,0,211718:0:0:0:0:
320,192,211093,1,0,0:0:0:100:drum.wav
64,192,211093,1,0,0:0:0:100:drum.wav
448,192,211405,1,0,0:0:0:100:drum.wav
320,192,211561,1,0,0:0:0:0:
64,192,211718,1,0,0:0:0:100:drum.wav
320,192,212030,128,0,212186:0:0:0:0:
192,192,212030,1,0,0:0:0:100:drum.wav
448,192,212343,128,0,212655:0:0:0:0:
64,192,212343,1,0,0:0:0:100:drum.wav
192,192,212655,1,0,0:0:0:100:drum.wav
320,192,212811,128,0,213280:0:0:0:0:
64,192,212968,1,0,0:0:0:100:drum.wav
192,192,213280,1,0,0:0:0:100:drum.wav
64,192,213280,1,0,0:0:0:100:drum.wav
320,192,213436,1,0,0:0:0:100:drum.wav
448,192,213436,1,0,0:0:0:100:drum.wav
64,192,213593,128,0,213749:0:0:0:0:
192,192,213593,1,0,0:0:0:100:drum.wav
448,192,213593,1,0,0:0:0:100:drum.wav
192,192,213905,1,0,0:0:0:0:
64,192,213905,1,0,0:0:0:0:
320,192,214061,128,0,214139:0:0:0:0:
320,192,214218,128,0,214530:0:0:0:0:
448,192,214218,1,0,0:0:0:100:drum.wav
192,192,214530,1,0,0:0:0:100:drum.wav
64,192,214530,1,0,0:0:0:100:drum.wav
320,192,214843,1,0,0:0:0:100:drum.wav
64,192,215155,128,0,215468:0:0:0:0:
448,192,215155,1,0,0:0:0:0:
192,192,215468,128,0,215780:0:0:0:0:
320,192,215468,1,0,0:0:0:100:clap.wav
320,192,215780,128,0,216093:0:0:0:0:
448,192,215780,1,0,0:0:0:0:
64,192,215780,1,0,0:0:0:0:
192,192,216093,1,0,0:0:0:0:
64,192,216093,1,0,0:0:0:0:
448,192,216093,128,0,221093:0:0:0:0:
320,192,217968,128,0,221093:0:0:0:0:
64,192,218593,128,0,221093:0:0:0:0:
64,192,224218,128,0,224530:0:0:0:0:
192,192,224530,128,0,224843:0:0:0:0:
448,192,224843,128,0,225155:0:0:0:0:
64,192,224843,1,0,0:0:0:0:
320,192,224843,1,0,0:0:0:0:
64,192,224999,1,0,0:0:0:0:
192,192,225155,1,0,0:0:0:0:
320,192,225311,1,0,0:0:0:0:
192,192,225624,1,0,0:0:0:0:
64,192,225780,128,0,226093:0:0:0:0:
320,192,225780,1,0,0:0:0:0:
448,192,225936,1,0,0:0:0:0:
192,192,226093,128,0,226718:0:0:0:0:
320,192,226093,1,0,0:0:0:0:
448,192,226093,1,0,0:0:0:0:
64,192,226249,1,0,0:0:0:0:
320,192,226405,1,0,0:0:0:0:
448,192,226561,1,0,0:0:0:0:
64,192,226718,128,0,227264:0:0:0:0:
320,192,226718,1,0,0:0:0:0:
192,192,226874,1,0,0:0:0:0:
320,192,227030,1,0,0:0:0:0:
448,192,227186,1,0,0:0:0:0:
64,192,227343,128,0,227811:0:0:0:0:
320,192,227343,1,0,0:0:0:0:
192,192,227343,1,0,0:0:0:0:
448,192,227499,1,0,0:0:0:0:
320,192,227655,1,0,0:0:0:0:
192,192,227811,1,0,0:0:0:0:
320,192,227811,128,0,227889:0:0:0:0:
320,192,227968,128,0,228280:0:0:0:0:
64,192,227968,1,0,0:0:0:0:
448,192,227968,1,0,0:0:0:0:
192,192,228124,1,0,0:0:0:0:
448,192,228280,1,0,0:0:0:0:
320,192,228436,1,0,0:0:0:0:
192,192,228593,1,0,0:0:0:0:
64,192,228593,1,0,0:0:0:0:
320,192,228749,1,0,0:0:0:0:
192,192,228905,1,0,0:0:0:0:
448,192,229061,1,0,0:0:0:0:
320,192,229218,1,0,0:0:0:0:
448,192,229218,1,0,0:0:0:0:
64,192,229218,128,0,229530:0:0:0:0:
192,192,229374,1,0,0:0:0:0:
320,192,229530,1,0,0:0:0:0:
192,192,229530,128,0,229843:0:0:0:0:
64,192,229686,1,0,0:0:0:0:
320,192,229843,1,0,0:0:0:0:
448,192,229843,128,0,230468:0:0:0:0:
192,192,229999,1,0,0:0:0:0:
64,192,230155,1,0,0:0:0:0:
320,192,230311,1,0,0:0:0:0:
192,192,230624,1,0,0:0:0:0:
64,192,230780,128,0,231093:0:0:0:0:
320,192,230780,1,0,0:0:0:0:
448,192,230936,1,0,0:0:0:0:
320,192,231093,128,0,231718:0:0:0:0:
192,192,231093,1,0,0:0:0:0:
448,192,231093,1,0,0:0:0:0:
64,192,231249,1,0,0:0:0:0:
192,192,231405,1,0,0:0:0:0:
448,192,231561,1,0,0:0:0:0:
448,192,231718,128,0,232030:0:0:0:0:
192,192,231718,1,0,0:0:0:0:
64,192,231874,1,0,0:0:0:0:
320,192,232030,1,0,0:0:0:0:
192,192,232186,1,0,0:0:0:0:
320,192,232343,128,0,232655:0:0:0:0:
64,192,232343,1,0,0:0:0:0:
448,192,232343,1,0,0:0:0:0:
192,192,232499,1,0,0:0:0:0:
192,192,232655,128,0,232733:0:0:0:0:
448,192,232655,1,0,0:0:0:0:
192,192,232811,128,0,232968:0:0:0:0:
320,192,232811,1,0,0:0:0:0:
64,192,232811,1,0,0:0:0:0:
64,192,232968,128,0,233593:0:0:0:0:
448,192,232968,1,0,0:0:0:0:
192,192,233124,1,0,0:0:0:0:
320,192,233280,1,0,0:0:0:0:
448,192,233280,1,0,0:0:0:0:
320,192,233436,1,0,0:0:0:0:
192,192,233593,1,0,0:0:0:0:
448,192,233593,1,0,0:0:0:0:
64,192,233749,1,0,0:0:0:0:
192,192,233905,1,0,0:0:0:0:
320,192,234061,1,0,0:0:0:0:
448,192,234218,128,0,234530:0:0:0:0:
64,192,234218,1,0,0:0:0:0:
192,192,234374,1,0,0:0:0:0:
320,192,234530,128,0,234843:0:0:0:0:
64,192,234530,1,0,0:0:0:0:
192,192,234686,1,0,0:0:0:0:
192,192,234843,128,0,235780:0:0:0:0:
64,192,234843,1,0,0:0:0:0:
448,192,234843,1,0,0:0:0:0:
320,192,234999,1,0,0:0:0:0:
64,192,235155,1,0,0:0:0:0:
448,192,235311,1,0,0:0:0:0:
64,192,235624,1,0,0:0:0:0:
320,192,235780,128,0,236093:0:0:0:0:
448,192,235780,1,0,0:0:0:0:
192,192,235936,1,0,0:0:0:0:
192,192,236093,128,0,236718:0:0:0:0:
448,192,236093,1,0,0:0:0:0:
64,192,236093,1,0,0:0:0:0:
320,192,236249,1,0,0:0:0:0:
64,192,236405,1,0,0:0:0:0:
320,192,236561,1,0,0:0:0:0:
64,192,236718,128,0,237343:0:0:0:0:
448,192,236718,1,0,0:0:0:0:
320,192,236874,1,0,0:0:0:0:
192,192,237030,1,0,0:0:0:0:
448,192,237186,1,0,0:0:0:0:
192,192,237343,128,0,237655:0:0:0:0:
448,192,237343,1,0,0:0:0:0:
320,192,237343,1,0,0:0:0:0:
320,192,237499,1,0,0:0:0:0:
64,192,237655,1,0,0:0:0:0:
320,192,237811,1,0,0:0:0:0:
64,192,237811,1,0,0:0:0:0:
448,192,237811,128,0,237889:0:0:0:0:
448,192,237968,128,0,238593:0:0:0:0:
192,192,237968,1,0,0:0:0:0:
64,192,238124,1,0,0:0:0:0:
192,192,238280,1,0,0:0:0:0:
320,192,238436,1,0,0:0:0:0:
64,192,238593,1,0,0:0:0:0:
192,192,238593,1,0,0:0:0:0:
448,192,238749,1,0,0:0:0:0:
320,192,238905,1,0,0:0:0:0:
192,192,239061,1,0,0:0:0:0:
64,192,239218,128,0,239530:0:0:0:0:
320,192,239218,1,0,0:0:0:0:
448,192,239218,1,0,0:0:0:0:
192,192,239374,1,0,0:0:0:0:
192,192,239530,128,0,239843:0:0:0:0:
320,192,239530,1,0,0:0:0:0:
448,192,239686,1,0,0:0:0:0:
448,192,239843,128,0,240155:0:0:0:0:
320,192,239843,1,0,0:0:0:0:
64,192,239843,1,0,0:0:0:0:
192,192,239999,1,0,0:0:0:0:
320,192,240155,128,0,240311:0:0:0:0:
64,192,240155,1,0,0:0:0:0:
448,192,240311,128,0,240624:0:0:0:0:
192,192,240311,1,0,0:0:0:0:
64,192,240624,1,0,0:0:0:0:
192,192,240780,1,0,0:0:0:0:
320,192,240936,1,0,0:0:0:0:
448,192,241093,1,0,0:0:0:0:
64,192,241093,1,0,0:0:0:0:
64,192,241405,128,0,241718:0:0:0:0:
320,192,241405,1,0,0:0:0:0:
192,192,241405,1,0,0:0:0:0:
448,192,241561,1,0,0:0:0:0:
448,192,241718,128,0,242030:0:0:0:0:
192,192,241718,1,0,0:0:0:0:
320,192,241874,1,0,0:0:0:0:
192,192,242030,128,0,242343:0:0:0:0:
64,192,242030,1,0,0:0:0:0:
320,192,242186,1,0,0:0:0:0:
320,192,242343,128,0,243593:0:0:0:0:
448,192,242343,1,0,0:0:0:0:
64,192,242343,1,0,0:0:0:0:
192,192,242499,1,0,0:0:0:0:
448,192,242655,1,0,0:0:0:0:
64,192,242811,1,0,0:0:0:0:
448,192,243124,1,0,0:0:0:0:
192,192,243280,1,0,0:0:0:0:
64,192,243436,1,0,0:0:0:0:
448,192,243593,128,0,244764:0:0:0:0:
192,192,243593,1,0,0:0:0:0:
320,192,243749,1,0,0:0:0:0:
64,192,243905,1,0,0:0:0:0:
320,192,244061,1,0,0:0:0:0:
192,192,244139,1,0,0:0:0:0:
320,192,244218,128,0,244764:0:0:0:0:
64,192,244218,1,0,0:0:0:0:
192,192,244296,1,0,0:0:0:0:
64,192,244374,1,0,0:0:0:0:
192,192,244452,1,0,0:0:0:0:
64,192,244530,1,0,0:0:0:0:
192,192,244608,1,0,0:0:0:0:
64,192,244686,1,0,0:0:0:0:
64,192,244843,128,0,245468:0:0:0:0:
192,192,244843,1,0,0:0:0:100:drum.wav
320,192,244843,1,0,0:0:0:100:drum.wav
448,192,244843,1,0,0:0:0:100:drum.wav
448,192,245468,128,0,246093:0:0:0:0:
192,192,245468,1,0,0:0:0:0:
192,192,246093,128,0,246718:0:0:0:0:
320,192,246093,1,0,0:0:0:0:
64,192,246718,128,0,247343:0:0:0:0:
448,192,246718,1,0,0:0:0:0:
320,192,247343,128,0,248593:0:0:0:0:
192,192,247343,1,0,0:0:0:0:
64,192,247499,1,0,0:0:0:0:
192,192,247655,1,0,0:0:0:0:
448,192,247811,1,0,0:0:0:0:
64,192,247968,1,0,0:0:0:0:
192,192,248124,1,0,0:0:0:0:
64,192,248280,1,0,0:0:0:0:
448,192,248436,1,0,0:0:0:0:
64,192,248593,1,0,0:0:0:0:
448,192,248593,128,0,248671:0:0:0:0:
192,192,248671,1,0,0:0:0:0:
320,192,248749,1,0,0:0:0:0:
448,192,248827,1,0,0:0:0:0:
192,192,248905,1,0,0:0:0:0:
320,192,248983,1,0,0:0:0:0:
192,192,249061,1,0,0:0:0:0:
320,192,249139,1,0,0:0:0:0:
448,192,249218,1,0,0:0:0:0:
64,192,249218,128,0,249296:0:0:0:0:
320,192,249296,1,0,0:0:0:0:
192,192,249374,1,0,0:0:0:0:
64,192,249452,1,0,0:0:0:0:
320,192,249530,1,0,0:0:0:0:
192,192,249608,1,0,0:0:0:0:
320,192,249686,1,0,0:0:0:0:
192,192,249764,1,0,0:0:0:0:
448,192,249843,128,0,249921:0:0:0:0:
64,192,249843,1,0,0:0:0:0:
192,192,249921,1,0,0:0:0:0:
320,192,249999,1,0,0:0:0:0:
448,192,250077,1,0,0:0:0:0:
64,192,250155,1,0,0:0:0:0:
320,192,250233,1,0,0:0:0:0:
192,192,250311,1,0,0:0:0:0:
448,192,250389,1,0,0:0:0:0:
64,192,250468,128,0,251093:0:0:0:0:
320,192,250468,1,0,0:0:0:0:
192,192,250546,1,0,0:0:0:0:
320,192,250624,1,0,0:0:0:0:
448,192,250702,1,0,0:0:0:0:
192,192,250780,1,0,0:0:0:0:
448,192,250858,1,0,0:0:0:0:
320,192,250936,1,0,0:0:0:0:
448,192,251014,1,0,0:0:0:0:
192,192,251093,128,0,251718:0:0:0:0:
320,192,251093,128,0,251171:0:0:0:0:
448,192,251171,1,0,0:0:0:0:
64,192,251249,1,0,0:0:0:0:
320,192,251327,1,0,0:0:0:0:
448,192,251405,1,0,0:0:0:0:
64,192,251483,1,0,0:0:0:0:
320,192,251561,1,0,0:0:0:0:
448,192,251639,1,0,0:0:0:0:
320,192,251718,128,0,252343:0:0:0:0:
64,192,251718,1,0,0:0:0:0:
192,192,251796,1,0,0:0:0:0:
448,192,251874,1,0,0:0:0:0:
64,192,251952,1,0,0:0:0:0:
192,192,252030,1,0,0:0:0:0:
448,192,252108,1,0,0:0:0:0:
192,192,252186,1,0,0:0:0:0:
64,192,252264,1,0,0:0:0:0:
448,192,252343,128,0,252968:0:0:0:0:
192,192,252343,128,0,252421:0:0:0:0:
320,192,252421,1,0,0:0:0:0:
192,192,252499,1,0,0:0:0:0:
64,192,252577,1,0,0:0:0:0:
192,192,252655,1,0,0:0:0:0:
320,192,252733,1,0,0:0:0:0:
64,192,252811,1,0,0:0:0:0:
320,192,252889,1,0,0:0:0:0:
64,192,252968,1,0,0:0:0:0:
192,192,253046,1,0,0:0:0:0:
320,192,253124,1,0,0:0:0:0:
448,192,253202,1,0,0:0:0:0:
320,192,253280,128,0,253358:0:0:0:0:
64,192,253280,1,0,0:0:0:0:
192,192,253358,1,0,0:0:0:0:
320,192,253436,1,0,0:0:0:0:
448,192,253514,1,0,0:0:0:0:
192,192,253593,128,0,253671:0:0:0:0:
448,192,253593,1,0,0:0:0:0:
320,192,253671,1,0,0:0:0:0:
192,192,253749,1,0,0:0:0:0:
64,192,253827,1,0,0:0:0:0:
448,192,253905,1,0,0:0:0:0:
320,192,253905,1,0,0:0:0:0:
192,192,254061,1,0,0:0:0:0:
448,192,254218,128,0,254296:0:0:0:0:
320,192,254218,1,0,0:0:0:0:
64,192,254218,128,0,254530:0:0:0:0:
192,192,254530,128,0,254843:0:0:0:0:
448,192,254530,1,0,0:0:0:0:
320,192,254843,1,0,0:0:0:100:drum.wav
448,192,254843,1,0,0:0:0:100:drum.wav
64,192,254843,1,0,0:0:0:100:drum.wav
320,192,254999,1,0,0:0:0:0:
192,192,255155,1,0,0:0:0:100:c5 kick.wav
64,192,255155,1,0,0:0:0:100:c5 kick.wav
448,192,255155,1,0,0:0:0:100:c5 kick.wav
64,192,255311,1,0,0:0:0:0:
192,192,255468,1,0,0:0:0:100:drum.wav
320,192,255468,1,0,0:0:0:100:drum.wav
448,192,255468,1,0,0:0:0:100:drum.wav
448,192,255624,1,0,0:0:0:0:
320,192,255780,1,0,0:0:0:100:c5 kick.wav
192,192,255780,1,0,0:0:0:100:c5 kick.wav
64,192,255780,1,0,0:0:0:100:c5 kick.wav
192,192,255936,1,0,0:0:0:0:
320,192,256093,1,0,0:0:0:100:drum.wav
448,192,256093,1,0,0:0:0:100:drum.wav
64,192,256093,1,0,0:0:0:100:drum.wav
320,192,256249,1,0,0:0:0:0:
192,192,256405,1,0,0:0:0:100:c5 kick.wav
64,192,256405,1,0,0:0:0:100:c5 kick.wav
448,192,256405,1,0,0:0:0:100:c5 kick.wav
64,192,256561,1,0,0:0:0:0:
320,192,256718,1,0,0:0:0:100:drum.wav
448,192,256718,1,0,0:0:0:100:drum.wav
192,192,256718,1,0,0:0:0:100:drum.wav
448,192,256874,1,0,0:0:0:0:
320,192,257030,1,0,0:0:0:100:c5 kick.wav
192,192,257030,1,0,0:0:0:100:c5 kick.wav
64,192,257030,1,0,0:0:0:100:c5 kick.wav
192,192,257186,1,0,0:0:0:0:
320,192,257343,1,0,0:0:0:100:drum.wav
448,192,257343,1,0,0:0:0:100:drum.wav
64,192,257343,1,0,0:0:0:100:drum.wav
192,192,257421,1,0,0:0:0:0:
448,192,257499,1,0,0:0:0:0:
320,192,257577,1,0,0:0:0:0:
192,192,257655,1,0,0:0:0:100:c5 kick.wav
64,192,257655,1,0,0:0:0:100:c5 kick.wav
448,192,257655,1,0,0:0:0:100:c5 kick.wav
320,192,257733,1,0,0:0:0:0:
64,192,257811,1,0,0:0:0:0:
192,192,257889,1,0,0:0:0:0:
320,192,257968,1,0,0:0:0:100:drum.wav
448,192,257968,1,0,0:0:0:100:drum.wav
64,192,257968,1,0,0:0:0:100:drum.wav
192,192,258046,1,0,0:0:0:0:
448,192,258124,1,0,0:0:0:0:
64,192,258202,1,0,0:0:0:0:
448,192,258280,1,0,0:0:0:100:c5 kick.wav
192,192,258280,1,0,0:0:0:100:c5 kick.wav
320,192,258280,1,0,0:0:0:100:c5 kick.wav
64,192,258358,1,0,0:0:0:0:
192,192,258436,1,0,0:0:0:0:
320,192,258514,1,0,0:0:0:0:
192,192,258593,1,0,0:0:0:100:drum.wav
64,192,258593,1,0,0:0:0:100:drum.wav
448,192,258593,1,0,0:0:0:100:drum.wav
320,192,258671,1,0,0:0:0:0:
64,192,258749,1,0,0:0:0:0:
448,192,258827,1,0,0:0:0:0:
192,192,258905,1,0,0:0:0:100:c5 kick.wav
64,192,258905,1,0,0:0:0:100:c5 kick.wav
320,192,258905,1,0,0:0:0:100:c5 kick.wav
448,192,258983,1,0,0:0:0:0:
320,192,259061,1,0,0:0:0:0:
64,192,259139,1,0,0:0:0:0:
320,192,259218,1,0,0:0:0:100:drum.wav
192,192,259218,1,0,0:0:0:100:drum.wav
448,192,259218,1,0,0:0:0:100:drum.wav
64,192,259296,1,0,0:0:0:0:
192,192,259374,1,0,0:0:0:0:
320,192,259452,1,0,0:0:0:0:
192,192,259530,1,0,0:0:0:100:c5 kick.wav
64,192,259530,1,0,0:0:0:100:c5 kick.wav
448,192,259530,1,0,0:0:0:100:c5 kick.wav
320,192,259608,1,0,0:0:0:0:
64,192,259686,1,0,0:0:0:0:
192,192,259764,1,0,0:0:0:0:
320,192,259843,1,0,0:0:0:100:c5 kick.wav
448,192,259843,1,0,0:0:0:100:c5 kick.wav
320,192,259999,1,0,0:0:0:0:
192,192,259999,1,0,0:0:0:0:
192,192,260155,1,0,0:0:0:100:snare.wav
64,192,260155,1,0,0:0:0:100:snare.wav
448,192,260155,1,0,0:0:0:100:snare.wav
320,192,260311,1,0,0:0:0:0:
448,192,260311,1,0,0:0:0:0:
64,192,260468,1,0,0:0:0:100:c5 kick.wav
448,192,260468,1,0,0:0:0:100:c5 kick.wav
320,192,260624,1,0,0:0:0:0:
192,192,260624,1,0,0:0:0:0:
64,192,260780,1,0,0:0:0:100:snare.wav
448,192,260780,1,0,0:0:0:100:snare.wav
192,192,260780,1,0,0:0:0:100:snare.wav
320,192,260936,1,0,0:0:0:0:
192,192,260936,1,0,0:0:0:0:
320,192,261093,1,0,0:0:0:100:c5 kick.wav
448,192,261093,1,0,0:0:0:100:c5 kick.wav
192,192,261249,1,0,0:0:0:0:
64,192,261249,1,0,0:0:0:0:
320,192,261405,1,0,0:0:0:100:snare.wav
64,192,261405,1,0,0:0:0:100:snare.wav
448,192,261405,1,0,0:0:0:100:snare.wav
320,192,261561,1,0,0:0:0:0:
192,192,261561,1,0,0:0:0:0:
192,192,261718,1,0,0:0:0:100:c5 kick.wav
64,192,261718,1,0,0:0:0:100:c5 kick.wav
448,192,261874,1,0,0:0:0:0:
320,192,261874,1,0,0:0:0:0:
64,192,262030,1,0,0:0:0:100:snare.wav
192,192,262030,1,0,0:0:0:100:snare.wav
448,192,262030,1,0,0:0:0:100:snare.wav
448,192,262186,1,0,0:0:0:0:
320,192,262186,1,0,0:0:0:0:
192,192,262343,1,0,0:0:0:100:drum.wav
64,192,262343,1,0,0:0:0:100:drum.wav
320,192,262421,1,0,0:0:0:100:drum.wav
448,192,262421,1,0,0:0:0:100:drum.wav
192,192,262499,1,0,0:0:0:100:drum.wav
64,192,262499,1,0,0:0:0:100:drum.wav
320,192,262577,1,0,0:0:0:100:drum.wav
192,192,262655,1,0,0:0:0:100:snare.wav
64,192,262655,1,0,0:0:0:100:snare.wav
448,192,262655,1,0,0:0:0:100:snare.wav
320,192,262733,1,0,0:0:0:100:drum.wav
192,192,262811,1,0,0:0:0:100:drum.wav
64,192,262811,1,0,0:0:0:100:drum.wav
320,192,262889,1,0,0:0:0:100:drum.wav
448,192,262889,1,0,0:0:0:100:drum.wav
192,192,262968,1,0,0:0:0:100:drum.wav
64,192,262968,1,0,0:0:0:100:drum.wav
448,192,263046,1,0,0:0:0:100:drum.wav
320,192,263046,1,0,0:0:0:100:drum.wav
192,192,263124,1,0,0:0:0:100:drum.wav
64,192,263124,1,0,0:0:0:100:drum.wav
320,192,263202,1,0,0:0:0:100:drum.wav
192,192,263280,1,0,0:0:0:100:snare.wav
64,192,263280,1,0,0:0:0:100:snare.wav
448,192,263280,1,0,0:0:0:100:snare.wav
320,192,263358,1,0,0:0:0:100:drum.wav
192,192,263436,1,0,0:0:0:100:drum.wav
64,192,263436,1,0,0:0:0:100:drum.wav
320,192,263514,1,0,0:0:0:100:drum.wav
448,192,263514,1,0,0:0:0:100:drum.wav
64,192,263593,1,0,0:0:0:100:c5 kick.wav
192,192,263593,1,0,0:0:0:100:c5 kick.wav
320,192,263749,1,0,0:0:0:0:
448,192,263749,1,0,0:0:0:0:
192,192,263827,1,0,0:0:0:0:
448,192,263827,1,0,0:0:0:0:
448,192,263905,1,0,0:0:0:0:
64,192,263905,1,0,0:0:0:0:
192,192,264061,1,0,0:0:0:100:drum.wav
64,192,264061,1,0,0:0:0:0:
448,192,264139,1,0,0:0:0:0:
320,192,264139,1,0,0:0:0:100:drum.wav
64,192,264218,1,0,0:0:0:100:drum.wav
192,192,264257,1,0,0:0:0:100:drum.wav
448,192,264296,1,0,0:0:0:100:drum.wav
320,192,264335,1,0,0:0:0:100:drum.wav
192,192,264374,1,0,0:0:0:100:drum.wav
320,192,264413,1,0,0:0:0:100:drum.wav
448,192,264452,1,0,0:0:0:100:drum.wav
64,192,264491,1,0,0:0:0:100:drum.wav
192,192,264530,1,0,0:0:0:100:drum.wav
448,192,264569,1,0,0:0:0:100:drum.wav
320,192,264608,1,0,0:0:0:100:drum.wav
192,192,264647,1,0,0:0:0:100:drum.wav
448,192,264686,1,0,0:0:0:100:drum.wav
320,192,264725,1,0,0:0:0:100:drum.wav
64,192,264764,1,0,0:0:0:100:drum.wav
192,192,264803,1,0,0:0:0:100:drum.wav
320,192,264843,1,0,0:0:0:0:
448,192,264843,1,0,0:0:0:0:
192,192,265155,1,0,0:0:0:100:clap.wav
64,192,265155,1,0,0:0:0:100:clap.wav
448,192,265155,1,0,0:0:0:100:clap.wav
320,192,265155,1,0,0:0:0:0:
448,192,265311,1,0,0:0:0:0:
192,192,265468,1,0,0:0:0:0:
64,192,265546,1,0,0:0:0:0:
448,192,265624,1,0,0:0:0:100:c5 kick.wav
320,192,265624,1,0,0:0:0:100:c5 kick.wav
320,192,265702,1,0,0:0:0:0:
64,192,265780,1,0,0:0:0:100:snare.wav
448,192,265780,1,0,0:0:0:100:snare.wav
192,192,265780,1,0,0:0:0:100:snare.wav
448,192,265936,1,0,0:0:0:0:
64,192,266014,1,0,0:0:0:0:
320,192,266093,1,0,0:0:0:0:
192,192,266249,1,0,0:0:0:100:c5 kick.wav
64,192,266249,1,0,0:0:0:100:c5 kick.wav
320,192,266327,1,0,0:0:0:0:
64,192,266405,1,0,0:0:0:100:snare.wav
448,192,266405,1,0,0:0:0:100:snare.wav
192,192,266405,1,0,0:0:0:100:snare.wav
320,192,266561,1,0,0:0:0:0:
192,192,266639,1,0,0:0:0:0:
64,192,266718,1,0,0:0:0:0:
448,192,266796,1,0,0:0:0:0:
192,192,266874,1,0,0:0:0:100:c5 kick.wav
320,192,266874,1,0,0:0:0:100:c5 kick.wav
192,192,266952,1,0,0:0:0:0:
320,192,267030,1,0,0:0:0:100:snare.wav
448,192,267030,1,0,0:0:0:100:snare.wav
64,192,267030,1,0,0:0:0:100:snare.wav
192,192,267108,1,0,0:0:0:0:
448,192,267186,1,0,0:0:0:0:
320,192,267264,1,0,0:0:0:0:
192,192,267343,1,0,0:0:0:100:c5 kick.wav
64,192,267343,1,0,0:0:0:100:c5 kick.wav
320,192,267499,1,0,0:0:0:0:
192,192,267577,1,0,0:0:0:0:
320,192,267655,1,0,0:0:0:100:snare.wav
448,192,267655,1,0,0:0:0:100:snare.wav
64,192,267655,1,0,0:0:0:100:snare.wav
192,192,267733,1,0,0:0:0:0:
448,192,267811,1,0,0:0:0:0:
320,192,267889,1,0,0:0:0:0:
192,192,267968,1,0,0:0:0:0:
64,192,268046,1,0,0:0:0:0:
320,192,268124,1,0,0:0:0:100:c5 kick.wav
192,192,268124,1,0,0:0:0:100:c5 kick.wav
448,192,268202,1,0,0:0:0:0:
320,192,268280,1,0,0:0:0:0:
64,192,268358,1,0,0:0:0:0:
192,192,268436,1,0,0:0:0:100:snare.wav
320,192,268436,1,0,0:0:0:100:snare.wav
448,192,268436,1,0,0:0:0:100:snare.wav
64,192,268593,1,0,0:0:0:0:
320,192,268671,1,0,0:0:0:0:
192,192,268749,1,0,0:0:0:100:c5 kick.wav
448,192,268749,1,0,0:0:0:100:c5 kick.wav
64,192,268827,1,0,0:0:0:0:
192,192,268905,1,0,0:0:0:100:snare.wav
320,192,268905,1,0,0:0:0:100:snare.wav
448,192,268905,1,0,0:0:0:100:snare.wav
64,192,268983,1,0,0:0:0:0:
192,192,269061,1,0,0:0:0:0:
320,192,269139,1,0,0:0:0:0:
448,192,269218,1,0,0:0:0:100:drum.wav
192,192,269218,1,0,0:0:0:100:drum.wav
64,192,269296,1,0,0:0:0:100:drum.wav
320,192,269296,1,0,0:0:0:100:drum.wav
448,192,269374,1,0,0:0:0:100:c5 kick.wav
192,192,269374,1,0,0:0:0:100:c5 kick.wav
192,192,269452,1,0,0:0:0:100:drum.wav
64,192,269530,1,0,0:0:0:100:snare.wav
320,192,269530,1,0,0:0:0:100:snare.wav
448,192,269530,1,0,0:0:0:100:snare.wav
192,192,269608,1,0,0:0:0:100:drum.wav
320,192,269686,1,0,0:0:0:100:drum.wav
448,192,269686,1,0,0:0:0:100:drum.wav
192,192,269764,1,0,0:0:0:100:drum.wav
64,192,269764,1,0,0:0:0:100:drum.wav
320,192,269843,1,0,0:0:0:100:c5 kick.wav
448,192,269843,1,0,0:0:0:100:c5 kick.wav
192,192,269999,1,0,0:0:0:0:
64,192,270155,1,0,0:0:0:100:snare.wav
448,192,270155,1,0,0:0:0:100:snare.wav
320,192,270155,1,0,0:0:0:100:snare.wav
192,192,270311,1,0,0:0:0:0:
320,192,270389,1,0,0:0:0:0:
448,192,270468,1,0,0:0:0:0:
192,192,270546,1,0,0:0:0:0:
64,192,270624,1,0,0:0:0:100:c5 kick.wav
448,192,270624,1,0,0:0:0:100:c5 kick.wav
64,192,270702,1,0,0:0:0:0:
192,192,270780,1,0,0:0:0:100:snare.wav
320,192,270780,1,0,0:0:0:100:snare.wav
448,192,270780,1,0,0:0:0:100:snare.wav
64,192,270858,1,0,0:0:0:0:
192,192,270936,1,0,0:0:0:0:
448,192,271014,1,0,0:0:0:0:
320,192,271093,1,0,0:0:0:0:
64,192,271171,1,0,0:0:0:0:
192,192,271249,1,0,0:0:0:100:c5 kick.wav
320,192,271249,1,0,0:0:0:100:c5 kick.wav
192,192,271327,1,0,0:0:0:0:
320,192,271405,1,0,0:0:0:100:snare.wav
448,192,271405,1,0,0:0:0:100:snare.wav
64,192,271405,1,0,0:0:0:100:snare.wav
320,192,271561,1,0,0:0:0:0:
192,192,271639,1,0,0:0:0:0:
64,192,271718,1,0,0:0:0:0:
192,192,271796,1,0,0:0:0:0:
320,192,271874,1,0,0:0:0:100:c5 kick.wav
448,192,271874,1,0,0:0:0:100:c5 kick.wav
448,192,271952,1,0,0:0:0:0:
320,192,272030,1,0,0:0:0:100:snare.wav
192,192,272030,1,0,0:0:0:100:snare.wav
64,192,272030,1,0,0:0:0:100:snare.wav
448,192,272108,1,0,0:0:0:0:
320,192,272186,1,0,0:0:0:0:
64,192,272264,1,0,0:0:0:0:
448,192,272343,1,0,0:0:0:100:c5 kick.wav
192,192,272343,1,0,0:0:0:100:c5 kick.wav
64,192,272421,1,0,0:0:0:0:
320,192,272499,1,0,0:0:0:0:
192,192,272577,1,0,0:0:0:0:
320,192,272655,1,0,0:0:0:100:snare.wav
448,192,272655,1,0,0:0:0:100:snare.wav
64,192,272655,1,0,0:0:0:100:snare.wav
64,192,272811,1,0,0:0:0:0:
320,192,272889,1,0,0:0:0:0:
192,192,272968,1,0,0:0:0:0:
448,192,273046,1,0,0:0:0:0:
64,192,273124,1,0,0:0:0:100:c5 kick.wav
192,192,273124,1,0,0:0:0:100:c5 kick.wav
320,192,273280,1,0,0:0:0:0:
448,192,273358,1,0,0:0:0:0:
320,192,273436,1,0,0:0:0:100:snare.wav
192,192,273436,1,0,0:0:0:100:snare.wav
64,192,273436,1,0,0:0:0:100:snare.wav
448,192,273514,1,0,0:0:0:0:
192,192,273593,1,0,0:0:0:0:
320,192,273671,1,0,0:0:0:0:
64,192,273749,1,0,0:0:0:100:c5 kick.wav
192,192,273749,1,0,0:0:0:100:c5 kick.wav
192,192,273827,1,0,0:0:0:0:
320,192,273905,1,0,0:0:0:100:snare.wav
448,192,273905,1,0,0:0:0:100:snare.wav
64,192,273905,1,0,0:0:0:100:snare.wav
192,192,274061,1,0,0:0:0:0:
64,192,274218,1,0,0:0:0:100:drum.wav
448,192,274218,1,0,0:0:0:100:drum.wav
192,192,274296,1,0,0:0:0:100:drum.wav
320,192,274296,1,0,0:0:0:100:drum.wav
64,192,274374,1,0,0:0:0:100:c5 kick.wav
448,192,274374,1,0,0:0:0:100:c5 kick.wav
320,192,274452,1,0,0:0:0:100:drum.wav
192,192,274530,1,0,0:0:0:100:snare.wav
64,192,274530,1,0,0:0:0:100:snare.wav
448,192,274530,1,0,0:0:0:100:snare.wav
320,192,274608,1,0,0:0:0:100:drum.wav
448,192,274686,1,0,0:0:0:100:drum.wav
192,192,274686,1,0,0:0:0:100:drum.wav
320,192,274764,1,0,0:0:0:100:drum.wav
64,192,274764,1,0,0:0:0:100:drum.wav
192,192,274843,1,0,0:0:0:100:c5 kick.wav
448,192,274843,1,0,0:0:0:100:c5 kick.wav
320,192,274999,1,0,0:0:0:0:
192,192,275077,1,0,0:0:0:0:
320,192,275155,1,0,0:0:0:100:snare.wav
448,192,275155,1,0,0:0:0:100:snare.wav
64,192,275155,1,0,0:0:0:100:snare.wav
192,192,275311,1,0,0:0:0:0:
320,192,275389,1,0,0:0:0:0:
64,192,275468,1,0,0:0:0:0:
448,192,275546,1,0,0:0:0:0:
320,192,275624,1,0,0:0:0:100:c5 kick.wav
192,192,275624,1,0,0:0:0:100:c5 kick.wav
320,192,275702,1,0,0:0:0:0:
192,192,275780,1,0,0:0:0:100:snare.wav
64,192,275780,1,0,0:0:0:100:snare.wav
448,192,275780,1,0,0:0:0:100:snare.wav
192,192,275936,1,0,0:0:0:0:
320,192,276014,1,0,0:0:0:0:
448,192,276093,1,0,0:0:0:0:
192,192,276249,1,0,0:0:0:100:c5 kick.wav
320,192,276249,1,0,0:0:0:100:c5 kick.wav
320,192,276405,1,0,0:0:0:100:snare.wav
448,192,276405,1,0,0:0:0:100:snare.wav
64,192,276405,1,0,0:0:0:100:snare.wav
192,192,276561,1,0,0:0:0:0:
320,192,276639,1,0,0:0:0:0:
448,192,276718,1,0,0:0:0:0:
192,192,276796,1,0,0:0:0:0:
64,192,276874,1,0,0:0:0:100:c5 kick.wav
320,192,276874,1,0,0:0:0:100:c5 kick.wav
192,192,277030,1,0,0:0:0:100:snare.wav
448,192,277030,1,0,0:0:0:100:snare.wav
320,192,277030,1,0,0:0:0:100:snare.wav
64,192,277186,1,0,0:0:0:0:
192,192,277264,1,0,0:0:0:0:
320,192,277343,1,0,0:0:0:100:c5 kick.wav
448,192,277343,1,0,0:0:0:100:c5 kick.wav
192,192,277499,1,0,0:0:0:0:
320,192,277577,1,0,0:0:0:0:
192,192,277655,1,0,0:0:0:100:snare.wav
64,192,277655,1,0,0:0:0:100:snare.wav
448,192,277655,1,0,0:0:0:100:snare.wav
320,192,277811,1,0,0:0:0:0:
192,192,277889,1,0,0:0:0:0:
64,192,277968,1,0,0:0:0:0:
320,192,278046,1,0,0:0:0:0:
448,192,278124,1,0,0:0:0:100:c5 kick.wav
192,192,278124,1,0,0:0:0:100:c5 kick.wav
64,192,278202,1,0,0:0:0:0:
192,192,278280,1,0,0:0:0:0:
320,192,278358,1,0,0:0:0:0:
448,192,278436,1,0,0:0:0:100:snare.wav
192,192,278436,1,0,0:0:0:100:snare.wav
64,192,278436,1,0,0:0:0:100:snare.wav
320,192,278514,1,0,0:0:0:0:
192,192,278593,1,0,0:0:0:0:
64,192,278671,1,0,0:0:0:0:
448,192,278749,1,0,0:0:0:100:c5 kick.wav
320,192,278749,1,0,0:0:0:100:c5 kick.wav
448,192,278827,1,0,0:0:0:0:
64,192,278905,1,0,0:0:0:100:snare.wav
320,192,278905,1,0,0:0:0:100:snare.wav
192,192,278905,1,0,0:0:0:100:snare.wav
448,192,278983,1,0,0:0:0:0:
192,192,279061,1,0,0:0:0:0:
320,192,279139,1,0,0:0:0:0:
192,192,279218,1,0,0:0:0:100:drum.wav
64,192,279218,1,0,0:0:0:100:drum.wav
320,192,279296,1,0,0:0:0:100:drum.wav
448,192,279296,1,0,0:0:0:100:drum.wav
192,192,279374,1,0,0:0:0:100:c5 kick.wav
64,192,279374,1,0,0:0:0:100:c5 kick.wav
320,192,279452,1,0,0:0:0:100:drum.wav
64,192,279530,1,0,0:0:0:100:snare.wav
448,192,279530,1,0,0:0:0:100:snare.wav
192,192,279530,1,0,0:0:0:100:snare.wav
320,192,279608,1,0,0:0:0:100:drum.wav
192,192,279686,1,0,0:0:0:100:drum.wav
64,192,279686,1,0,0:0:0:100:drum.wav
320,192,279764,1,0,0:0:0:100:drum.wav
448,192,279764,1,0,0:0:0:100:drum.wav
192,192,279843,1,0,0:0:0:100:c5 kick.wav
64,192,279843,1,0,0:0:0:100:c5 kick.wav
320,192,279999,1,0,0:0:0:0:
192,192,280077,1,0,0:0:0:0:
320,192,280155,1,0,0:0:0:100:snare.wav
448,192,280155,1,0,0:0:0:100:snare.wav
64,192,280155,1,0,0:0:0:100:snare.wav
192,192,280311,1,0,0:0:0:0:
320,192,280389,1,0,0:0:0:0:
64,192,280468,1,0,0:0:0:0:
192,192,280546,1,0,0:0:0:0:
320,192,280624,1,0,0:0:0:100:c5 kick.wav
448,192,280624,1,0,0:0:0:100:c5 kick.wav
64,192,280780,1,0,0:0:0:100:snare.wav
320,192,280780,1,0,0:0:0:100:snare.wav
448,192,280780,1,0,0:0:0:100:snare.wav
192,192,280936,1,0,0:0:0:0:
320,192,281014,1,0,0:0:0:0:
192,192,281093,1,0,0:0:0:0:
448,192,281249,1,0,0:0:0:100:c5 kick.wav
64,192,281249,1,0,0:0:0:100:c5 kick.wav
192,192,281327,1,0,0:0:0:0:
64,192,281405,1,0,0:0:0:100:snare.wav
320,192,281405,1,0,0:0:0:100:snare.wav
448,192,281405,1,0,0:0:0:100:snare.wav
320,192,281561,1,0,0:0:0:0:
192,192,281639,1,0,0:0:0:0:
64,192,281718,1,0,0:0:0:0:
320,192,281796,1,0,0:0:0:0:
448,192,281874,1,0,0:0:0:100:c5 kick.wav
64,192,281874,1,0,0:0:0:100:c5 kick.wav
64,192,281952,1,0,0:0:0:0:
320,192,282030,1,0,0:0:0:100:snare.wav
448,192,282030,1,0,0:0:0:100:snare.wav
192,192,282030,1,0,0:0:0:100:snare.wav
448,192,282186,1,0,0:0:0:0:
320,192,282264,1,0,0:0:0:0:
192,192,282343,1,0,0:0:0:100:c5 kick.wav
64,192,282343,1,0,0:0:0:100:c5 kick.wav
448,192,282421,1,0,0:0:0:0:
320,192,282499,1,0,0:0:0:0:
192,192,282577,1,0,0:0:0:0:
320,192,282655,1,0,0:0:0:100:snare.wav
448,192,282655,1,0,0:0:0:100:snare.wav
64,192,282655,1,0,0:0:0:100:snare.wav
192,192,282811,1,0,0:0:0:0:
320,192,282968,1,0,0:0:0:0:
448,192,283046,1,0,0:0:0:0:
320,192,283124,1,0,0:0:0:100:c5 kick.wav
192,192,283124,1,0,0:0:0:100:c5 kick.wav
64,192,283202,1,0,0:0:0:0:
320,192,283280,1,0,0:0:0:0:
192,192,283358,1,0,0:0:0:0:
320,192,283436,1,0,0:0:0:100:snare.wav
448,192,283436,1,0,0:0:0:100:snare.wav
64,192,283436,1,0,0:0:0:100:snare.wav
192,192,283514,1,0,0:0:0:0:
448,192,283593,1,0,0:0:0:0:
320,192,283671,1,0,0:0:0:0:
192,192,283749,1,0,0:0:0:100:c5 kick.wav
64,192,283749,1,0,0:0:0:100:c5 kick.wav
320,192,283827,1,0,0:0:0:0:
448,192,283827,1,0,0:0:0:0:
192,192,283905,1,0,0:0:0:100:snare.wav
64,192,283905,1,0,0:0:0:100:snare.wav
448,192,283905,1,0,0:0:0:100:snare.wav
320,192,284061,1,0,0:0:0:100:drum.wav
448,192,284061,1,0,0:0:0:100:drum.wav
64,192,284139,1,0,0:0:0:100:drum.wav
192,192,284159,1,0,0:0:0:100:drum.wav
320,192,284178,1,0,0:0:0:100:drum.wav
448,192,284198,1,0,0:0:0:100:drum.wav
64,192,284218,1,0,0:0:0:100:clap.wav
192,192,284218,1,0,0:0:0:100:clap.wav
320,192,284296,1,0,0:0:0:100:drum.wav
192,192,284374,1,0,0:0:0:100:drum.wav
320,192,284452,1,0,0:0:0:100:clap.wav
64,192,284452,1,0,0:0:0:100:clap.wav
448,192,284452,1,0,0:0:0:100:clap.wav
192,192,284530,1,0,0:0:0:100:drum.wav
320,192,284608,1,0,0:0:0:100:drum.wav
192,192,284686,1,0,0:0:0:100:clap.wav
64,192,284686,1,0,0:0:0:100:clap.wav
448,192,284686,1,0,0:0:0:100:clap.wav
320,192,284764,1,0,0:0:0:100:drum.wav
192,192,284843,1,0,0:0:0:100:c5 kick.wav
64,192,284843,1,0,0:0:0:100:clap.wav
448,192,284843,1,0,0:0:0:100:clap.wav
320,192,284843,1,0,0:0:0:100:c5 kick.wav
192,192,284999,1,0,0:0:0:0:
320,192,285077,1,0,0:0:0:0:
448,192,285155,1,0,0:0:0:100:snare.wav
192,192,285155,1,0,0:0:0:100:snare.wav
64,192,285155,1,0,0:0:0:100:snare.wav
320,192,285233,1,0,0:0:0:0:
192,192,285311,1,0,0:0:0:0:
64,192,285389,1,0,0:0:0:0:
448,192,285468,128,0,286093:0:0:0:0:
320,192,285468,1,0,0:0:0:0:
192,192,285546,1,0,0:0:0:0:
64,192,285624,1,0,0:0:0:100:c5 kick.wav
320,192,285624,1,0,0:0:0:100:c5 kick.wav
192,192,285702,1,0,0:0:0:0:
320,192,285780,1,0,0:0:0:100:snare.wav
192,192,285780,1,0,0:0:0:100:snare.wav
64,192,285780,1,0,0:0:0:100:snare.wav
64,192,285858,1,0,0:0:0:0:
320,192,285936,1,0,0:0:0:0:
192,192,286014,1,0,0:0:0:0:
320,192,286093,128,0,286718:0:0:0:0:
64,192,286093,1,0,0:0:0:0:
192,192,286171,1,0,0:0:0:0:
448,192,286249,1,0,0:0:0:100:c5 kick.wav
64,192,286249,1,0,0:0:0:100:c5 kick.wav
192,192,286327,1,0,0:0:0:0:
192,192,286405,1,0,0:0:0:100:snare.wav
64,192,286405,1,0,0:0:0:100:snare.wav
448,192,286405,1,0,0:0:0:100:snare.wav
448,192,286483,1,0,0:0:0:0:
192,192,286561,1,0,0:0:0:0:
64,192,286639,1,0,0:0:0:0:
192,192,286718,128,0,287343:0:0:0:0:
448,192,286718,1,0,0:0:0:0:
64,192,286796,1,0,0:0:0:0:
448,192,286874,1,0,0:0:0:100:c5 kick.wav
320,192,286874,1,0,0:0:0:100:c5 kick.wav
320,192,287030,1,0,0:0:0:100:snare.wav
448,192,287030,1,0,0:0:0:100:snare.wav
64,192,287030,1,0,0:0:0:100:snare.wav
64,192,287108,1,0,0:0:0:0:
320,192,287186,1,0,0:0:0:0:
448,192,287264,1,0,0:0:0:0:
64,192,287343,128,0,287968:0:0:0:0:
448,192,287343,1,0,0:0:0:100:c5 kick.wav
320,192,287343,1,0,0:0:0:100:c5 kick.wav
192,192,287421,1,0,0:0:0:0:
320,192,287499,1,0,0:0:0:0:
448,192,287577,1,0,0:0:0:0:
192,192,287655,1,0,0:0:0:100:snare.wav
320,192,287655,1,0,0:0:0:100:snare.wav
448,192,287655,1,0,0:0:0:100:snare.wav
192,192,287733,1,0,0:0:0:0:
448,192,287811,1,0,0:0:0:0:
320,192,287889,1,0,0:0:0:0:
192,192,287968,1,0,0:0:0:0:
64,192,288046,1,0,0:0:0:0:
320,192,288124,1,0,0:0:0:100:c5 kick.wav
448,192,288124,1,0,0:0:0:100:c5 kick.wav
192,192,288202,1,0,0:0:0:0:
320,192,288280,1,0,0:0:0:0:
192,192,288358,1,0,0:0:0:0:
64,192,288436,1,0,0:0:0:100:snare.wav
320,192,288436,1,0,0:0:0:100:snare.wav
448,192,288436,1,0,0:0:0:100:snare.wav
192,192,288514,1,0,0:0:0:0:
448,192,288593,1,0,0:0:0:0:
320,192,288671,1,0,0:0:0:0:
192,192,288749,1,0,0:0:0:100:c5 kick.wav
64,192,288749,1,0,0:0:0:100:c5 kick.wav
320,192,288827,1,0,0:0:0:0:
448,192,288905,1,0,0:0:0:100:snare.wav
192,192,288905,1,0,0:0:0:100:snare.wav
64,192,288905,1,0,0:0:0:100:snare.wav
320,192,288983,1,0,0:0:0:0:
192,192,289061,1,0,0:0:0:0:
64,192,289139,1,0,0:0:0:0:
320,192,289218,1,0,0:0:0:100:drum.wav
448,192,289218,1,0,0:0:0:100:drum.wav
192,192,289296,1,0,0:0:0:100:drum.wav
64,192,289296,1,0,0:0:0:100:drum.wav
320,192,289374,1,0,0:0:0:100:c5 kick.wav
448,192,289374,1,0,0:0:0:100:c5 kick.wav
192,192,289452,1,0,0:0:0:100:drum.wav
320,192,289530,1,0,0:0:0:100:snare.wav
448,192,289530,1,0,0:0:0:100:snare.wav
64,192,289530,1,0,0:0:0:100:snare.wav
192,192,289608,1,0,0:0:0:100:drum.wav
320,192,289686,1,0,0:0:0:100:drum.wav
448,192,289686,1,0,0:0:0:100:drum.wav
64,192,289764,1,0,0:0:0:100:drum.wav
192,192,289764,1,0,0:0:0:100:drum.wav
320,192,289843,1,0,0:0:0:100:c5 kick.wav
448,192,289843,1,0,0:0:0:100:c5 kick.wav
64,192,289921,1,0,0:0:0:0:
192,192,289999,1,0,0:0:0:0:
320,192,290077,1,0,0:0:0:0:
64,192,290155,1,0,0:0:0:100:snare.wav
448,192,290155,1,0,0:0:0:100:snare.wav
192,192,290155,1,0,0:0:0:100:snare.wav
320,192,290233,1,0,0:0:0:0:
448,192,290311,1,0,0:0:0:0:
192,192,290389,1,0,0:0:0:0:
64,192,290468,128,0,291093:0:0:0:0:
320,192,290468,1,0,0:0:0:0:
448,192,290546,1,0,0:0:0:0:
320,192,290624,1,0,0:0:0:100:c5 kick.wav
192,192,290624,1,0,0:0:0:100:c5 kick.wav
448,192,290702,1,0,0:0:0:0:
448,192,290780,1,0,0:0:0:100:snare.wav
320,192,290780,1,0,0:0:0:100:snare.wav
192,192,290780,1,0,0:0:0:100:snare.wav
320,192,290858,1,0,0:0:0:0:
192,192,290936,1,0,0:0:0:0:
320,192,291014,1,0,0:0:0:0:
192,192,291093,128,0,291718:0:0:0:0:
448,192,291093,1,0,0:0:0:0:
320,192,291171,1,0,0:0:0:0:
64,192,291249,1,0,0:0:0:100:c5 kick.wav
448,192,291249,1,0,0:0:0:100:c5 kick.wav
320,192,291327,1,0,0:0:0:0:
320,192,291405,1,0,0:0:0:100:snare.wav
64,192,291405,1,0,0:0:0:100:snare.wav
448,192,291405,1,0,0:0:0:100:snare.wav
64,192,291483,1,0,0:0:0:0:
320,192,291561,1,0,0:0:0:0:
448,192,291639,1,0,0:0:0:0:
320,192,291718,128,0,292343:0:0:0:0:
64,192,291718,1,0,0:0:0:0:
448,192,291796,1,0,0:0:0:0:
64,192,291874,1,0,0:0:0:100:c5 kick.wav
192,192,291874,1,0,0:0:0:100:c5 kick.wav
448,192,291952,1,0,0:0:0:0:
192,192,292030,1,0,0:0:0:100:snare.wav
64,192,292030,1,0,0:0:0:100:snare.wav
448,192,292030,1,0,0:0:0:100:snare.wav
64,192,292108,1,0,0:0:0:0:
448,192,292186,1,0,0:0:0:0:
192,192,292264,1,0,0:0:0:0:
448,192,292343,128,0,292968:0:0:0:0:
64,192,292343,1,0,0:0:0:100:c5 kick.wav
192,192,292343,1,0,0:0:0:100:c5 kick.wav
320,192,292421,1,0,0:0:0:0:
192,192,292499,1,0,0:0:0:0:
64,192,292577,1,0,0:0:0:0:
192,192,292655,1,0,0:0:0:100:snare.wav
320,192,292655,1,0,0:0:0:100:snare.wav
64,192,292655,1,0,0:0:0:100:snare.wav
192,192,292733,1,0,0:0:0:0:
320,192,292811,1,0,0:0:0:0:
192,192,292889,1,0,0:0:0:0:
64,192,292968,1,0,0:0:0:0:
192,192,293046,1,0,0:0:0:0:
320,192,293124,1,0,0:0:0:100:c5 kick.wav
448,192,293124,1,0,0:0:0:100:c5 kick.wav
64,192,293202,1,0,0:0:0:0:
448,192,293280,1,0,0:0:0:0:
320,192,293358,1,0,0:0:0:0:
192,192,293436,1,0,0:0:0:100:snare.wav
64,192,293436,1,0,0:0:0:100:snare.wav
448,192,293436,1,0,0:0:0:100:snare.wav
320,192,293514,1,0,0:0:0:0:
64,192,293593,1,0,0:0:0:0:
192,192,293671,1,0,0:0:0:0:
448,192,293749,1,0,0:0:0:100:c5 kick.wav
64,192,293749,1,0,0:0:0:100:c5 kick.wav
320,192,293827,1,0,0:0:0:0:
448,192,293905,1,0,0:0:0:100:snare.wav
192,192,293905,1,0,0:0:0:100:snare.wav
64,192,293905,1,0,0:0:0:100:snare.wav
320,192,293983,1,0,0:0:0:0:
192,192,294061,1,0,0:0:0:0:
320,192,294139,1,0,0:0:0:0:
192,192,294218,1,0,0:0:0:100:drum.wav
64,192,294218,1,0,0:0:0:100:drum.wav
448,192,294296,1,0,0:0:0:100:drum.wav
320,192,294296,1,0,0:0:0:100:drum.wav
192,192,294374,1,0,0:0:0:100:c5 kick.wav
64,192,294374,1,0,0:0:0:100:c5 kick.wav
320,192,294452,1,0,0:0:0:100:drum.wav
64,192,294530,1,0,0:0:0:100:snare.wav
448,192,294530,1,0,0:0:0:100:snare.wav
192,192,294530,1,0,0:0:0:100:snare.wav
320,192,294608,1,0,0:0:0:100:drum.wav
192,192,294686,1,0,0:0:0:100:drum.wav
448,192,294686,1,0,0:0:0:100:drum.wav
320,192,294764,1,0,0:0:0:100:drum.wav
64,192,294764,1,0,0:0:0:100:drum.wav
192,192,294843,1,0,0:0:0:100:c5 kick.wav
448,192,294843,1,0,0:0:0:100:c5 kick.wav
64,192,294921,1,0,0:0:0:0:
320,192,294999,1,0,0:0:0:0:
192,192,295077,1,0,0:0:0:0:
320,192,295155,1,0,0:0:0:100:snare.wav
64,192,295155,1,0,0:0:0:100:snare.wav
448,192,295155,1,0,0:0:0:100:snare.wav
192,192,295233,1,0,0:0:0:0:
320,192,295311,1,0,0:0:0:0:
448,192,295389,1,0,0:0:0:0:
64,192,295468,128,0,296093:0:0:0:0:
192,192,295468,1,0,0:0:0:0:
320,192,295546,1,0,0:0:0:0:
448,192,295624,1,0,0:0:0:100:c5 kick.wav
192,192,295624,1,0,0:0:0:100:c5 kick.wav
320,192,295702,1,0,0:0:0:0:
320,192,295780,1,0,0:0:0:100:snare.wav
448,192,295780,1,0,0:0:0:100:snare.wav
192,192,295780,1,0,0:0:0:100:snare.wav
448,192,295858,1,0,0:0:0:0:
192,192,295936,1,0,0:0:0:0:
320,192,296014,1,0,0:0:0:0:
192,192,296093,128,0,296718:0:0:0:0:
448,192,296093,1,0,0:0:0:0:
320,192,296171,1,0,0:0:0:0:
64,192,296249,1,0,0:0:0:100:c5 kick.wav
448,192,296249,1,0,0:0:0:100:c5 kick.wav
320,192,296327,1,0,0:0:0:0:
320,192,296405,1,0,0:0:0:100:snare.wav
64,192,296405,1,0,0:0:0:100:snare.wav
448,192,296405,1,0,0:0:0:100:snare.wav
64,192,296483,1,0,0:0:0:0:
448,192,296561,1,0,0:0:0:0:
64,192,296639,1,0,0:0:0:0:
448,192,296718,128,0,297343:0:0:0:0:
320,192,296718,1,0,0:0:0:0:
64,192,296796,1,0,0:0:0:0:
320,192,296874,1,0,0:0:0:100:c5 kick.wav
192,192,296874,1,0,0:0:0:100:c5 kick.wav
64,192,296952,1,0,0:0:0:0:
64,192,297030,1,0,0:0:0:100:snare.wav
192,192,297030,1,0,0:0:0:100:snare.wav
320,192,297030,1,0,0:0:0:100:snare.wav
192,192,297108,1,0,0:0:0:0:
64,192,297186,1,0,0:0:0:0:
320,192,297264,1,0,0:0:0:0:
64,192,297343,128,0,297968:0:0:0:0:
320,192,297343,1,0,0:0:0:100:c5 kick.wav
192,192,297343,1,0,0:0:0:100:c5 kick.wav
192,192,297421,1,0,0:0:0:0:
320,192,297499,1,0,0:0:0:0:
448,192,297577,1,0,0:0:0:0:
320,192,297655,1,0,0:0:0:100:snare.wav
192,192,297655,1,0,0:0:0:100:snare.wav
448,192,297655,1,0,0:0:0:100:snare.wav
320,192,297733,1,0,0:0:0:0:
192,192,297811,1,0,0:0:0:0:
448,192,297889,1,0,0:0:0:0:
320,192,297968,1,0,0:0:0:0:
192,192,298046,1,0,0:0:0:0:
320,192,298124,1,0,0:0:0:100:c5 kick.wav
64,192,298124,1,0,0:0:0:100:c5 kick.wav
448,192,298202,1,0,0:0:0:0:
320,192,298280,1,0,0:0:0:0:
192,192,298358,1,0,0:0:0:0:
64,192,298436,1,0,0:0:0:100:snare.wav
320,192,298436,1,0,0:0:0:100:snare.wav
448,192,298436,1,0,0:0:0:100:snare.wav
192,192,298514,1,0,0:0:0:0:
448,192,298593,1,0,0:0:0:0:
320,192,298671,1,0,0:0:0:0:
192,192,298749,1,0,0:0:0:100:c5 kick.wav
64,192,298749,1,0,0:0:0:100:c5 kick.wav
448,192,298827,1,0,0:0:0:0:
192,192,298905,1,0,0:0:0:100:snare.wav
64,192,298905,1,0,0:0:0:100:snare.wav
320,192,298905,1,0,0:0:0:100:snare.wav
448,192,298983,1,0,0:0:0:0:
64,192,299061,1,0,0:0:0:0:
320,192,299139,1,0,0:0:0:0:
448,192,299218,1,0,0:0:0:100:drum.wav
192,192,299218,1,0,0:0:0:100:drum.wav
64,192,299296,1,0,0:0:0:100:drum.wav
320,192,299296,1,0,0:0:0:100:drum.wav
192,192,299374,1,0,0:0:0:100:c5 kick.wav
448,192,299374,1,0,0:0:0:100:c5 kick.wav
320,192,299452,1,0,0:0:0:100:drum.wav
192,192,299530,1,0,0:0:0:100:snare.wav
64,192,299530,1,0,0:0:0:100:snare.wav
448,192,299530,1,0,0:0:0:100:snare.wav
320,192,299608,1,0,0:0:0:100:drum.wav
192,192,299686,1,0,0:0:0:100:drum.wav
64,192,299686,1,0,0:0:0:100:drum.wav
320,192,299764,1,0,0:0:0:100:drum.wav
448,192,299764,1,0,0:0:0:100:drum.wav
64,192,299843,1,0,0:0:0:100:c5 kick.wav
192,192,299843,1,0,0:0:0:100:c5 kick.wav
448,192,299921,1,0,0:0:0:0:
320,192,299999,1,0,0:0:0:0:
64,192,300077,1,0,0:0:0:0:
192,192,300155,1,0,0:0:0:100:snare.wav
320,192,300155,1,0,0:0:0:100:snare.wav
448,192,300155,1,0,0:0:0:100:snare.wav
64,192,300233,1,0,0:0:0:0:
448,192,300311,1,0,0:0:0:0:
320,192,300389,1,0,0:0:0:0:
448,192,300468,128,0,301093:0:0:0:0:
192,192,300468,1,0,0:0:0:0:
64,192,300546,1,0,0:0:0:0:
192,192,300624,1,0,0:0:0:100:c5 kick.wav
320,192,300624,1,0,0:0:0:100:c5 kick.wav
64,192,300702,1,0,0:0:0:0:
192,192,300780,1,0,0:0:0:100:snare.wav
64,192,300780,1,0,0:0:0:100:snare.wav
320,192,300780,1,0,0:0:0:100:snare.wav
192,192,300858,1,0,0:0:0:0:
320,192,300936,1,0,0:0:0:0:
64,192,301014,1,0,0:0:0:0:
320,192,301093,128,0,301718:0:0:0:0:
192,192,301093,1,0,0:0:0:0:
64,192,301171,1,0,0:0:0:0:
192,192,301249,1,0,0:0:0:100:c5 kick.wav
448,192,301249,1,0,0:0:0:100:c5 kick.wav
64,192,301327,1,0,0:0:0:0:
448,192,301405,1,0,0:0:0:100:snare.wav
192,192,301405,1,0,0:0:0:100:snare.wav
64,192,301405,1,0,0:0:0:100:snare.wav
448,192,301483,1,0,0:0:0:0:
64,192,301561,1,0,0:0:0:0:
192,192,301639,1,0,0:0:0:0:
64,192,301718,128,0,302343:0:0:0:0:
448,192,301718,1,0,0:0:0:0:
192,192,301796,1,0,0:0:0:0:
320,192,301874,1,0,0:0:0:100:c5 kick.wav
448,192,301874,1,0,0:0:0:100:c5 kick.wav
192,192,301952,1,0,0:0:0:0:
320,192,302030,1,0,0:0:0:100:snare.wav
448,192,302030,1,0,0:0:0:100:snare.wav
192,192,302030,1,0,0:0:0:100:snare.wav
448,192,302108,1,0,0:0:0:0:
320,192,302186,1,0,0:0:0:0:
192,192,302264,1,0,0:0:0:0:
448,192,302343,128,0,302968:0:0:0:0:
320,192,302343,1,0,0:0:0:100:c5 kick.wav
192,192,302343,1,0,0:0:0:100:c5 kick.wav
320,192,302421,1,0,0:0:0:0:
64,192,302499,1,0,0:0:0:0:
192,192,302577,1,0,0:0:0:0:
320,192,302655,1,0,0:0:0:100:snare.wav
64,192,302655,1,0,0:0:0:100:snare.wav
192,192,302655,1,0,0:0:0:100:snare.wav
64,192,302733,1,0,0:0:0:0:
320,192,302811,1,0,0:0:0:0:
192,192,302889,1,0,0:0:0:0:
64,192,302968,1,0,0:0:0:0:
320,192,303046,1,0,0:0:0:0:
448,192,303124,1,0,0:0:0:100:c5 kick.wav
192,192,303124,1,0,0:0:0:100:c5 kick.wav
320,192,303202,1,0,0:0:0:0:
448,192,303280,1,0,0:0:0:0:
192,192,303358,1,0,0:0:0:0:
64,192,303436,1,0,0:0:0:100:snare.wav
320,192,303436,1,0,0:0:0:100:snare.wav
448,192,303436,1,0,0:0:0:100:snare.wav
192,192,303514,1,0,0:0:0:0:
448,192,303593,1,0,0:0:0:0:
192,192,303671,1,0,0:0:0:0:
320,192,303749,1,0,0:0:0:100:c5 kick.wav
64,192,303749,1,0,0:0:0:100:c5 kick.wav
448,192,303827,1,0,0:0:0:0:
320,192,303905,1,0,0:0:0:100:snare.wav
192,192,303905,1,0,0:0:0:100:snare.wav
64,192,303905,1,0,0:0:0:100:snare.wav
448,192,303983,1,0,0:0:0:100:drum.wav
192,192,304061,1,0,0:0:0:100:drum.wav
64,192,304061,1,0,0:0:0:100:drum.wav
448,192,304139,1,0,0:0:0:100:drum.wav
320,192,304159,1,0,0:0:0:100:drum.wav
192,192,304178,1,0,0:0:0:100:drum.wav
64,192,304198,1,0,0:0:0:100:drum.wav
320,192,304218,1,0,0:0:0:100:clap.wav
448,192,304218,1,0,0:0:0:100:clap.wav
192,192,304296,1,0,0:0:0:100:drum.wav
320,192,304374,1,0,0:0:0:100:drum.wav
64,192,304452,1,0,0:0:0:100:clap.wav
448,192,304452,1,0,0:0:0:100:clap.wav
192,192,304452,1,0,0:0:0:100:clap.wav
320,192,304530,1,0,0:0:0:100:drum.wav
192,192,304608,1,0,0:0:0:100:drum.wav
448,192,304686,1,0,0:0:0:100:clap.wav
64,192,304686,1,0,0:0:0:100:clap.wav
320,192,304686,1,0,0:0:0:100:clap.wav
192,192,304764,1,0,0:0:0:100:drum.wav
320,192,304843,1,0,0:0:0:100:clap.wav
64,192,304843,1,0,0:0:0:100:clap.wav
448,192,304843,1,0,0:0:0:100:clap.wav
192,192,304999,1,0,0:0:0:0:
320,192,305155,1,0,0:0:0:0:
192,192,305624,1,0,0:0:0:0:
448,192,305780,1,0,0:0:0:0:
320,192,305936,1,0,0:0:0:0:
64,192,306249,1,0,0:0:0:0:
448,192,306405,1,0,0:0:0:0:
320,192,306561,1,0,0:0:0:0:
192,192,306718,1,0,0:0:0:0:
448,192,306874,1,0,0:0:0:0:
192,192,307030,1,0,0:0:0:0:
64,192,307186,1,0,0:0:0:0:
448,192,307343,1,0,0:0:0:0:
64,192,307499,1,0,0:0:0:0:
192,192,307655,1,0,0:0:0:0:
320,192,307811,1,0,0:0:0:0:
448,192,308124,1,0,0:0:0:0:
192,192,308280,1,0,0:0:0:0:
64,192,308436,1,0,0:0:0:0:
192,192,308593,1,0,0:0:0:0:
320,192,308749,1,0,0:0:0:0:
448,192,308905,1,0,0:0:0:0:
320,192,309061,1,0,0:0:0:0:
192,192,309218,1,0,0:0:0:0:
64,192,309374,1,0,0:0:0:0:
320,192,309530,1,0,0:0:0:0:
192,192,309686,1,0,0:0:0:0:
320,192,309999,1,0,0:0:0:0:
320,192,310155,1,0,0:0:0:0:
64,192,310311,1,0,0:0:0:0:
320,192,310468,1,0,0:0:0:0:
192,192,310624,1,0,0:0:0:0:
448,192,310780,1,0,0:0:0:0:
64,192,310936,1,0,0:0:0:0:
448,192,311093,1,0,0:0:0:0:
192,192,311249,1,0,0:0:0:0:
320,192,311405,1,0,0:0:0:0:
448,192,311561,1,0,0:0:0:0:
64,192,311718,1,0,0:0:0:0:
192,192,311874,1,0,0:0:0:0:
448,192,312030,1,0,0:0:0:0:
320,192,312186,1,0,0:0:0:0:
64,192,312343,1,0,0:0:0:0:
448,192,312499,1,0,0:0:0:0:
320,192,312655,1,0,0:0:0:0:
192,192,312811,1,0,0:0:0:0:
64,192,312968,1,0,0:0:0:0:
192,192,313124,1,0,0:0:0:0:
320,192,313280,1,0,0:0:0:0:
448,192,313436,1,0,0:0:0:0:
320,192,313514,1,0,0:0:0:0:
64,192,313593,1,0,0:0:0:0:
448,192,313749,1,0,0:0:0:0:
320,192,313905,1,0,0:0:0:0:
192,192,314061,1,0,0:0:0:0:
448,192,314218,1,0,0:0:0:0:
320,192,314374,1,0,0:0:0:0:
192,192,314530,1,0,0:0:0:0:
64,192,314686,1,0,0:0:0:0:
448,192,314843,1,0,0:0:0:0:
320,192,314999,1,0,0:0:0:0:
448,192,315155,1,0,0:0:0:0:
192,192,315311,1,0,0:0:0:0:
64,192,315624,1,0,0:0:0:0:
448,192,315780,1,0,0:0:0:0:
64,192,315936,1,0,0:0:0:0:
320,192,316093,1,0,0:0:0:0:
448,192,316249,1,0,0:0:0:0:
192,192,316405,1,0,0:0:0:0:
64,192,316561,1,0,0:0:0:0:
320,192,316718,1,0,0:0:0:0:
448,192,316874,1,0,0:0:0:0:
64,192,317030,1,0,0:0:0:0:
192,192,317186,1,0,0:0:0:0:
448,192,317343,1,0,0:0:0:0:
320,192,317499,1,0,0:0:0:0:
192,192,317655,1,0,0:0:0:0:
64,192,317811,1,0,0:0:0:0:
320,192,318280,1,0,0:0:0:0:
192,192,318436,1,0,0:0:0:0:
448,192,318593,1,0,0:0:0:0:
64,192,318749,1,0,0:0:0:0:
192,192,318905,1,0,0:0:0:0:
320,192,319061,1,0,0:0:0:0:
448,192,319218,1,0,0:0:0:0:
320,192,319374,1,0,0:0:0:0:
64,192,319530,1,0,0:0:0:0:
192,192,319686,1,0,0:0:0:0:
448,192,319843,1,0,0:0:0:0:
320,192,319999,1,0,0:0:0:0:
320,192,320155,1,0,0:0:0:0:
64,192,320311,1,0,0:0:0:0:
448,192,320468,1,0,0:0:0:0:
64,192,320624,1,0,0:0:0:0:
192,192,320780,1,0,0:0:0:0:
448,192,320936,1,0,0:0:0:0:
64,192,321093,1,0,0:0:0:0:
320,192,321249,1,0,0:0:0:0:
192,192,321405,1,0,0:0:0:0:
448,192,321561,1,0,0:0:0:0:
64,192,321718,1,0,0:0:0:0:
320,192,321874,1,0,0:0:0:0:
64,192,322030,1,0,0:0:0:0:
192,192,322186,1,0,0:0:0:0:
448,192,322343,1,0,0:0:0:0:
320,192,322499,1,0,0:0:0:0:
192,192,322655,1,0,0:0:0:0:
320,192,322811,1,0,0:0:0:0:
64,192,323124,1,0,0:0:0:0:
192,192,323280,1,0,0:0:0:0:
320,192,323436,1,0,0:0:0:0:
64,192,323593,128,0,324843:0:0:0:0:
448,192,323593,1,0,0:0:0:0:
192,192,324218,1,0,0:0:0:0:
320,192,324296,1,0,0:0:0:0:
192,192,324374,1,0,0:0:0:0:
320,192,324452,1,0,0:0:0:0:
448,192,324530,1,0,0:0:0:0:
192,192,324608,1,0,0:0:0:0:
448,192,324686,1,0,0:0:0:0:
192,192,324764,1,0,0:0:0:0:
448,192,324843,1,0,0:0:0:0:
64,192,325155,1,0,0:0:0:0:
320,192,325311,1,0,0:0:0:0:
192,192,325624,1,0,0:0:0:0:
448,192,325936,1,0,0:0:0:0:
64,192,326249,1,0,0:0:0:0:
320,192,326405,1,0,0:0:0:0:
192,192,326561,1,0,0:0:0:0:
448,192,326874,1,0,0:0:0:0:
64,192,327186,1,0,0:0:0:0:
192,192,327499,1,0,0:0:0:0:
320,192,327655,1,0,0:0:0:0:
448,192,327811,1,0,0:0:0:0:
64,192,328280,1,0,0:0:0:0:
448,192,328749,1,0,0:0:0:0:
320,192,328905,1,0,0:0:0:0:
64,192,329061,1,0,0:0:0:0:
192,192,329218,1,0,0:0:0:0:
448,192,329374,1,0,0:0:0:0:
64,192,329530,1,0,0:0:0:0:
448,192,329686,1,0,0:0:0:0:
192,192,329843,1,0,0:0:0:0:
320,192,329999,1,0,0:0:0:0:
448,192,330155,1,0,0:0:0:0:
192,192,330311,1,0,0:0:0:0:
64,192,330624,1,0,0:0:0:0:
448,192,330936,1,0,0:0:0:0:
320,192,331249,1,0,0:0:0:0:
192,192,331405,1,0,0:0:0:0:
64,192,331561,1,0,0:0:0:0:
448,192,331874,1,0,0:0:0:0:
192,192,332186,1,0,2:0:0:0:
64,192,332519,1,0,2:0:0:0:
320,192,332697,1,0,2:0:0:0:
448,192,332876,1,0,2:0:0:0:
448,192,333438,1,0,2:0:0:0:
192,192,334001,1,0,2:0:0:0:
64,192,334235,1,0,2:0:0:0:
192,192,334502,1,0,2:0:0:0:
320,192,334814,1,0,2:0:0:0:
448,192,335171,1,0,2:0:0:0:
64,192,335587,128,0,339337:2:0:0:0:
