osu file format v14

[General]
AudioFilename: audio.mp3
AudioLeadIn: 0
PreviewTime: 264182
Countdown: 0
SampleSet: Normal
StackLeniency: 0.7
Mode: 1
LetterboxInBreaks: 0
WidescreenStoryboard: 1

[Editor]
DistanceSpacing: 3.4
BeatDivisor: 4
GridSize: 32
TimelineZoom: 3.1

[Metadata]
Title:Petals
TitleUnicode:Petals
Artist:Nanahira
ArtistUnicode:ななひら
Creator:-Dusk
Version:Inner Oni
Source:
Tags:かめるかめりあ 大箭将也 masaya oya kamelcamellia cametek かめりあ camellia electronic japanese drum and bass dnb comiket comic market c91 コミックマーケット91 confetto secretale tunecore japan &
BeatmapID:2917279
BeatmapSetID:1415492

[Difficulty]
HPDrainRate:6
CircleSize:4
OverallDifficulty:6.3
ApproachRate:9
SliderMultiplier:1.4
SliderTickRate:1

[Events]
//Background and Video events
0,0,"5OCkmpO.jpeg",0,95
//Break Periods
2,135086,139286
2,178836,188036
2,218836,224286
//Storyboard Layer 0 (Background)
//Storyboard Layer 1 (Fail)
//Storyboard Layer 2 (Pass)
//Storyboard Layer 3 (Foreground)
//Storyboard Layer 4 (Overlay)
//Storyboard Sound Samples

[TimingPoints]
1136,312.5,4,1,0,30,1,0
1136,-166.666666666667,4,1,0,30,0,0
9495,-161.290322580645,4,1,0,35,0,0
10042,-156.25,4,1,0,35,0,0
10198,-151.515151515152,4,1,0,35,0,0
10354,-147.058823529412,4,1,0,35,0,0
10432,-142.857142857143,4,1,0,40,0,0
10589,-138.888888888889,4,1,0,45,0,0
10745,-135.135135135135,4,1,0,50,0,0
10901,-131.578947368421,4,1,0,55,0,0
11057,-128.205128205128,4,1,0,55,0,0
30432,-126.582278481013,4,1,0,55,0,0
30511,-125,4,1,0,55,0,0
30589,-123.456790123457,4,1,0,55,0,0
30667,-121.951219512195,4,1,0,55,0,0
30745,-120.481927710843,4,1,0,55,0,0
30823,-119.047619047619,4,1,0,55,0,0
30901,-117.647058823529,4,1,0,55,0,0
30979,-116.279069767442,4,1,0,55,0,0
31057,-114.942528735632,4,1,0,55,0,0
31136,-113.636363636364,4,1,0,55,0,0
31214,-142.857142857143,4,1,0,55,0,0
70432,-133.333333333333,4,1,0,75,0,0
71136,-125,4,1,0,80,0,0
71682,-117.647058823529,4,1,0,65,0,0
71839,-105.263157894737,4,1,0,65,0,0
72386,-95.238095238095,4,1,0,65,0,0
73557,-86.9565217391304,4,1,0,65,0,0
74886,-100,4,1,0,90,0,0
75823,-142.857142857143,4,1,0,90,0,0
84886,-140.845070422535,4,1,0,90,0,0
85198,-138.135093358603,4,1,0,90,0,0
85511,-135.52761578463,4,1,0,90,0,0
85823,-133.016576525767,4,1,0,90,0,0
86136,-130.597063655621,4,1,0,90,0,0
86448,-128.263833575111,4,1,0,90,0,0
86761,-126.012669313773,4,1,0,90,0,0
87073,-123.839009287926,4,1,0,90,0,0
87386,-121.739066918748,4,1,0,90,0,0
87698,-119.70929794088,4,1,0,90,0,0
87854,-118.719585526183,4,1,0,90,0,0
88011,-117.745965434494,4,1,0,90,0,0
88323,-115.84612853823,4,1,0,90,0,0
88636,-114.006496090147,4,1,0,90,0,0
88948,-112.224502873508,4,1,0,90,0,0
89261,-110.497237569061,4,1,0,90,0,0
89573,-108.82233556673,4,1,0,90,0,0
89886,-107.197566186457,4,1,0,90,0,0
90042,-106.403240617096,4,1,0,90,0,0
90198,-105.620488684877,4,1,0,90,0,0
90354,-104.849279161206,4,1,0,90,0,0
90511,-104.089250286766,4,1,0,90,0,0
90667,-103.340053881504,4,1,0,90,0,0
90823,-102.6016705604,4,1,0,90,0,0
90979,-101.873764143899,4,1,0,90,0,0
91136,-101.156113217968,4,1,0,90,0,0
91292,-100.448401665033,4,1,0,90,0,0
91448,-99.7506234413965,4,1,0,90,0,0
91604,-99.06247275782,4,1,0,90,0,0
91761,-98.383654933104,4,1,0,90,0,0
91917,-97.7141723658458,4,1,0,90,0,0
92073,-97.0537396261684,4,1,0,90,0,0
92229,-96.4021744474468,4,1,0,90,0,0
92386,-95.759207726619,4,1,0,90,0,0
92464,-95.4409754831222,4,1,0,90,0,0
92542,-95.1248513674197,4,1,0,90,0,0
92620,-94.8108145007452,4,1,0,90,0,0
92698,-94.4988442791345,4,1,0,90,0,0
92776,-94.1889203689192,4,1,0,90,0,0
92854,-93.8809345659274,4,1,0,90,0,0
92932,-93.5750439100893,4,1,0,90,0,0
93011,-93.2711401370899,4,1,0,90,0,0
93089,-92.9692039511912,4,1,0,90,0,0
93167,-92.6692163057046,4,1,0,90,0,0
93245,-92.3711583989861,4,1,0,90,0,0
93323,-92.0750116705077,4,1,0,90,0,0
93401,-91.7806735600071,4,1,0,90,0,0
93479,-91.4882949875393,4,1,0,90,0,0
93557,-91.1977733151667,4,1,0,90,0,0
93636,-90.9090909090909,4,1,0,90,0,0
93870,-109.89010989011,4,1,0,90,0,0
93948,-108.695652173913,4,1,0,90,0,0
94104,-107.52688172043,4,1,0,90,0,0
94182,-106.382978723404,4,1,0,90,0,0
94261,-105.263157894737,4,1,0,90,0,0
94339,-104.166666666667,4,1,0,90,0,0
94417,-103.092783505155,4,1,0,90,0,0
94495,-102.040816326531,4,1,0,90,0,0
94573,-101.010101010101,4,1,0,90,0,0
94625,-100,4,1,0,90,0,0
94677,-99.009900990099,4,1,0,90,0,0
94729,-98.0392156862745,4,1,0,90,0,0
94781,-97.0873786407767,4,1,0,90,0,0
94833,-96.1538461538461,4,1,0,90,0,0
94886,-95.2380952380952,4,1,0,90,0,1
114156,-94.3396226415094,4,1,0,90,0,1
114208,-93.4579439252336,4,1,0,90,0,1
114261,-92.5925925925926,4,1,0,90,0,1
114339,-91.743119266055,4,1,0,90,0,1
114417,-90.9090909090909,4,1,0,90,0,1
114495,-90.0900900900901,4,1,0,90,0,1
114573,-89.2857142857143,4,1,0,90,0,1
114651,-88.4955752212389,4,1,0,90,0,1
114729,-87.719298245614,4,1,0,90,0,1
114807,-86.9565217391304,4,1,0,90,0,1
114886,-86.2068965517241,4,1,0,90,0,0
115198,-100.082868615213,4,1,0,90,0,0
136136,-143.026322564404,4,1,0,90,0,0
139886,-140.845070422535,4,1,0,90,0,0
140198,-139.494916805232,4,1,0,90,0,0
140667,-137.517344375059,4,1,0,90,0,0
140823,-136.870617573914,4,1,0,90,0,0
141292,-134.966427101259,4,1,0,90,0,0
141448,-134.34341670238,4,1,0,90,0,0
141917,-132.508248638478,4,1,0,90,0,0
142073,-131.907675179988,4,1,0,90,0,0
142386,-130.722713594378,4,1,0,90,0,0
142698,-129.55885210857,4,1,0,90,0,0
143167,-127.8512425223,4,1,0,90,0,0
143323,-127.292052520701,4,1,0,90,0,0
143479,-126.737732738004,4,1,0,90,0,0
143792,-125.643451526128,4,1,0,90,0,0
143948,-125.1033666567,4,1,0,90,0,0
144417,-123.510463806494,4,1,0,90,0,0
144573,-122.988522711061,4,1,0,90,0,0
144729,-122.470974379072,4,1,0,90,0,0
144886,-121.957763587314,4,1,0,90,0,0
145198,-120.944138321392,4,1,0,90,0,0
145511,-119.947223221782,4,1,0,90,0,0
145823,-118.966466921969,4,1,0,90,0,0
146136,-118.001758226198,4,1,0,90,0,0
146448,-117.052569479479,4,1,0,90,0,0
146604,-116.583678518175,4,1,0,90,0,0
146761,-116.118529149815,4,1,0,90,0,0
147073,-115.199144761549,4,1,0,90,0,0
147386,-114.294335344152,4,1,0,90,0,0
147698,-113.403628462496,4,1,0,90,0,0
148011,-112.526696958853,4,1,0,90,0,0
148323,-111.663099030653,4,1,0,90,0,0
148636,-110.812778486364,4,1,0,90,0,0
148948,-109.975310542783,4,1,0,90,0,0
149104,-109.561305576342,4,1,0,90,0,0
149261,-109.150405984935,4,1,0,90,0,0
149573,-108.337666840007,4,1,0,90,0,0
149886,-107.537057269935,4,1,0,90,0,0
150198,-106.748193820561,4,1,0,90,0,0
150354,-106.358086405309,4,1,0,90,0,0
150511,-105.970819875039,4,1,0,90,0,0
150823,-105.2045755574,4,1,0,90,0,0
151136,-104.449441769958,4,1,0,90,0,0
151448,-103.70507107427,4,1,0,90,0,0
151761,-102.971234985507,4,1,0,90,0,0
152073,-102.247606894761,4,1,0,90,0,0
152386,-101.534181482196,4,1,0,90,0,0
152542,-101.181189202753,4,1,0,90,0,0
152698,-100.83064283568,4,1,0,90,0,0
152854,-100.482517046859,4,1,0,90,0,0
153011,-100.136786850838,4,1,0,90,0,0
153167,-99.7934276048579,4,1,0,90,0,0
153323,-99.4523160952634,4,1,0,90,0,0
153479,-99.1136268352127,4,1,0,90,0,0
153636,-98.7772365882738,4,1,0,90,0,0
153792,-98.4431220251719,4,1,0,90,0,0
153948,-98.111260131214,4,1,0,90,0,0
154104,-97.7816282010038,4,1,0,90,0,0
154261,-97.4542038332637,4,1,0,90,0,0
154417,-97.1289649257595,4,1,0,90,0,0
154573,-96.8057959566155,4,1,0,90,0,0
154729,-96.4848634546212,4,1,0,90,0,0
154886,-96.1660518450419,4,1,0,90,0,0
154964,-96.0074348157521,4,1,0,90,0,0
155042,-95.8493401731423,4,1,0,90,0,0
155120,-95.6917653408254,4,1,0,90,0,0
155198,-95.534707759329,4,1,0,90,0,0
155276,-95.3781648859563,4,1,0,90,0,0
155354,-95.2221341946493,4,1,0,90,0,0
155432,-95.0666131758523,4,1,0,90,0,0
155511,-94.9115993363781,4,1,0,90,0,0
155589,-94.7570901992741,4,1,0,90,0,0
155667,-94.603083303691,4,1,0,90,0,0
155745,-94.4494869976114,4,1,0,90,0,0
155823,-94.2964775550809,4,1,0,90,0,0
155901,-94.1439630654404,4,1,0,90,0,0
155979,-93.9919411309674,4,1,0,90,0,0
156057,-93.8404093694018,4,1,0,90,0,0
156136,-93.6893654138213,4,1,0,90,0,0
156214,-78.7975493962138,4,1,0,90,0,0
157229,-91.6245957064714,4,1,0,90,0,0
157281,-91.5285729322551,4,1,0,90,0,0
157333,-91.432751211484,4,1,0,90,0,0
157386,-91.3370464887299,4,1,0,90,0,0
157620,-109.89010989011,4,1,0,90,0,0
157698,-108.695652173913,4,1,0,90,0,0
157854,-107.52688172043,4,1,0,90,0,0
157932,-106.382978723404,4,1,0,90,0,0
158011,-105.263157894737,4,1,0,90,0,0
158089,-104.166666666667,4,1,0,90,0,0
158167,-103.092783505155,4,1,0,90,0,0
158245,-102.040816326531,4,1,0,90,0,0
158323,-101.010101010101,4,1,0,90,0,0
158375,-100,4,1,0,90,0,0
158427,-99.009900990099,4,1,0,90,0,0
158479,-98.0392156862745,4,1,0,90,0,0
158531,-97.0873786407767,4,1,0,90,0,0
158583,-96.1538461538461,4,1,0,90,0,0
158636,-95.2380952380952,4,1,0,90,0,1
177906,-94.3396226415094,4,1,0,90,0,1
177958,-93.4579439252336,4,1,0,90,0,1
178011,-92.5925925925926,4,1,0,90,0,1
178089,-91.743119266055,4,1,0,90,0,1
178167,-90.9090909090909,4,1,0,90,0,1
178245,-90.0900900900901,4,1,0,90,0,1
178323,-89.2857142857143,4,1,0,90,0,1
178401,-88.4955752212389,4,1,0,90,0,1
178479,-87.719298245614,4,1,0,90,0,1
178557,-86.9565217391304,4,1,0,90,0,1
178636,-86.2068965517241,4,1,0,90,0,0
179886,-142.857142857143,4,1,0,90,0,0
188636,-140.845070422535,4,1,0,90,0,0
188948,-138.469633609349,4,1,0,90,0,0
189417,-135.053190699157,4,1,0,90,0,0
189573,-133.951474738761,4,1,0,90,0,0
190042,-130.751770378971,4,1,0,90,0,0
190198,-129.71884737021,4,1,0,90,0,0
190667,-126.715891566677,4,1,0,90,0,0
190823,-125.745513714434,4,1,0,90,0,0
191136,-123.848671784919,4,1,0,90,0,0
191448,-122.008355132159,4,1,0,90,0,0
191917,-119.348120565471,4,1,0,90,0,0
192229,-117.638062971655,4,1,0,90,0,0
192542,-115.976317635939,4,1,0,90,0,0
192698,-115.16305937577,4,1,0,90,0,0
193167,-112.789926506084,4,1,0,90,0,0
193323,-112.020468379982,4,1,0,90,0,0
193479,-111.261561467006,4,1,0,90,0,0
193636,-110.512745987558,4,1,0,90,0,0
193948,-109.044951600398,4,1,0,90,0,0
194417,-106.915051714811,4,1,0,90,0,0
194573,-106.223417589748,4,1,0,90,0,0
195042,-104.201291887617,4,1,0,90,0,0
195198,-103.54421493294,4,1,0,90,0,0
195667,-101.621885289216,4,1,0,90,0,0
195823,-100.996838798946,4,1,0,90,0,0
196136,-99.7695323802017,4,1,0,90,0,0
196448,-98.5717932870637,4,1,0,90,0,0
196917,-96.8280111816987,4,1,0,90,0,0
197229,-95.6994577668723,4,1,0,90,0,0
197542,-94.5968188981741,4,1,0,90,0,0
197698,-94.0549732507656,4,1,0,90,0,0
198167,-92.4661365891276,4,1,0,90,0,0
198323,-91.9483581241432,4,1,0,90,0,0
198479,-91.4364297365899,4,1,0,90,0,0
198636,-90.9300874929302,4,1,0,90,0,0
199261,-133.333333333333,4,1,0,90,0,0
217386,-142.857142857143,4,1,0,90,0,0
221136,-142.857142857143,4,1,0,60,0,0
224886,-166.666666666667,4,1,0,50,0,0
242386,-153.846153846154,4,1,0,60,0,0
243636,-142.857142857143,4,1,0,70,0,0
244261,-125,4,1,0,80,0,0
244886,-111.111111111111,4,1,0,90,0,0
245198,-142.857142857143,4,1,0,90,0,0
254886,-140.845070422535,4,1,0,90,0,0
255198,-138.137192333938,4,1,0,90,0,0
255511,-135.531473118688,4,1,0,90,0,0
255823,-133.022061708934,4,1,0,90,0,0
256136,-130.604056823213,4,1,0,90,0,0
256448,-128.272388983454,4,1,0,90,0,0
256761,-126.022515182563,4,1,0,90,0,0
257073,-123.850052264722,4,1,0,90,0,0
257386,-121.751369094145,4,1,0,90,0,0
257698,-119.72262661865,4,1,0,90,0,0
257854,-118.73339958657,4,1,0,90,0,0
258011,-117.760385877232,4,1,0,90,0,0
258323,-115.861429730043,4,1,0,90,0,0
258636,-114.022615245508,4,1,0,90,0,0
258948,-112.2413818261,4,1,0,90,0,0
259261,-110.514944383354,4,1,0,90,0,0
259573,-108.84081269258,4,1,0,90,0,0
259886,-107.216645169729,4,1,0,90,0,0
260042,-106.422490903538,4,1,0,90,0,0
260198,-105.640126345591,4,1,0,90,0,0
260354,-104.869180940236,4,1,0,90,0,0
260511,-104.109406493095,4,1,0,90,0,0
260667,-103.360561950703,4,1,0,90,0,0
260823,-102.622413145521,4,1,0,90,0,0
260979,-101.894732551801,4,1,0,90,0,0
261136,-101.177299051766,4,1,0,90,0,0
261292,-100.469897711597,4,1,0,90,0,0
261448,-99.7722200216905,4,1,0,90,0,0
261604,-99.0842632391438,4,1,0,90,0,0
261761,-98.4057287879071,4,1,0,90,0,0
261917,-97.7364244106493,4,1,0,90,0,0
262073,-97.0761630452404,4,1,0,90,0,0
262229,-96.4247626504467,4,1,0,90,0,0
262386,-95.7820460385982,4,1,0,90,0,0
262464,-95.463844500853,4,1,0,90,0,0
262542,-95.1478407149028,4,1,0,90,0,0
262620,-94.8338321592905,4,1,0,90,0,0
262698,-94.5219787231026,4,1,0,90,0,0
262776,-94.2120808151229,4,1,0,90,0,0
262854,-93.9042964971819,4,1,0,90,0,0
262932,-93.5984290439669,4,1,0,90,0,0
263011,-93.2945476800445,4,1,0,90,0,0
263089,-92.9927195999825,4,1,0,90,0,0
263167,-92.692752261008,4,1,0,90,0,0
263245,-92.394799281538,4,1,0,90,0,0
263323,-92.0986708319825,4,1,0,90,0,0
263401,-91.8045188020245,4,1,0,90,0,0
263479,-91.5121560172446,4,1,0,90,0,0
263557,-91.2217326655903,4,1,0,90,0,0
263636,-90.9330641714634,4,1,0,90,0,0
263870,-109.89010989011,4,1,0,90,0,0
263948,-108.432938022986,4,1,0,90,0,0
264104,-105.631422390481,4,1,0,90,0,0
264182,-104.2843124066,4,1,0,90,0,0
264261,-102.971128954864,4,1,0,90,0,0
264339,-101.690502920551,4,1,0,90,0,0
264417,-100.441440129369,4,1,0,90,0,0
264495,-99.2226894508421,4,1,0,90,0,0
264573,-98.0330645920256,4,1,0,90,0,0
264625,-97.2557349275493,4,1,0,90,0,0
264677,-96.490728688334,4,1,0,90,0,0
264729,-95.7375718271133,4,1,0,90,0,0
264781,-94.9960814116418,4,1,0,90,0,0
264833,-94.2659884543017,4,1,0,90,0,0
264886,-93.5470321736308,4,1,0,90,0,0
265198,-93.5470321736308,4,1,0,90,0,1
284156,-93.4579439252336,4,1,0,90,0,1
284208,-93.1497661940869,4,1,0,90,0,1
284261,-92.8436142162142,4,1,0,90,0,1
284339,-92.3882264139787,4,1,0,90,0,1
284417,-91.9371995377398,4,1,0,90,0,1
284495,-91.4905549725574,4,1,0,90,0,1
284573,-91.048229157467,4,1,0,90,0,1
284651,-90.6102418568576,4,1,0,90,0,1
284729,-90.1763669384582,4,1,0,90,0,1
284807,-89.7466273217453,4,1,0,90,0,1
284886,-89.3209641662156,4,1,0,90,0,1
304886,-89.3209641662156,4,1,0,90,0,0
305198,-90.0900900900901,4,1,0,55,0,0
305354,-91.3104418055727,4,1,0,55,0,0
305667,-92.1239546234249,4,1,0,55,0,0
305823,-92.5362140473675,4,1,0,55,0,0
305979,-92.952093420572,4,1,0,55,0,0
306292,-93.7952562111219,4,1,0,55,0,0
306448,-94.2226443396689,4,1,0,55,0,0
306604,-94.6538555828264,4,1,0,55,0,0
306917,-95.5283193702773,4,1,0,55,0,0
307073,-95.9716845142009,4,1,0,55,0,0
307229,-96.4190913657668,4,1,0,55,0,0
307542,-97.3266320702932,4,1,0,55,0,0
307698,-97.7867915469186,4,1,0,55,0,0
307854,-98.251419487383,4,1,0,55,0,0
308011,-98.720386352104,4,1,0,55,0,0
308323,-99.6719795154148,4,1,0,55,0,0
308792,-101.134322561854,4,1,0,55,0,0
308948,-101.631283735234,4,1,0,55,0,0
309104,-102.13325734619,4,1,0,55,0,0
309261,-102.640108880628,4,1,0,55,0,0
309417,-103.152016157732,4,1,0,55,0,0
309573,-103.66916267454,4,1,0,55,0,0
309886,-104.719059706619,4,1,0,55,0,0
310042,-105.251967948671,4,1,0,55,0,0
310198,-105.790439717963,4,1,0,55,0,0
310354,-106.334336420574,4,1,0,55,0,0
310667,-107.439197472171,4,1,0,55,0,0
310979,-108.56725958866,4,1,0,55,0,0
311292,-109.719261326045,4,1,0,55,0,0
311448,-110.304418133164,4,1,0,55,0,0
311604,-110.895972923639,4,1,0,55,0,0
311761,-111.493782549216,4,1,0,55,0,0
312073,-112.709075334746,4,1,0,55,0,0
312229,-113.326775490592,4,1,0,55,0,0
312386,-113.951153698456,4,1,0,55,0,0
312542,-114.582581385143,4,1,0,55,0,0
312698,-115.220913056603,4,1,0,55,0,0
312854,-115.866531025581,4,1,0,55,0,0
313167,-117.179443913231,4,1,0,55,0,0
313479,-118.522592183909,4,1,0,55,0,0
313557,-118.863239522503,4,1,0,55,0,0
313636,-119.205850623149,4,1,0,55,0,0
313792,-119.896888675739,4,1,0,55,0,0
313948,-120.59613079374,4,1,0,55,0,0
314104,-121.303429611865,4,1,0,55,0,0
314261,-122.019222908377,4,1,0,55,0,0
314417,-122.743363266348,4,1,0,55,0,0
314573,-123.476302428038,4,1,0,55,0,0
314651,-123.845910917636,4,1,0,55,0,0
314729,-124.217893090628,4,1,0,55,0,0
314807,-124.592116558417,4,1,0,55,0,0
314886,-124.968601638838,4,1,0,55,0,0
324182,-123.456790123457,4,1,0,55,0,0
324261,-121.951219512195,4,1,0,55,0,0
324339,-120.481927710843,4,1,0,55,0,0
324417,-119.047619047619,4,1,0,55,0,0
324495,-117.647058823529,4,1,0,55,0,0
324573,-116.279069767442,4,1,0,55,0,0
324651,-114.942528735632,4,1,0,55,0,0
324729,-113.636363636364,4,1,0,55,0,0
324807,-112.359550561798,4,1,0,55,0,0

[Colours]
Combo1 : 196,136,255
Combo2 : 255,202,228
Combo3 : 225,196,255
Combo4 : 255,136,196

[HitObjects]
256,192,1136,5,0,0:0:0:0:
256,192,1292,1,8,0:0:0:0:
256,192,1448,1,0,0:0:0:0:
256,192,1604,1,8,0:0:0:0:
256,192,1917,1,0,0:0:0:0:
256,192,2229,1,8,0:0:0:0:
256,192,2542,1,8,0:0:0:0:
256,192,2698,1,0,0:0:0:0:
256,192,2854,1,0,0:0:0:0:
256,192,3167,1,8,0:0:0:0:
256,192,3479,1,0,0:0:0:0:
256,192,3792,1,0,0:0:0:0:
256,192,3948,1,8,0:0:0:0:
256,192,4104,1,8,0:0:0:0:
256,192,4573,1,0,0:0:0:0:
256,192,5042,1,8,0:0:0:0:
256,192,5198,1,0,0:0:0:0:
256,192,5354,1,0,0:0:0:0:
256,192,5511,1,8,0:0:0:0:
256,192,5667,1,0,0:0:0:0:
256,192,5823,1,8,0:0:0:0:
256,192,5979,1,8,0:0:0:0:
256,192,6136,1,0,0:0:0:0:
256,192,6292,1,8,0:0:0:0:
256,192,6448,1,0,0:0:0:0:
256,192,6604,1,8,0:0:0:0:
256,192,6917,1,0,0:0:0:0:
256,192,7229,1,8,0:0:0:0:
256,192,7542,1,8,0:0:0:0:
256,192,7698,1,0,0:0:0:0:
256,192,7854,1,0,0:0:0:0:
256,192,8167,1,8,0:0:0:0:
256,192,8479,1,0,0:0:0:0:
256,192,8792,1,8,0:0:0:0:
256,192,8948,1,0,0:0:0:0:
256,192,9104,1,8,0:0:0:0:
256,192,9573,1,0,0:0:0:0:
256,192,10042,1,8,0:0:0:0:
256,192,10198,1,0,0:0:0:0:
256,192,10354,1,0,0:0:0:0:
256,192,10511,1,8,0:0:0:0:
256,192,10667,1,8,0:0:0:0:
256,192,10823,1,0,0:0:0:0:
256,192,10979,1,8,0:0:0:0:
256,192,11136,1,4,0:0:0:0:
256,192,11448,1,0,0:0:0:0:
256,192,11604,1,8,0:0:0:0:
256,192,11917,1,0,0:0:0:0:
256,192,12073,1,8,0:0:0:0:
256,192,12229,1,8,0:0:0:0:
256,192,12542,1,8,0:0:0:0:
256,192,12698,1,0,0:0:0:0:
256,192,12854,1,0,0:0:0:0:
256,192,13167,1,8,0:0:0:0:
256,192,13323,1,8,0:0:0:0:
256,192,13479,1,0,0:0:0:0:
256,192,13792,1,8,0:0:0:0:
256,192,13948,1,0,0:0:0:0:
256,192,14104,1,8,0:0:0:0:
256,192,14573,1,0,0:0:0:0:
256,192,15042,1,8,0:0:0:0:
256,192,15198,1,0,0:0:0:0:
256,192,15354,1,0,0:0:0:0:
256,192,15511,1,8,0:0:0:0:
256,192,15667,1,0,0:0:0:0:
256,192,15823,1,8,0:0:0:0:
256,192,16136,1,0,0:0:0:0:
256,192,16292,1,0,0:0:0:0:
256,192,16448,1,0,0:0:0:0:
256,192,16604,1,8,0:0:0:0:
256,192,16917,1,0,0:0:0:0:
256,192,17229,1,8,0:0:0:0:
256,192,17542,1,8,0:0:0:0:
256,192,17698,1,0,0:0:0:0:
256,192,17854,1,0,0:0:0:0:
256,192,18167,1,0,0:0:0:0:
256,192,18323,1,8,0:0:0:0:
256,192,18479,1,8,0:0:0:0:
256,192,18636,1,0,0:0:0:0:
256,192,18792,1,8,0:0:0:0:
256,192,18948,1,8,0:0:0:0:
256,192,19104,1,0,0:0:0:0:
256,192,19417,1,8,0:0:0:0:
256,192,19729,5,8,0:0:0:0:
256,192,19807,1,8,0:0:0:0:
256,192,19886,1,0,0:0:0:0:
256,192,20042,1,8,0:0:0:0:
256,192,20198,1,0,0:0:0:0:
256,192,20354,1,0,0:0:0:0:
256,192,20511,1,8,0:0:0:0:
256,192,20667,1,0,0:0:0:0:
256,192,20823,1,0,0:0:0:0:
256,192,20901,1,0,0:0:0:0:
256,192,20979,1,8,0:0:0:0:
256,192,21057,1,8,0:0:0:0:
256,192,21136,1,0,0:0:0:0:
256,192,21292,1,0,0:0:0:0:
256,192,21448,1,8,0:0:0:0:
256,192,21604,1,0,0:0:0:0:
256,192,21917,1,0,0:0:0:0:
256,192,22073,1,0,0:0:0:0:
256,192,22229,1,8,0:0:0:0:
256,192,22542,1,8,0:0:0:0:
256,192,22698,1,0,0:0:0:0:
256,192,22854,1,0,0:0:0:0:
256,192,23167,1,8,0:0:0:0:
256,192,23323,1,0,0:0:0:0:
256,192,23479,1,8,0:0:0:0:
256,192,23792,1,0,0:0:0:0:
256,192,23948,1,8,0:0:0:0:
256,192,24104,1,8,0:0:0:0:
256,192,24573,1,0,0:0:0:0:
256,192,25042,1,8,0:0:0:0:
256,192,25198,1,0,0:0:0:0:
256,192,25354,1,0,0:0:0:0:
256,192,25511,1,8,0:0:0:0:
256,192,25667,1,0,0:0:0:0:
256,192,25823,1,8,0:0:0:0:
256,192,26136,1,0,0:0:0:0:
256,192,26292,1,0,0:0:0:0:
256,192,26448,1,8,0:0:0:0:
256,192,26604,1,8,0:0:0:0:
256,192,26917,1,0,0:0:0:0:
256,192,27229,1,8,0:0:0:0:
256,192,27386,1,0,0:0:0:0:
256,192,27542,1,8,0:0:0:0:
256,192,27854,1,8,0:0:0:0:
256,192,28167,1,0,0:0:0:0:
256,192,28323,1,8,0:0:0:0:
256,192,28479,1,8,0:0:0:0:
256,192,28636,1,0,0:0:0:0:
256,192,28792,1,0,0:0:0:0:
256,192,28948,1,8,0:0:0:0:
256,192,29104,1,8,0:0:0:0:
256,192,29417,1,8,0:0:0:0:
256,192,29573,1,0,0:0:0:0:
256,192,29729,1,0,0:0:0:0:
256,192,29886,1,8,0:0:0:0:
256,192,30042,1,0,0:0:0:0:
256,192,30354,1,0,0:0:0:0:
256,192,30432,1,0,0:0:0:0:
256,192,30511,1,8,0:0:0:0:
256,192,30589,1,8,0:0:0:0:
256,192,30667,1,0,0:0:0:0:
256,192,30745,1,0,0:0:0:0:
256,192,30823,1,8,0:0:0:0:
256,192,30901,1,0,0:0:0:0:
256,192,30979,1,8,0:0:0:0:
256,192,31057,1,8,0:0:0:0:
256,192,31136,5,0,0:0:0:0:
256,192,31448,1,8,0:0:0:0:
256,192,31604,1,0,0:0:0:0:
256,192,32698,1,0,0:0:0:0:
256,192,33011,1,8,0:0:0:0:
256,192,33323,1,8,0:0:0:0:
256,192,33636,1,0,0:0:0:0:
256,192,33948,1,8,0:0:0:0:
256,192,34104,1,0,0:0:0:0:
256,192,34417,1,0,0:0:0:0:
256,192,34573,1,8,0:0:0:0:
256,192,34886,1,0,0:0:0:0:
256,192,35823,1,8,0:0:0:0:
256,192,36136,1,0,0:0:0:0:
256,192,36448,1,0,0:0:0:0:
256,192,36604,1,8,0:0:0:0:
256,192,37073,1,8,0:0:0:0:
256,192,37386,1,0,0:0:0:0:
256,192,38011,1,8,0:0:0:0:
256,192,38636,1,0,0:0:0:0:
256,192,38688,1,0,0:0:0:0:
256,192,38714,1,8,0:0:0:0:
256,192,39886,1,0,0:0:0:0:
256,192,39964,1,8,0:0:0:0:
256,192,39990,1,8,0:0:0:0:
256,192,41136,1,0,0:0:0:0:
256,192,41448,1,0,0:0:0:0:
256,192,41604,1,8,0:0:0:0:
256,192,42698,1,0,0:0:0:0:
256,192,43011,1,8,0:0:0:0:
256,192,43323,1,8,0:0:0:0:
256,192,43636,1,8,0:0:0:0:
256,192,43948,1,0,0:0:0:0:
256,192,44104,1,0,0:0:0:0:
256,192,44417,1,8,0:0:0:0:
256,192,44573,1,0,0:0:0:0:
256,192,44886,1,8,0:0:0:0:
256,192,45823,1,0,0:0:0:0:
256,192,46136,1,8,0:0:0:0:
256,192,46448,1,8,0:0:0:0:
256,192,46604,1,0,0:0:0:0:
256,192,47073,1,0,0:0:0:0:
256,192,47386,1,8,0:0:0:0:
256,192,48011,1,8,0:0:0:0:
256,192,48636,1,0,0:0:0:0:
256,192,49573,1,0,0:0:0:0:
256,192,49886,1,8,0:0:0:0:
256,192,50511,1,8,0:0:0:0:
256,192,50667,1,8,0:0:0:0:
256,192,50823,1,0,0:0:0:0:
256,192,50979,1,0,0:0:0:0:
256,192,51136,1,0,0:0:0:0:
256,192,51761,1,0,0:0:0:0:
256,192,52386,1,8,0:0:0:0:
256,192,52698,1,0,0:0:0:0:
256,192,53011,1,8,0:0:0:0:
256,192,53323,1,8,0:0:0:0:
256,192,53636,1,0,0:0:0:0:
256,192,54573,1,0,0:0:0:0:
256,192,54886,1,8,0:0:0:0:
256,192,56761,1,0,0:0:0:0:
256,192,57386,1,8,0:0:0:0:
256,192,57698,1,0,0:0:0:0:
256,192,58011,1,0,0:0:0:0:
256,192,58323,1,8,0:0:0:0:
256,192,58636,1,8,0:0:0:0:
256,192,59573,1,8,0:0:0:0:
256,192,59886,1,0,0:0:0:0:
256,192,60823,1,0,0:0:0:0:
256,192,61136,1,8,0:0:0:0:
256,192,62073,1,8,0:0:0:0:
256,192,62386,1,0,0:0:0:0:
256,192,62854,1,8,0:0:0:0:
256,192,63323,1,8,0:0:0:0:
256,192,63636,1,0,0:0:0:0:
256,192,64573,1,0,0:0:0:0:
256,192,64886,1,8,0:0:0:0:
256,192,65354,1,8,0:0:0:0:
256,192,65823,1,8,0:0:0:0:
256,192,65979,1,8,0:0:0:0:
256,192,66136,1,0,0:0:0:0:
256,192,66448,1,0,0:0:0:0:
256,192,66604,1,8,0:0:0:0:
256,192,68323,1,0,0:0:0:0:
256,192,68479,1,0,0:0:0:0:
256,192,68636,1,8,0:0:0:0:
256,192,68948,1,8,0:0:0:0:
256,192,69104,1,8,0:0:0:0:
256,192,70511,1,8,0:0:0:0:
256,192,71136,1,0,0:0:0:0:
256,192,71761,1,8,0:0:0:0:
256,192,71917,12,0,73636,0:0:0:0:
256,192,74886,5,4,0:0:0:0:
256,192,75823,1,0,0:0:0:0:
256,192,76136,1,8,0:0:0:0:
256,192,76761,1,8,0:0:0:0:
256,192,77386,1,0,0:0:0:0:
256,192,77854,1,0,0:0:0:0:
256,192,78011,1,8,0:0:0:0:
256,192,79261,1,0,0:0:0:0:
256,192,79573,1,0,0:0:0:0:
256,192,79886,1,8,0:0:0:0:
256,192,80823,1,0,0:0:0:0:
256,192,81136,1,8,0:0:0:0:
256,192,81761,1,8,0:0:0:0:
256,192,82386,1,8,0:0:0:0:
256,192,82698,1,8,0:0:0:0:
256,192,82854,1,0,0:0:0:0:
256,192,83011,1,0,0:0:0:0:
256,192,84261,5,0,0:0:0:0:
256,192,84573,1,8,0:0:0:0:
256,192,84886,5,0,0:0:0:0:
256,192,85198,1,0,0:0:0:0:
256,192,85511,1,0,0:0:0:0:
256,192,85823,1,8,0:0:0:0:
256,192,86136,1,8,0:0:0:0:
256,192,86448,1,0,0:0:0:0:
256,192,86761,1,8,0:0:0:0:
256,192,87073,1,0,0:0:0:0:
256,192,87386,1,8,0:0:0:0:
256,192,87698,1,0,0:0:0:0:
256,192,87854,1,8,0:0:0:0:
256,192,88011,1,8,0:0:0:0:
256,192,88323,1,0,0:0:0:0:
256,192,88636,1,0,0:0:0:0:
256,192,88948,1,0,0:0:0:0:
256,192,89261,1,8,0:0:0:0:
256,192,89573,1,0,0:0:0:0:
256,192,89886,1,8,0:0:0:0:
256,192,90042,1,0,0:0:0:0:
256,192,90198,1,8,0:0:0:0:
256,192,90354,1,8,0:0:0:0:
256,192,90511,1,0,0:0:0:0:
256,192,90667,1,0,0:0:0:0:
256,192,90823,1,8,0:0:0:0:
256,192,90979,1,0,0:0:0:0:
256,192,91136,1,8,0:0:0:0:
256,192,91292,1,0,0:0:0:0:
256,192,91448,1,0,0:0:0:0:
256,192,91604,1,0,0:0:0:0:
256,192,91761,1,8,0:0:0:0:
256,192,91917,1,0,0:0:0:0:
256,192,92073,1,0,0:0:0:0:
256,192,92229,1,0,0:0:0:0:
256,192,92386,1,8,0:0:0:0:
256,192,92464,1,8,0:0:0:0:
256,192,92542,1,0,0:0:0:0:
256,192,92620,1,0,0:0:0:0:
256,192,92698,1,0,0:0:0:0:
256,192,92776,1,0,0:0:0:0:
256,192,92854,1,8,0:0:0:0:
256,192,92932,1,0,0:0:0:0:
256,192,93011,1,8,0:0:0:0:
256,192,93089,1,8,0:0:0:0:
256,192,93167,1,8,0:0:0:0:
256,192,93245,1,0,0:0:0:0:
256,192,93323,1,8,0:0:0:0:
256,192,93401,1,8,0:0:0:0:
256,192,93479,1,0,0:0:0:0:
256,192,93557,1,0,0:0:0:0:
256,192,93636,1,8,0:0:0:0:
256,192,93870,5,8,0:0:0:0:
256,192,93948,1,8,0:0:0:0:
256,192,94104,1,0,0:0:0:0:
256,192,94182,1,0,0:0:0:0:
256,192,94261,1,8,0:0:0:0:
256,192,94339,1,0,0:0:0:0:
256,192,94417,1,8,0:0:0:0:
256,192,94495,1,8,0:0:0:0:
256,192,94573,1,0,0:0:0:0:
256,192,94625,1,0,0:0:0:0:
256,192,94677,1,0,0:0:0:0:
256,192,94729,1,0,0:0:0:0:
256,192,94781,1,0,0:0:0:0:
256,192,94833,1,0,0:0:0:0:
256,192,94886,1,8,0:0:0:0:
256,192,95198,1,8,0:0:0:0:
256,192,95432,1,0,0:0:0:0:
256,192,95511,1,8,0:0:0:0:
256,192,95667,1,0,0:0:0:0:
256,192,95745,1,0,0:0:0:0:
256,192,95823,1,8,0:0:0:0:
256,192,95979,1,8,0:0:0:0:
256,192,96136,1,0,0:0:0:0:
256,192,96292,1,0,0:0:0:0:
256,192,96448,1,8,0:0:0:0:
256,192,96604,1,8,0:0:0:0:
256,192,96682,1,0,0:0:0:0:
256,192,96761,1,0,0:0:0:0:
256,192,96917,1,0,0:0:0:0:
256,192,97073,1,8,0:0:0:0:
256,192,97229,1,8,0:0:0:0:
256,192,97307,1,8,0:0:0:0:
256,192,97386,1,0,0:0:0:0:
256,192,97620,1,0,0:0:0:0:
256,192,97698,1,8,0:0:0:0:
256,192,97854,1,0,0:0:0:0:
256,192,97932,1,8,0:0:0:0:
256,192,98011,1,0,0:0:0:0:
256,192,98167,1,0,0:0:0:0:
256,192,98323,1,0,0:0:0:0:
256,192,98479,1,8,0:0:0:0:
256,192,98636,1,8,0:0:0:0:
256,192,98714,1,8,0:0:0:0:
256,192,98792,1,0,0:0:0:0:
256,192,98870,1,0,0:0:0:0:
256,192,98948,1,8,0:0:0:0:
256,192,99182,1,0,0:0:0:0:
256,192,99261,1,8,0:0:0:0:
256,192,99339,1,8,0:0:0:0:
256,192,99417,1,0,0:0:0:0:
256,192,99573,1,8,0:0:0:0:
256,192,99651,1,8,0:0:0:0:
256,192,99729,1,0,0:0:0:0:
256,192,99807,1,8,0:0:0:0:
256,192,99886,1,0,0:0:0:0:
256,192,100042,1,0,0:0:0:0:
256,192,100198,1,8,0:0:0:0:
256,192,100354,1,0,0:0:0:0:
256,192,100432,1,0,0:0:0:0:
256,192,100511,1,8,0:0:0:0:
256,192,100667,1,0,0:0:0:0:
256,192,100823,1,8,0:0:0:0:
256,192,100979,1,8,0:0:0:0:
256,192,101057,1,8,0:0:0:0:
256,192,101136,1,0,0:0:0:0:
256,192,101292,1,0,0:0:0:0:
256,192,101448,1,8,0:0:0:0:
256,192,101682,1,0,0:0:0:0:
256,192,101761,1,8,0:0:0:0:
256,192,101917,1,0,0:0:0:0:
256,192,102073,1,8,0:0:0:0:
256,192,102229,1,8,0:0:0:0:
256,192,102307,1,0,0:0:0:0:
256,192,102386,1,8,0:0:0:0:
256,192,102620,1,0,0:0:0:0:
256,192,102698,1,8,0:0:0:0:
256,192,102854,1,0,0:0:0:0:
256,192,102932,1,0,0:0:0:0:
256,192,103011,1,0,0:0:0:0:
256,192,103167,1,0,0:0:0:0:
256,192,103245,1,8,0:0:0:0:
256,192,103323,1,0,0:0:0:0:
256,192,103479,1,8,0:0:0:0:
256,192,103714,1,8,0:0:0:0:
256,192,103792,1,0,0:0:0:0:
256,192,103870,1,0,0:0:0:0:
256,192,103948,1,8,0:0:0:0:
256,192,104104,1,0,0:0:0:0:
256,192,104182,1,0,0:0:0:0:
256,192,104261,1,8,0:0:0:0:
256,192,104339,1,0,0:0:0:0:
256,192,104417,1,0,0:0:0:0:
256,192,104573,1,8,0:0:0:0:
256,192,104651,1,8,0:0:0:0:
256,192,104729,1,8,0:0:0:0:
256,192,104807,1,8,0:0:0:0:
256,192,104886,1,0,0:0:0:0:
256,192,105042,1,0,0:0:0:0:
256,192,105198,1,8,0:0:0:0:
256,192,105354,1,0,0:0:0:0:
256,192,105432,1,0,0:0:0:0:
256,192,105511,1,8,0:0:0:0:
256,192,105667,1,0,0:0:0:0:
256,192,105823,1,8,0:0:0:0:
256,192,105979,1,8,0:0:0:0:
256,192,106057,1,8,0:0:0:0:
256,192,106136,1,0,0:0:0:0:
256,192,106292,1,0,0:0:0:0:
256,192,106448,1,8,0:0:0:0:
256,192,106604,1,0,0:0:0:0:
256,192,106682,1,8,0:0:0:0:
256,192,106761,1,8,0:0:0:0:
256,192,106917,1,0,0:0:0:0:
256,192,107073,1,8,0:0:0:0:
256,192,107151,1,0,0:0:0:0:
256,192,107229,1,0,0:0:0:0:
256,192,107307,1,8,0:0:0:0:
256,192,107386,1,0,0:0:0:0:
256,192,107542,1,0,0:0:0:0:
256,192,107698,1,8,0:0:0:0:
256,192,107932,1,0,0:0:0:0:
256,192,108011,1,8,0:0:0:0:
256,192,108167,1,0,0:0:0:0:
256,192,108323,1,0,0:0:0:0:
256,192,108479,1,8,0:0:0:0:
256,192,108714,1,0,0:0:0:0:
256,192,108792,1,8,0:0:0:0:
256,192,108870,1,0,0:0:0:0:
256,192,108948,1,8,0:0:0:0:
256,192,109104,1,0,0:0:0:0:
256,192,109182,1,0,0:0:0:0:
256,192,109261,1,8,0:0:0:0:
256,192,109339,1,0,0:0:0:0:
256,192,109417,1,0,0:0:0:0:
256,192,109573,1,8,0:0:0:0:
256,192,109651,1,0,0:0:0:0:
256,192,109729,1,8,0:0:0:0:
256,192,109807,1,8,0:0:0:0:
256,192,109886,1,0,0:0:0:0:
256,192,110120,1,0,0:0:0:0:
256,192,110198,1,8,0:0:0:0:
256,192,110354,1,0,0:0:0:0:
256,192,110511,1,8,0:0:0:0:
256,192,110589,1,8,0:0:0:0:
256,192,110667,1,0,0:0:0:0:
256,192,110823,1,8,0:0:0:0:
256,192,110979,1,0,0:0:0:0:
256,192,111292,1,0,0:0:0:0:
256,192,111448,1,8,0:0:0:0:
256,192,111604,1,0,0:0:0:0:
256,192,111682,1,8,0:0:0:0:
256,192,111761,1,0,0:0:0:0:
256,192,111839,1,8,0:0:0:0:
256,192,111917,1,0,0:0:0:0:
256,192,112073,1,8,0:0:0:0:
256,192,112229,1,8,0:0:0:0:
256,192,112307,1,0,0:0:0:0:
256,192,112386,1,0,0:0:0:0:
256,192,112542,1,0,0:0:0:0:
256,192,112620,1,0,0:0:0:0:
256,192,112698,1,8,0:0:0:0:
256,192,112854,1,0,0:0:0:0:
256,192,112932,1,0,0:0:0:0:
256,192,113011,1,8,0:0:0:0:
256,192,113089,1,8,0:0:0:0:
256,192,113167,1,0,0:0:0:0:
256,192,113323,1,0,0:0:0:0:
256,192,113479,1,8,0:0:0:0:
256,192,113636,1,0,0:0:0:0:
256,192,113792,1,0,0:0:0:0:
256,192,113870,1,0,0:0:0:0:
256,192,113948,1,8,0:0:0:0:
256,192,114104,1,0,0:0:0:0:
256,192,114156,1,0,0:0:0:0:
256,192,114208,1,0,0:0:0:0:
256,192,114261,1,8,0:0:0:0:
256,192,114339,1,8,0:0:0:0:
256,192,114417,1,0,0:0:0:0:
256,192,114495,1,8,0:0:0:0:
256,192,114573,1,0,0:0:0:0:
256,192,114651,1,0,0:0:0:0:
256,192,114729,1,8,0:0:0:0:
256,192,114807,1,8,0:0:0:0:
256,192,114886,5,0,0:0:0:0:
256,192,115198,1,8,0:0:0:0:
256,192,115354,1,0,0:0:0:0:
256,192,115667,1,0,0:0:0:0:
256,192,115823,1,8,0:0:0:0:
256,192,116292,1,0,0:0:0:0:
256,192,116448,1,8,0:0:0:0:
256,192,116604,1,0,0:0:0:0:
256,192,116682,1,8,0:0:0:0:
256,192,116761,1,0,0:0:0:0:
256,192,116917,1,0,0:0:0:0:
256,192,117073,1,8,0:0:0:0:
256,192,117229,1,8,0:0:0:0:
256,192,117386,1,0,0:0:0:0:
256,192,117698,1,8,0:0:0:0:
256,192,117854,1,0,0:0:0:0:
256,192,118167,1,0,0:0:0:0:
256,192,118479,1,8,0:0:0:0:
256,192,118792,1,0,0:0:0:0:
256,192,118948,1,8,0:0:0:0:
256,192,119104,1,0,0:0:0:0:
256,192,119182,1,8,0:0:0:0:
256,192,119261,1,0,0:0:0:0:
256,192,119339,1,8,0:0:0:0:
256,192,119417,1,0,0:0:0:0:
256,192,119573,1,8,0:0:0:0:
256,192,119651,1,8,0:0:0:0:
256,192,119729,1,0,0:0:0:0:
256,192,119807,1,0,0:0:0:0:
256,192,119886,1,0,0:0:0:0:
256,192,120198,1,8,0:0:0:0:
256,192,120354,1,0,0:0:0:0:
256,192,120667,1,0,0:0:0:0:
256,192,120823,1,8,0:0:0:0:
256,192,121057,1,8,0:0:0:0:
256,192,121136,1,0,0:0:0:0:
256,192,121292,1,0,0:0:0:0:
256,192,121448,1,8,0:0:0:0:
256,192,121604,1,0,0:0:0:0:
256,192,121682,1,0,0:0:0:0:
256,192,121761,1,0,0:0:0:0:
256,192,121917,1,0,0:0:0:0:
256,192,122073,1,8,0:0:0:0:
256,192,122229,1,8,0:0:0:0:
256,192,122307,1,8,0:0:0:0:
256,192,122386,1,0,0:0:0:0:
256,192,122698,1,8,0:0:0:0:
256,192,122854,1,0,0:0:0:0:
256,192,123167,1,0,0:0:0:0:
256,192,123479,1,8,0:0:0:0:
256,192,123636,1,0,0:0:0:0:
256,192,123792,1,0,0:0:0:0:
256,192,123948,1,8,0:0:0:0:
256,192,124104,1,0,0:0:0:0:
256,192,124182,1,0,0:0:0:0:
256,192,124261,1,8,0:0:0:0:
256,192,124339,1,0,0:0:0:0:
256,192,124417,1,0,0:0:0:0:
256,192,124573,1,8,0:0:0:0:
256,192,124651,1,8,0:0:0:0:
256,192,124729,1,8,0:0:0:0:
256,192,124807,1,8,0:0:0:0:
256,192,124886,1,0,0:0:0:0:
256,192,125198,1,8,0:0:0:0:
256,192,125432,1,8,0:0:0:0:
256,192,125511,1,0,0:0:0:0:
256,192,125667,1,0,0:0:0:0:
256,192,125823,1,8,0:0:0:0:
256,192,126057,1,0,0:0:0:0:
256,192,126136,1,0,0:0:0:0:
256,192,126292,1,0,0:0:0:0:
256,192,126448,1,8,0:0:0:0:
256,192,126604,1,0,0:0:0:0:
256,192,126682,1,0,0:0:0:0:
256,192,126761,1,0,0:0:0:0:
256,192,126917,1,0,0:0:0:0:
256,192,127073,1,8,0:0:0:0:
256,192,127229,1,8,0:0:0:0:
256,192,127307,1,8,0:0:0:0:
256,192,127386,1,0,0:0:0:0:
256,192,127698,1,8,0:0:0:0:
256,192,127932,1,0,0:0:0:0:
256,192,128011,1,8,0:0:0:0:
256,192,128167,1,0,0:0:0:0:
256,192,128479,1,8,0:0:0:0:
256,192,128636,1,8,0:0:0:0:
256,192,128792,1,0,0:0:0:0:
256,192,128948,1,8,0:0:0:0:
256,192,129104,1,0,0:0:0:0:
256,192,129182,1,8,0:0:0:0:
256,192,129261,1,0,0:0:0:0:
256,192,129339,1,8,0:0:0:0:
256,192,129417,1,0,0:0:0:0:
256,192,129573,1,8,0:0:0:0:
256,192,129651,1,8,0:0:0:0:
256,192,129729,1,8,0:0:0:0:
256,192,129807,1,0,0:0:0:0:
256,192,129886,1,0,0:0:0:0:
256,192,130120,1,0,0:0:0:0:
256,192,130198,1,8,0:0:0:0:
256,192,130354,1,0,0:0:0:0:
256,192,130667,1,0,0:0:0:0:
256,192,130823,1,8,0:0:0:0:
256,192,130979,1,0,0:0:0:0:
256,192,131057,1,0,0:0:0:0:
256,192,131136,1,0,0:0:0:0:
256,192,131292,1,0,0:0:0:0:
256,192,131448,1,8,0:0:0:0:
256,192,131604,1,0,0:0:0:0:
256,192,131682,1,8,0:0:0:0:
256,192,131761,1,8,0:0:0:0:
256,192,131839,1,0,0:0:0:0:
256,192,131917,1,0,0:0:0:0:
256,192,132073,1,8,0:0:0:0:
256,192,132229,1,8,0:0:0:0:
256,192,132307,1,8,0:0:0:0:
256,192,132386,1,0,0:0:0:0:
256,192,132620,1,0,0:0:0:0:
256,192,132698,1,8,0:0:0:0:
256,192,132854,1,8,0:0:0:0:
256,192,132932,1,8,0:0:0:0:
256,192,133011,1,0,0:0:0:0:
256,192,133167,1,0,0:0:0:0:
256,192,133479,1,8,0:0:0:0:
256,192,133636,1,0,0:0:0:0:
256,192,133792,1,0,0:0:0:0:
256,192,133948,1,8,0:0:0:0:
256,192,134104,1,0,0:0:0:0:
256,192,134182,1,0,0:0:0:0:
256,192,134261,1,8,0:0:0:0:
256,192,134339,1,8,0:0:0:0:
256,192,134417,1,0,0:0:0:0:
256,192,134573,1,8,0:0:0:0:
256,192,134651,1,8,0:0:0:0:
256,192,134729,1,8,0:0:0:0:
256,192,134807,1,8,0:0:0:0:
256,192,134886,5,0,0:0:0:0:
256,192,139886,5,0,0:0:0:0:
256,192,140198,1,8,0:0:0:0:
256,192,140667,1,0,0:0:0:0:
256,192,140823,1,8,0:0:0:0:
256,192,141292,1,0,0:0:0:0:
256,192,141448,1,8,0:0:0:0:
256,192,141917,1,0,0:0:0:0:
256,192,142073,1,8,0:0:0:0:
256,192,142386,1,0,0:0:0:0:
256,192,142698,1,8,0:0:0:0:
256,192,143167,1,0,0:0:0:0:
256,192,143323,1,0,0:0:0:0:
256,192,143479,1,8,0:0:0:0:
256,192,143792,1,0,0:0:0:0:
256,192,143948,1,8,0:0:0:0:
256,192,144417,1,0,0:0:0:0:
256,192,144573,1,8,0:0:0:0:
256,192,144729,1,0,0:0:0:0:
256,192,144886,1,0,0:0:0:0:
256,192,145198,1,8,0:0:0:0:
256,192,145511,1,0,0:0:0:0:
256,192,145823,1,8,0:0:0:0:
256,192,146136,1,0,0:0:0:0:
256,192,146448,1,0,0:0:0:0:
256,192,146604,1,8,0:0:0:0:
256,192,146761,1,0,0:0:0:0:
256,192,147073,1,8,0:0:0:0:
256,192,147386,1,8,0:0:0:0:
256,192,147698,1,0,0:0:0:0:
256,192,148011,1,0,0:0:0:0:
256,192,148323,1,8,0:0:0:0:
256,192,148636,1,0,0:0:0:0:
256,192,148948,1,8,0:0:0:0:
256,192,149104,1,0,0:0:0:0:
256,192,149261,1,8,0:0:0:0:
256,192,149573,1,0,0:0:0:0:
256,192,149886,1,8,0:0:0:0:
256,192,150198,1,0,0:0:0:0:
256,192,150354,1,0,0:0:0:0:
256,192,150511,1,8,0:0:0:0:
256,192,150823,1,0,0:0:0:0:
256,192,151136,1,8,0:0:0:0:
256,192,151448,1,0,0:0:0:0:
256,192,151761,1,8,0:0:0:0:
256,192,152073,1,8,0:0:0:0:
256,192,152386,1,0,0:0:0:0:
256,192,152542,1,0,0:0:0:0:
256,192,152698,1,8,0:0:0:0:
256,192,152854,1,0,0:0:0:0:
256,192,153011,1,0,0:0:0:0:
256,192,153167,1,0,0:0:0:0:
256,192,153323,1,8,0:0:0:0:
256,192,153479,1,0,0:0:0:0:
256,192,153636,1,0,0:0:0:0:
256,192,153792,1,0,0:0:0:0:
256,192,153948,1,8,0:0:0:0:
256,192,154104,1,8,0:0:0:0:
256,192,154261,1,0,0:0:0:0:
256,192,154417,1,0,0:0:0:0:
256,192,154573,1,8,0:0:0:0:
256,192,154729,1,8,0:0:0:0:
256,192,154886,1,0,0:0:0:0:
256,192,154964,1,0,0:0:0:0:
256,192,155042,1,8,0:0:0:0:
256,192,155120,1,8,0:0:0:0:
256,192,155198,1,0,0:0:0:0:
256,192,155276,1,0,0:0:0:0:
256,192,155354,1,8,0:0:0:0:
256,192,155432,1,0,0:0:0:0:
256,192,155511,1,8,0:0:0:0:
256,192,155589,1,8,0:0:0:0:
256,192,155667,1,0,0:0:0:0:
256,192,155745,1,8,0:0:0:0:
256,192,155823,1,0,0:0:0:0:
256,192,155901,1,0,0:0:0:0:
256,192,155979,1,8,0:0:0:0:
256,192,156057,1,8,0:0:0:0:
256,192,156136,1,0,0:0:0:0:
256,192,156214,8,0,157073,0:0:0:0:
256,192,157229,5,0,0:0:0:0:
256,192,157281,1,0,0:0:0:0:
256,192,157333,1,0,0:0:0:0:
256,192,157386,1,8,0:0:0:0:
256,192,157620,1,8,0:0:0:0:
256,192,157698,1,8,0:0:0:0:
256,192,157854,1,0,0:0:0:0:
256,192,157932,1,8,0:0:0:0:
256,192,158011,1,0,0:0:0:0:
256,192,158089,1,8,0:0:0:0:
256,192,158167,1,0,0:0:0:0:
256,192,158245,1,0,0:0:0:0:
256,192,158323,1,8,0:0:0:0:
256,192,158375,1,8,0:0:0:0:
256,192,158427,1,8,0:0:0:0:
256,192,158479,1,8,0:0:0:0:
256,192,158531,1,8,0:0:0:0:
256,192,158583,1,8,0:0:0:0:
256,192,158636,1,0,0:0:0:0:
256,192,158948,1,8,0:0:0:0:
256,192,159104,1,0,0:0:0:0:
256,192,159182,1,0,0:0:0:0:
256,192,159261,1,0,0:0:0:0:
256,192,159417,1,0,0:0:0:0:
256,192,159573,1,8,0:0:0:0:
256,192,159729,1,8,0:0:0:0:
256,192,159807,1,8,0:0:0:0:
256,192,159886,1,0,0:0:0:0:
256,192,160042,1,0,0:0:0:0:
256,192,160198,1,8,0:0:0:0:
256,192,160354,1,8,0:0:0:0:
256,192,160432,1,0,0:0:0:0:
256,192,160511,1,0,0:0:0:0:
256,192,160667,1,0,0:0:0:0:
256,192,160823,1,8,0:0:0:0:
256,192,160901,1,0,0:0:0:0:
256,192,160979,1,8,0:0:0:0:
256,192,161057,1,8,0:0:0:0:
256,192,161136,1,0,0:0:0:0:
256,192,161370,1,0,0:0:0:0:
256,192,161448,1,8,0:0:0:0:
256,192,161604,1,0,0:0:0:0:
256,192,161682,1,8,0:0:0:0:
256,192,161761,1,0,0:0:0:0:
256,192,161917,1,0,0:0:0:0:
256,192,162073,1,8,0:0:0:0:
256,192,162229,1,0,0:0:0:0:
256,192,162307,1,0,0:0:0:0:
256,192,162386,1,8,0:0:0:0:
256,192,162464,1,8,0:0:0:0:
256,192,162542,1,0,0:0:0:0:
256,192,162698,1,8,0:0:0:0:
256,192,162776,1,8,0:0:0:0:
256,192,162854,1,0,0:0:0:0:
256,192,162932,1,0,0:0:0:0:
256,192,163011,1,8,0:0:0:0:
256,192,163089,1,0,0:0:0:0:
256,192,163167,1,8,0:0:0:0:
256,192,163323,1,8,0:0:0:0:
256,192,163401,1,8,0:0:0:0:
256,192,163479,1,0,0:0:0:0:
256,192,163557,1,8,0:0:0:0:
256,192,163636,1,0,0:0:0:0:
256,192,163792,1,0,0:0:0:0:
256,192,163870,1,0,0:0:0:0:
256,192,163948,1,8,0:0:0:0:
256,192,164104,1,8,0:0:0:0:
256,192,164182,1,0,0:0:0:0:
256,192,164261,1,8,0:0:0:0:
256,192,164339,1,8,0:0:0:0:
256,192,164417,1,0,0:0:0:0:
256,192,164573,1,8,0:0:0:0:
256,192,164729,1,8,0:0:0:0:
256,192,164807,1,8,0:0:0:0:
256,192,164886,1,0,0:0:0:0:
256,192,165042,1,0,0:0:0:0:
256,192,165198,1,8,0:0:0:0:
256,192,165354,1,0,0:0:0:0:
256,192,165432,1,0,0:0:0:0:
256,192,165511,1,0,0:0:0:0:
256,192,165667,1,0,0:0:0:0:
256,192,165823,1,8,0:0:0:0:
256,192,165979,1,8,0:0:0:0:
256,192,166057,1,0,0:0:0:0:
256,192,166136,1,8,0:0:0:0:
256,192,166370,1,0,0:0:0:0:
256,192,166448,1,8,0:0:0:0:
256,192,166604,1,8,0:0:0:0:
256,192,166682,1,0,0:0:0:0:
256,192,166761,1,0,0:0:0:0:
256,192,166917,1,0,0:0:0:0:
256,192,166995,1,8,0:0:0:0:
256,192,167073,1,0,0:0:0:0:
256,192,167229,1,8,0:0:0:0:
256,192,167386,1,8,0:0:0:0:
256,192,167464,1,8,0:0:0:0:
256,192,167542,1,0,0:0:0:0:
256,192,167620,1,0,0:0:0:0:
256,192,167698,1,8,0:0:0:0:
256,192,167854,1,8,0:0:0:0:
256,192,167932,1,0,0:0:0:0:
256,192,168011,1,8,0:0:0:0:
256,192,168089,1,0,0:0:0:0:
256,192,168167,1,0,0:0:0:0:
256,192,168323,1,8,0:0:0:0:
256,192,168401,1,8,0:0:0:0:
256,192,168479,1,8,0:0:0:0:
256,192,168557,1,8,0:0:0:0:
256,192,168636,1,0,0:0:0:0:
256,192,168792,1,0,0:0:0:0:
256,192,168948,1,8,0:0:0:0:
256,192,169104,1,0,0:0:0:0:
256,192,169182,1,0,0:0:0:0:
256,192,169261,1,8,0:0:0:0:
256,192,169417,1,0,0:0:0:0:
256,192,169573,1,8,0:0:0:0:
256,192,169729,1,8,0:0:0:0:
256,192,169807,1,8,0:0:0:0:
256,192,169886,1,0,0:0:0:0:
256,192,170042,1,0,0:0:0:0:
256,192,170198,1,8,0:0:0:0:
256,192,170354,1,0,0:0:0:0:
256,192,170432,1,0,0:0:0:0:
256,192,170511,1,8,0:0:0:0:
256,192,170667,1,0,0:0:0:0:
256,192,170823,1,8,0:0:0:0:
256,192,170901,1,0,0:0:0:0:
256,192,170979,1,8,0:0:0:0:
256,192,171057,1,0,0:0:0:0:
256,192,171136,1,0,0:0:0:0:
256,192,171370,1,0,0:0:0:0:
256,192,171448,1,8,0:0:0:0:
256,192,171604,1,0,0:0:0:0:
256,192,171682,1,0,0:0:0:0:
256,192,171761,1,0,0:0:0:0:
256,192,171917,1,0,0:0:0:0:
256,192,172073,1,8,0:0:0:0:
256,192,172229,1,8,0:0:0:0:
256,192,172386,1,0,0:0:0:0:
256,192,172464,1,0,0:0:0:0:
256,192,172542,1,8,0:0:0:0:
256,192,172620,1,0,0:0:0:0:
256,192,172698,1,8,0:0:0:0:
256,192,172854,1,8,0:0:0:0:
256,192,172932,1,8,0:0:0:0:
256,192,173011,1,8,0:0:0:0:
256,192,173089,1,0,0:0:0:0:
256,192,173167,1,0,0:0:0:0:
256,192,173323,1,8,0:0:0:0:
256,192,173401,1,8,0:0:0:0:
256,192,173479,1,0,0:0:0:0:
256,192,173557,1,0,0:0:0:0:
256,192,173636,1,8,0:0:0:0:
256,192,173792,1,0,0:0:0:0:
256,192,173870,1,8,0:0:0:0:
256,192,173948,1,8,0:0:0:0:
256,192,174104,1,0,0:0:0:0:
256,192,174261,1,8,0:0:0:0:
256,192,174339,1,0,0:0:0:0:
256,192,174417,1,0,0:0:0:0:
256,192,174573,1,8,0:0:0:0:
256,192,174729,1,0,0:0:0:0:
256,192,174807,1,0,0:0:0:0:
256,192,174886,1,8,0:0:0:0:
256,192,175042,1,0,0:0:0:0:
256,192,175198,1,8,0:0:0:0:
256,192,175354,1,0,0:0:0:0:
256,192,175432,1,8,0:0:0:0:
256,192,175511,1,0,0:0:0:0:
256,192,175589,1,8,0:0:0:0:
256,192,175667,1,0,0:0:0:0:
256,192,175823,1,8,0:0:0:0:
256,192,175979,1,0,0:0:0:0:
256,192,176057,1,0,0:0:0:0:
256,192,176136,1,8,0:0:0:0:
256,192,176370,1,0,0:0:0:0:
256,192,176448,1,8,0:0:0:0:
256,192,176604,1,0,0:0:0:0:
256,192,176761,1,8,0:0:0:0:
256,192,176839,1,8,0:0:0:0:
256,192,176917,1,0,0:0:0:0:
256,192,177073,1,0,0:0:0:0:
256,192,177229,1,8,0:0:0:0:
256,192,177386,1,0,0:0:0:0:
256,192,177542,1,0,0:0:0:0:
256,192,177620,1,0,0:0:0:0:
256,192,177698,1,8,0:0:0:0:
256,192,177854,1,0,0:0:0:0:
256,192,177906,1,0,0:0:0:0:
256,192,177958,1,0,0:0:0:0:
256,192,178011,1,8,0:0:0:0:
256,192,178089,1,8,0:0:0:0:
256,192,178167,1,0,0:0:0:0:
256,192,178245,1,8,0:0:0:0:
256,192,178323,1,0,0:0:0:0:
256,192,178401,1,0,0:0:0:0:
256,192,178479,1,8,0:0:0:0:
256,192,178557,1,8,0:0:0:0:
256,192,178636,5,0,0:0:0:0:
256,192,188636,5,0,0:0:0:0:
256,192,188948,1,8,0:0:0:0:
256,192,189417,1,0,0:0:0:0:
256,192,189573,1,8,0:0:0:0:
256,192,190042,1,0,0:0:0:0:
256,192,190198,1,8,0:0:0:0:
256,192,190667,1,0,0:0:0:0:
256,192,190823,1,8,0:0:0:0:
256,192,191136,1,0,0:0:0:0:
256,192,191448,1,8,0:0:0:0:
256,192,191917,1,0,0:0:0:0:
256,192,192229,1,8,0:0:0:0:
256,192,192542,1,0,0:0:0:0:
256,192,192698,1,8,0:0:0:0:
256,192,193167,1,0,0:0:0:0:
256,192,193323,1,8,0:0:0:0:
256,192,193479,1,0,0:0:0:0:
256,192,193636,1,0,0:0:0:0:
256,192,193948,1,8,0:0:0:0:
256,192,194417,1,0,0:0:0:0:
256,192,194573,1,8,0:0:0:0:
256,192,195042,1,0,0:0:0:0:
256,192,195198,1,8,0:0:0:0:
256,192,195667,1,0,0:0:0:0:
256,192,195823,1,8,0:0:0:0:
256,192,196136,1,0,0:0:0:0:
256,192,196448,1,8,0:0:0:0:
256,192,196917,1,0,0:0:0:0:
256,192,197229,1,8,0:0:0:0:
256,192,197542,1,0,0:0:0:0:
256,192,197698,1,8,0:0:0:0:
256,192,198167,1,0,0:0:0:0:
256,192,198323,1,8,0:0:0:0:
256,192,198479,1,0,0:0:0:0:
256,192,198636,1,12,0:0:0:0:
256,192,199261,1,0,0:0:0:0:
256,192,199573,1,0,0:0:0:0:
256,192,199886,1,8,0:0:0:0:
256,192,200198,1,8,0:0:0:0:
256,192,200511,1,0,0:0:0:0:
256,192,200823,1,8,0:0:0:0:
256,192,201136,1,0,0:0:0:0:
256,192,201604,1,8,0:0:0:0:
256,192,201761,1,8,0:0:0:0:
256,192,203323,1,8,0:0:0:0:
256,192,203479,1,8,0:0:0:0:
256,192,203636,1,0,0:0:0:0:
256,192,203948,1,0,0:0:0:0:
256,192,204261,1,8,0:0:0:0:
256,192,204573,1,8,0:0:0:0:
256,192,204886,1,0,0:0:0:0:
256,192,205198,1,8,0:0:0:0:
256,192,205511,1,8,0:0:0:0:
256,192,205823,1,0,0:0:0:0:
256,192,206136,1,0,0:0:0:0:
256,192,206604,1,8,0:0:0:0:
256,192,206761,1,8,0:0:0:0:
256,192,208323,1,0,0:0:0:0:
256,192,208479,1,8,0:0:0:0:
256,192,208636,1,0,0:0:0:0:
256,192,208948,1,8,0:0:0:0:
256,192,209261,1,0,0:0:0:0:
256,192,209573,1,0,0:0:0:0:
256,192,209886,1,8,0:0:0:0:
256,192,210198,1,0,0:0:0:0:
256,192,210511,1,8,0:0:0:0:
256,192,210823,1,8,0:0:0:0:
256,192,211136,1,0,0:0:0:0:
256,192,212073,1,8,0:0:0:0:
256,192,212386,1,0,0:0:0:0:
256,192,213011,1,0,0:0:0:0:
256,192,213323,1,0,0:0:0:0:
256,192,213479,1,0,0:0:0:0:
256,192,213636,1,8,0:0:0:0:
256,192,214104,1,0,0:0:0:0:
256,192,214261,1,8,0:0:0:0:
256,192,215198,1,0,0:0:0:0:
256,192,215511,1,8,0:0:0:0:
256,192,215823,1,0,0:0:0:0:
256,192,216136,1,8,0:0:0:0:
256,192,217966,1,8,0:0:0:0:
256,192,218636,1,0,0:0:0:0:
256,192,224886,5,8,0:0:0:0:
256,192,226136,1,8,0:0:0:0:
256,192,227386,1,0,0:0:0:0:
256,192,228636,1,8,0:0:0:0:
256,192,229886,1,0,0:0:0:0:
256,192,231136,1,0,0:0:0:0:
256,192,232386,1,8,0:0:0:0:
256,192,233636,1,0,0:0:0:0:
256,192,234886,1,8,0:0:0:0:
256,192,236136,1,8,0:0:0:0:
256,192,237386,1,0,0:0:0:0:
256,192,238636,1,8,0:0:0:0:
256,192,239886,1,0,0:0:0:0:
256,192,241136,1,8,0:0:0:0:
256,192,242386,1,0,0:0:0:0:
256,192,243636,1,8,0:0:0:0:
256,192,244261,1,0,0:0:0:0:
256,192,244886,5,12,0:0:0:0:
256,192,245823,1,0,0:0:0:0:
256,192,246136,1,8,0:0:0:0:
256,192,246761,1,8,0:0:0:0:
256,192,247073,1,8,0:0:0:0:
256,192,247386,1,0,0:0:0:0:
256,192,248323,1,0,0:0:0:0:
256,192,248636,1,8,0:0:0:0:
256,192,249261,1,8,0:0:0:0:
256,192,249886,1,0,0:0:0:0:
256,192,250823,1,0,0:0:0:0:
256,192,251136,1,8,0:0:0:0:
256,192,251761,1,8,0:0:0:0:
256,192,252073,1,8,0:0:0:0:
256,192,252386,1,0,0:0:0:0:
256,192,253323,1,0,0:0:0:0:
256,192,253636,1,8,0:0:0:0:
256,192,254261,1,8,0:0:0:0:
256,192,254886,5,0,0:0:0:0:
256,192,255198,1,0,0:0:0:0:
256,192,255511,1,0,0:0:0:0:
256,192,255823,1,8,0:0:0:0:
256,192,256136,1,8,0:0:0:0:
256,192,256448,1,0,0:0:0:0:
256,192,256761,1,8,0:0:0:0:
256,192,257073,1,0,0:0:0:0:
256,192,257386,1,8,0:0:0:0:
256,192,257698,1,0,0:0:0:0:
256,192,257854,1,8,0:0:0:0:
256,192,258011,1,8,0:0:0:0:
256,192,258323,1,0,0:0:0:0:
256,192,258636,1,8,0:0:0:0:
256,192,258948,1,0,0:0:0:0:
256,192,259261,1,8,0:0:0:0:
256,192,259573,1,8,0:0:0:0:
256,192,259886,1,0,0:0:0:0:
256,192,260042,1,0,0:0:0:0:
256,192,260198,1,8,0:0:0:0:
256,192,260354,1,0,0:0:0:0:
256,192,260511,1,8,0:0:0:0:
256,192,260667,1,0,0:0:0:0:
256,192,260823,1,8,0:0:0:0:
256,192,260979,1,8,0:0:0:0:
256,192,261136,1,0,0:0:0:0:
256,192,261292,1,0,0:0:0:0:
256,192,261448,1,8,0:0:0:0:
256,192,261604,1,0,0:0:0:0:
256,192,261761,1,8,0:0:0:0:
256,192,261917,1,8,0:0:0:0:
256,192,262073,1,0,0:0:0:0:
256,192,262229,1,8,0:0:0:0:
256,192,262386,1,0,0:0:0:0:
256,192,262464,1,0,0:0:0:0:
256,192,262542,1,0,0:0:0:0:
256,192,262620,1,0,0:0:0:0:
256,192,262698,1,8,0:0:0:0:
256,192,262776,1,0,0:0:0:0:
256,192,262854,1,0,0:0:0:0:
256,192,262932,1,0,0:0:0:0:
256,192,263011,1,8,0:0:0:0:
256,192,263089,1,8,0:0:0:0:
256,192,263167,1,0,0:0:0:0:
256,192,263245,1,0,0:0:0:0:
256,192,263323,1,8,0:0:0:0:
256,192,263401,1,8,0:0:0:0:
256,192,263479,1,0,0:0:0:0:
256,192,263557,1,0,0:0:0:0:
256,192,263636,1,8,0:0:0:0:
256,192,263870,5,8,0:0:0:0:
256,192,263948,1,8,0:0:0:0:
256,192,264104,1,8,0:0:0:0:
256,192,264182,1,0,0:0:0:0:
256,192,264261,1,8,0:0:0:0:
256,192,264339,1,8,0:0:0:0:
256,192,264417,1,0,0:0:0:0:
256,192,264495,1,0,0:0:0:0:
256,192,264573,1,8,0:0:0:0:
256,192,264625,1,8,0:0:0:0:
256,192,264677,1,8,0:0:0:0:
256,192,264729,1,8,0:0:0:0:
256,192,264781,1,8,0:0:0:0:
256,192,264833,1,8,0:0:0:0:
256,192,264886,1,0,0:0:0:0:
256,192,265198,1,12,0:0:0:0:
256,192,265354,1,0,0:0:0:0:
256,192,265432,1,0,0:0:0:0:
256,192,265511,1,8,0:0:0:0:
256,192,265667,1,0,0:0:0:0:
256,192,265823,1,8,0:0:0:0:
256,192,265979,1,8,0:0:0:0:
256,192,266057,1,8,0:0:0:0:
256,192,266136,1,0,0:0:0:0:
256,192,266292,1,0,0:0:0:0:
256,192,266448,1,8,0:0:0:0:
256,192,266604,1,0,0:0:0:0:
256,192,266682,1,0,0:0:0:0:
256,192,266761,1,8,0:0:0:0:
256,192,266839,1,8,0:0:0:0:
256,192,266917,1,0,0:0:0:0:
256,192,267073,1,8,0:0:0:0:
256,192,267151,1,0,0:0:0:0:
256,192,267229,1,8,0:0:0:0:
256,192,267307,1,8,0:0:0:0:
256,192,267386,1,0,0:0:0:0:
256,192,267542,1,0,0:0:0:0:
256,192,267698,1,8,0:0:0:0:
256,192,267854,1,0,0:0:0:0:
256,192,267932,1,8,0:0:0:0:
256,192,268011,1,8,0:0:0:0:
256,192,268089,1,0,0:0:0:0:
256,192,268167,1,0,0:0:0:0:
256,192,268323,1,0,0:0:0:0:
256,192,268479,1,8,0:0:0:0:
256,192,268636,1,8,0:0:0:0:
256,192,268714,1,0,0:0:0:0:
256,192,268792,1,0,0:0:0:0:
256,192,268948,1,8,0:0:0:0:
256,192,269104,1,0,0:0:0:0:
256,192,269182,1,8,0:0:0:0:
256,192,269261,1,0,0:0:0:0:
256,192,269339,1,8,0:0:0:0:
256,192,269417,1,0,0:0:0:0:
256,192,269495,1,0,0:0:0:0:
256,192,269573,1,8,0:0:0:0:
256,192,269729,1,8,0:0:0:0:
256,192,269807,1,8,0:0:0:0:
256,192,269886,1,0,0:0:0:0:
256,192,270042,1,0,0:0:0:0:
256,192,270198,1,8,0:0:0:0:
256,192,270354,1,0,0:0:0:0:
256,192,270432,1,0,0:0:0:0:
256,192,270511,1,8,0:0:0:0:
256,192,270589,1,0,0:0:0:0:
256,192,270667,1,0,0:0:0:0:
256,192,270823,1,8,0:0:0:0:
256,192,270979,1,8,0:0:0:0:
256,192,271057,1,8,0:0:0:0:
256,192,271136,1,0,0:0:0:0:
256,192,271292,1,0,0:0:0:0:
256,192,271448,1,8,0:0:0:0:
256,192,271604,1,0,0:0:0:0:
256,192,271682,1,0,0:0:0:0:
256,192,271761,1,8,0:0:0:0:
256,192,271839,1,8,0:0:0:0:
256,192,271917,1,0,0:0:0:0:
256,192,272073,1,8,0:0:0:0:
256,192,272151,1,8,0:0:0:0:
256,192,272229,1,8,0:0:0:0:
256,192,272307,1,8,0:0:0:0:
256,192,272386,1,0,0:0:0:0:
256,192,272620,1,0,0:0:0:0:
256,192,272698,1,8,0:0:0:0:
256,192,272854,1,8,0:0:0:0:
256,192,272932,1,8,0:0:0:0:
256,192,273011,1,0,0:0:0:0:
256,192,273089,1,8,0:0:0:0:
256,192,273167,1,0,0:0:0:0:
256,192,273323,1,0,0:0:0:0:
256,192,273479,1,8,0:0:0:0:
256,192,273636,1,0,0:0:0:0:
256,192,273714,1,8,0:0:0:0:
256,192,273792,1,0,0:0:0:0:
256,192,273948,1,8,0:0:0:0:
256,192,274104,1,0,0:0:0:0:
256,192,274182,1,8,0:0:0:0:
256,192,274261,1,0,0:0:0:0:
256,192,274339,1,0,0:0:0:0:
256,192,274417,1,8,0:0:0:0:
256,192,274495,1,0,0:0:0:0:
256,192,274573,1,8,0:0:0:0:
256,192,274729,1,0,0:0:0:0:
256,192,274807,1,0,0:0:0:0:
256,192,274886,1,0,0:0:0:0:
256,192,275042,1,0,0:0:0:0:
256,192,275198,1,8,0:0:0:0:
256,192,275354,1,0,0:0:0:0:
256,192,275432,1,8,0:0:0:0:
256,192,275511,1,8,0:0:0:0:
256,192,275589,1,0,0:0:0:0:
256,192,275667,1,0,0:0:0:0:
256,192,275823,1,8,0:0:0:0:
256,192,275979,1,8,0:0:0:0:
256,192,276057,1,8,0:0:0:0:
256,192,276136,1,0,0:0:0:0:
256,192,276292,1,0,0:0:0:0:
256,192,276448,1,8,0:0:0:0:
256,192,276604,1,0,0:0:0:0:
256,192,276682,1,0,0:0:0:0:
256,192,276761,1,0,0:0:0:0:
256,192,276839,1,8,0:0:0:0:
256,192,276917,1,0,0:0:0:0:
256,192,277073,1,8,0:0:0:0:
256,192,277151,1,8,0:0:0:0:
256,192,277229,1,0,0:0:0:0:
256,192,277307,1,0,0:0:0:0:
256,192,277386,1,0,0:0:0:0:
256,192,277542,1,0,0:0:0:0:
256,192,277698,1,8,0:0:0:0:
256,192,277854,1,0,0:0:0:0:
256,192,277932,1,0,0:0:0:0:
256,192,278011,1,8,0:0:0:0:
256,192,278089,1,8,0:0:0:0:
256,192,278167,1,0,0:0:0:0:
256,192,278323,1,0,0:0:0:0:
256,192,278479,1,8,0:0:0:0:
256,192,278636,1,8,0:0:0:0:
256,192,278714,1,0,0:0:0:0:
256,192,278792,1,0,0:0:0:0:
256,192,278948,1,8,0:0:0:0:
256,192,279104,1,0,0:0:0:0:
256,192,279182,1,8,0:0:0:0:
256,192,279261,1,0,0:0:0:0:
256,192,279339,1,8,0:0:0:0:
256,192,279417,1,8,0:0:0:0:
256,192,279573,1,8,0:0:0:0:
256,192,279729,1,0,0:0:0:0:
256,192,279807,1,8,0:0:0:0:
256,192,279886,1,0,0:0:0:0:
256,192,280042,1,0,0:0:0:0:
256,192,280198,1,8,0:0:0:0:
256,192,280276,1,0,0:0:0:0:
256,192,280354,1,8,0:0:0:0:
256,192,280432,1,8,0:0:0:0:
256,192,280511,1,0,0:0:0:0:
256,192,280589,1,8,0:0:0:0:
256,192,280667,1,0,0:0:0:0:
256,192,280823,1,8,0:0:0:0:
256,192,280979,1,0,0:0:0:0:
256,192,281057,1,0,0:0:0:0:
256,192,281136,1,8,0:0:0:0:
256,192,281292,1,0,0:0:0:0:
256,192,281448,1,8,0:0:0:0:
256,192,281604,1,0,0:0:0:0:
256,192,281682,1,0,0:0:0:0:
256,192,281761,1,8,0:0:0:0:
256,192,281839,1,0,0:0:0:0:
256,192,281917,1,0,0:0:0:0:
256,192,282073,1,8,0:0:0:0:
256,192,282229,1,8,0:0:0:0:
256,192,282307,1,8,0:0:0:0:
256,192,282386,1,0,0:0:0:0:
256,192,282542,1,0,0:0:0:0:
256,192,282698,1,8,0:0:0:0:
256,192,282854,1,0,0:0:0:0:
256,192,282932,1,8,0:0:0:0:
256,192,283011,1,8,0:0:0:0:
256,192,283167,1,0,0:0:0:0:
256,192,283323,1,0,0:0:0:0:
256,192,283479,1,8,0:0:0:0:
256,192,283636,1,0,0:0:0:0:
256,192,283792,1,0,0:0:0:0:
256,192,283870,1,0,0:0:0:0:
256,192,283948,1,8,0:0:0:0:
256,192,284104,1,0,0:0:0:0:
256,192,284156,5,0,0:0:0:0:
256,192,284208,1,0,0:0:0:0:
256,192,284261,1,8,0:0:0:0:
256,192,284339,1,0,0:0:0:0:
256,192,284417,1,0,0:0:0:0:
256,192,284495,1,8,0:0:0:0:
256,192,284573,1,8,0:0:0:0:
256,192,284651,1,0,0:0:0:0:
256,192,284729,1,8,0:0:0:0:
256,192,284807,1,8,0:0:0:0:
256,192,284886,1,4,0:0:0:0:
256,192,285042,1,0,0:0:0:0:
256,192,285120,1,0,0:0:0:0:
256,192,285198,1,8,0:0:0:0:
256,192,285276,1,0,0:0:0:0:
256,192,285354,1,0,0:0:0:0:
256,192,285432,1,8,0:0:0:0:
256,192,285511,1,8,0:0:0:0:
256,192,285589,1,0,0:0:0:0:
256,192,285667,1,0,0:0:0:0:
256,192,285745,1,8,0:0:0:0:
256,192,285823,1,0,0:0:0:0:
256,192,285901,1,8,0:0:0:0:
256,192,285979,1,8,0:0:0:0:
256,192,286057,1,8,0:0:0:0:
256,192,286136,1,0,0:0:0:0:
256,192,286292,1,0,0:0:0:0:
256,192,286370,1,0,0:0:0:0:
256,192,286448,1,8,0:0:0:0:
256,192,286604,1,0,0:0:0:0:
256,192,286682,1,0,0:0:0:0:
256,192,286761,1,8,0:0:0:0:
256,192,286839,1,8,0:0:0:0:
256,192,286917,1,0,0:0:0:0:
256,192,287073,1,8,0:0:0:0:
256,192,287151,1,0,0:0:0:0:
256,192,287229,1,8,0:0:0:0:
256,192,287307,1,8,0:0:0:0:
256,192,287386,1,0,0:0:0:0:
256,192,287542,1,0,0:0:0:0:
256,192,287620,1,0,0:0:0:0:
256,192,287698,1,8,0:0:0:0:
256,192,287776,1,0,0:0:0:0:
256,192,287854,1,8,0:0:0:0:
256,192,288011,1,8,0:0:0:0:
256,192,288089,1,8,0:0:0:0:
256,192,288167,1,0,0:0:0:0:
256,192,288245,1,0,0:0:0:0:
256,192,288323,1,8,0:0:0:0:
256,192,288401,1,0,0:0:0:0:
256,192,288479,1,8,0:0:0:0:
256,192,288557,1,8,0:0:0:0:
256,192,288636,1,8,0:0:0:0:
256,192,288714,1,0,0:0:0:0:
256,192,288792,1,0,0:0:0:0:
256,192,288870,1,0,0:0:0:0:
256,192,288948,1,8,0:0:0:0:
256,192,289026,1,8,0:0:0:0:
256,192,289104,1,0,0:0:0:0:
256,192,289182,1,0,0:0:0:0:
256,192,289261,1,8,0:0:0:0:
256,192,289339,1,8,0:0:0:0:
256,192,289417,1,8,0:0:0:0:
256,192,289495,1,8,0:0:0:0:
256,192,289573,1,0,0:0:0:0:
256,192,289651,1,0,0:0:0:0:
256,192,289729,1,0,0:0:0:0:
256,192,289807,1,8,0:0:0:0:
256,192,289886,1,0,0:0:0:0:
256,192,290042,1,0,0:0:0:0:
256,192,290120,1,0,0:0:0:0:
256,192,290198,1,8,0:0:0:0:
256,192,290276,1,8,0:0:0:0:
256,192,290354,1,0,0:0:0:0:
256,192,290432,1,8,0:0:0:0:
256,192,290511,1,8,0:0:0:0:
256,192,290589,1,0,0:0:0:0:
256,192,290667,1,0,0:0:0:0:
256,192,290823,1,8,0:0:0:0:
256,192,290901,1,8,0:0:0:0:
256,192,290979,1,8,0:0:0:0:
256,192,291057,1,0,0:0:0:0:
256,192,291136,1,8,0:0:0:0:
256,192,291292,1,0,0:0:0:0:
256,192,291370,1,0,0:0:0:0:
256,192,291448,1,8,0:0:0:0:
256,192,291526,1,8,0:0:0:0:
256,192,291604,1,0,0:0:0:0:
256,192,291761,1,8,0:0:0:0:
256,192,291839,1,8,0:0:0:0:
256,192,291917,1,0,0:0:0:0:
256,192,291995,1,0,0:0:0:0:
256,192,292073,1,8,0:0:0:0:
256,192,292151,1,0,0:0:0:0:
256,192,292229,1,8,0:0:0:0:
256,192,292307,1,8,0:0:0:0:
256,192,292386,1,0,0:0:0:0:
256,192,292542,1,0,0:0:0:0:
256,192,292620,1,0,0:0:0:0:
256,192,292698,1,8,0:0:0:0:
256,192,292776,1,8,0:0:0:0:
256,192,292854,1,0,0:0:0:0:
256,192,292932,1,0,0:0:0:0:
256,192,293011,1,8,0:0:0:0:
256,192,293089,1,0,0:0:0:0:
256,192,293167,1,0,0:0:0:0:
256,192,293245,1,0,0:0:0:0:
256,192,293323,1,8,0:0:0:0:
256,192,293401,1,8,0:0:0:0:
256,192,293479,1,8,0:0:0:0:
256,192,293557,1,0,0:0:0:0:
256,192,293636,1,0,0:0:0:0:
256,192,293714,1,8,0:0:0:0:
256,192,293792,1,0,0:0:0:0:
256,192,293870,1,0,0:0:0:0:
256,192,293948,1,8,0:0:0:0:
256,192,294104,1,8,0:0:0:0:
256,192,294182,1,8,0:0:0:0:
256,192,294261,1,0,0:0:0:0:
256,192,294339,1,8,0:0:0:0:
256,192,294417,1,0,0:0:0:0:
256,192,294495,1,0,0:0:0:0:
256,192,294573,1,8,0:0:0:0:
256,192,294651,1,0,0:0:0:0:
256,192,294729,1,8,0:0:0:0:
256,192,294807,1,8,0:0:0:0:
256,192,294886,1,0,0:0:0:0:
256,192,295042,1,0,0:0:0:0:
256,192,295120,1,0,0:0:0:0:
256,192,295198,1,8,0:0:0:0:
256,192,295354,1,8,0:0:0:0:
256,192,295432,1,8,0:0:0:0:
256,192,295511,1,0,0:0:0:0:
256,192,295589,1,8,0:0:0:0:
256,192,295667,1,0,0:0:0:0:
256,192,295745,1,0,0:0:0:0:
256,192,295823,1,8,0:0:0:0:
256,192,295901,1,8,0:0:0:0:
256,192,295979,1,0,0:0:0:0:
256,192,296057,1,8,0:0:0:0:
256,192,296136,1,0,0:0:0:0:
256,192,296292,1,8,0:0:0:0:
256,192,296370,1,0,0:0:0:0:
256,192,296448,1,8,0:0:0:0:
256,192,296526,1,8,0:0:0:0:
256,192,296604,1,0,0:0:0:0:
256,192,296682,1,8,0:0:0:0:
256,192,296761,1,8,0:0:0:0:
256,192,296839,1,0,0:0:0:0:
256,192,296917,1,0,0:0:0:0:
256,192,297073,1,8,0:0:0:0:
256,192,297151,1,8,0:0:0:0:
256,192,297229,1,8,0:0:0:0:
256,192,297307,1,8,0:0:0:0:
256,192,297386,1,0,0:0:0:0:
256,192,297542,1,0,0:0:0:0:
256,192,297620,1,0,0:0:0:0:
256,192,297698,1,8,0:0:0:0:
256,192,297854,1,0,0:0:0:0:
256,192,297932,1,0,0:0:0:0:
256,192,298011,1,8,0:0:0:0:
256,192,298089,1,0,0:0:0:0:
256,192,298167,1,8,0:0:0:0:
256,192,298245,1,8,0:0:0:0:
256,192,298323,1,0,0:0:0:0:
256,192,298479,1,8,0:0:0:0:
256,192,298531,1,8,0:0:0:0:
256,192,298583,1,8,0:0:0:0:
256,192,298636,1,0,0:0:0:0:
256,192,298714,1,0,0:0:0:0:
256,192,298792,1,8,0:0:0:0:
256,192,298870,1,0,0:0:0:0:
256,192,298948,1,8,0:0:0:0:
256,192,299026,1,0,0:0:0:0:
256,192,299104,1,0,0:0:0:0:
256,192,299182,1,0,0:0:0:0:
256,192,299261,1,8,0:0:0:0:
256,192,299339,1,8,0:0:0:0:
256,192,299417,1,0,0:0:0:0:
256,192,299495,1,0,0:0:0:0:
256,192,299573,1,8,0:0:0:0:
256,192,299651,1,0,0:0:0:0:
256,192,299729,1,8,0:0:0:0:
256,192,299807,1,8,0:0:0:0:
256,192,299886,1,0,0:0:0:0:
256,192,300042,1,0,0:0:0:0:
256,192,300120,1,8,0:0:0:0:
256,192,300198,1,8,0:0:0:0:
256,192,300276,1,0,0:0:0:0:
256,192,300354,1,0,0:0:0:0:
256,192,300432,1,8,0:0:0:0:
256,192,300511,1,8,0:0:0:0:
256,192,300589,1,8,0:0:0:0:
256,192,300667,1,0,0:0:0:0:
256,192,300745,1,0,0:0:0:0:
256,192,300823,1,8,0:0:0:0:
256,192,300901,1,0,0:0:0:0:
256,192,300979,1,8,0:0:0:0:
256,192,301057,1,8,0:0:0:0:
256,192,301136,1,0,0:0:0:0:
256,192,301292,1,0,0:0:0:0:
256,192,301370,1,0,0:0:0:0:
256,192,301448,1,8,0:0:0:0:
256,192,301526,1,8,0:0:0:0:
256,192,301604,1,8,0:0:0:0:
256,192,301682,1,0,0:0:0:0:
256,192,301761,1,8,0:0:0:0:
256,192,301839,1,8,0:0:0:0:
256,192,301917,1,0,0:0:0:0:
256,192,301995,1,8,0:0:0:0:
256,192,302073,1,0,0:0:0:0:
256,192,302151,1,0,0:0:0:0:
256,192,302229,1,8,0:0:0:0:
256,192,302307,1,0,0:0:0:0:
256,192,302386,1,8,0:0:0:0:
256,192,302464,1,8,0:0:0:0:
256,192,302542,1,0,0:0:0:0:
256,192,302698,1,8,0:0:0:0:
256,192,302776,1,0,0:0:0:0:
256,192,302854,1,8,0:0:0:0:
256,192,302932,1,0,0:0:0:0:
256,192,303011,1,0,0:0:0:0:
256,192,303089,1,8,0:0:0:0:
256,192,303167,1,8,0:0:0:0:
256,192,303245,1,0,0:0:0:0:
256,192,303323,1,8,0:0:0:0:
256,192,303401,1,8,0:0:0:0:
256,192,303479,1,0,0:0:0:0:
256,192,303557,1,8,0:0:0:0:
256,192,303636,1,0,0:0:0:0:
256,192,303714,1,8,0:0:0:0:
256,192,303792,1,0,0:0:0:0:
256,192,303870,1,0,0:0:0:0:
256,192,303948,1,8,0:0:0:0:
256,192,304026,1,8,0:0:0:0:
256,192,304104,1,0,0:0:0:0:
256,192,304156,1,0,0:0:0:0:
256,192,304208,1,0,0:0:0:0:
256,192,304261,1,8,0:0:0:0:
256,192,304339,1,0,0:0:0:0:
256,192,304417,1,0,0:0:0:0:
256,192,304495,1,8,0:0:0:0:
256,192,304573,1,0,0:0:0:0:
256,192,304651,1,0,0:0:0:0:
256,192,304729,1,8,0:0:0:0:
256,192,304807,1,8,0:0:0:0:
256,192,304886,1,0,0:0:0:0:
256,192,305198,1,8,0:0:0:0:
256,192,305354,1,8,0:0:0:0:
256,192,305667,1,0,0:0:0:0:
256,192,305823,1,0,0:0:0:0:
256,192,305979,1,8,0:0:0:0:
256,192,306292,1,8,0:0:0:0:
256,192,306448,1,0,0:0:0:0:
256,192,306604,1,0,0:0:0:0:
256,192,306917,1,0,0:0:0:0:
256,192,307073,1,8,0:0:0:0:
256,192,307229,1,0,0:0:0:0:
256,192,307542,1,8,0:0:0:0:
256,192,307698,1,8,0:0:0:0:
256,192,307854,1,0,0:0:0:0:
256,192,308011,1,8,0:0:0:0:
256,192,308323,1,0,0:0:0:0:
256,192,308792,1,8,0:0:0:0:
256,192,308948,1,0,0:0:0:0:
256,192,309104,1,0,0:0:0:0:
256,192,309261,1,8,0:0:0:0:
256,192,309417,1,0,0:0:0:0:
256,192,309573,1,8,0:0:0:0:
256,192,309886,1,0,0:0:0:0:
256,192,310042,1,0,0:0:0:0:
256,192,310198,1,0,0:0:0:0:
256,192,310354,1,8,0:0:0:0:
256,192,310667,1,0,0:0:0:0:
256,192,310979,1,8,0:0:0:0:
256,192,311292,1,0,0:0:0:0:
256,192,311448,1,0,0:0:0:0:
256,192,311604,1,8,0:0:0:0:
256,192,311761,1,8,0:0:0:0:
256,192,312073,1,8,0:0:0:0:
256,192,312229,1,0,0:0:0:0:
256,192,312386,1,0,0:0:0:0:
256,192,312542,1,8,0:0:0:0:
256,192,312698,1,0,0:0:0:0:
256,192,312854,1,0,0:0:0:0:
256,192,313167,1,0,0:0:0:0:
256,192,313479,1,8,0:0:0:0:
256,192,313557,1,8,0:0:0:0:
256,192,313636,1,0,0:0:0:0:
256,192,313792,1,8,0:0:0:0:
256,192,313948,1,8,0:0:0:0:
256,192,314104,1,8,0:0:0:0:
256,192,314261,1,0,0:0:0:0:
256,192,314417,1,0,0:0:0:0:
256,192,314573,1,0,0:0:0:0:
256,192,314651,1,0,0:0:0:0:
256,192,314729,1,8,0:0:0:0:
256,192,314807,1,8,0:0:0:0:
256,192,314886,1,0,0:0:0:0:
256,192,315042,1,8,0:0:0:0:
256,192,315198,1,0,0:0:0:0:
256,192,315354,1,8,0:0:0:0:
256,192,315667,1,8,0:0:0:0:
256,192,315823,1,0,0:0:0:0:
256,192,315979,1,0,0:0:0:0:
256,192,316292,1,8,0:0:0:0:
256,192,316448,1,8,0:0:0:0:
256,192,316604,1,0,0:0:0:0:
256,192,316917,1,8,0:0:0:0:
256,192,317229,1,0,0:0:0:0:
256,192,317386,1,0,0:0:0:0:
256,192,317542,1,8,0:0:0:0:
256,192,317698,1,8,0:0:0:0:
256,192,317854,1,8,0:0:0:0:
256,192,318323,1,0,0:0:0:0:
256,192,318479,1,8,0:0:0:0:
256,192,318792,1,8,0:0:0:0:
256,192,318948,1,0,0:0:0:0:
256,192,319104,1,0,0:0:0:0:
256,192,319261,1,8,0:0:0:0:
256,192,319417,1,0,0:0:0:0:
256,192,319573,1,8,0:0:0:0:
256,192,319886,1,0,0:0:0:0:
256,192,320042,1,8,0:0:0:0:
256,192,320198,1,0,0:0:0:0:
256,192,320354,1,8,0:0:0:0:
256,192,320667,1,0,0:0:0:0:
256,192,320979,1,8,0:0:0:0:
256,192,321136,1,0,0:0:0:0:
256,192,321292,1,0,0:0:0:0:
256,192,321448,1,8,0:0:0:0:
256,192,321604,1,8,0:0:0:0:
256,192,321761,1,0,0:0:0:0:
256,192,322073,1,8,0:0:0:0:
256,192,322229,1,8,0:0:0:0:
256,192,322386,1,0,0:0:0:0:
256,192,322542,1,8,0:0:0:0:
256,192,322698,1,0,0:0:0:0:
256,192,322854,1,0,0:0:0:0:
256,192,323167,1,8,0:0:0:0:
256,192,323323,1,8,0:0:0:0:
256,192,323479,1,0,0:0:0:0:
256,192,323636,1,8,0:0:0:0:
256,192,323792,1,0,0:0:0:0:
256,192,323948,1,8,0:0:0:0:
256,192,324104,1,0,0:0:0:0:
256,192,324182,1,0,0:0:0:0:
256,192,324261,1,8,0:0:0:0:
256,192,324339,1,8,0:0:0:0:
256,192,324417,1,0,0:0:0:0:
256,192,324495,1,0,0:0:0:0:
256,192,324573,1,8,0:0:0:0:
256,192,324651,1,0,0:0:0:0:
256,192,324729,1,8,0:0:0:0:
256,192,324807,1,8,0:0:0:0:
