osu file format v14

[General]
AudioFilename: audio.mp3
AudioLeadIn: 0
PreviewTime: 55232
Countdown: 0
SampleSet: None
StackLeniency: 0.7
Mode: 3
LetterboxInBreaks: 0
SpecialStyle: 0
WidescreenStoryboard: 1

[Editor]
DistanceSpacing: 0.8
BeatDivisor: 2
GridSize: 16
TimelineZoom: 2.3

[Metadata]
Title:Onegai! Konkon o Inari-Sama
TitleUnicode:Onegai! Konkon o Inari-Sama
Artist:Nanahira
ArtistUnicode:
Creator:PianoLuigi
Version:Hard!
Source:
Tags:IOSYS
BeatmapID:2060745
BeatmapSetID:984905

[Difficulty]
HPDrainRate:8
CircleSize:4
OverallDifficulty:8
ApproachRate:5
SliderMultiplier:1.4
SliderTickRate:1

[Events]
//Background and Video events
0,0,"bg.png",0,0
//Break Periods
//Storyboard Layer 0 (Background)
//Storyboard Layer 1 (Fail)
//Storyboard Layer 2 (Pass)
//Storyboard Layer 3 (Foreground)
//Storyboard Sound Samples

[TimingPoints]
1190,342.857142857143,4,2,0,100,1,0
3932,342.857142857143,4,2,0,100,1,0

[HitObjects]
320,192,1190,128,0,1875:0:0:0:0:
64,192,1875,1,0,0:0:0:0:
448,192,2047,1,0,0:0:0:0:
64,192,2218,1,0,0:0:0:0:
448,192,2561,1,0,0:0:0:0:
320,192,2647,1,0,0:0:0:0:
192,192,2732,1,0,0:0:0:0:
64,192,2818,1,0,0:0:0:0:
448,192,2904,1,0,0:0:0:0:
320,192,2990,1,0,0:0:0:0:
192,192,3075,1,0,0:0:0:0:
64,192,3161,1,0,0:0:0:0:
448,192,3418,1,0,0:0:0:0:
64,192,3590,1,0,0:0:0:0:
448,192,3932,1,0,0:0:0:0:
192,192,3932,1,0,0:0:0:0:
64,192,4103,128,0,4446:0:0:0:0:
320,192,4274,1,0,0:0:0:0:
448,192,4446,1,0,0:0:0:0:
64,192,4617,1,0,0:0:0:0:
320,192,4789,1,0,0:0:0:0:
192,192,4874,1,0,0:0:0:0:
64,192,4960,1,0,0:0:0:0:
448,192,5132,1,0,0:0:0:0:
64,192,5303,128,0,5474:0:0:0:0:
448,192,5474,128,0,5646:0:0:0:0:
192,192,5646,128,0,5817:0:0:0:0:
448,192,5817,128,0,5989:0:0:0:0:
64,192,5989,1,0,0:0:0:0:
192,192,6074,1,0,0:0:0:0:
320,192,6160,1,0,0:0:0:0:
448,192,6246,1,0,0:0:0:0:
64,192,6332,1,0,0:0:0:0:
320,192,6503,1,0,0:0:0:0:
64,192,6674,1,0,0:0:0:0:
448,192,6846,128,0,7189:0:0:0:0:
192,192,7017,1,0,0:0:0:0:
64,192,7189,1,0,0:0:0:0:
448,192,7360,1,0,0:0:0:0:
320,192,7446,1,0,0:0:0:0:
64,192,7532,1,0,0:0:0:0:
192,192,7617,1,0,0:0:0:0:
320,192,7703,1,0,0:0:0:0:
448,192,7789,1,0,0:0:0:0:
64,192,7874,1,0,0:0:0:0:
192,192,7960,1,0,0:0:0:0:
320,192,8046,1,0,0:0:0:0:
64,192,8217,1,0,0:0:0:0:
448,192,8389,1,0,0:0:0:0:
64,192,8560,1,0,0:0:0:0:
320,192,8732,1,0,0:0:0:0:
192,192,8817,1,0,0:0:0:0:
192,192,8989,1,0,0:0:0:0:
320,192,9074,1,0,0:0:0:0:
64,192,9246,1,0,0:0:0:0:
192,192,9332,1,0,0:0:0:0:
320,192,9417,1,0,0:0:0:0:
448,192,9417,1,0,0:0:0:0:
64,192,9589,128,0,9932:0:0:0:0:
320,192,9760,1,0,0:0:0:0:
192,192,9932,1,0,0:0:0:0:
448,192,10103,1,0,0:0:0:0:
192,192,10274,1,0,0:0:0:0:
320,192,10360,1,0,0:0:0:0:
448,192,10446,1,0,0:0:0:0:
64,192,10617,1,0,0:0:0:0:
320,192,10789,128,0,10960:0:0:0:0:
64,192,10960,128,0,11132:0:0:0:0:
448,192,11132,128,0,11303:0:0:0:0:
64,192,11303,128,0,11474:0:0:0:0:
448,192,11474,1,0,0:0:0:0:
320,192,11560,1,0,0:0:0:0:
192,192,11646,1,0,0:0:0:0:
64,192,11732,1,0,0:0:0:0:
448,192,11817,1,0,0:0:0:0:
192,192,11989,1,0,0:0:0:0:
448,192,12160,1,0,0:0:0:0:
64,192,12332,1,0,0:0:0:0:
192,192,12417,1,0,0:0:0:0:
320,192,12503,1,0,0:0:0:0:
64,192,12674,1,0,0:0:0:0:
448,192,12846,1,0,0:0:0:0:
192,192,13103,1,0,0:0:0:0:
320,192,13189,1,0,0:0:0:0:
64,192,13360,1,0,0:0:0:0:
448,192,13703,1,0,0:0:0:0:
320,192,13789,1,0,0:0:0:0:
192,192,13874,1,0,0:0:0:0:
448,192,14046,1,0,0:0:0:0:
64,192,14217,128,0,14560:0:0:0:0:
448,192,14560,1,0,0:0:0:0:
64,192,14903,1,0,0:0:0:0:
192,192,14903,1,0,0:0:0:0:
448,192,15074,1,0,0:0:0:0:
320,192,15160,1,0,0:0:0:0:
192,192,15246,1,0,0:0:0:0:
64,192,15417,1,0,0:0:0:0:
192,192,15503,1,0,0:0:0:0:
320,192,15589,1,0,0:0:0:0:
448,192,15760,1,0,0:0:0:0:
320,192,15846,1,0,0:0:0:0:
192,192,15932,1,0,0:0:0:0:
448,192,16274,1,0,0:0:0:0:
192,192,16446,1,0,0:0:0:0:
320,192,16532,1,0,0:0:0:0:
448,192,16617,1,0,0:0:0:0:
320,192,16789,1,0,0:0:0:0:
192,192,16874,1,0,0:0:0:0:
64,192,16960,1,0,0:0:0:0:
448,192,17132,1,0,0:0:0:0:
448,192,17303,1,0,0:0:0:0:
64,192,17646,1,0,0:0:0:0:
192,192,17732,1,0,0:0:0:0:
320,192,17817,1,0,0:0:0:0:
448,192,17903,1,0,0:0:0:0:
64,192,17989,128,0,18160:0:0:0:0:
448,192,18332,1,0,0:0:0:0:
192,192,18503,1,0,0:0:0:0:
320,192,18589,1,0,0:0:0:0:
448,192,18674,128,0,18846:0:0:0:0:
64,192,19017,1,0,0:0:0:0:
320,192,19189,1,0,0:0:0:0:
192,192,19274,1,0,0:0:0:0:
64,192,19360,1,0,0:0:0:0:
448,192,19532,1,0,0:0:0:0:
192,192,19703,1,0,0:0:0:0:
320,192,19789,1,0,0:0:0:0:
320,192,19960,1,0,0:0:0:0:
192,192,20046,1,0,0:0:0:0:
448,192,20217,1,0,0:0:0:0:
320,192,20303,1,0,0:0:0:0:
192,192,20389,1,0,0:0:0:0:
64,192,20389,1,0,0:0:0:0:
64,192,20560,1,0,0:0:0:0:
192,192,20646,1,0,0:0:0:0:
320,192,20732,1,0,0:0:0:0:
448,192,20903,1,0,0:0:0:0:
320,192,20989,1,0,0:0:0:0:
192,192,21074,1,0,0:0:0:0:
64,192,21246,1,0,0:0:0:0:
192,192,21332,1,0,0:0:0:0:
320,192,21417,1,0,0:0:0:0:
64,192,21760,1,0,0:0:0:0:
320,192,21932,1,0,0:0:0:0:
192,192,22017,1,0,0:0:0:0:
64,192,22103,1,0,0:0:0:0:
192,192,22274,1,0,0:0:0:0:
320,192,22360,1,0,0:0:0:0:
448,192,22446,1,0,0:0:0:0:
64,192,22617,1,0,0:0:0:0:
64,192,22789,1,0,0:0:0:0:
448,192,22960,128,0,23132:0:0:0:0:
320,192,23132,128,0,23303:0:0:0:0:
64,192,23303,128,0,23474:0:0:0:0:
192,192,23474,128,0,23646:0:0:0:0:
448,192,23646,128,0,23817:0:0:0:0:
320,192,23817,128,0,23989:0:0:0:0:
64,192,23989,128,0,24160:0:0:0:0:
192,192,24160,128,0,24332:0:0:0:0:
448,192,24332,128,0,24503:0:0:0:0:
320,192,24503,1,0,0:0:0:0:
192,192,24674,1,0,0:0:0:0:
448,192,24846,1,0,0:0:0:0:
192,192,25017,1,0,0:0:0:0:
320,192,25189,1,0,0:0:0:0:
64,192,25360,1,0,0:0:0:0:
192,192,25446,1,0,0:0:0:0:
320,192,25532,1,0,0:0:0:0:
448,192,25617,1,0,0:0:0:0:
64,192,25703,1,0,0:0:0:0:
320,192,25874,1,0,0:0:0:0:
448,192,25874,1,0,0:0:0:0:
64,192,26046,1,0,0:0:0:0:
192,192,26132,1,0,0:0:0:0:
320,192,26217,1,0,0:0:0:0:
448,192,26389,1,0,0:0:0:0:
320,192,26474,1,0,0:0:0:0:
192,192,26560,1,0,0:0:0:0:
64,192,26732,1,0,0:0:0:0:
192,192,26817,1,0,0:0:0:0:
320,192,26903,1,0,0:0:0:0:
64,192,27246,1,0,0:0:0:0:
320,192,27417,1,0,0:0:0:0:
192,192,27503,1,0,0:0:0:0:
64,192,27589,1,0,0:0:0:0:
192,192,27760,1,0,0:0:0:0:
320,192,27846,1,0,0:0:0:0:
448,192,27932,1,0,0:0:0:0:
64,192,28103,1,0,0:0:0:0:
64,192,28274,1,0,0:0:0:0:
448,192,28617,1,0,0:0:0:0:
192,192,28789,1,0,0:0:0:0:
320,192,28874,1,0,0:0:0:0:
448,192,28960,128,0,29132:0:0:0:0:
64,192,29303,1,0,0:0:0:0:
320,192,29474,1,0,0:0:0:0:
192,192,29560,1,0,0:0:0:0:
64,192,29646,128,0,29817:0:0:0:0:
448,192,29989,1,0,0:0:0:0:
192,192,30160,1,0,0:0:0:0:
320,192,30246,1,0,0:0:0:0:
448,192,30332,1,0,0:0:0:0:
64,192,30503,1,0,0:0:0:0:
320,192,30674,1,0,0:0:0:0:
192,192,30760,1,0,0:0:0:0:
192,192,30932,1,0,0:0:0:0:
320,192,31017,1,0,0:0:0:0:
64,192,31189,1,0,0:0:0:0:
192,192,31274,1,0,0:0:0:0:
320,192,31360,1,0,0:0:0:0:
448,192,31360,1,0,0:0:0:0:
448,192,31532,1,0,0:0:0:0:
320,192,31617,1,0,0:0:0:0:
192,192,31703,1,0,0:0:0:0:
64,192,31874,1,0,0:0:0:0:
192,192,31960,1,0,0:0:0:0:
320,192,32046,1,0,0:0:0:0:
448,192,32217,1,0,0:0:0:0:
320,192,32303,1,0,0:0:0:0:
192,192,32389,1,0,0:0:0:0:
448,192,32732,1,0,0:0:0:0:
192,192,32903,1,0,0:0:0:0:
320,192,32989,1,0,0:0:0:0:
448,192,33074,1,0,0:0:0:0:
320,192,33246,1,0,0:0:0:0:
192,192,33332,1,0,0:0:0:0:
64,192,33417,1,0,0:0:0:0:
448,192,33589,1,0,0:0:0:0:
448,192,33760,1,0,0:0:0:0:
64,192,33932,1,0,0:0:0:0:
320,192,34103,128,0,34274:0:0:0:0:
64,192,34274,1,0,0:0:0:0:
192,192,34360,1,0,0:0:0:0:
320,192,34446,1,0,0:0:0:0:
64,192,34617,1,0,0:0:0:0:
448,192,34789,1,0,0:0:0:0:
192,192,34960,1,0,0:0:0:0:
320,192,35046,1,0,0:0:0:0:
448,192,35132,1,0,0:0:0:0:
64,192,35303,1,0,0:0:0:0:
192,192,35474,128,0,35646:0:0:0:0:
448,192,35646,1,0,0:0:0:0:
320,192,35732,1,0,0:0:0:0:
192,192,35817,1,0,0:0:0:0:
448,192,35989,1,0,0:0:0:0:
64,192,36160,1,0,0:0:0:0:
192,192,36503,128,0,36674:0:0:0:0:
448,192,36674,128,0,36846:0:0:0:0:
64,192,36846,128,0,37017:0:0:0:0:
320,192,37017,128,0,37189:0:0:0:0:
64,192,37189,128,0,37360:0:0:0:0:
448,192,37360,1,0,0:0:0:0:
64,192,37532,128,0,37703:0:0:0:0:
192,192,37703,128,0,37874:0:0:0:0:
320,192,37874,128,0,38046:0:0:0:0:
448,192,38046,128,0,38217:0:0:0:0:
64,192,38217,128,0,38903:0:0:0:0:
448,192,38732,1,0,0:0:0:0:
64,192,39074,1,0,0:0:0:0:
320,192,39246,1,0,0:0:0:0:
192,192,39417,1,0,0:0:0:0:
448,192,39589,128,0,39846:0:0:0:0:
192,192,39846,1,0,0:0:0:0:
320,192,39932,1,0,0:0:0:0:
64,192,40103,1,0,0:0:0:0:
448,192,40274,128,0,40532:0:0:0:0:
192,192,40532,1,0,0:0:0:0:
320,192,40617,1,0,0:0:0:0:
64,192,40789,1,0,0:0:0:0:
448,192,40960,1,0,0:0:0:0:
192,192,41132,1,0,0:0:0:0:
320,192,41217,1,0,0:0:0:0:
192,192,41303,1,0,0:0:0:0:
448,192,41474,1,0,0:0:0:0:
64,192,41646,128,0,41989:0:0:0:0:
320,192,41989,128,0,42160:0:0:0:0:
192,192,42160,128,0,42332:0:0:0:0:
448,192,42332,128,0,42503:0:0:0:0:
64,192,42503,128,0,42674:0:0:0:0:
448,192,42674,128,0,42846:0:0:0:0:
192,192,42846,1,0,0:0:0:0:
448,192,43017,128,0,43189:0:0:0:0:
320,192,43189,128,0,43360:0:0:0:0:
64,192,43360,128,0,43532:0:0:0:0:
192,192,43532,128,0,43703:0:0:0:0:
448,192,43703,128,0,44389:0:0:0:0:
64,192,43874,1,0,0:0:0:0:
320,192,44046,1,0,0:0:0:0:
64,192,44217,1,0,0:0:0:0:
320,192,44389,1,0,0:0:0:0:
192,192,44560,1,0,0:0:0:0:
320,192,44732,1,0,0:0:0:0:
448,192,44903,1,0,0:0:0:0:
192,192,45074,1,0,0:0:0:0:
64,192,45074,128,0,45760:0:0:0:0:
320,192,45760,1,0,0:0:0:0:
448,192,45760,128,0,46446:0:0:0:0:
192,192,46446,128,0,46789:0:0:0:0:
448,192,46789,128,0,46960:0:0:0:0:
192,192,46960,128,0,47132:0:0:0:0:
320,192,47132,128,0,47474:0:0:0:0:
64,192,47474,128,0,47817:0:0:0:0:
448,192,47817,1,0,0:0:0:0:
192,192,47817,1,0,0:0:0:0:
320,192,47989,1,0,0:0:0:0:
64,192,48160,1,0,0:0:0:0:
192,192,48246,1,0,0:0:0:0:
320,192,48332,1,0,0:0:0:0:
448,192,48417,1,0,0:0:0:0:
192,192,48503,1,0,0:0:0:0:
64,192,48503,1,0,0:0:0:0:
192,192,48846,1,0,0:0:0:0:
320,192,48846,1,0,0:0:0:0:
448,192,49189,1,0,0:0:0:0:
64,192,49189,1,0,0:0:0:0:
192,192,49360,1,0,0:0:0:0:
448,192,49532,1,0,0:0:0:0:
320,192,49617,1,0,0:0:0:0:
192,192,49703,1,0,0:0:0:0:
64,192,49789,1,0,0:0:0:0:
320,192,49874,1,0,0:0:0:0:
448,192,49874,1,0,0:0:0:0:
320,192,50217,1,0,0:0:0:0:
192,192,50217,1,0,0:0:0:0:
64,192,50560,1,0,0:0:0:0:
192,192,50646,1,0,0:0:0:0:
320,192,50732,1,0,0:0:0:0:
448,192,50903,1,0,0:0:0:0:
320,192,50989,1,0,0:0:0:0:
192,192,51074,1,0,0:0:0:0:
64,192,51246,1,0,0:0:0:0:
192,192,51332,1,0,0:0:0:0:
320,192,51417,1,0,0:0:0:0:
448,192,51589,1,0,0:0:0:0:
320,192,51674,1,0,0:0:0:0:
192,192,51760,1,0,0:0:0:0:
64,192,51932,1,0,0:0:0:0:
192,192,52017,1,0,0:0:0:0:
320,192,52103,1,0,0:0:0:0:
64,192,52189,1,0,0:0:0:0:
448,192,52274,1,0,0:0:0:0:
320,192,52360,1,0,0:0:0:0:
192,192,52446,1,0,0:0:0:0:
448,192,52532,1,0,0:0:0:0:
64,192,52617,1,0,0:0:0:0:
192,192,52703,1,0,0:0:0:0:
320,192,52789,1,0,0:0:0:0:
448,192,52874,1,0,0:0:0:0:
64,192,52960,1,0,0:0:0:0:
192,192,53046,1,0,0:0:0:0:
320,192,53132,1,0,0:0:0:0:
448,192,53217,1,0,0:0:0:0:
192,192,53303,1,0,0:0:0:0:
64,192,53303,128,0,54674:0:0:0:0:
192,192,55360,128,0,55703:0:0:0:0:
320,192,55703,128,0,56046:0:0:0:0:
448,192,56046,1,0,0:0:0:0:
64,192,56046,1,0,0:0:0:0:
192,192,56217,1,0,0:0:0:0:
320,192,56389,1,0,0:0:0:0:
448,192,56389,1,0,0:0:0:0:
64,192,56560,1,0,0:0:0:0:
320,192,56732,1,0,0:0:0:0:
192,192,56903,1,0,0:0:0:0:
64,192,57074,1,0,0:0:0:0:
448,192,57074,1,0,0:0:0:0:
320,192,57246,1,0,0:0:0:0:
192,192,57417,1,0,0:0:0:0:
448,192,57589,1,0,0:0:0:0:
320,192,57674,1,0,0:0:0:0:
192,192,57760,1,0,0:0:0:0:
64,192,57760,1,0,0:0:0:0:
448,192,57932,1,0,0:0:0:0:
64,192,58103,1,0,0:0:0:0:
320,192,58274,1,0,0:0:0:0:
192,192,58446,1,0,0:0:0:0:
448,192,58446,1,0,0:0:0:0:
64,192,58617,1,0,0:0:0:0:
448,192,58789,1,0,0:0:0:0:
192,192,58960,1,0,0:0:0:0:
64,192,59132,1,0,0:0:0:0:
320,192,59132,1,0,0:0:0:0:
448,192,59303,1,0,0:0:0:0:
64,192,59474,1,0,0:0:0:0:
192,192,59646,1,0,0:0:0:0:
320,192,59817,1,0,0:0:0:0:
448,192,59817,1,0,0:0:0:0:
64,192,59989,1,0,0:0:0:0:
320,192,60160,1,0,0:0:0:0:
448,192,60246,1,0,0:0:0:0:
64,192,60332,1,0,0:0:0:0:
192,192,60417,1,0,0:0:0:0:
320,192,60503,1,0,0:0:0:0:
448,192,60589,1,0,0:0:0:0:
192,192,60674,1,0,0:0:0:0:
64,192,60760,1,0,0:0:0:0:
448,192,60846,1,0,0:0:0:0:
320,192,60932,1,0,0:0:0:0:
192,192,61017,1,0,0:0:0:0:
64,192,61103,1,0,0:0:0:0:
448,192,61189,1,0,0:0:0:0:
192,192,61360,1,0,0:0:0:0:
320,192,61446,1,0,0:0:0:0:
192,192,61532,1,0,0:0:0:0:
64,192,61532,1,0,0:0:0:0:
448,192,61703,1,0,0:0:0:0:
320,192,61789,1,0,0:0:0:0:
192,192,61874,1,0,0:0:0:0:
448,192,62046,1,0,0:0:0:0:
192,192,62217,1,0,0:0:0:0:
64,192,62217,1,0,0:0:0:0:
320,192,62389,1,0,0:0:0:0:
192,192,62474,1,0,0:0:0:0:
64,192,62560,1,0,0:0:0:0:
448,192,62732,1,0,0:0:0:0:
320,192,62903,1,0,0:0:0:0:
64,192,62903,1,0,0:0:0:0:
192,192,63074,1,0,0:0:0:0:
320,192,63160,1,0,0:0:0:0:
448,192,63246,1,0,0:0:0:0:
64,192,63417,1,0,0:0:0:0:
192,192,63589,1,0,0:0:0:0:
448,192,63589,1,0,0:0:0:0:
320,192,63760,1,0,0:0:0:0:
192,192,63846,1,0,0:0:0:0:
64,192,63932,1,0,0:0:0:0:
448,192,64103,1,0,0:0:0:0:
192,192,64274,1,0,0:0:0:0:
64,192,64274,128,0,64617:0:0:0:0:
320,192,64617,1,0,0:0:0:0:
64,192,64789,1,0,0:0:0:0:
448,192,64960,128,0,65132:0:0:0:0:
192,192,65132,1,0,0:0:0:0:
320,192,65217,1,0,0:0:0:0:
448,192,65303,1,0,0:0:0:0:
64,192,65474,1,0,0:0:0:0:
192,192,65817,1,0,0:0:0:0:
448,192,65817,1,0,0:0:0:0:
320,192,65989,1,0,0:0:0:0:
64,192,65989,1,0,0:0:0:0:
192,192,66160,1,0,0:0:0:0:
448,192,66160,1,0,0:0:0:0:
320,192,66332,1,0,0:0:0:0:
64,192,66332,1,0,0:0:0:0:
192,192,66674,1,0,0:0:0:0:
320,192,66674,1,0,0:0:0:0:
64,192,66846,1,0,0:0:0:0:
320,192,67017,1,0,0:0:0:0:
448,192,67017,1,0,0:0:0:0:
64,192,67189,1,0,0:0:0:0:
192,192,67360,1,0,0:0:0:0:
448,192,67360,1,0,0:0:0:0:
320,192,67532,1,0,0:0:0:0:
64,192,67703,1,0,0:0:0:0:
448,192,67874,1,0,0:0:0:0:
320,192,68046,1,0,0:0:0:0:
192,192,68046,1,0,0:0:0:0:
64,192,68217,1,0,0:0:0:0:
448,192,68389,1,0,0:0:0:0:
192,192,68560,1,0,0:0:0:0:
320,192,68646,1,0,0:0:0:0:
448,192,68732,1,0,0:0:0:0:
64,192,68732,1,0,0:0:0:0:
192,192,68903,1,0,0:0:0:0:
320,192,69074,1,0,0:0:0:0:
64,192,69246,1,0,0:0:0:0:
192,192,69417,1,0,0:0:0:0:
448,192,69417,1,0,0:0:0:0:
320,192,69589,1,0,0:0:0:0:
192,192,69760,1,0,0:0:0:0:
64,192,69932,1,0,0:0:0:0:
320,192,70103,1,0,0:0:0:0:
448,192,70103,1,0,0:0:0:0:
64,192,70274,1,0,0:0:0:0:
192,192,70446,1,0,0:0:0:0:
448,192,70617,1,0,0:0:0:0:
320,192,70789,1,0,0:0:0:0:
64,192,70789,1,0,0:0:0:0:
192,192,70960,1,0,0:0:0:0:
448,192,71132,1,0,0:0:0:0:
320,192,71217,1,0,0:0:0:0:
64,192,71303,1,0,0:0:0:0:
192,192,71389,1,0,0:0:0:0:
448,192,71474,1,0,0:0:0:0:
320,192,71560,1,0,0:0:0:0:
192,192,71646,1,0,0:0:0:0:
64,192,71732,1,0,0:0:0:0:
320,192,71817,1,0,0:0:0:0:
192,192,71903,1,0,0:0:0:0:
192,192,72074,1,0,0:0:0:0:
320,192,72160,1,0,0:0:0:0:
64,192,72332,1,0,0:0:0:0:
192,192,72417,1,0,0:0:0:0:
320,192,72503,1,0,0:0:0:0:
448,192,72503,1,0,0:0:0:0:
64,192,72674,1,0,0:0:0:0:
192,192,72846,1,0,0:0:0:0:
320,192,72846,1,0,0:0:0:0:
448,192,73017,1,0,0:0:0:0:
64,192,73189,1,0,0:0:0:0:
320,192,73360,1,0,0:0:0:0:
192,192,73532,1,0,0:0:0:0:
448,192,73532,1,0,0:0:0:0:
64,192,73703,1,0,0:0:0:0:
320,192,73874,1,0,0:0:0:0:
192,192,74046,1,0,0:0:0:0:
448,192,74217,1,0,0:0:0:0:
64,192,74217,1,0,0:0:0:0:
320,192,74389,1,0,0:0:0:0:
64,192,74560,1,0,0:0:0:0:
192,192,74732,1,0,0:0:0:0:
320,192,74903,1,0,0:0:0:0:
448,192,74903,1,0,0:0:0:0:
192,192,75074,1,0,0:0:0:0:
64,192,75246,1,0,0:0:0:0:
448,192,75246,1,0,0:0:0:0:
320,192,75417,1,0,0:0:0:0:
192,192,75589,1,0,0:0:0:0:
64,192,75589,1,0,0:0:0:0:
448,192,75760,1,0,0:0:0:0:
192,192,75932,1,0,0:0:0:0:
320,192,76103,1,0,0:0:0:0:
448,192,76274,1,0,0:0:0:0:
64,192,76274,1,0,0:0:0:0:
192,192,76446,1,0,0:0:0:0:
320,192,76617,1,0,0:0:0:0:
64,192,76789,1,0,0:0:0:0:
192,192,76960,1,0,0:0:0:0:
320,192,76960,1,0,0:0:0:0:
448,192,77132,1,0,0:0:0:0:
192,192,77303,1,0,0:0:0:0:
320,192,77389,1,0,0:0:0:0:
320,192,77560,1,0,0:0:0:0:
192,192,77646,1,0,0:0:0:0:
448,192,77817,1,0,0:0:0:0:
320,192,77903,1,0,0:0:0:0:
192,192,77989,1,0,0:0:0:0:
64,192,77989,1,0,0:0:0:0:
320,192,78160,1,0,0:0:0:0:
192,192,78246,1,0,0:0:0:0:
64,192,78332,1,0,0:0:0:0:
320,192,78503,1,0,0:0:0:0:
64,192,78674,1,0,0:0:0:0:
448,192,78846,1,0,0:0:0:0:
320,192,78932,1,0,0:0:0:0:
192,192,79017,1,0,0:0:0:0:
448,192,79189,1,0,0:0:0:0:
64,192,79360,1,0,0:0:0:0:
320,192,79532,1,0,0:0:0:0:
192,192,79617,1,0,0:0:0:0:
64,192,79703,1,0,0:0:0:0:
320,192,79874,1,0,0:0:0:0:
64,192,80046,1,0,0:0:0:0:
448,192,80217,1,0,0:0:0:0:
320,192,80303,1,0,0:0:0:0:
192,192,80389,1,0,0:0:0:0:
448,192,80560,1,0,0:0:0:0:
64,192,80732,128,0,81417:0:0:0:0:
320,192,81417,1,0,0:0:0:0:
64,192,81589,1,0,0:0:0:0:
320,192,81760,1,0,0:0:0:0:
64,192,82103,1,0,0:0:0:0:
192,192,82189,1,0,0:0:0:0:
320,192,82274,1,0,0:0:0:0:
448,192,82360,1,0,0:0:0:0:
64,192,82446,1,0,0:0:0:0:
192,192,82532,1,0,0:0:0:0:
320,192,82617,1,0,0:0:0:0:
448,192,82703,1,0,0:0:0:0:
64,192,82960,1,0,0:0:0:0:
448,192,83132,1,0,0:0:0:0:
64,192,83474,1,0,0:0:0:0:
320,192,83474,1,0,0:0:0:0:
448,192,83646,128,0,83989:0:0:0:0:
192,192,83817,1,0,0:0:0:0:
64,192,83989,1,0,0:0:0:0:
448,192,84160,1,0,0:0:0:0:
192,192,84332,1,0,0:0:0:0:
320,192,84417,1,0,0:0:0:0:
448,192,84503,1,0,0:0:0:0:
64,192,84674,1,0,0:0:0:0:
448,192,84846,128,0,85017:0:0:0:0:
64,192,85017,128,0,85189:0:0:0:0:
320,192,85189,128,0,85360:0:0:0:0:
64,192,85360,128,0,85532:0:0:0:0:
448,192,85532,1,0,0:0:0:0:
320,192,85617,1,0,0:0:0:0:
192,192,85703,1,0,0:0:0:0:
64,192,85789,1,0,0:0:0:0:
448,192,85874,1,0,0:0:0:0:
192,192,86046,1,0,0:0:0:0:
448,192,86217,1,0,0:0:0:0:
64,192,86389,128,0,86732:0:0:0:0:
320,192,86560,1,0,0:0:0:0:
448,192,86732,1,0,0:0:0:0:
64,192,86903,1,0,0:0:0:0:
192,192,86989,1,0,0:0:0:0:
448,192,87074,1,0,0:0:0:0:
320,192,87160,1,0,0:0:0:0:
192,192,87246,1,0,0:0:0:0:
64,192,87332,1,0,0:0:0:0:
448,192,87417,1,0,0:0:0:0:
320,192,87503,1,0,0:0:0:0:
192,192,87589,1,0,0:0:0:0:
448,192,87760,1,0,0:0:0:0:
64,192,87932,1,0,0:0:0:0:
448,192,88103,1,0,0:0:0:0:
192,192,88274,1,0,0:0:0:0:
320,192,88360,1,0,0:0:0:0:
320,192,88532,1,0,0:0:0:0:
192,192,88617,1,0,0:0:0:0:
448,192,88789,1,0,0:0:0:0:
320,192,88874,1,0,0:0:0:0:
192,192,88960,1,0,0:0:0:0:
64,192,88960,1,0,0:0:0:0:
448,192,89132,128,0,89474:0:0:0:0:
192,192,89303,1,0,0:0:0:0:
320,192,89474,1,0,0:0:0:0:
192,192,89560,1,0,0:0:0:0:
64,192,89646,1,0,0:0:0:0:
448,192,89817,1,0,0:0:0:0:
64,192,89989,1,0,0:0:0:0:
320,192,90160,1,0,0:0:0:0:
192,192,90246,1,0,0:0:0:0:
64,192,90332,128,0,90503:0:0:0:0:
320,192,90503,1,0,0:0:0:0:
192,192,90589,1,0,0:0:0:0:
448,192,90674,128,0,90846:0:0:0:0:
192,192,90846,1,0,0:0:0:0:
320,192,90932,1,0,0:0:0:0:
64,192,91017,1,0,0:0:0:0:
192,192,91103,1,0,0:0:0:0:
320,192,91189,1,0,0:0:0:0:
448,192,91274,1,0,0:0:0:0:
64,192,91360,1,0,0:0:0:0:
320,192,91532,1,0,0:0:0:0:
192,192,91703,1,0,0:0:0:0:
448,192,91703,1,0,0:0:0:0:
64,192,92046,128,0,92389:0:0:0:0:
192,192,92389,128,0,92732:0:0:0:0:
320,192,92732,128,0,93074:0:0:0:0:
448,192,93074,1,0,0:0:0:0:
64,192,93246,1,0,0:0:0:0:
192,192,93332,1,0,0:0:0:0:
320,192,93417,1,0,0:0:0:0:
64,192,93589,1,0,0:0:0:0:
448,192,93760,128,0,94103:0:0:0:0:
64,192,94103,1,0,0:0:0:0:
448,192,94446,1,0,0:0:0:0:
320,192,94446,1,0,0:0:0:0:
64,192,94617,1,0,0:0:0:0:
192,192,94703,1,0,0:0:0:0:
320,192,94789,1,0,0:0:0:0:
448,192,94960,1,0,0:0:0:0:
320,192,95046,1,0,0:0:0:0:
192,192,95132,1,0,0:0:0:0:
64,192,95303,1,0,0:0:0:0:
192,192,95389,1,0,0:0:0:0:
320,192,95474,1,0,0:0:0:0:
64,192,95817,1,0,0:0:0:0:
320,192,95989,1,0,0:0:0:0:
192,192,96074,1,0,0:0:0:0:
64,192,96160,1,0,0:0:0:0:
192,192,96332,1,0,0:0:0:0:
320,192,96417,1,0,0:0:0:0:
448,192,96503,1,0,0:0:0:0:
64,192,96674,1,0,0:0:0:0:
64,192,96846,1,0,0:0:0:0:
448,192,97189,1,0,0:0:0:0:
320,192,97274,1,0,0:0:0:0:
192,192,97360,1,0,0:0:0:0:
64,192,97446,1,0,0:0:0:0:
448,192,97532,128,0,97703:0:0:0:0:
64,192,97874,1,0,0:0:0:0:
192,192,97960,1,0,0:0:0:0:
320,192,98046,1,0,0:0:0:0:
448,192,98132,1,0,0:0:0:0:
64,192,98217,128,0,98389:0:0:0:0:
448,192,98560,1,0,0:0:0:0:
64,192,98646,1,0,0:0:0:0:
192,192,98732,1,0,0:0:0:0:
320,192,98817,1,0,0:0:0:0:
448,192,98903,1,0,0:0:0:0:
64,192,99074,1,0,0:0:0:0:
320,192,99246,1,0,0:0:0:0:
192,192,99332,1,0,0:0:0:0:
448,192,99417,1,0,0:0:0:0:
320,192,99503,1,0,0:0:0:0:
192,192,99589,1,0,0:0:0:0:
64,192,99760,1,0,0:0:0:0:
192,192,99846,1,0,0:0:0:0:
320,192,99932,1,0,0:0:0:0:
448,192,99932,1,0,0:0:0:0:
448,192,100103,1,0,0:0:0:0:
320,192,100189,1,0,0:0:0:0:
192,192,100274,1,0,0:0:0:0:
64,192,100446,1,0,0:0:0:0:
192,192,100532,1,0,0:0:0:0:
320,192,100617,1,0,0:0:0:0:
448,192,100789,1,0,0:0:0:0:
320,192,100874,1,0,0:0:0:0:
192,192,100960,1,0,0:0:0:0:
448,192,101303,1,0,0:0:0:0:
192,192,101474,1,0,0:0:0:0:
320,192,101560,1,0,0:0:0:0:
448,192,101646,1,0,0:0:0:0:
320,192,101817,1,0,0:0:0:0:
192,192,101903,1,0,0:0:0:0:
64,192,101989,1,0,0:0:0:0:
448,192,102160,1,0,0:0:0:0:
448,192,102332,1,0,0:0:0:0:
64,192,102503,128,0,102674:0:0:0:0:
192,192,102674,128,0,102846:0:0:0:0:
448,192,102846,128,0,103017:0:0:0:0:
320,192,103017,128,0,103189:0:0:0:0:
64,192,103189,128,0,103360:0:0:0:0:
192,192,103360,128,0,103532:0:0:0:0:
448,192,103532,128,0,103703:0:0:0:0:
320,192,103703,128,0,103874:0:0:0:0:
64,192,103874,128,0,104046:0:0:0:0:
192,192,104046,1,0,0:0:0:0:
320,192,104217,1,0,0:0:0:0:
64,192,104389,1,0,0:0:0:0:
320,192,104560,1,0,0:0:0:0:
192,192,104732,1,0,0:0:0:0:
448,192,104903,1,0,0:0:0:0:
320,192,104989,1,0,0:0:0:0:
192,192,105074,1,0,0:0:0:0:
64,192,105160,1,0,0:0:0:0:
448,192,105246,1,0,0:0:0:0:
192,192,105417,1,0,0:0:0:0:
64,192,105417,1,0,0:0:0:0:
448,192,105589,1,0,0:0:0:0:
192,192,105760,1,0,0:0:0:0:
320,192,105760,1,0,0:0:0:0:
64,192,105932,1,0,0:0:0:0:
192,192,106017,1,0,0:0:0:0:
320,192,106103,1,0,0:0:0:0:
448,192,106274,1,0,0:0:0:0:
192,192,106446,1,0,0:0:0:0:
64,192,106446,1,0,0:0:0:0:
448,192,106789,1,0,0:0:0:0:
192,192,106960,1,0,0:0:0:0:
320,192,107132,1,0,0:0:0:0:
64,192,107132,1,0,0:0:0:0:
448,192,107303,1,0,0:0:0:0:
320,192,107389,1,0,0:0:0:0:
192,192,107474,1,0,0:0:0:0:
448,192,107646,1,0,0:0:0:0:
448,192,107817,1,0,0:0:0:0:
64,192,107817,1,0,0:0:0:0:
64,192,108160,1,0,0:0:0:0:
192,192,108246,1,0,0:0:0:0:
320,192,108332,1,0,0:0:0:0:
448,192,108417,1,0,0:0:0:0:
64,192,108503,128,0,108674:0:0:0:0:
448,192,108846,1,0,0:0:0:0:
320,192,108932,1,0,0:0:0:0:
192,192,109017,1,0,0:0:0:0:
64,192,109103,1,0,0:0:0:0:
448,192,109189,128,0,109360:0:0:0:0:
64,192,109532,1,0,0:0:0:0:
320,192,109703,1,0,0:0:0:0:
192,192,109789,1,0,0:0:0:0:
64,192,109874,1,0,0:0:0:0:
448,192,110046,1,0,0:0:0:0:
192,192,110217,1,0,0:0:0:0:
320,192,110303,1,0,0:0:0:0:
320,192,110474,1,0,0:0:0:0:
192,192,110560,1,0,0:0:0:0:
448,192,110732,1,0,0:0:0:0:
320,192,110817,1,0,0:0:0:0:
192,192,110903,1,0,0:0:0:0:
64,192,110903,1,0,0:0:0:0:
448,192,111074,1,0,0:0:0:0:
320,192,111246,1,0,0:0:0:0:
64,192,111246,1,0,0:0:0:0:
448,192,111417,1,0,0:0:0:0:
320,192,111503,1,0,0:0:0:0:
192,192,111589,1,0,0:0:0:0:
64,192,111760,1,0,0:0:0:0:
320,192,111932,1,0,0:0:0:0:
448,192,111932,1,0,0:0:0:0:
192,192,112274,1,0,0:0:0:0:
320,192,112446,1,0,0:0:0:0:
64,192,112617,1,0,0:0:0:0:
448,192,112617,1,0,0:0:0:0:
192,192,112789,1,0,0:0:0:0:
320,192,112874,1,0,0:0:0:0:
448,192,112960,1,0,0:0:0:0:
64,192,113132,1,0,0:0:0:0:
64,192,113303,1,0,0:0:0:0:
192,192,113303,1,0,0:0:0:0:
448,192,113474,1,0,0:0:0:0:
192,192,113646,128,0,113817:0:0:0:0:
448,192,113817,1,0,0:0:0:0:
320,192,113903,1,0,0:0:0:0:
192,192,113989,1,0,0:0:0:0:
448,192,114160,1,0,0:0:0:0:
64,192,114332,1,0,0:0:0:0:
320,192,114503,1,0,0:0:0:0:
192,192,114589,1,0,0:0:0:0:
64,192,114674,1,0,0:0:0:0:
448,192,114846,1,0,0:0:0:0:
320,192,115017,128,0,115189:0:0:0:0:
64,192,115189,1,0,0:0:0:0:
192,192,115274,1,0,0:0:0:0:
320,192,115360,1,0,0:0:0:0:
64,192,115532,1,0,0:0:0:0:
448,192,115703,1,0,0:0:0:0:
320,192,116046,128,0,116217:0:0:0:0:
64,192,116217,128,0,116389:0:0:0:0:
448,192,116389,128,0,116560:0:0:0:0:
192,192,116560,128,0,116732:0:0:0:0:
448,192,116732,128,0,116903:0:0:0:0:
64,192,117074,128,0,117246:0:0:0:0:
192,192,117246,128,0,117417:0:0:0:0:
320,192,117417,128,0,117589:0:0:0:0:
448,192,117589,128,0,117760:0:0:0:0:
64,192,117760,128,0,118446:0:0:0:0:
448,192,118617,1,0,0:0:0:0:
192,192,118789,1,0,0:0:0:0:
320,192,118960,1,0,0:0:0:0:
64,192,119132,128,0,119389:0:0:0:0:
320,192,119389,1,0,0:0:0:0:
192,192,119474,1,0,0:0:0:0:
448,192,119646,1,0,0:0:0:0:
64,192,119817,128,0,120074:0:0:0:0:
320,192,120074,1,0,0:0:0:0:
192,192,120160,1,0,0:0:0:0:
448,192,120332,1,0,0:0:0:0:
64,192,120503,1,0,0:0:0:0:
320,192,120674,1,0,0:0:0:0:
192,192,120760,1,0,0:0:0:0:
320,192,120846,1,0,0:0:0:0:
64,192,121017,1,0,0:0:0:0:
192,192,121103,1,0,0:0:0:0:
320,192,121189,1,0,0:0:0:0:
448,192,121274,1,0,0:0:0:0:
64,192,121360,1,0,0:0:0:0:
192,192,121446,1,0,0:0:0:0:
320,192,121532,1,0,0:0:0:0:
192,192,121703,1,0,0:0:0:0:
64,192,121874,128,0,122046:0:0:0:0:
320,192,121874,1,0,0:0:0:0:
448,192,122046,128,0,122217:0:0:0:0:
64,192,122217,128,0,122389:0:0:0:0:
320,192,122389,1,0,0:0:0:0:
64,192,122560,128,0,122732:0:0:0:0:
192,192,122732,128,0,122903:0:0:0:0:
448,192,122903,128,0,123074:0:0:0:0:
320,192,123074,128,0,123246:0:0:0:0:
64,192,123246,128,0,123932:0:0:0:0:
448,192,123417,1,0,0:0:0:0:
192,192,123589,1,0,0:0:0:0:
448,192,123760,1,0,0:0:0:0:
192,192,123932,1,0,0:0:0:0:
320,192,124103,1,0,0:0:0:0:
192,192,124274,1,0,0:0:0:0:
64,192,124446,1,0,0:0:0:0:
320,192,124617,1,0,0:0:0:0:
448,192,124617,128,0,125303:0:0:0:0:
192,192,125303,1,0,0:0:0:0:
64,192,125303,128,0,125989:0:0:0:0:
320,192,125989,128,0,126332:0:0:0:0:
64,192,126332,128,0,126503:0:0:0:0:
320,192,126503,128,0,126674:0:0:0:0:
192,192,126674,128,0,127017:0:0:0:0:
448,192,127017,128,0,127360:0:0:0:0:
64,192,127360,1,0,0:0:0:0:
320,192,127360,1,0,0:0:0:0:
192,192,127532,1,0,0:0:0:0:
448,192,127703,1,0,0:0:0:0:
320,192,127789,1,0,0:0:0:0:
192,192,127874,1,0,0:0:0:0:
64,192,127960,1,0,0:0:0:0:
320,192,128046,1,0,0:0:0:0:
448,192,128046,1,0,0:0:0:0:
320,192,128389,1,0,0:0:0:0:
192,192,128389,1,0,0:0:0:0:
64,192,128732,1,0,0:0:0:0:
448,192,128732,1,0,0:0:0:0:
320,192,128903,1,0,0:0:0:0:
64,192,129074,1,0,0:0:0:0:
192,192,129160,1,0,0:0:0:0:
320,192,129246,1,0,0:0:0:0:
448,192,129332,1,0,0:0:0:0:
192,192,129417,1,0,0:0:0:0:
64,192,129417,1,0,0:0:0:0:
192,192,129760,1,0,0:0:0:0:
320,192,129760,1,0,0:0:0:0:
448,192,130103,1,0,0:0:0:0:
320,192,130189,1,0,0:0:0:0:
192,192,130274,1,0,0:0:0:0:
64,192,130446,1,0,0:0:0:0:
192,192,130532,1,0,0:0:0:0:
320,192,130617,1,0,0:0:0:0:
448,192,130789,1,0,0:0:0:0:
320,192,130874,1,0,0:0:0:0:
192,192,130960,1,0,0:0:0:0:
64,192,131132,1,0,0:0:0:0:
192,192,131217,1,0,0:0:0:0:
320,192,131303,1,0,0:0:0:0:
448,192,131474,1,0,0:0:0:0:
320,192,131560,1,0,0:0:0:0:
192,192,131646,1,0,0:0:0:0:
448,192,131732,1,0,0:0:0:0:
64,192,131817,1,0,0:0:0:0:
192,192,131903,1,0,0:0:0:0:
320,192,131989,1,0,0:0:0:0:
64,192,132074,1,0,0:0:0:0:
448,192,132160,1,0,0:0:0:0:
320,192,132246,1,0,0:0:0:0:
192,192,132332,1,0,0:0:0:0:
64,192,132417,1,0,0:0:0:0:
448,192,132503,1,0,0:0:0:0:
320,192,132589,1,0,0:0:0:0:
192,192,132674,1,0,0:0:0:0:
64,192,132760,1,0,0:0:0:0:
320,192,132846,1,0,0:0:0:0:
448,192,132846,128,0,134217:0:0:0:0:
320,192,134903,128,0,135246:0:0:0:0:
192,192,135246,128,0,135589:0:0:0:0:
64,192,135589,1,0,0:0:0:0:
448,192,135589,1,0,0:0:0:0:
320,192,135760,1,0,0:0:0:0:
192,192,135932,1,0,0:0:0:0:
64,192,135932,1,0,0:0:0:0:
448,192,136103,1,0,0:0:0:0:
192,192,136274,1,0,0:0:0:0:
320,192,136446,1,0,0:0:0:0:
448,192,136617,1,0,0:0:0:0:
64,192,136617,1,0,0:0:0:0:
192,192,136789,1,0,0:0:0:0:
320,192,136960,1,0,0:0:0:0:
64,192,137132,1,0,0:0:0:0:
192,192,137217,1,0,0:0:0:0:
320,192,137303,1,0,0:0:0:0:
448,192,137303,1,0,0:0:0:0:
64,192,137474,1,0,0:0:0:0:
448,192,137646,1,0,0:0:0:0:
192,192,137817,1,0,0:0:0:0:
320,192,137989,1,0,0:0:0:0:
64,192,137989,1,0,0:0:0:0:
448,192,138160,1,0,0:0:0:0:
64,192,138332,1,0,0:0:0:0:
320,192,138503,1,0,0:0:0:0:
448,192,138674,1,0,0:0:0:0:
192,192,138674,1,0,0:0:0:0:
64,192,138846,1,0,0:0:0:0:
448,192,139017,1,0,0:0:0:0:
320,192,139189,1,0,0:0:0:0:
192,192,139360,1,0,0:0:0:0:
64,192,139360,1,0,0:0:0:0:
448,192,139532,1,0,0:0:0:0:
192,192,139703,1,0,0:0:0:0:
64,192,139789,1,0,0:0:0:0:
448,192,139874,1,0,0:0:0:0:
320,192,139960,1,0,0:0:0:0:
192,192,140046,1,0,0:0:0:0:
64,192,140132,1,0,0:0:0:0:
320,192,140217,1,0,0:0:0:0:
448,192,140303,1,0,0:0:0:0:
64,192,140389,1,0,0:0:0:0:
192,192,140474,1,0,0:0:0:0:
320,192,140560,1,0,0:0:0:0:
448,192,140646,1,0,0:0:0:0:
64,192,140732,1,0,0:0:0:0:
320,192,140903,1,0,0:0:0:0:
192,192,140989,1,0,0:0:0:0:
320,192,141074,1,0,0:0:0:0:
448,192,141074,1,0,0:0:0:0:
64,192,141246,1,0,0:0:0:0:
192,192,141332,1,0,0:0:0:0:
320,192,141417,1,0,0:0:0:0:
64,192,141589,1,0,0:0:0:0:
320,192,141760,1,0,0:0:0:0:
448,192,141760,1,0,0:0:0:0:
192,192,141932,1,0,0:0:0:0:
320,192,142017,1,0,0:0:0:0:
448,192,142103,1,0,0:0:0:0:
64,192,142274,1,0,0:0:0:0:
192,192,142446,1,0,0:0:0:0:
448,192,142446,1,0,0:0:0:0:
320,192,142617,1,0,0:0:0:0:
192,192,142703,1,0,0:0:0:0:
64,192,142789,1,0,0:0:0:0:
448,192,142960,1,0,0:0:0:0:
320,192,143132,1,0,0:0:0:0:
64,192,143132,1,0,0:0:0:0:
192,192,143303,1,0,0:0:0:0:
320,192,143389,1,0,0:0:0:0:
448,192,143474,1,0,0:0:0:0:
64,192,143646,1,0,0:0:0:0:
320,192,143817,1,0,0:0:0:0:
448,192,143817,128,0,144160:0:0:0:0:
192,192,144160,1,0,0:0:0:0:
448,192,144332,1,0,0:0:0:0:
64,192,144503,128,0,144674:0:0:0:0:
320,192,144674,1,0,0:0:0:0:
192,192,144760,1,0,0:0:0:0:
64,192,144846,1,0,0:0:0:0:
448,192,145017,1,0,0:0:0:0:
320,192,145360,1,0,0:0:0:0:
64,192,145360,1,0,0:0:0:0:
192,192,145532,1,0,0:0:0:0:
448,192,145532,1,0,0:0:0:0:
320,192,145703,1,0,0:0:0:0:
64,192,145703,1,0,0:0:0:0:
192,192,145874,1,0,0:0:0:0:
448,192,145874,1,0,0:0:0:0:
320,192,146217,1,0,0:0:0:0:
192,192,146217,1,0,0:0:0:0:
448,192,146389,1,0,0:0:0:0:
192,192,146560,1,0,0:0:0:0:
64,192,146560,1,0,0:0:0:0:
448,192,146732,1,0,0:0:0:0:
320,192,146903,1,0,0:0:0:0:
64,192,146903,1,0,0:0:0:0:
192,192,147074,1,0,0:0:0:0:
448,192,147246,1,0,0:0:0:0:
64,192,147417,1,0,0:0:0:0:
192,192,147589,1,0,0:0:0:0:
320,192,147589,1,0,0:0:0:0:
448,192,147760,1,0,0:0:0:0:
64,192,147932,1,0,0:0:0:0:
320,192,148103,1,0,0:0:0:0:
192,192,148189,1,0,0:0:0:0:
64,192,148274,1,0,0:0:0:0:
448,192,148274,1,0,0:0:0:0:
320,192,148446,1,0,0:0:0:0:
192,192,148617,1,0,0:0:0:0:
448,192,148789,1,0,0:0:0:0:
320,192,148960,1,0,0:0:0:0:
64,192,148960,1,0,0:0:0:0:
192,192,149132,1,0,0:0:0:0:
320,192,149303,1,0,0:0:0:0:
448,192,149474,1,0,0:0:0:0:
192,192,149646,1,0,0:0:0:0:
64,192,149646,1,0,0:0:0:0:
448,192,149817,1,0,0:0:0:0:
320,192,149989,1,0,0:0:0:0:
64,192,150160,1,0,0:0:0:0:
192,192,150332,1,0,0:0:0:0:
448,192,150332,1,0,0:0:0:0:
320,192,150503,1,0,0:0:0:0:
64,192,150674,1,0,0:0:0:0:
192,192,150760,1,0,0:0:0:0:
448,192,150846,1,0,0:0:0:0:
320,192,150932,1,0,0:0:0:0:
64,192,151017,1,0,0:0:0:0:
192,192,151103,1,0,0:0:0:0:
320,192,151189,1,0,0:0:0:0:
448,192,151274,1,0,0:0:0:0:
192,192,151360,1,0,0:0:0:0:
320,192,151446,1,0,0:0:0:0:
320,192,151617,1,0,0:0:0:0:
192,192,151703,1,0,0:0:0:0:
448,192,151874,1,0,0:0:0:0:
320,192,151960,1,0,0:0:0:0:
192,192,152046,1,0,0:0:0:0:
64,192,152046,1,0,0:0:0:0:
448,192,152217,1,0,0:0:0:0:
320,192,152389,1,0,0:0:0:0:
192,192,152389,1,0,0:0:0:0:
64,192,152560,1,0,0:0:0:0:
448,192,152732,1,0,0:0:0:0:
192,192,152903,1,0,0:0:0:0:
320,192,153074,1,0,0:0:0:0:
64,192,153074,1,0,0:0:0:0:
448,192,153246,1,0,0:0:0:0:
192,192,153417,1,0,0:0:0:0:
320,192,153589,1,0,0:0:0:0:
64,192,153760,1,0,0:0:0:0:
448,192,153760,1,0,0:0:0:0:
192,192,153932,1,0,0:0:0:0:
448,192,154103,1,0,0:0:0:0:
320,192,154274,1,0,0:0:0:0:
192,192,154446,1,0,0:0:0:0:
64,192,154446,1,0,0:0:0:0:
320,192,154617,1,0,0:0:0:0:
448,192,154789,1,0,0:0:0:0:
64,192,154789,1,0,0:0:0:0:
192,192,154960,1,0,0:0:0:0:
320,192,155132,1,0,0:0:0:0:
448,192,155132,1,0,0:0:0:0:
64,192,155303,1,0,0:0:0:0:
320,192,155474,1,0,0:0:0:0:
192,192,155646,1,0,0:0:0:0:
64,192,155817,1,0,0:0:0:0:
448,192,155817,1,0,0:0:0:0:
320,192,155989,1,0,0:0:0:0:
192,192,156160,1,0,0:0:0:0:
448,192,156332,1,0,0:0:0:0:
320,192,156503,1,0,0:0:0:0:
192,192,156503,1,0,0:0:0:0:
64,192,156674,1,0,0:0:0:0:
320,192,156846,1,0,0:0:0:0:
192,192,156932,1,0,0:0:0:0:
192,192,157103,1,0,0:0:0:0:
320,192,157189,1,0,0:0:0:0:
64,192,157360,1,0,0:0:0:0:
192,192,157446,1,0,0:0:0:0:
320,192,157532,1,0,0:0:0:0:
448,192,157532,1,0,0:0:0:0:
192,192,157703,1,0,0:0:0:0:
320,192,157789,1,0,0:0:0:0:
448,192,157874,1,0,0:0:0:0:
192,192,158046,1,0,0:0:0:0:
448,192,158217,1,0,0:0:0:0:
64,192,158389,1,0,0:0:0:0:
192,192,158474,1,0,0:0:0:0:
320,192,158560,1,0,0:0:0:0:
64,192,158732,1,0,0:0:0:0:
448,192,158903,1,0,0:0:0:0:
192,192,159074,1,0,0:0:0:0:
320,192,159160,1,0,0:0:0:0:
448,192,159246,1,0,0:0:0:0:
192,192,159417,1,0,0:0:0:0:
448,192,159589,1,0,0:0:0:0:
64,192,159760,1,0,0:0:0:0:
192,192,159846,1,0,0:0:0:0:
320,192,159932,1,0,0:0:0:0:
64,192,160103,1,0,0:0:0:0:
448,192,160274,128,0,160960:0:0:0:0:
192,192,160960,1,0,0:0:0:0:
448,192,161132,1,0,0:0:0:0:
192,192,161303,1,0,0:0:0:0:
448,192,161646,1,0,0:0:0:0:
320,192,161732,1,0,0:0:0:0:
192,192,161817,1,0,0:0:0:0:
64,192,161903,1,0,0:0:0:0:
448,192,161989,1,0,0:0:0:0:
320,192,162074,1,0,0:0:0:0:
192,192,162160,1,0,0:0:0:0:
64,192,162246,1,0,0:0:0:0:
448,192,162503,1,0,0:0:0:0:
64,192,162674,1,0,0:0:0:0:
192,192,163017,1,0,0:0:0:0:
320,192,163017,1,0,0:0:0:0:
448,192,163703,1,0,0:0:0:0:
192,192,163846,1,0,0:0:0:0:
64,192,163989,1,0,0:0:0:0:
448,192,164389,1,0,0:0:0:0:
192,192,164532,1,0,0:0:0:0:
64,192,164703,1,0,0:0:0:0:
448,192,164903,1,0,0:0:0:0:
192,192,165103,1,0,0:0:0:0:
64,192,165446,1,0,0:0:0:0:
192,192,166103,1,0,0:0:0:0:
320,192,166274,1,0,0:0:0:0:
448,192,166446,1,0,0:0:0:0:
192,192,166617,1,0,0:0:0:0:
64,192,166789,1,0,0:0:0:0:
448,192,167160,1,0,0:0:0:0:
192,192,167474,1,0,0:0:0:0:
320,192,167646,1,0,0:0:0:0:
64,192,167817,1,0,0:0:0:0:
448,192,168160,1,0,0:0:0:0:
64,192,168503,1,0,0:0:0:0:
192,192,168674,1,0,0:0:0:0:
320,192,168846,1,0,0:0:0:0:
448,192,169017,1,0,0:0:0:0:
64,192,169189,1,0,0:0:0:0:
320,192,169532,1,0,0:0:0:0:
192,192,169703,1,0,0:0:0:0:
320,192,169789,1,0,0:0:0:0:
448,192,169874,1,0,0:0:0:0:
64,192,169989,128,0,171246:0:0:0:0:
448,192,170217,1,0,0:0:0:0:
320,192,170389,1,0,0:0:0:0:
192,192,170560,1,0,0:0:0:0:
448,192,170817,1,0,0:0:0:0:
192,192,171246,1,0,0:0:0:0:
320,192,171589,1,0,0:0:0:0:
64,192,171760,1,0,0:0:0:0:
192,192,171932,1,0,0:0:0:0:
320,192,172103,1,0,0:0:0:0:
448,192,172274,1,0,0:0:0:0:
64,192,172446,1,0,0:0:0:0:
320,192,172617,1,0,0:0:0:0:
192,192,172960,1,0,0:0:0:0:
448,192,173303,1,0,0:0:0:0:
64,192,173474,1,0,0:0:0:0:
320,192,173646,1,0,0:0:0:0:
64,192,173817,1,0,0:0:0:0:
192,192,173989,1,0,0:0:0:0:
448,192,173989,128,0,174674:0:0:0:0:
192,192,174674,1,0,0:0:0:0:
320,192,175017,1,0,0:0:0:0:
64,192,175360,128,0,175703:0:0:0:0:
192,192,175703,1,0,0:0:0:0:
320,192,175874,1,0,0:0:0:0:
448,192,176046,128,0,176389:0:0:0:0:
192,192,176732,128,0,177074:0:0:0:0:
320,192,177074,1,0,0:0:0:0:
64,192,177246,1,0,0:0:0:0:
448,192,177417,128,0,177760:0:0:0:0:
192,192,177760,1,0,0:0:0:0:
320,192,177932,1,0,0:0:0:0:
64,192,178103,1,0,0:0:0:0:
192,192,178274,1,0,0:0:0:0:
320,192,178446,1,0,0:0:0:0:
448,192,178617,1,0,0:0:0:0:
64,192,178789,128,0,179132:0:0:0:0:
320,192,179474,128,0,179817:0:0:0:0:
192,192,179817,1,0,0:0:0:0:
448,192,179989,1,0,0:0:0:0:
64,192,180332,1,0,0:0:0:0:
320,192,180503,1,0,0:0:0:0:
192,192,180674,1,0,0:0:0:0:
448,192,180846,1,0,0:0:0:0:
320,192,181017,1,0,0:0:0:0:
192,192,181189,1,0,0:0:0:0:
64,192,181360,1,0,0:0:0:0:
448,192,181532,128,0,181874:0:0:0:0:
192,192,182217,1,0,0:0:0:0:
320,192,182389,1,0,0:0:0:0:
64,192,182560,1,0,0:0:0:0:
192,192,182732,1,0,0:0:0:0:
448,192,182903,128,0,183246:0:0:0:0:
192,192,183246,1,0,0:0:0:0:
64,192,183417,1,0,0:0:0:0:
320,192,183589,1,0,0:0:0:0:
192,192,183760,1,0,0:0:0:0:
448,192,183932,1,0,0:0:0:0:
320,192,184103,1,0,0:0:0:0:
64,192,184274,128,0,184617:0:0:0:0:
448,192,184960,128,0,185217:0:0:0:0:
192,192,185217,1,0,0:0:0:0:
320,192,185303,1,0,0:0:0:0:
64,192,185474,1,0,0:0:0:0:
448,192,185646,128,0,185903:0:0:0:0:
192,192,185903,1,0,0:0:0:0:
320,192,185989,1,0,0:0:0:0:
64,192,186160,1,0,0:0:0:0:
448,192,186332,128,0,186589:0:0:0:0:
192,192,186589,1,0,0:0:0:0:
320,192,186674,1,0,0:0:0:0:
64,192,186846,1,0,0:0:0:0:
192,192,187017,1,0,0:0:0:0:
448,192,187189,1,0,0:0:0:0:
320,192,187274,1,0,0:0:0:0:
192,192,187360,1,0,0:0:0:0:
64,192,187446,1,0,0:0:0:0:
320,192,187532,1,0,0:0:0:0:
192,192,187617,1,0,0:0:0:0:
448,192,187703,1,0,0:0:0:0:
64,192,187874,128,0,188046:0:0:0:0:
192,192,188046,128,0,188217:0:0:0:0:
320,192,188217,128,0,188389:0:0:0:0:
64,192,188389,128,0,188560:0:0:0:0:
448,192,188560,128,0,188732:0:0:0:0:
192,192,188732,128,0,188903:0:0:0:0:
320,192,188903,128,0,189074:0:0:0:0:
64,192,189074,1,0,0:0:0:0:
448,192,189074,128,0,189760:0:0:0:0:
192,192,189760,128,0,190446:0:0:0:0:
320,192,190446,128,0,190789:0:0:0:0:
192,192,190789,128,0,191132:0:0:0:0:
64,192,191132,128,0,191817:0:0:0:0:
320,192,191817,1,0,0:0:0:0:
448,192,191817,128,0,192332:0:0:0:0:
192,192,192332,128,0,192503:0:0:0:0:
448,192,192503,128,0,192846:0:0:0:0:
64,192,192846,128,0,193189:0:0:0:0:
320,192,193189,128,0,194560:0:0:0:0:
64,192,194560,1,0,0:0:0:0:
448,192,194732,1,0,0:0:0:0:
64,192,194903,1,0,0:0:0:0:
320,192,195246,128,0,195589:0:0:0:0:
64,192,195589,1,0,0:0:0:0:
192,192,195760,1,0,0:0:0:0:
448,192,195932,1,0,0:0:0:0:
64,192,196103,1,0,0:0:0:0:
448,192,196274,1,0,0:0:0:0:
192,192,196617,128,0,196960:0:0:0:0:
448,192,196960,1,0,0:0:0:0:
320,192,197132,1,0,0:0:0:0:
64,192,197303,1,0,0:0:0:0:
192,192,197474,1,0,0:0:0:0:
320,192,197646,1,0,0:0:0:0:
448,192,197817,1,0,0:0:0:0:
64,192,197989,1,0,0:0:0:0:
192,192,198074,1,0,0:0:0:0:
320,192,198160,1,0,0:0:0:0:
64,192,198246,1,0,0:0:0:0:
448,192,198332,1,0,0:0:0:0:
320,192,198417,1,0,0:0:0:0:
192,192,198503,1,0,0:0:0:0:
448,192,198589,1,0,0:0:0:0:
64,192,198674,1,0,0:0:0:0:
192,192,199360,128,0,199703:0:0:0:0:
320,192,199703,128,0,200046:0:0:0:0:
448,192,200046,1,0,0:0:0:0:
64,192,200046,1,0,0:0:0:0:
192,192,200217,1,0,0:0:0:0:
320,192,200389,1,0,0:0:0:0:
448,192,200389,1,0,0:0:0:0:
64,192,200560,1,0,0:0:0:0:
320,192,200732,1,0,0:0:0:0:
192,192,200903,1,0,0:0:0:0:
64,192,201074,1,0,0:0:0:0:
448,192,201074,1,0,0:0:0:0:
320,192,201246,1,0,0:0:0:0:
192,192,201417,1,0,0:0:0:0:
448,192,201589,1,0,0:0:0:0:
320,192,201674,1,0,0:0:0:0:
192,192,201760,1,0,0:0:0:0:
64,192,201760,1,0,0:0:0:0:
448,192,201932,1,0,0:0:0:0:
64,192,202103,1,0,0:0:0:0:
320,192,202274,1,0,0:0:0:0:
192,192,202446,1,0,0:0:0:0:
448,192,202446,1,0,0:0:0:0:
64,192,202617,1,0,0:0:0:0:
448,192,202789,1,0,0:0:0:0:
192,192,202960,1,0,0:0:0:0:
64,192,203132,1,0,0:0:0:0:
320,192,203132,1,0,0:0:0:0:
448,192,203303,1,0,0:0:0:0:
64,192,203474,1,0,0:0:0:0:
192,192,203646,1,0,0:0:0:0:
320,192,203817,1,0,0:0:0:0:
448,192,203817,1,0,0:0:0:0:
64,192,203989,1,0,0:0:0:0:
320,192,204160,1,0,0:0:0:0:
448,192,204246,1,0,0:0:0:0:
64,192,204332,1,0,0:0:0:0:
192,192,204417,1,0,0:0:0:0:
320,192,204503,1,0,0:0:0:0:
448,192,204589,1,0,0:0:0:0:
192,192,204674,1,0,0:0:0:0:
64,192,204760,1,0,0:0:0:0:
448,192,204846,1,0,0:0:0:0:
320,192,204932,1,0,0:0:0:0:
192,192,205017,1,0,0:0:0:0:
64,192,205103,1,0,0:0:0:0:
448,192,205189,1,0,0:0:0:0:
192,192,205360,1,0,0:0:0:0:
320,192,205446,1,0,0:0:0:0:
192,192,205532,1,0,0:0:0:0:
64,192,205532,1,0,0:0:0:0:
448,192,205703,1,0,0:0:0:0:
320,192,205789,1,0,0:0:0:0:
192,192,205874,1,0,0:0:0:0:
448,192,206046,1,0,0:0:0:0:
192,192,206217,1,0,0:0:0:0:
64,192,206217,1,0,0:0:0:0:
320,192,206389,1,0,0:0:0:0:
192,192,206474,1,0,0:0:0:0:
64,192,206560,1,0,0:0:0:0:
448,192,206732,1,0,0:0:0:0:
320,192,206903,1,0,0:0:0:0:
64,192,206903,1,0,0:0:0:0:
192,192,207074,1,0,0:0:0:0:
320,192,207160,1,0,0:0:0:0:
448,192,207246,1,0,0:0:0:0:
64,192,207417,1,0,0:0:0:0:
192,192,207589,1,0,0:0:0:0:
448,192,207589,1,0,0:0:0:0:
320,192,207760,1,0,0:0:0:0:
192,192,207846,1,0,0:0:0:0:
64,192,207932,1,0,0:0:0:0:
448,192,208103,1,0,0:0:0:0:
192,192,208274,1,0,0:0:0:0:
64,192,208274,128,0,208617:0:0:0:0:
320,192,208617,1,0,0:0:0:0:
64,192,208789,1,0,0:0:0:0:
448,192,208960,128,0,209132:0:0:0:0:
192,192,209132,1,0,0:0:0:0:
320,192,209217,1,0,0:0:0:0:
448,192,209303,1,0,0:0:0:0:
64,192,209474,1,0,0:0:0:0:
192,192,209817,1,0,0:0:0:0:
448,192,209817,1,0,0:0:0:0:
320,192,209989,1,0,0:0:0:0:
64,192,209989,1,0,0:0:0:0:
192,192,210160,1,0,0:0:0:0:
448,192,210160,1,0,0:0:0:0:
320,192,210332,1,0,0:0:0:0:
64,192,210332,1,0,0:0:0:0:
192,192,210674,1,0,0:0:0:0:
320,192,210674,1,0,0:0:0:0:
64,192,210846,1,0,0:0:0:0:
320,192,211017,1,0,0:0:0:0:
448,192,211017,1,0,0:0:0:0:
64,192,211189,1,0,0:0:0:0:
192,192,211360,1,0,0:0:0:0:
448,192,211360,1,0,0:0:0:0:
320,192,211532,1,0,0:0:0:0:
64,192,211703,1,0,0:0:0:0:
448,192,211874,1,0,0:0:0:0:
320,192,212046,1,0,0:0:0:0:
192,192,212046,1,0,0:0:0:0:
64,192,212217,1,0,0:0:0:0:
448,192,212389,1,0,0:0:0:0:
192,192,212560,1,0,0:0:0:0:
320,192,212646,1,0,0:0:0:0:
448,192,212732,1,0,0:0:0:0:
64,192,212732,1,0,0:0:0:0:
192,192,212903,1,0,0:0:0:0:
320,192,213074,1,0,0:0:0:0:
64,192,213246,1,0,0:0:0:0:
192,192,213417,1,0,0:0:0:0:
448,192,213417,1,0,0:0:0:0:
320,192,213589,1,0,0:0:0:0:
192,192,213760,1,0,0:0:0:0:
64,192,213932,1,0,0:0:0:0:
320,192,214103,1,0,0:0:0:0:
448,192,214103,1,0,0:0:0:0:
64,192,214274,1,0,0:0:0:0:
192,192,214446,1,0,0:0:0:0:
448,192,214617,1,0,0:0:0:0:
320,192,214789,1,0,0:0:0:0:
64,192,214789,1,0,0:0:0:0:
192,192,214960,1,0,0:0:0:0:
448,192,215132,1,0,0:0:0:0:
320,192,215217,1,0,0:0:0:0:
64,192,215303,1,0,0:0:0:0:
192,192,215389,1,0,0:0:0:0:
448,192,215474,1,0,0:0:0:0:
320,192,215560,1,0,0:0:0:0:
192,192,215646,1,0,0:0:0:0:
64,192,215732,1,0,0:0:0:0:
320,192,215817,1,0,0:0:0:0:
192,192,215903,1,0,0:0:0:0:
192,192,216074,1,0,0:0:0:0:
320,192,216160,1,0,0:0:0:0:
64,192,216332,1,0,0:0:0:0:
192,192,216417,1,0,0:0:0:0:
320,192,216503,1,0,0:0:0:0:
448,192,216503,1,0,0:0:0:0:
64,192,216674,1,0,0:0:0:0:
192,192,216846,1,0,0:0:0:0:
320,192,216846,1,0,0:0:0:0:
448,192,217017,1,0,0:0:0:0:
64,192,217189,1,0,0:0:0:0:
320,192,217360,1,0,0:0:0:0:
192,192,217532,1,0,0:0:0:0:
448,192,217532,1,0,0:0:0:0:
64,192,217703,1,0,0:0:0:0:
320,192,217874,1,0,0:0:0:0:
192,192,218046,1,0,0:0:0:0:
448,192,218217,1,0,0:0:0:0:
64,192,218217,1,0,0:0:0:0:
320,192,218389,1,0,0:0:0:0:
64,192,218560,1,0,0:0:0:0:
192,192,218732,1,0,0:0:0:0:
320,192,218903,1,0,0:0:0:0:
448,192,218903,1,0,0:0:0:0:
192,192,219074,1,0,0:0:0:0:
64,192,219246,1,0,0:0:0:0:
448,192,219246,1,0,0:0:0:0:
320,192,219417,1,0,0:0:0:0:
192,192,219589,1,0,0:0:0:0:
64,192,219589,1,0,0:0:0:0:
448,192,219760,1,0,0:0:0:0:
192,192,219932,1,0,0:0:0:0:
320,192,220103,1,0,0:0:0:0:
448,192,220274,1,0,0:0:0:0:
64,192,220274,1,0,0:0:0:0:
192,192,220446,1,0,0:0:0:0:
320,192,220617,1,0,0:0:0:0:
64,192,220789,1,0,0:0:0:0:
192,192,220960,1,0,0:0:0:0:
320,192,220960,1,0,0:0:0:0:
448,192,221132,1,0,0:0:0:0:
192,192,221303,1,0,0:0:0:0:
320,192,221389,1,0,0:0:0:0:
320,192,221560,1,0,0:0:0:0:
192,192,221646,1,0,0:0:0:0:
448,192,221817,1,0,0:0:0:0:
320,192,221903,1,0,0:0:0:0:
192,192,221989,1,0,0:0:0:0:
64,192,221989,1,0,0:0:0:0:
320,192,222160,1,0,0:0:0:0:
192,192,222246,1,0,0:0:0:0:
64,192,222332,1,0,0:0:0:0:
320,192,222503,1,0,0:0:0:0:
64,192,222674,1,0,0:0:0:0:
448,192,222846,1,0,0:0:0:0:
320,192,222932,1,0,0:0:0:0:
192,192,223017,1,0,0:0:0:0:
448,192,223189,1,0,0:0:0:0:
64,192,223360,1,0,0:0:0:0:
320,192,223532,1,0,0:0:0:0:
192,192,223617,1,0,0:0:0:0:
64,192,223703,1,0,0:0:0:0:
320,192,223874,1,0,0:0:0:0:
64,192,224046,1,0,0:0:0:0:
448,192,224217,1,0,0:0:0:0:
320,192,224303,1,0,0:0:0:0:
192,192,224389,1,0,0:0:0:0:
448,192,224560,1,0,0:0:0:0:
64,192,224732,128,0,225417:0:0:0:0:
320,192,225417,1,0,0:0:0:0:
64,192,225589,1,0,0:0:0:0:
320,192,225760,1,0,0:0:0:0:
64,192,226103,1,0,0:0:0:0:
192,192,226189,1,0,0:0:0:0:
320,192,226274,1,0,0:0:0:0:
448,192,226360,1,0,0:0:0:0:
64,192,226446,1,0,0:0:0:0:
192,192,226532,1,0,0:0:0:0:
320,192,226617,1,0,0:0:0:0:
448,192,226703,1,0,0:0:0:0:
64,192,226960,1,0,0:0:0:0:
448,192,227132,1,0,0:0:0:0:
64,192,227474,1,0,0:0:0:0:
320,192,227474,1,0,0:0:0:0:
448,192,227646,128,0,227989:0:0:0:0:
192,192,227817,1,0,0:0:0:0:
64,192,227989,1,0,0:0:0:0:
448,192,228160,1,0,0:0:0:0:
192,192,228332,1,0,0:0:0:0:
320,192,228417,1,0,0:0:0:0:
448,192,228503,1,0,0:0:0:0:
64,192,228674,1,0,0:0:0:0:
448,192,228846,128,0,229017:0:0:0:0:
64,192,229017,128,0,229189:0:0:0:0:
320,192,229189,128,0,229360:0:0:0:0:
64,192,229360,128,0,229532:0:0:0:0:
448,192,229532,1,0,0:0:0:0:
320,192,229617,1,0,0:0:0:0:
192,192,229703,1,0,0:0:0:0:
64,192,229789,1,0,0:0:0:0:
448,192,229874,1,0,0:0:0:0:
192,192,230046,1,0,0:0:0:0:
448,192,230217,1,0,0:0:0:0:
64,192,230389,128,0,230732:0:0:0:0:
320,192,230560,1,0,0:0:0:0:
448,192,230732,1,0,0:0:0:0:
64,192,230903,1,0,0:0:0:0:
192,192,230989,1,0,0:0:0:0:
448,192,231074,1,0,0:0:0:0:
320,192,231160,1,0,0:0:0:0:
192,192,231246,1,0,0:0:0:0:
64,192,231332,1,0,0:0:0:0:
448,192,231417,1,0,0:0:0:0:
320,192,231503,1,0,0:0:0:0:
192,192,231589,1,0,0:0:0:0:
448,192,231760,1,0,0:0:0:0:
64,192,231932,1,0,0:0:0:0:
448,192,232103,1,0,0:0:0:0:
192,192,232274,1,0,0:0:0:0:
320,192,232360,1,0,0:0:0:0:
320,192,232532,1,0,0:0:0:0:
192,192,232617,1,0,0:0:0:0:
448,192,232789,1,0,0:0:0:0:
320,192,232874,1,0,0:0:0:0:
192,192,232960,1,0,0:0:0:0:
64,192,232960,1,0,0:0:0:0:
448,192,233132,128,0,233474:0:0:0:0:
192,192,233303,1,0,0:0:0:0:
320,192,233474,1,0,0:0:0:0:
64,192,233646,1,0,0:0:0:0:
320,192,233817,1,0,0:0:0:0:
192,192,233903,1,0,0:0:0:0:
64,192,233989,1,0,0:0:0:0:
448,192,234160,1,0,0:0:0:0:
192,192,234332,128,0,234503:0:0:0:0:
448,192,234503,128,0,234674:0:0:0:0:
64,192,234674,128,0,234846:0:0:0:0:
448,192,234846,128,0,235017:0:0:0:0:
64,192,235017,1,0,0:0:0:0:
192,192,235103,1,0,0:0:0:0:
320,192,235189,1,0,0:0:0:0:
448,192,235274,1,0,0:0:0:0:
64,192,235360,1,0,0:0:0:0:
320,192,235532,1,0,0:0:0:0:
64,192,235703,1,0,0:0:0:0:
448,192,235874,1,0,0:0:0:0:
320,192,235960,1,0,0:0:0:0:
192,192,236046,1,0,0:0:0:0:
448,192,236217,1,0,0:0:0:0:
64,192,236389,1,0,0:0:0:0:
320,192,236646,1,0,0:0:0:0:
192,192,236732,1,0,0:0:0:0:
448,192,236903,1,0,0:0:0:0:
64,192,237246,1,0,0:0:0:0:
192,192,237332,1,0,0:0:0:0:
320,192,237417,1,0,0:0:0:0:
64,192,237589,1,0,0:0:0:0:
448,192,237760,128,0,238103:0:0:0:0:
64,192,238103,1,0,0:0:0:0:
