osu file format v14

[General]
AudioFilename: audio.mp3
AudioLeadIn: 0
PreviewTime: 46885
Countdown: 1
SampleSet: Soft
StackLeniency: 0.7
Mode: 0
LetterboxInBreaks: 0
WidescreenStoryboard: 1

[Editor]
DistanceSpacing: 1.2
BeatDivisor: 4
GridSize: 32
TimelineZoom: 1

[Metadata]
Title:Neko to Switch
TitleUnicode:猫とスイッチ
Artist:Nanahira
ArtistUnicode:ななひら
Creator:Maruyu
Version:Nyan!
Source:
Tags:Mira-san Akitoshi Meyrink Yuzu- cat magiqute!! katahotori まじきゅ~と かたほとり cut version
BeatmapID:999724
BeatmapSetID:467222

[Difficulty]
HPDrainRate:7
CircleSize:4
OverallDifficulty:8
ApproachRate:9
SliderMultiplier:1.8
SliderTickRate:1

[Events]
//Background and Video events
0,0,"nyaaaa.jpg",0,0
//Break Periods
//Storyboard Layer 0 (Background)
//Storyboard Layer 1 (Fail)
//Storyboard Layer 2 (Pass)
//Storyboard Layer 3 (Foreground)
//Storyboard Sound Samples

[TimingPoints]
1116,384.615384615385,4,2,2,50,1,0
7269,-166.666666666667,4,2,2,50,0,0
9962,-166.666666666667,4,2,2,60,0,0
10346,-125,4,2,2,70,0,0
41116,-125,4,2,2,60,0,0
46885,-166.666666666667,4,2,2,60,0,0
47173,-166.666666666667,4,2,2,20,0,0
47269,-100,4,2,2,80,0,1
56500,-100,4,2,2,80,0,0
59192,-100,4,2,2,80,0,1
59241,-100,4,2,2,80,0,0
59577,-100,4,2,2,80,0,1
68808,-100,4,2,2,80,0,0
73423,-100,4,2,2,80,0,1
75058,-100,4,2,2,60,0,0

[Colours]
Combo1 : 255,81,81
Combo2 : 101,159,248
Combo3 : 255,143,89

[HitObjects]
70,291,1116,5,2,0:0:0:0:
158,278,1308,1,0,0:0:0:0:
246,265,1500,1,2,0:0:0:0:
259,276,1885,1,0,0:0:0:0:
272,287,2269,1,0,0:0:0:0:
184,274,2461,1,0,0:0:0:0:
96,261,2653,5,2,0:0:0:0:
442,93,4192,5,2,0:0:0:0:
334,139,4385,1,0,0:0:0:0:
428,210,4577,1,2,0:0:0:0:
422,192,4962,1,0,0:0:0:0:
416,174,5346,1,0,0:0:0:0:
327,155,5539,1,0,0:0:0:0:
238,138,5731,5,2,0:0:0:0:
238,138,7269,5,0,0:0:0:0:
238,136,7655,2,0,P|184:143|132:130,1,107.999996704102,2|0,0:0|0:0,0:0:0:0:
108,120,8423,6,0,P|103:176|109:236,1,107.999996704102,2|0,0:0|0:0,0:0:0:0:
54,316,9192,2,0,P|106:300|159:306,1,107.999996704102,2|0,0:0|0:0,0:0:0:0:
266,192,9962,1,2,0:0:0:0:
257,172,10058,1,0,0:0:0:0:
253,150,10154,1,0,0:0:0:0:
255,128,10250,1,0,0:0:0:0:
259,106,10346,6,0,L|330:111,1,72,0|0,1:0|0:0,0:0:0:0:
471,157,10731,2,0,L|400:163,1,72,8|0,0:0|0:0,0:0:0:0:
373,17,11116,2,0,L|302:23,1,72
187,100,11500,2,0,L|258:105,1,72,8|0,0:0|0:0,0:0:0:0:
445,80,11885,6,0,P|479:70|507:48,1,72,0|0,1:0|0:0,0:0:0:0:
350,59,12269,2,0,P|352:96|362:142,1,72,8|0,0:0|0:0,0:0:0:0:
273,266,12654,2,0,P|281:231|283:195,1,72
281,173,12942,1,0,0:0:0:0:
274,152,13039,1,8,0:0:0:0:
141,250,13231,1,0,0:0:0:0:
346,317,13423,6,0,P|381:318|417:312,1,72,0|0,1:0|0:0,0:0:0:0:
206,362,13808,2,0,L|278:370,1,72,8|0,0:0|0:0,0:0:0:0:
210,233,14192,2,0,P|174:225|138:225,1,72
105,368,14577,2,0,P|130:342|148:311,1,72,8|0,0:0|0:0,0:0:0:0:
162,143,14962,6,0,P|144:111|120:85,1,72,0|0,1:0|0:0,0:0:0:0:
4,170,15346,2,0,P|39:169|74:160,1,72,8|0,0:0|0:0,0:0:0:0:
323,148,15731,2,0,P|287:148|252:157,1,72
324,245,16019,1,0,0:0:0:0:
324,245,16116,2,0,L|395:251,1,72,8|0,0:0|0:0,0:0:0:0:
479,128,16404,1,0,0:0:0:0:
479,128,16500,6,0,P|444:108|389:98,1,72,4|0,1:2|0:0,0:0:0:0:
236,57,16885,1,8,0:0:0:0:
212,73,16981,1,0,0:0:0:0:
183,75,17077,1,0,0:0:0:0:
154,68,17173,1,0,0:0:0:0:
129,52,17269,1,0,0:0:0:0:
318,47,17462,2,0,L|312:82,1,36,2|0,0:0|0:0,0:0:0:0:
256,138,17654,1,8,0:0:0:0:
113,156,17846,2,0,L|118:191,1,36
174,247,18039,6,0,P|144:265|108:268,1,72,0|0,1:0|0:0,0:0:0:0:
256,138,18423,2,0,L|262:226,1,72,8|0,0:0|0:0,0:0:0:0:
260,209,18712,1,0,0:0:0:0:
260,209,18808,1,0,0:0:0:0:
311,323,19000,2,0,L|307:361,2,36,0|0|8,0:0|0:0|0:0,0:0:0:0:
388,192,19385,2,0,L|393:233,1,36,2|0,0:0|0:0,0:0:0:0:
403,242,19577,6,0,L|410:171,1,72,0|0,1:0|0:0,0:0:0:0:
196,60,19962,2,0,L|202:131,1,72,8|0,0:0|0:0,0:0:0:0:
315,106,20346,2,0,L|321:34,1,72
228,214,20731,2,0,P|183:215|154:203,1,72,8|0,0:0|0:0,0:0:0:0:
75,71,21116,5,0,1:0:0:0:
158,113,21308,1,0,0:0:0:0:
158,113,21404,1,0,0:0:0:0:
158,113,21500,1,8,0:0:0:0:
48,206,21692,1,2,0:0:0:0:
48,206,21789,1,0,0:0:0:0:
48,206,21885,1,0,0:0:0:0:
0,27,22077,5,2,0:0:0:0:
0,27,22173,1,0,0:0:0:0:
0,27,22269,1,8,0:0:0:0:
157,206,22462,2,0,L|152:256,1,36
143,323,22654,5,4,1:2:0:0:
262,140,22846,1,0,0:0:0:0:
264,168,22942,1,0,0:0:0:0:
267,197,23038,1,8,0:0:0:0:
270,225,23134,1,0,0:0:0:0:
273,254,23230,1,0,0:0:0:0:
197,83,23423,1,0,0:0:0:0:
360,158,23616,1,2,0:0:0:0:
363,187,23712,1,0,0:0:0:0:
366,215,23808,1,8,0:0:0:0:
324,79,24000,2,0,L|347:48,1,36,2|0,0:0|0:0,0:0:0:0:
439,29,24192,6,0,P|403:25|367:30,1,72,0|0,1:0|0:0,0:0:0:0:
217,130,24577,2,0,L|288:127,1,72,8|0,0:0|0:0,0:0:0:0:
252,49,24962,1,0,0:0:0:0:
158,210,25154,2,0,P|154:232|157:258,2,36,0|0|8,0:0|0:0|0:0,0:0:0:0:
84,86,25539,2,0,P|87:63|85:38,1,36,2|0,0:0|0:0,0:0:0:0:
58,65,25731,6,0,P|54:100|56:136,1,72,0|0,1:0|0:0,0:0:0:0:
218,297,26116,2,0,P|223:261|221:226,1,72,8|0,0:0|0:0,0:0:0:0:
169,41,26500,2,0,P|157:75|153:111,1,72
323,282,26885,1,8,0:0:0:0:
290,136,27077,1,0,0:0:0:0:
380,192,27269,5,0,1:0:0:0:
233,226,27461,1,0,0:0:0:0:
266,32,27654,1,8,0:0:0:0:
294,28,27750,1,0,0:0:0:0:
322,33,27846,1,0,0:0:0:0:
348,45,27942,1,0,0:0:0:0:
370,64,28038,1,2,0:0:0:0:
233,226,28231,1,2,3:2:0:0:
205,219,28327,1,0,3:2:0:0:
176,219,28423,2,0,P|147:225|128:238,1,36,8|0,3:2|3:2,3:2:0:0:
68,293,28616,1,0,3:2:0:0:
52,268,28712,1,0,3:2:0:0:
47,239,28808,6,0,P|43:202|49:165,1,72,4|0,1:2|0:0,0:0:0:0:
197,140,29192,2,0,P|205:87|198:34,1,108,8|0,0:0|0:0,0:0:0:0:
59,40,29577,2,0,P|89:59|124:65,1,72
283,55,29962,1,8,0:0:0:0:
283,55,30154,1,0,0:0:0:0:
193,218,30346,6,0,P|244:204|271:159,1,108,0|0,1:0|0:0,0:0:0:0:
343,125,30731,2,0,L|341:205,1,72,8|0,0:0|0:0,0:0:0:0:
283,55,31116,1,2,0:0:0:0:
433,104,31308,1,0,0:0:0:0:
384,254,31500,1,8,0:0:0:0:
234,205,31692,1,0,0:0:0:0:
283,54,31885,6,0,P|333:36|386:39,1,108,0|0,1:0|0:0,0:0:0:0:
504,99,32269,2,0,L|433:104,1,72,8|0,0:0|0:0,0:0:0:0:
425,112,32558,1,0,0:0:0:0:
417,120,32654,1,2,0:0:0:0:
499,20,32846,1,0,0:0:0:0:
481,185,33039,1,8,0:0:0:0:
386,39,33231,1,0,0:0:0:0:
481,185,33423,6,0,L|475:262,1,72,0|0,1:0|0:0,0:0:0:0:
347,120,33808,2,0,L|352:191,1,72,8|0,0:0|0:0,0:0:0:0:
223,187,34192,2,0,L|217:258,1,72,2|0,0:0|0:0,0:0:0:0:
260,72,34577,1,8,0:0:0:0:
141,218,34769,1,0,0:0:0:0:
260,72,34962,6,0,P|300:64|381:82,1,108,4|0,1:2|0:0,0:0:0:0:
187,115,35346,2,0,L|103:106,1,72,8|0,0:0|0:0,0:0:0:0:
4,27,35635,1,0,0:0:0:0:
4,27,35731,2,0,L|75:20,1,72
141,192,36116,1,8,0:0:0:0:
107,284,36308,1,0,0:0:0:0:
26,174,36500,6,0,P|16:135|22:94,1,72,0|0,1:0|0:0,0:0:0:0:
195,19,36885,2,8,P|204:53|201:89,1,72,8|0,0:0|0:0,0:0:0:0:
107,284,37269,2,0,L|113:213,1,72,2|0,0:0|0:0,0:0:0:0:
46,88,37654,1,8,0:0:0:0:
228,175,37846,2,0,L|275:168,1,36,2|0,0:0|0:0,0:0:0:0:
360,180,38039,6,0,P|326:169|291:166,1,72,4|0,1:2|0:0,0:0:0:0:
415,314,38423,2,0,L|420:243,1,72,8|0,0:0|0:0,0:0:0:0:
285,93,38808,2,0,L|290:165,1,72
490,142,39192,1,8,0:0:0:0:
454,40,39385,1,2,0:0:0:0:
321,261,39577,6,0,L|326:332,1,72,0|0,1:0|0:0,0:0:0:0:
389,87,39962,2,0,L|384:158,1,72,8|0,0:0|0:0,0:0:0:0:
191,261,40346,2,0,L|186:332,1,72
123,87,40731,2,0,L|128:158,1,72,8|0,0:0|0:0,0:0:0:0:
256,208,41116,5,0,3:0:0:0:
226,104,41308,1,0,0:0:0:0:
226,104,41404,1,0,0:0:0:0:
226,104,41500,1,0,3:0:0:0:
191,261,41692,1,0,0:0:0:0:
123,87,41885,1,0,3:0:0:0:
59,323,42077,1,0,0:0:0:0:
59,323,42173,1,0,0:0:0:0:
59,323,42269,5,2,3:2:0:0:
55,301,42366,1,0,3:0:0:0:
50,279,42462,1,0,3:0:0:0:
46,257,42558,1,0,3:0:0:0:
42,235,42654,5,0,3:0:0:0:
61,50,42846,2,0,P|79:47|102:47,1,36
181,89,43039,2,0,L|222:86,3,36,2|0|0|0,3:2|0:0|0:0|0:0,0:0:0:0:
279,156,43423,2,0,L|317:142,3,36,0|0|0|0,3:2|0:0|0:0|0:0,0:0:0:0:
357,60,43808,1,0,3:0:0:0:
375,81,43904,1,0,0:0:0:0:
400,96,44000,1,0,0:0:0:0:
428,101,44096,1,0,0:0:0:0:
457,97,44192,6,0,L|466:23,1,72,0|0,3:0|3:0,3:0:0:0:
389,173,44481,1,0,3:0:0:0:
388,173,44577,2,0,P|385:208|391:244,1,72,8|0,3:2|3:0,3:0:0:0:
263,350,44962,2,0,P|278:317|286:282,1,72,0|0,3:0|3:0,3:0:0:0:
286,271,45250,1,0,3:0:0:0:
284,260,45346,1,8,3:2:0:0:
436,328,45539,1,0,3:0:0:0:
384,96,45731,5,0,3:0:0:0:
399,259,45923,1,0,3:0:0:0:
405,250,46019,1,0,3:0:0:0:
412,241,46116,5,8,3:2:0:0:
383,242,46212,1,0,3:0:0:0:
354,238,46308,1,0,3:0:0:0:
328,227,46404,1,0,3:0:0:0:
305,210,46500,2,0,L|300:166,1,36,0|0,3:0|3:0,3:0:0:0:
206,80,46692,2,0,L|202:116,1,36,0|0,3:0|3:0,3:0:0:0:
220,308,46885,6,0,P|230:256|229:218,1,80.9999975280763,8|0,0:0|0:0,0:0:0:0:
125,158,47269,6,0,P|124:207|133:253,1,90,4|0,1:2|0:0,0:0:0:0:
39,348,47558,1,0,0:0:0:0:
39,348,47654,2,0,L|47:252,1,90,8|0,0:0|0:0,0:0:0:0:
27,70,48039,1,0,1:0:0:0:
125,158,48231,1,0,0:0:0:0:
141,126,48327,1,0,0:0:0:0:
151,91,48423,1,8,0:0:0:0:
152,55,48519,1,0,0:0:0:0:
145,20,48616,1,0,0:0:0:0:
247,168,48808,6,0,L|239:257,1,90,0|0,1:0|0:0,0:0:0:0:
330,124,49192,1,8,0:0:0:0:
159,143,49385,1,0,0:0:0:0:
369,41,49577,1,2,0:0:0:0:
326,206,49769,1,0,0:0:0:0:
369,41,49962,1,8,0:0:0:0:
450,192,50154,1,0,0:0:0:0:
450,192,50250,1,0,0:0:0:0:
450,192,50346,6,0,L|457:241,1,45,0|0,1:0|0:0,0:0:0:0:
389,339,50539,2,0,L|395:294,1,45
303,215,50731,2,0,P|328:209|359:209,1,45,8|0,0:0|0:0,0:0:0:0:
262,332,50923,2,0,L|256:288,1,45
146,238,51116,2,0,P|168:237|190:231,1,45,0|0,1:0|0:0,0:0:0:0:
228,116,51308,2,0,L|234:160,1,45
256,288,51500,2,0,L|262:332,1,45,8|0,0:0|0:0,0:0:0:0:
136,323,51692,1,0,0:0:0:0:
136,323,51789,1,0,0:0:0:0:
136,323,51885,6,0,P|91:318|49:301,1,90,0|0,1:0|0:0,0:0:0:0:
141,128,52269,1,8,0:0:0:0:
205,212,52462,1,0,0:0:0:0:
163,40,52654,1,2,0:0:0:0:
205,212,52846,1,0,0:0:0:0:
205,212,52942,1,0,0:0:0:0:
205,212,53039,1,8,0:0:0:0:
368,116,53231,2,0,P|368:93|368:65,1,45
341,51,53423,6,0,P|337:92|344:140,1,90,0|0,1:0|0:0,0:0:0:0:
436,184,53712,1,0,0:0:0:0:
451,162,53808,2,0,L|464:113,3,45,8|0|0|0,0:0|0:0|0:0|0:0,0:0:0:0:
405,250,54192,2,0,L|416:293,3,45,0|0|0|0,1:0|0:0|0:0|0:0,0:0:0:0:
312,192,54577,1,8,0:0:0:0:
277,181,54673,1,0,0:0:0:0:
242,181,54769,1,0,0:0:0:0:
208,194,54865,1,0,0:0:0:0:
180,216,54962,6,0,P|183:171|178:127,1,90,0|0,1:0|0:0,0:0:0:0:
173,114,55250,1,0,0:0:0:0:
167,101,55346,2,0,L|122:96,1,45,8|0,0:0|0:0,0:0:0:0:
14,153,55539,2,0,L|58:148,1,45
98,18,55731,2,0,L|53:22,1,45,2|0,0:0|0:0,0:0:0:0:
166,178,55923,2,0,L|211:173,1,45
288,33,56116,2,0,P|295:78|292:123,1,90,8|0,0:0|0:0,0:0:0:0:
373,173,56404,1,0,0:0:0:0:
373,173,56500,6,0,L|370:217,1,45,0|0,1:0|0:0,0:0:0:0:
463,114,56692,2,0,L|465:158,1,45
379,42,56885,1,12,0:0:0:0:
139,173,57269,6,0,L|142:217,1,45,0|0,1:0|0:0,0:0:0:0:
49,114,57461,2,0,L|47:158,1,45
133,42,57654,1,12,0:0:0:0:
348,244,58039,6,0,L|293:254,1,45,0|0,3:2|3:2,3:2:0:0:
164,192,58231,2,0,L|219:202,1,45,0|0,3:2|3:2,3:2:0:0:
219,352,58423,6,0,L|210:308,1,45,8|0,3:2|3:2,3:2:0:0:
292,167,58616,2,0,L|300:122,1,45,0|0,3:2|3:2,3:2:0:0:
133,42,58808,1,0,3:2:0:0:
105,65,58904,1,0,3:2:0:0:
71,72,59000,1,0,3:2:0:0:
37,61,59096,1,0,3:2:0:0:
12,35,59192,5,8,3:2:0:0:
15,80,59288,1,0,3:2:0:0:
18,125,59385,1,0,3:2:0:0:
21,170,59480,1,0,3:2:0:0:
24,215,59577,6,0,L|18:311,1,90,4|0,1:2|0:0,0:0:0:0:
142,360,59866,1,0,0:0:0:0:
143,359,59962,2,0,P|150:315|149:270,1,90,8|0,0:0|0:0,0:0:0:0:
120,97,60250,2,0,P|112:142|114:187,1,90,2|0,0:0|0:0,0:0:0:0:
230,192,60539,5,0,0:0:0:0:
263,179,60635,1,0,0:0:0:0:
299,173,60731,1,10,0:0:0:0:
334,175,60827,1,0,0:0:0:0:
368,187,60923,1,0,0:0:0:0:
399,204,61019,1,0,0:0:0:0:
423,230,61116,6,0,L|414:329,1,90,0|0,1:0|0:0,0:0:0:0:
325,259,61500,1,8,0:0:0:0:
511,192,61692,1,0,0:0:0:0:
360,65,61885,1,2,0:0:0:0:
484,170,62077,1,0,0:0:0:0:
332,226,62269,1,8,0:0:0:0:
256,93,62462,1,2,0:0:0:0:
253,79,62558,1,0,0:0:0:0:
251,65,62654,6,0,L|259:7,1,45,0|0,1:0|0:0,0:0:0:0:
158,91,62846,2,0,L|164:135,1,45
256,216,63039,1,8,0:0:0:0:
253,251,63135,1,0,0:0:0:0:
250,286,63231,1,0,0:0:0:0:
247,321,63327,1,0,0:0:0:0:
244,356,63423,6,0,L|186:361,1,45,0|0,1:0|0:0,0:0:0:0:
80,256,63616,2,0,P|103:255|125:261,1,45
121,382,63808,2,0,L|125:337,1,45,8|0,0:0|0:0,0:0:0:0:
199,241,64000,2,0,L|194:196,1,45
92,77,64192,5,0,1:0:0:0:
67,163,64385,1,0,0:0:0:0:
289,149,64577,5,8,0:0:0:0:
255,30,64770,1,0,0:0:0:0:
194,196,64962,1,2,0:0:0:0:
333,81,65155,1,0,0:0:0:0:
333,81,65250,1,0,0:0:0:0:
333,81,65346,1,8,0:0:0:0:
410,303,65539,2,0,L|416:256,1,45
479,155,65731,5,0,1:0:0:0:
479,155,65827,1,0,0:0:0:0:
479,155,65923,1,0,0:0:0:0:
256,228,66116,2,8,L|273:367,1,135,8|0,0:0|0:0,0:0:0:0:
167,298,66500,5,0,1:0:0:0:
137,280,66596,1,0,0:0:0:0:
102,275,66692,1,0,0:0:0:0:
67,283,66788,1,0,0:0:0:0:
38,304,66885,1,8,0:0:0:0:
53,272,66981,1,0,0:0:0:0:
61,237,67077,1,0,0:0:0:0:
63,201,67173,1,0,0:0:0:0:
57,165,67269,6,0,L|51:111,1,45,0|0,1:0|0:0,0:0:0:0:
164,71,67462,2,0,L|169:26,1,45
178,235,67654,2,0,L|173:191,1,45,8|0,0:0|0:0,0:0:0:0:
273,122,67846,2,0,L|278:77,1,45
287,286,68039,5,0,1:0:0:0:
298,252,68135,1,0,0:0:0:0:
321,224,68231,1,0,0:0:0:0:
353,207,68327,1,0,0:0:0:0:
389,201,68423,1,0,0:0:0:0:
421,184,68519,1,0,0:0:0:0:
444,156,68615,1,0,0:0:0:0:
455,122,68711,1,0,0:0:0:0:
453,86,68808,6,0,L|347:77,1,90,4|0,1:2|0:0,0:0:0:0:
148,78,69192,2,0,L|59:86,1,90,8|0,0:0|0:0,0:0:0:0:
164,316,69577,2,0,L|170:219,1,90
348,316,69962,2,0,L|342:219,1,90,8|0,0:0|0:0,0:0:0:0:
59,86,70346,6,0,L|64:175,1,90,0|0,1:2|0:0,0:0:0:0:
348,316,70731,2,0,L|342:219,1,90,8|0,0:0|0:0,0:0:0:0:
169,226,71116,2,0,L|164:316,1,90
447,175,71500,2,0,L|453:86,1,90,8|0,0:0|0:0,0:0:0:0:
159,133,71885,5,0,1:0:0:0:
169,167,71981,1,0,0:0:0:0:
163,202,72077,1,0,0:0:0:0:
141,230,72173,1,0,0:0:0:0:
106,239,72269,1,8,0:0:0:0:
69,240,72366,1,0,0:0:0:0:
34,251,72462,1,0,0:0:0:0:
16,282,72558,1,0,0:0:0:0:
19,317,72654,5,0,1:0:0:0:
41,345,72750,1,0,0:0:0:0:
75,353,72846,1,0,0:0:0:0:
110,356,72942,1,0,0:0:0:0:
143,343,73039,1,8,0:0:0:0:
173,323,73135,1,0,0:0:0:0:
208,317,73231,1,0,0:0:0:0:
243,318,73327,1,0,0:0:0:0:
278,324,73423,6,0,L|325:331,3,45,0|0|0|0,3:2|3:0|3:0|3:0,3:0:0:0:
355,246,73808,2,0,L|399:239,3,45,8|0|0|0,3:2|3:0|3:0|3:0,3:0:0:0:
252,159,74192,1,0,3:2:0:0:
207,164,74288,1,0,3:0:0:0:
162,169,74384,1,0,3:0:0:0:
117,174,74480,1,0,3:0:0:0:
73,179,74577,2,0,L|14:170,1,45,8|0,3:2|3:0,3:0:0:0:
228,139,74769,2,0,L|287:129,1,45,0|0,3:0|3:0,3:0:0:0:
117,46,74962,5,4,0:0:0:0:
256,192,75058,12,0,76500,3:0:0:0:
143,308,78039,5,0,3:0:0:0:
143,308,78231,1,0,3:0:0:0:
127,192,78423,5,0,3:0:0:0:
127,192,78616,1,0,3:0:0:0:
243,175,78808,5,0,3:0:0:0:
243,175,79001,1,0,3:0:0:0:
260,292,79192,5,0,3:0:0:0:
127,192,79385,1,0,3:0:0:0:
127,192,79481,1,0,3:0:0:0:
127,192,79577,1,4,3:2:0:0:
260,292,79962,5,0,3:0:0:0:
127,192,80346,5,0,3:0:0:0:
260,292,80539,5,0,3:0:0:0:
222,80,80731,1,0,3:0:0:0:
