osu file format v14

[General]
AudioFilename: audio.mp3
AudioLeadIn: 0
PreviewTime: 46653
Countdown: 0
SampleSet: Normal
StackLeniency: 0.7
Mode: 1
LetterboxInBreaks: 0
WidescreenStoryboard: 0

[Editor]
DistanceSpacing: 1
BeatDivisor: 4
GridSize: 32
TimelineZoom: 2.1

[Metadata]
Title:Neko to Switch
TitleUnicode:Neko to Switch
Artist:Nanahira
ArtistUnicode:Nanahira
Creator:Karee Pan
Version:Oni
Source:
Tags:
BeatmapID:1252332
BeatmapSetID:591838

[Difficulty]
HPDrainRate:6
CircleSize:5
OverallDifficulty:5
ApproachRate:5
SliderMultiplier:1.4
SliderTickRate:1

[Events]
//Background and Video events
0,0,"yti.jpg",0,0
//Break Periods
//Storyboard Layer 0 (Background)
//Storyboard Layer 1 (Fail)
//Storyboard Layer 2 (Pass)
//Storyboard Layer 3 (Foreground)
//Storyboard Sound Samples

[TimingPoints]
1077,384.615384615385,4,1,0,100,1,0
47230,-100,4,1,0,100,0,1
74923,-100,4,1,0,100,0,0

[HitObjects]
256,192,1077,5,12,0:0:0:0:
256,192,1269,1,8,0:0:0:0:
256,192,1461,1,0,0:0:0:0:
256,192,1846,1,0,0:0:0:0:
256,192,2230,1,0,0:0:0:0:
256,192,2423,1,0,0:0:0:0:
256,192,2615,1,8,0:0:0:0:
256,192,3384,1,0,0:0:0:0:
256,192,4153,1,8,0:0:0:0:
256,192,4346,1,0,0:0:0:0:
256,192,4538,1,0,0:0:0:0:
256,192,4923,1,0,0:0:0:0:
256,192,5307,1,0,0:0:0:0:
256,192,5500,1,8,0:0:0:0:
256,192,5692,1,8,0:0:0:0:
256,192,6461,1,8,0:0:0:0:
256,192,7230,1,8,0:0:0:0:
256,192,7615,1,0,0:0:0:0:
256,192,8000,1,8,0:0:0:0:
256,192,8384,1,0,0:0:0:0:
256,192,8769,5,8,0:0:0:0:
256,192,9153,1,0,0:0:0:0:
256,192,9538,1,8,0:0:0:0:
256,192,9923,5,0,0:0:0:0:
256,192,10019,1,0,0:0:0:0:
256,192,10115,1,0,0:0:0:0:
224,160,10211,1,0,0:0:0:0:
256,192,10307,1,8,0:0:0:0:
256,192,10692,1,0,0:0:0:0:
256,192,11077,1,8,0:0:0:0:
256,192,11461,1,0,0:0:0:0:
288,192,11653,1,8,0:0:0:0:
256,192,11846,1,8,0:0:0:0:
256,192,12230,1,0,0:0:0:0:
256,192,12615,1,8,0:0:0:0:
256,192,12903,1,0,0:0:0:0:
256,192,13000,1,8,0:0:0:0:
256,192,13192,1,0,0:0:0:0:
256,192,13384,1,8,0:0:0:0:
256,192,13769,1,0,0:0:0:0:
256,192,14153,1,8,0:0:0:0:
256,192,14538,1,0,0:0:0:0:
288,192,14730,1,8,0:0:0:0:
256,192,14923,1,8,0:0:0:0:
256,192,15307,1,0,0:0:0:0:
256,192,15692,1,8,0:0:0:0:
256,192,15980,1,0,0:0:0:0:
256,192,16077,1,8,0:0:0:0:
256,192,16269,1,0,0:0:0:0:
256,192,16461,1,12,0:0:0:0:
256,192,16653,1,8,0:0:0:0:
256,192,16846,1,8,0:0:0:0:
256,192,16942,1,8,0:0:0:0:
256,192,17038,1,0,0:0:0:0:
256,192,17230,1,0,0:0:0:0:
256,192,17423,1,8,0:0:0:0:
256,192,17519,1,0,0:0:0:0:
256,192,17615,1,8,0:0:0:0:
256,192,17807,1,0,0:0:0:0:
256,192,18000,1,8,0:0:0:0:
256,192,18192,1,8,0:0:0:0:
256,192,18384,1,8,0:0:0:0:
256,192,18577,1,8,0:0:0:0:
256,192,18673,1,8,0:0:0:0:
256,192,18769,1,0,0:0:0:0:
256,192,18961,1,8,0:0:0:0:
256,192,19057,1,0,0:0:0:0:
256,192,19153,1,8,0:0:0:0:
256,192,19346,1,0,0:0:0:0:
256,192,19442,1,0,0:0:0:0:
256,192,19538,1,8,0:0:0:0:
256,192,19730,1,0,0:0:0:0:
256,192,19923,1,8,0:0:0:0:
256,192,20307,1,0,0:0:0:0:
256,192,20500,1,8,0:0:0:0:
256,192,20692,1,8,0:0:0:0:
256,192,21077,1,0,0:0:0:0:
256,192,21269,1,0,0:0:0:0:
256,192,21365,1,0,0:0:0:0:
256,192,21461,1,8,0:0:0:0:
256,192,21653,1,8,0:0:0:0:
256,192,21750,1,0,0:0:0:0:
256,192,21846,1,8,0:0:0:0:
256,192,22038,1,8,0:0:0:0:
256,192,22134,1,0,0:0:0:0:
256,192,22230,1,8,0:0:0:0:
256,192,22423,1,0,0:0:0:0:
256,192,22519,1,0,0:0:0:0:
256,192,22615,1,8,0:0:0:0:
256,192,22807,1,0,0:0:0:0:
256,192,22903,1,0,0:0:0:0:
256,192,23000,1,0,0:0:0:0:
256,192,23192,1,0,0:0:0:0:
256,192,23384,1,8,0:0:0:0:
256,192,23577,1,8,0:0:0:0:
256,192,23673,1,0,0:0:0:0:
256,224,23769,1,8,0:0:0:0:
256,192,23961,1,0,0:0:0:0:
256,192,24057,1,0,0:0:0:0:
256,192,24153,1,8,0:0:0:0:
256,192,24346,1,8,0:0:0:0:
256,192,24538,1,0,0:0:0:0:
256,192,24730,1,0,0:0:0:0:
256,192,24827,1,8,0:0:0:0:
256,192,24923,1,8,0:0:0:0:
256,192,25115,1,0,0:0:0:0:
256,224,25211,1,0,0:0:0:0:
256,224,25307,1,8,0:0:0:0:
256,192,25500,1,0,0:0:0:0:
256,192,25692,1,8,0:0:0:0:
256,192,26077,1,8,0:0:0:0:
256,192,26461,1,0,0:0:0:0:
256,192,26846,1,0,0:0:0:0:
256,192,27230,1,8,0:0:0:0:
256,192,27423,1,0,0:0:0:0:
256,192,27519,1,0,0:0:0:0:
256,192,27615,1,8,0:0:0:0:
256,192,27807,1,0,0:0:0:0:
256,192,28000,1,8,0:0:0:0:
256,192,28192,1,0,0:0:0:0:
256,192,28288,1,0,0:0:0:0:
256,192,28384,1,8,0:0:0:0:
256,192,28577,1,8,0:0:0:0:
256,192,28673,1,8,0:0:0:0:
256,192,28769,1,8,0:0:0:0:
256,192,28961,1,0,0:0:0:0:
256,192,29153,1,0,0:0:0:0:
256,192,29442,1,0,0:0:0:0:
256,192,29538,1,8,0:0:0:0:
256,192,29730,1,8,0:0:0:0:
256,192,29923,1,0,0:0:0:0:
256,192,30115,1,0,0:0:0:0:
256,192,30307,1,8,0:0:0:0:
256,192,30500,1,0,0:0:0:0:
256,192,30692,1,0,0:0:0:0:
256,192,30980,1,0,0:0:0:0:
256,192,31077,1,8,0:0:0:0:
256,192,31269,1,0,0:0:0:0:
256,192,31461,1,8,0:0:0:0:
256,192,31653,1,0,0:0:0:0:
256,192,31846,1,8,0:0:0:0:
256,192,32038,1,0,0:0:0:0:
256,192,32230,1,0,0:0:0:0:
256,192,32519,1,0,0:0:0:0:
256,192,32615,1,8,0:0:0:0:
256,192,32807,1,8,0:0:0:0:
256,192,33000,1,0,0:0:0:0:
256,192,33192,1,0,0:0:0:0:
256,192,33384,1,8,0:0:0:0:
256,192,33769,1,0,0:0:0:0:
256,192,34153,1,8,0:0:0:0:
256,192,34346,1,8,0:0:0:0:
256,192,34442,1,0,0:0:0:0:
256,192,34538,1,8,0:0:0:0:
256,192,34730,1,0,0:0:0:0:
256,192,34923,1,8,0:0:0:0:
256,192,35115,1,0,0:0:0:0:
256,192,35307,1,8,0:0:0:0:
256,192,35596,1,0,0:0:0:0:
256,192,35692,1,8,0:0:0:0:
256,192,35884,1,8,0:0:0:0:
256,192,36077,1,8,0:0:0:0:
256,192,36269,1,0,0:0:0:0:
256,192,36461,1,0,0:0:0:0:
256,192,36846,1,8,0:0:0:0:
256,192,37230,1,8,0:0:0:0:
256,192,37423,1,0,0:0:0:0:
256,192,37615,1,8,0:0:0:0:
256,192,37711,1,8,0:0:0:0:
256,192,37807,1,0,0:0:0:0:
256,192,37903,1,0,0:0:0:0:
256,192,38000,1,8,0:0:0:0:
256,192,38192,1,8,0:0:0:0:
256,192,38384,1,0,0:0:0:0:
256,192,38577,1,8,0:0:0:0:
256,192,38673,1,8,0:0:0:0:
256,192,38769,1,8,0:0:0:0:
256,192,38961,1,8,0:0:0:0:
256,192,39153,1,0,0:0:0:0:
256,192,39346,1,8,0:0:0:0:
256,192,39442,1,0,0:0:0:0:
256,192,39538,1,8,0:0:0:0:
256,192,39923,1,8,0:0:0:0:
256,192,40307,1,0,0:0:0:0:
256,192,40692,1,0,0:0:0:0:
256,192,41077,1,0,0:0:0:0:
256,192,41269,1,0,0:0:0:0:
256,192,41365,1,0,0:0:0:0:
256,192,41461,1,8,0:0:0:0:
256,192,41653,1,0,0:0:0:0:
256,192,41846,1,8,0:0:0:0:
256,192,42038,1,0,0:0:0:0:
256,192,42134,1,8,0:0:0:0:
256,192,42230,1,8,0:0:0:0:
256,192,42615,1,8,0:0:0:0:
256,192,42807,1,0,0:0:0:0:
256,192,42903,1,0,0:0:0:0:
256,192,43000,1,8,0:0:0:0:
256,192,43192,1,0,0:0:0:0:
256,192,43384,1,8,0:0:0:0:
256,192,43480,1,0,0:0:0:0:
256,192,43577,1,8,0:0:0:0:
256,192,43673,1,8,0:0:0:0:
256,192,43769,1,0,0:0:0:0:
256,192,44153,1,0,0:0:0:0:
256,192,44346,1,0,0:0:0:0:
256,192,44442,1,0,0:0:0:0:
256,192,44538,1,8,0:0:0:0:
256,192,44730,1,0,0:0:0:0:
256,192,44923,1,8,0:0:0:0:
256,192,45115,1,0,0:0:0:0:
256,192,45211,1,8,0:0:0:0:
256,192,45307,1,8,0:0:0:0:
256,192,45692,1,8,0:0:0:0:
256,192,45884,1,8,0:0:0:0:
256,192,45980,1,0,0:0:0:0:
256,192,46077,1,8,0:0:0:0:
256,192,46269,1,0,0:0:0:0:
256,192,46365,1,8,0:0:0:0:
256,192,46461,1,8,0:0:0:0:
256,192,46653,1,0,0:0:0:0:
256,192,46846,1,8,0:0:0:0:
256,192,47230,1,12,0:0:0:0:
256,192,47423,1,0,0:0:0:0:
256,192,47615,1,8,0:0:0:0:
256,192,47711,1,8,0:0:0:0:
256,192,47807,1,0,0:0:0:0:
256,192,47903,1,0,0:0:0:0:
256,192,48000,1,8,0:0:0:0:
256,192,48192,1,0,0:0:0:0:
256,192,48384,1,8,0:0:0:0:
256,192,48480,1,0,0:0:0:0:
256,192,48577,1,0,0:0:0:0:
256,192,48673,1,0,0:0:0:0:
256,192,48769,1,8,0:0:0:0:
256,192,48961,1,0,0:0:0:0:
256,192,49153,1,0,0:0:0:0:
256,192,49346,1,8,0:0:0:0:
256,192,49538,1,8,0:0:0:0:
256,192,49730,1,0,0:0:0:0:
256,192,49923,1,0,0:0:0:0:
256,192,50115,1,0,0:0:0:0:
256,192,50307,1,8,0:0:0:0:
256,192,50403,1,8,0:0:0:0:
256,192,50500,1,0,0:0:0:0:
256,192,50596,1,0,0:0:0:0:
256,192,50692,1,8,0:0:0:0:
256,192,50884,1,0,0:0:0:0:
256,192,51077,1,8,0:0:0:0:
256,192,51269,1,0,0:0:0:0:
256,192,51461,1,8,0:0:0:0:
256,192,51558,1,0,0:0:0:0:
256,192,51653,1,8,0:0:0:0:
256,192,51750,1,0,0:0:0:0:
256,192,51846,1,0,0:0:0:0:
256,192,52038,1,8,0:0:0:0:
256,192,52230,1,0,0:0:0:0:
256,192,52423,1,8,0:0:0:0:
256,192,52615,1,8,0:0:0:0:
288,192,52807,1,0,0:0:0:0:
288,192,52903,1,0,0:0:0:0:
288,192,53000,1,8,0:0:0:0:
256,192,53192,1,8,0:0:0:0:
256,192,53288,1,0,0:0:0:0:
256,192,53384,1,8,0:0:0:0:
256,192,53577,1,8,0:0:0:0:
256,192,53769,1,8,0:0:0:0:
224,192,53865,1,8,0:0:0:0:
256,192,53961,1,0,0:0:0:0:
256,192,54057,1,0,0:0:0:0:
256,192,54153,1,8,0:0:0:0:
256,192,54346,1,8,0:0:0:0:
256,192,54538,1,0,0:0:0:0:
256,192,54730,1,0,0:0:0:0:
256,192,54827,1,0,0:0:0:0:
256,192,54923,1,8,0:0:0:0:
256,192,55115,1,8,0:0:0:0:
256,192,55307,1,0,0:0:0:0:
256,192,55403,1,0,0:0:0:0:
256,192,55500,1,8,0:0:0:0:
256,192,55596,1,0,0:0:0:0:
256,192,55692,1,8,0:0:0:0:
256,192,55884,1,8,0:0:0:0:
256,192,56077,1,0,0:0:0:0:
256,192,56269,1,8,0:0:0:0:
256,192,56461,1,0,0:0:0:0:
256,192,56557,1,0,0:0:0:0:
256,192,56653,1,0,0:0:0:0:
256,192,56846,1,12,0:0:0:0:
256,192,57038,1,0,0:0:0:0:
256,192,57230,1,0,0:0:0:0:
256,192,57327,1,0,0:0:0:0:
256,192,57423,1,0,0:0:0:0:
256,192,57615,1,12,0:0:0:0:
256,192,57807,1,0,0:0:0:0:
256,192,58000,1,0,0:0:0:0:
256,192,58192,1,0,0:0:0:0:
256,192,58288,1,0,0:0:0:0:
256,192,58384,1,8,0:0:0:0:
256,192,58577,1,8,0:0:0:0:
256,192,58769,1,0,0:0:0:0:
256,192,59153,1,12,0:0:0:0:
256,192,59538,1,4,0:0:0:0:
256,192,59730,1,0,0:0:0:0:
256,192,59827,1,0,0:0:0:0:
256,192,59923,1,8,0:0:0:0:
256,192,60115,1,0,0:0:0:0:
256,192,60211,1,8,0:0:0:0:
256,192,60307,1,8,0:0:0:0:
256,192,60500,1,0,0:0:0:0:
256,192,60692,1,8,0:0:0:0:
256,192,60788,1,8,0:0:0:0:
256,192,60884,1,0,0:0:0:0:
256,192,60980,1,0,0:0:0:0:
256,192,61077,1,8,0:0:0:0:
256,192,61269,1,0,0:0:0:0:
256,192,61461,1,0,0:0:0:0:
256,192,61653,1,8,0:0:0:0:
256,192,61846,1,8,0:0:0:0:
256,192,62038,1,0,0:0:0:0:
256,192,62230,1,0,0:0:0:0:
256,192,62423,1,0,0:0:0:0:
256,192,62519,1,0,0:0:0:0:
256,192,62615,1,8,0:0:0:0:
256,192,62711,1,8,0:0:0:0:
256,192,62807,1,0,0:0:0:0:
256,192,63000,1,8,0:0:0:0:
256,192,63192,1,0,0:0:0:0:
256,192,63288,1,0,0:0:0:0:
256,192,63384,1,8,0:0:0:0:
256,192,63577,1,0,0:0:0:0:
256,192,63769,1,8,0:0:0:0:
256,192,63865,1,0,0:0:0:0:
256,192,63961,1,8,0:0:0:0:
256,192,64057,1,8,0:0:0:0:
256,192,64153,1,0,0:0:0:0:
256,192,64346,1,0,0:0:0:0:
256,192,64538,1,8,0:0:0:0:
256,192,64730,1,8,0:0:0:0:
256,192,64923,1,8,0:0:0:0:
256,192,65115,1,0,0:0:0:0:
256,192,65211,1,0,0:0:0:0:
256,192,65307,1,8,0:0:0:0:
256,192,65500,1,0,0:0:0:0:
256,192,65692,1,8,0:0:0:0:
256,192,65788,1,0,0:0:0:0:
256,192,65884,1,8,0:0:0:0:
256,192,66077,1,8,0:0:0:0:
256,192,66269,1,0,0:0:0:0:
256,192,66461,1,8,0:0:0:0:
256,192,66557,1,8,0:0:0:0:
256,192,66653,1,0,0:0:0:0:
256,192,66750,1,0,0:0:0:0:
256,192,66846,1,8,0:0:0:0:
256,192,67038,1,8,0:0:0:0:
256,192,67230,1,0,0:0:0:0:
256,192,67326,1,0,0:0:0:0:
256,192,67422,1,8,0:0:0:0:
256,192,67519,1,0,0:0:0:0:
256,192,67615,1,8,0:0:0:0:
256,192,67807,1,8,0:0:0:0:
256,192,68000,1,8,0:0:0:0:
256,192,68192,1,0,0:0:0:0:
256,192,68384,1,8,0:0:0:0:
256,192,68480,1,8,0:0:0:0:
256,192,68577,1,0,0:0:0:0:
256,192,68673,1,0,0:0:0:0:
256,192,68769,1,8,0:0:0:0:
256,192,68961,1,0,0:0:0:0:
256,192,69153,1,8,0:0:0:0:
256,192,69346,1,0,0:0:0:0:
256,192,69538,1,8,0:0:0:0:
256,192,69730,1,0,0:0:0:0:
256,192,69923,1,8,0:0:0:0:
256,192,70115,1,0,0:0:0:0:
224,192,70211,1,0,0:0:0:0:
256,192,70307,1,0,0:0:0:0:
256,192,70500,1,0,0:0:0:0:
256,192,70692,1,8,0:0:0:0:
256,192,70884,1,0,0:0:0:0:
256,192,71077,1,8,0:0:0:0:
256,192,71269,1,0,0:0:0:0:
256,192,71461,1,8,0:0:0:0:
224,192,71653,1,0,0:0:0:0:
224,192,71750,1,0,0:0:0:0:
256,192,71846,1,0,0:0:0:0:
256,192,72038,1,0,0:0:0:0:
256,192,72134,1,0,0:0:0:0:
256,192,72230,1,8,0:0:0:0:
256,192,72423,1,0,0:0:0:0:
256,192,72519,1,8,0:0:0:0:
256,192,72615,1,8,0:0:0:0:
256,192,72807,1,0,0:0:0:0:
256,192,73000,1,8,0:0:0:0:
256,192,73096,1,8,0:0:0:0:
256,192,73192,1,0,0:0:0:0:
256,192,73288,1,0,0:0:0:0:
256,192,73384,1,8,0:0:0:0:
256,192,73769,1,8,0:0:0:0:
256,192,74153,1,8,0:0:0:0:
256,192,74538,1,0,0:0:0:0:
256,192,74923,1,8,0:0:0:0:
256,192,75115,1,0,0:0:0:0:
256,192,75211,1,0,0:0:0:0:
256,192,75307,1,8,0:0:0:0:
256,192,75500,1,0,0:0:0:0:
256,192,75692,1,8,0:0:0:0:
256,192,75884,1,0,0:0:0:0:
256,192,75980,1,0,0:0:0:0:
256,192,76077,1,8,0:0:0:0:
256,192,76269,1,0,0:0:0:0:
256,192,76461,1,8,0:0:0:0:
256,192,76653,1,8,0:0:0:0:
256,192,76750,1,0,0:0:0:0:
256,192,76846,1,8,0:0:0:0:
256,192,77038,1,0,0:0:0:0:
256,192,77230,1,8,0:0:0:0:
256,192,77423,1,0,0:0:0:0:
256,192,77615,1,8,0:0:0:0:
256,192,77711,1,8,0:0:0:0:
256,192,77807,1,0,0:0:0:0:
256,192,77903,1,0,0:0:0:0:
256,192,78000,1,8,0:0:0:0:
256,192,78192,1,0,0:0:0:0:
256,192,78288,1,0,0:0:0:0:
256,192,78384,1,8,0:0:0:0:
256,192,78577,1,0,0:0:0:0:
256,192,78769,1,8,0:0:0:0:
256,192,78961,1,0,0:0:0:0:
256,192,79057,1,0,0:0:0:0:
256,192,79153,1,8,0:0:0:0:
256,192,79250,1,8,0:0:0:0:
256,192,79346,1,0,0:0:0:0:
256,192,79538,1,12,0:0:0:0:
256,192,79923,1,4,0:0:0:0:
256,192,80307,1,12,0:0:0:0:
256,192,80500,1,0,0:0:0:0:
256,192,80692,1,0,0:0:0:0:
