osu file format v14

[General]
AudioFilename: audio.mp3
AudioLeadIn: 0
PreviewTime: 46653
Countdown: 0
SampleSet: Normal
StackLeniency: 0.7
Mode: 1
LetterboxInBreaks: 0
WidescreenStoryboard: 0

[Editor]
DistanceSpacing: 1
BeatDivisor: 2
GridSize: 32
TimelineZoom: 2.1

[Metadata]
Title:Neko to Switch
TitleUnicode:Neko to Switch
Artist:Nanahira
ArtistUnicode:Nanahira
Creator:Karee Pan
Version:Kantan
Source:
Tags:
BeatmapID:1252329
BeatmapSetID:591838

[Difficulty]
HPDrainRate:7
CircleSize:5
OverallDifficulty:3
ApproachRate:5
SliderMultiplier:1.4
SliderTickRate:1

[Events]
//Background and Video events
0,0,"yti.jpg",0,0
//Break Periods
//Storyboard Layer 0 (Background)
//Storyboard Layer 1 (Fail)
//Storyboard Layer 2 (Pass)
//Storyboard Layer 3 (Foreground)
//Storyboard Sound Samples

[TimingPoints]
1077,384.615384615385,4,1,0,100,1,0
47230,-100,4,1,0,100,0,1
68769,-100,4,1,0,100,0,0

[HitObjects]
256,192,1077,5,12,0:0:0:0:
256,192,2230,1,8,0:0:0:0:
256,192,2615,1,0,0:0:0:0:
256,192,3769,1,0,0:0:0:0:
256,192,4153,1,8,0:0:0:0:
256,192,5307,1,8,0:0:0:0:
256,192,5692,1,0,0:0:0:0:
256,192,7230,1,0,0:0:0:0:
256,192,8000,1,0,0:0:0:0:
256,192,8769,1,0,0:0:0:0:
256,192,9538,1,0,0:0:0:0:
256,192,10307,1,8,0:0:0:0:
256,192,10692,1,0,0:0:0:0:
256,192,11077,1,8,0:0:0:0:
256,192,11846,1,8,0:0:0:0:
256,192,12230,1,0,0:0:0:0:
256,192,12615,1,8,0:0:0:0:
256,192,13384,1,8,0:0:0:0:
256,192,13769,1,0,0:0:0:0:
256,192,14153,1,8,0:0:0:0:
256,192,14923,1,8,0:0:0:0:
256,192,15307,1,0,0:0:0:0:
256,192,15692,1,8,0:0:0:0:
256,192,16461,1,0,0:0:0:0:
256,192,16846,1,0,0:0:0:0:
256,192,17230,1,8,0:0:0:0:
256,192,18000,1,0,0:0:0:0:
256,192,18384,1,0,0:0:0:0:
256,192,18769,1,8,0:0:0:0:
256,192,19538,1,0,0:0:0:0:
256,192,20307,1,8,0:0:0:0:
256,192,21077,1,0,0:0:0:0:
256,192,21461,1,8,0:0:0:0:
256,192,21846,1,8,0:0:0:0:
256,192,22615,1,0,0:0:0:0:
256,192,23000,1,0,0:0:0:0:
256,192,23384,1,8,0:0:0:0:
256,192,24153,1,8,0:0:0:0:
256,192,24538,1,0,0:0:0:0:
256,192,24923,1,8,0:0:0:0:
256,192,25692,1,8,0:0:0:0:
256,192,26461,1,0,0:0:0:0:
256,192,27230,1,8,0:0:0:0:
256,192,28000,1,8,0:0:0:0:
256,192,28769,1,0,0:0:0:0:
256,192,29538,1,8,0:0:0:0:
256,192,29923,1,0,0:0:0:0:
256,192,30307,1,8,0:0:0:0:
256,192,31077,1,0,0:0:0:0:
256,192,31461,1,8,0:0:0:0:
256,192,31846,1,0,0:0:0:0:
256,192,32615,1,8,0:0:0:0:
256,192,33384,1,0,0:0:0:0:
256,192,33769,1,0,0:0:0:0:
256,192,34153,1,8,0:0:0:0:
256,192,34923,1,8,0:0:0:0:
256,192,35692,1,8,0:0:0:0:
256,192,36077,1,8,0:0:0:0:
256,192,36461,1,0,0:0:0:0:
256,192,37230,1,8,0:0:0:0:
256,192,38000,1,0,0:0:0:0:
256,192,38769,1,0,0:0:0:0:
256,192,39538,1,8,0:0:0:0:
256,192,40307,1,0,0:0:0:0:
256,192,41077,1,0,0:0:0:0:
256,192,41461,1,8,0:0:0:0:
256,192,41846,1,0,0:0:0:0:
256,192,42615,1,0,0:0:0:0:
256,192,43000,1,8,0:0:0:0:
224,192,43384,1,8,0:0:0:0:
224,160,44153,1,0,0:0:0:0:
192,192,44538,1,8,0:0:0:0:
192,192,44923,1,0,0:0:0:0:
224,160,45692,1,0,0:0:0:0:
224,160,46077,1,8,0:0:0:0:
224,160,46461,1,8,0:0:0:0:
224,160,47230,1,12,0:0:0:0:
224,160,47615,1,8,0:0:0:0:
224,160,48000,1,0,0:0:0:0:
224,160,48769,1,0,0:0:0:0:
224,160,49153,1,0,0:0:0:0:
224,160,49538,1,8,0:0:0:0:
224,160,50307,1,8,0:0:0:0:
224,160,51077,1,0,0:0:0:0:
224,160,51846,1,8,0:0:0:0:
224,160,52230,1,0,0:0:0:0:
224,160,52615,1,8,0:0:0:0:
224,160,53384,1,8,0:0:0:0:
224,160,54153,1,0,0:0:0:0:
224,160,54923,1,8,0:0:0:0:
224,160,55692,1,0,0:0:0:0:
224,160,56461,1,0,0:0:0:0:
224,160,56846,1,8,0:0:0:0:
224,160,57615,1,8,0:0:0:0:
224,160,58384,1,8,0:0:0:0:
224,160,58769,1,0,0:0:0:0:
256,160,59153,1,12,0:0:0:0:
224,160,59538,1,0,0:0:0:0:
224,160,60307,1,0,0:0:0:0:
224,160,60692,1,8,0:0:0:0:
224,160,61077,1,0,0:0:0:0:
224,160,61846,1,8,0:0:0:0:
224,160,62615,1,8,0:0:0:0:
224,160,63384,1,0,0:0:0:0:
224,160,63769,1,8,0:0:0:0:
224,160,64153,1,0,0:0:0:0:
224,160,64923,1,8,0:0:0:0:
224,160,65692,1,8,0:0:0:0:
224,160,66461,1,8,0:0:0:0:
224,160,66846,1,0,0:0:0:0:
224,160,67230,1,8,0:0:0:0:
224,160,68000,1,0,0:0:0:0:
224,160,68384,1,8,0:0:0:0:
224,160,68769,1,4,0:0:0:0:
224,160,69538,1,8,0:0:0:0:
224,160,70307,1,0,0:0:0:0:
224,160,71077,1,8,0:0:0:0:
224,160,71846,1,0,0:0:0:0:
224,160,72230,1,0,0:0:0:0:
224,160,72615,1,8,0:0:0:0:
224,160,73384,1,8,0:0:0:0:
224,160,73769,1,0,0:0:0:0:
224,160,74153,1,8,0:0:0:0:
224,160,74923,1,0,0:0:0:0:
224,160,75692,1,8,0:0:0:0:
224,160,76461,1,0,0:0:0:0:
224,160,77230,1,8,0:0:0:0:
224,160,78000,1,0,0:0:0:0:
224,160,78384,1,0,0:0:0:0:
224,160,78769,1,8,0:0:0:0:
224,160,79538,1,12,0:0:0:0:
224,160,79923,1,4,0:0:0:0:
224,160,80307,1,12,0:0:0:0:
