osu file format v14

[General]
AudioFilename: audio.mp3
AudioLeadIn: 0
PreviewTime: 56959
Countdown: 0
SampleSet: Soft
StackLeniency: 0.7
Mode: 0
LetterboxInBreaks: 0
WidescreenStoryboard: 1

[Editor]
DistanceSpacing: 1.3
BeatDivisor: 4
GridSize: 8
TimelineZoom: 1.8

[Metadata]
Title:Napolitan Napolitan
TitleUnicode:ナポリタンナポリタン
Artist:Nanahira
ArtistUnicode:ななひら
Creator:My Angel RangE
Version:Normal
Source:
Tags:
BeatmapID:1371571
BeatmapSetID:647308

[Difficulty]
HPDrainRate:4
CircleSize:3
OverallDifficulty:4
ApproachRate:5
SliderMultiplier:1.25
SliderTickRate:1

[Events]
//Background and Video events
0,0,"HTR.png",0,0
//Break Periods
//Storyboard Layer 0 (Background)
//Storyboard Layer 1 (Fail)
//Storyboard Layer 2 (Pass)
//Storyboard Layer 3 (Foreground)
//Storyboard Sound Samples

[TimingPoints]
216,394.736842105263,4,2,2,60,1,0
216,-100,4,2,2,60,0,0
6531,-100,4,2,2,60,0,0
19163,-100,4,2,2,60,0,0
31794,-100,4,2,2,60,0,0
38110,-100,4,2,2,60,0,0
50742,-100,4,2,2,60,0,0
57058,-100,4,2,2,60,0,1
68110,-100,4,2,2,60,0,0
69689,-100,4,2,2,60,0,1
82321,-100,4,2,2,60,0,0

[Colours]
Combo1 : 255,176,98
Combo2 : 236,117,19
Combo3 : 250,122,95
Combo4 : 242,24,57

[HitObjects]
41,53,6531,6,0,P|95:43|185:71,1,125
225,109,7123,1,0,0:0:0:0:
225,109,7321,2,0,P|284:118|346:93,1,125
476,1,8110,6,0,L|472:140,1,125
411,180,8702,1,0,0:0:0:0:
411,180,8900,2,0,L|417:269,1,62.5
468,303,9294,2,0,L|462:392,1,62.5
383,353,9689,6,0,P|319:337|250:360,1,125
185,327,10281,1,0,0:0:0:0:
185,327,10479,2,0,P|125:342|54:320,1,125
75,164,11268,6,0,P|127:152|198:172,1,125
251,228,11860,1,0,0:0:0:0:
251,228,12058,2,0,P|296:234|338:225,1,62.5
366,171,12452,2,0,P|401:170|439:176,1,62.5
497,215,12847,6,0,L|491:62,1,125
431,35,13439,1,0,0:0:0:0:
431,35,13637,2,0,P|361:49|292:22,1,125
150,63,14426,6,0,P|72:56|15:83,1,125
67,144,15018,1,0,0:0:0:0:
67,144,15215,2,0,L|72:229,1,62.5
6,256,15610,2,0,L|1:341,1,62.5
69,365,16005,6,0,P|144:348|204:374,1,125
258,322,16597,1,0,0:0:0:0:
258,322,16794,2,0,P|329:329|392:323,1,125
386,161,17584,6,0,P|315:154|252:160,1,125
203,215,18176,1,0,0:0:0:0:
203,215,18373,2,0,L|112:213,1,62.5
78,160,18768,2,0,P|71:125|84:84,1,62.5
126,34,19163,6,0,P|182:24|269:46,1,125
306,93,19755,1,0,0:0:0:0:
306,93,19952,2,0,P|353:94|382:85,1,62.5
422,29,20347,2,0,P|455:28|500:38,1,62.5
504,111,20742,6,0,L|495:255,1,125
492,317,21334,1,0,0:0:0:0:
492,317,21531,2,0,P|426:303|346:322,1,125
213,356,22321,6,0,P|161:368|74:338,1,125
75,271,22913,1,0,0:0:0:0:
75,271,23110,2,0,P|88:213|66:124,1,125
44,74,23702,1,0,0:0:0:0:
44,74,23900,6,0,L|130:71,1,62.5
175,29,24294,2,0,L|250:37,1,62.5
307,77,24689,2,0,L|300:225,1,125
237,253,25281,1,0,0:0:0:0:
237,253,25479,6,0,P|172:243|100:271,1,125
133,339,26071,1,0,0:0:0:0:
133,339,26268,2,0,B|162:356|162:356|270:357,1,125
332,374,26860,1,0,0:0:0:0:
332,374,27058,6,0,P|339:308|335:286,1,62.5
401,260,27452,2,0,P|397:218|406:184,1,62.5
464,147,27847,2,0,L|321:138,1,125
221,25,28637,6,0,P|215:74|222:101,1,62.5
248,161,29031,2,0,P|254:191|251:222,1,62.5
173,246,29426,2,0,P|109:236|39:264,1,125
6,321,30018,1,0,0:0:0:0:
6,321,30215,6,0,L|37:378,1,62.5
115,356,30610,2,0,P|149:345|198:355,1,62.5
253,370,31005,2,0,P|289:377|318:371,1,62.5
372,316,31400,2,0,L|365:235,1,62.5
393,177,31794,6,0,B|362:194|362:194|249:183,1,125
224,119,32387,1,0,0:0:0:0:
224,119,32584,2,0,L|75:121,1,125
7,254,33373,6,0,P|-4:316|20:386,1,125
91,353,33965,1,0,0:0:0:0:
91,353,34163,2,0,L|164:348,1,62.5
232,367,34558,2,0,P|245:321|243:283,1,62.5
189,247,34952,6,0,P|174:183|205:106,1,125
247,69,35544,1,0,0:0:0:0:
247,69,35742,2,0,L|400:64,1,125
506,156,36531,6,0,L|488:299,1,125
419,319,37123,1,0,0:0:0:0:
419,319,37321,2,0,L|342:317,1,62.5
293,368,37715,2,0,L|210:367,1,62.5
206,289,38110,6,0,P|137:285|64:316,1,125
32,365,38702,1,0,0:0:0:0:
32,365,38900,2,0,L|33:230,1,125
80,173,39492,1,0,0:0:0:0:
80,173,39689,6,0,P|136:181|168:175,1,62.5
199,123,40084,2,0,P|231:117|273:123,1,62.5
321,174,40479,2,0,B|331:210|331:210|320:315,1,125
166,249,41268,6,0,L|180:111,1,125
162,44,41860,1,0,0:0:0:0:
162,44,42058,2,0,P|101:32|29:65,1,125
7,126,42650,1,0,0:0:0:0:
7,126,42847,6,0,L|14:197,1,62.5
76,239,43242,2,0,L|66:326,1,62.5
23,368,43637,2,0,P|89:356|162:376,1,125
303,331,44426,6,0,P|363:343|425:336,1,125
484,279,45018,1,0,0:0:0:0:
484,279,45215,2,0,P|498:205|476:135,1,125
419,111,45808,1,0,0:0:0:0:
419,111,46005,6,0,L|327:109,1,62.5
282,74,46400,2,0,P|235:75|193:86,1,62.5
178,147,46794,2,0,L|171:219,1,62.5
235,260,47189,2,0,L|236:336,1,62.5
170,370,47584,6,0,P|112:380|33:360,1,125
7,296,48176,1,0,0:0:0:0:
7,296,48373,2,0,L|0:214,1,62.5
64,181,48768,2,0,L|73:100,1,62.5
41,42,49163,6,0,B|83:59|83:59|179:55,1,125
233,15,49755,1,0,0:0:0:0:
233,15,49952,2,0,P|282:21|319:14,1,62.5
370,50,50347,2,0,P|401:48|431:54,1,62.5
473,123,50742,6,0,P|486:173|463:261,1,125
326,315,51531,2,0,P|312:254|325:193,1,125
307,31,52321,5,0,0:0:0:0:
307,31,52715,1,0,0:0:0:0:
163,107,53110,2,0,L|36:108,1,125
0,266,53900,6,0,P|59:256|125:281,1,125
176,335,54492,1,0,0:0:0:0:
176,335,54689,2,0,P|231:345|307:320,1,125
362,278,55281,1,0,0:0:0:0:
362,278,55479,6,0,L|369:191,1,62.5
314,153,55873,2,0,L|306:81,1,62.5
365,33,56268,2,0,P|418:27|497:58,1,125
498,211,57058,6,0,L|348:211,1,125
326,144,57650,1,0,0:0:0:0:
326,144,57847,2,0,P|280:135|249:152,1,62.5
202,190,58242,2,0,P|195:225|210:270,1,62.5
258,307,58637,6,0,P|192:294|111:311,1,125
60,334,59229,1,0,0:0:0:0:
60,334,59426,2,0,L|48:247,1,62.5
86,198,59821,2,0,L|90:128,1,62.5
41,71,60215,6,0,B|86:87|86:87|181:75,1,125
227,23,60808,1,0,0:0:0:0:
227,23,61005,2,0,L|301:20,1,62.5
354,69,61400,2,0,P|358:111|346:147,1,62.5
287,177,61794,6,0,P|274:236|293:310,1,125
366,319,62387,1,0,0:0:0:0:
366,319,62584,2,0,L|441:315,2,62.5
308,377,63176,1,0,0:0:0:0:
308,377,63373,6,0,L|169:370,1,125
102,360,63965,1,0,0:0:0:0:
102,360,64163,2,0,P|98:307|102:278,1,62.5
166,252,64558,2,0,P|175:189|173:173,1,62.5
130,122,64952,6,0,P|197:111|249:161,1,125
298,200,65544,1,0,0:0:0:0:
298,200,65742,2,0,P|298:242|291:288,1,62.5
339,331,66137,2,0,L|421:325,1,62.5
464,274,66531,6,0,B|471:236|471:236|463:138,1,125
426,77,67123,1,0,0:0:0:0:
426,77,67321,2,0,L|350:67,1,62.5
299,20,67715,2,0,L|220:27,1,62.5
82,79,68308,6,0,L|91:165,1,62.5
160,287,68900,2,0,L|170:219,1,62.5
323,37,69689,6,0,P|387:29|445:59,1,125
478,126,70281,1,0,0:0:0:0:
478,126,70479,2,0,L|475:204,1,62.5
411,238,70873,2,0,L|414:316,1,62.5
472,356,71268,6,0,P|411:343|325:357,1,125
293,289,71860,1,0,0:0:0:0:
293,289,72058,2,0,P|242:298|209:295,1,62.5
171,352,72452,2,0,P|128:351|91:361,1,62.5
41,308,72847,6,0,P|52:248|27:166,1,125
59,107,73439,1,0,0:0:0:0:
59,107,73637,2,0,P|106:111|137:103,1,62.5
172,45,74031,2,0,P|211:36|255:44,1,62.5
288,97,74426,6,0,P|355:108|424:80,1,125
468,145,75018,1,0,0:0:0:0:
468,145,75215,2,0,P|476:182|466:223,2,62.5
501,70,75808,1,0,0:0:0:0:
445,10,76005,6,0,L|312:9,1,125
266,70,76597,1,0,0:0:0:0:
266,70,76794,2,0,P|209:68|181:58,1,62.5
145,10,77189,2,0,P|108:11|67:27,1,62.5
33,82,77584,6,0,L|40:220,1,125
17,285,78176,1,0,0:0:0:0:
17,285,78373,2,0,L|27:360,1,62.5
102,320,78768,2,0,P|138:319|174:327,1,62.5
234,363,79163,6,0,P|296:377|376:354,1,125
408,303,79755,1,0,0:0:0:0:
408,303,79952,2,0,P|401:244|412:214,1,62.5
466,192,80347,2,0,P|476:133|470:104,1,62.5
424,67,80742,6,0,L|286:63,1,125
231,17,81334,1,0,0:0:0:0:
231,17,81531,2,0,P|142:15|92:31,1,125
71,97,82123,1,0,0:0:0:0:
71,97,82321,6,0,L|76:234,1,125
42,296,82913,1,0,0:0:0:0:
42,296,83110,2,0,L|53:365,1,62.5
125,323,83505,2,0,P|171:320|200:326,1,62.5
255,366,83900,6,0,P|320:376|396:354,1,125
428,299,84492,1,0,0:0:0:0:
428,299,84689,2,0,P|429:244|419:213,1,62.5
372,177,85084,2,0,P|365:125|376:90,1,62.5
423,57,85479,6,0,P|359:75|281:58,1,125
235,20,86071,1,0,0:0:0:0:
235,20,86268,2,0,P|177:14|145:22,1,62.5
116,72,86663,2,0,P|107:110|114:148,1,62.5
177,178,87058,6,0,P|191:235|172:311,1,125
113,348,87650,1,0,0:0:0:0:
113,348,87847,2,0,P|59:348|32:338,1,62.5
5,278,88242,2,0,P|4:242|21:200,1,62.5
79,172,88637,6,0,P|94:120|71:32,1,125
154,15,89229,1,0,0:0:0:0:
154,15,89426,2,0,P|210:24|236:23,1,62.5
288,61,89821,2,0,P|344:57|368:62,1,62.5
418,101,90215,6,0,B|432:146|432:146|418:236,1,125
450,298,90808,1,0,0:0:0:0:
450,298,91005,2,0,L|376:301,1,62.5
332,360,91400,2,0,L|253:353,1,62.5
189,362,91794,6,0,P|173:295|194:221,1,125
240,181,92387,1,0,0:0:0:0:
240,181,92584,2,0,L|321:180,1,62.5
364,232,92979,2,0,L|434:235,1,62.5
470,166,93373,6,0,P|473:127|465:92,2,62.5
391,143,93965,2,0,L|312:135,2,62.5
400,61,94558,2,0,L|388:0,1,62.5
